osu file format v14

[General]
AudioFilename: audio.mp3
AudioLeadIn: 0
PreviewTime: 48410
Countdown: 0
SampleSet: Soft
StackLeniency: 0.7
Mode: 0
LetterboxInBreaks: 0
WidescreenStoryboard: 1

[Editor]
DistanceSpacing: 0.4
BeatDivisor: 4
GridSize: 32
TimelineZoom: 1.5

[Metadata]
Title:ito
TitleUnicode:絃-ito-
Artist:Emiru no Aishita Tsukiyo ni Dai San Gensou Kyoku wo
ArtistUnicode:エミルの愛した月夜に第III幻想曲を
Creator:Lasse
Version:Insane
Source:
Tags:japanese metal rock doujin Emille's Moonlight Serenade サラ Sara 荊 いばら Ibara
BeatmapID:2255707
BeatmapSetID:1077982

[Difficulty]
HPDrainRate:5
CircleSize:3.8
OverallDifficulty:7.8
ApproachRate:8.7
SliderMultiplier:2.6
SliderTickRate:1

[Events]
//Background and Video events
0,0,"bgfixed.jpg",0,0
//Break Periods
2,43388,45581
2,104148,106341
2,158631,167100
//Storyboard Layer 0 (Background)
//Storyboard Layer 1 (Fail)
//Storyboard Layer 2 (Pass)
//Storyboard Layer 3 (Foreground)
//Storyboard Layer 4 (Overlay)
//Storyboard Sound Samples

[TimingPoints]
657,379.746835443038,4,2,4,70,1,0
6732,-333.333333333333,4,2,4,70,0,0
7302,-333.333333333333,4,2,4,55,0,0
7492,-333.333333333333,4,2,4,5,0,0
8062,-333.333333333333,4,2,4,40,0,0
8251,-333.333333333333,4,2,4,70,0,0
8821,-333.333333333333,4,2,4,55,0,0
9011,-333.333333333333,4,2,4,5,0,0
9581,-333.333333333333,4,2,4,40,0,0
9770,-333.333333333333,4,2,4,70,0,0
10340,-333.333333333333,4,2,4,55,0,0
10530,-333.333333333333,4,2,4,5,0,0
11100,-333.333333333333,4,2,4,40,0,0
11289,-333.333333333333,4,2,2,60,0,0
11479,-333.333333333333,4,2,2,58,0,0
11574,-333.333333333333,4,2,2,60,0,0
11764,-333.333333333333,4,2,2,58,0,0
11859,-333.333333333333,4,2,2,60,0,0
12049,-333.333333333333,4,2,2,62,0,0
12144,-333.333333333333,4,2,2,64,0,0
12239,-333.333333333333,4,2,2,66,0,0
12334,-333.333333333333,4,2,2,68,0,0
12429,-333.333333333333,4,2,2,70,0,0
12808,-100,4,2,4,75,0,0
22492,-142.857142857143,4,2,4,75,0,0
22587,-142.857142857143,4,2,4,68,0,0
22682,-90.9090909090909,4,2,4,70,0,0
22872,-90.9090909090909,4,2,4,66,0,0
23441,-83.3333333333333,4,2,4,68,0,0
24011,-83.3333333333333,4,2,4,70,0,0
24581,-90.9090909090909,4,2,4,72,0,0
24960,-111.111111111111,4,2,4,70,0,0
26479,-200,4,2,4,50,0,0
27998,-111.111111111111,4,2,4,70,0,0
29422,-111.111111111111,4,2,4,60,0,0
29517,-200,4,2,4,50,0,0
31036,-111.111111111111,4,2,4,70,0,0
32460,-111.111111111111,4,2,4,60,0,0
32555,-200,4,2,4,50,0,0
34074,-111.111111111111,4,2,4,70,0,0
36353,-142.857142857143,4,2,4,69,0,0
36448,-111.111111111111,4,2,4,68,0,0
36543,-111.111111111111,4,2,4,67,0,0
36638,-111.111111111111,4,2,4,66,0,0
36732,-111.111111111111,4,2,4,65,0,0
36827,-111.111111111111,4,2,4,64,0,0
36922,-111.111111111111,4,2,4,63,0,0
37017,-111.111111111111,4,2,4,62,0,0
37112,-200,4,2,4,60,0,0
37492,-200,4,2,4,55,0,0
42239,-133.333333333333,4,2,4,55,0,0
42619,-133.333333333333,4,2,5,57,0,0
42808,-133.333333333333,4,2,5,54,0,0
42998,-200,4,2,5,56,0,0
43188,-250,4,2,4,48,0,0
46226,-86.9565217391304,4,2,4,68,0,0
46511,-86.9565217391304,4,2,43,5,0,0
46606,-86.9565217391304,4,2,4,70,0,0
46891,-86.9565217391304,4,2,43,5,0,0
46986,-86.9565217391304,4,2,4,72,0,0
47270,-86.9565217391304,4,2,43,5,0,0
47365,-86.9565217391304,4,2,4,74,0,0
47650,-86.9565217391304,4,2,43,5,0,0
47745,-117.647058823529,4,2,2,70,0,0
48505,-100,4,2,2,60,0,0
48694,-100,4,2,2,62,0,0
48979,-100,4,2,2,64,0,0
49264,-90.9090909090909,4,2,4,80,0,1
54581,-111.111111111111,4,2,4,80,0,1
55340,-90.9090909090909,4,2,4,80,0,1
59517,-90.9090909090909,4,2,4,75,0,1
59897,-83.3333333333333,4,2,4,80,0,1
61036,-76.9230769230769,4,2,4,80,0,1
61321,-90.9090909090909,4,2,4,80,0,0
61416,-90.9090909090909,4,2,4,80,0,1
67112,-133.333333333333,4,2,2,75,0,0
67302,-200,4,2,2,70,0,0
67492,-200,4,2,2,60,0,0
67682,-90.9090909090909,4,2,4,80,0,1
72619,-90.9090909090909,4,2,4,78,0,1
72713,-90.9090909090909,4,2,4,76,0,1
72808,-90.9090909090909,4,2,4,76,0,0
73188,-83.3333333333333,4,2,5,74,0,0
73473,-66.6666666666667,4,2,4,50,0,0
73568,-100,4,2,4,75,0,0
83251,-142.857142857143,4,2,4,75,0,0
83346,-142.857142857143,4,2,4,68,0,0
83441,-90.9090909090909,4,2,4,70,0,0
83631,-90.9090909090909,4,2,4,66,0,0
84201,-83.3333333333333,4,2,4,68,0,0
84770,-83.3333333333333,4,2,4,70,0,0
85340,-90.9090909090909,4,2,4,68,0,0
85435,-90.9090909090909,4,2,4,66,0,0
85530,-90.9090909090909,4,2,4,64,0,0
85625,-90.9090909090909,4,2,4,62,0,0
85720,-333.333333333333,4,2,2,60,0,0
86289,-333.333333333333,4,2,2,45,0,0
94834,-400,4,2,43,38,0,0
94929,-400,4,2,43,10,0,0
96353,-400,4,2,43,30,0,0
97049,-200,4,2,43,44,0,0
97112,-200,4,2,43,40,0,0
97175,-200,4,2,43,36,0,0
97872,-200,4,2,4,55,0,0
103188,-133.333333333333,4,2,4,55,0,0
103378,-200,4,2,5,57,0,0
103568,-133.333333333333,4,2,5,54,0,0
103758,-200,4,2,5,58,0,0
103948,-250,4,2,4,48,0,0
106986,-83.3333333333333,4,2,4,68,0,0
107270,-83.3333333333333,4,2,43,5,0,0
107365,-83.3333333333333,4,2,4,70,0,0
107650,-83.3333333333333,4,2,43,5,0,0
107745,-83.3333333333333,4,2,4,72,0,0
108030,-83.3333333333333,4,2,43,5,0,0
108125,-83.3333333333333,4,2,4,74,0,0
108410,-83.3333333333333,4,2,43,5,0,0
108505,-83.3333333333333,4,2,2,70,0,0
109264,-83.3333333333333,4,2,2,60,0,0
109454,-83.3333333333333,4,2,2,62,0,0
109739,-83.3333333333333,4,2,2,64,0,0
110024,-90.9090909090909,4,2,4,80,0,1
115340,-111.111111111111,4,2,4,80,0,1
116100,-90.9090909090909,4,2,4,80,0,1
120277,-90.9090909090909,4,2,4,75,0,1
120657,-83.3333333333333,4,2,4,80,0,1
121796,-76.9230769230769,4,2,4,80,0,1
122081,-90.9090909090909,4,2,4,80,0,0
122175,-90.9090909090909,4,2,4,80,0,1
127872,-133.333333333333,4,2,2,75,0,0
128062,-90.9090909090909,4,2,2,70,0,0
128251,-90.9090909090909,4,2,2,60,0,0
128441,-90.9090909090909,4,2,4,80,0,1
133378,-90.9090909090909,4,2,4,78,0,1
133473,-90.9090909090909,4,2,4,76,0,1
133948,-83.3333333333333,4,2,5,74,0,0
134233,-66.6666666666667,4,2,4,50,0,0
134327,-86.9565217391304,4,2,4,80,0,1
140403,-86.9565217391304,4,2,4,80,0,1
141163,-86.9565217391304,4,2,4,80,0,1
141922,-86.9565217391304,4,2,4,80,0,1
142682,-86.9565217391304,4,2,4,80,0,1
143062,-86.9565217391304,4,2,4,80,0,1
143441,-80.6451612903226,4,2,4,80,0,1
144581,-80.6451612903226,4,2,4,76,0,1
144960,-80.6451612903226,4,2,4,78,0,1
145530,-80.6451612903226,4,2,4,80,0,1
146100,-80.6451612903226,4,2,4,82,0,1
146194,-80.6451612903226,4,2,4,80,0,1
146289,-80.6451612903226,4,2,4,78,0,1
146384,-80.6451612903226,4,2,4,76,0,1
146479,-105.263157894737,4,2,4,74,0,0
146859,-105.263157894737,4,2,4,74,0,0
149517,-105.263157894737,4,2,4,74,0,0
149897,-105.263157894737,4,2,4,74,0,0
152555,-105.263157894737,4,2,4,74,0,0
152935,-105.263157894737,4,2,4,74,0,0
155593,-105.263157894737,4,2,4,74,0,0
155973,-105.263157894737,4,2,4,74,0,0
157112,-83.3333333333333,4,2,4,75,0,0
157207,-83.3333333333333,4,2,4,74,0,0
157302,-83.3333333333333,4,2,4,76,0,0
157397,-76.9230769230769,4,2,4,74,0,0
157492,-76.9230769230769,4,2,4,77,0,0
157587,-76.9230769230769,4,2,4,74,0,0
157682,-76.9230769230769,4,2,4,78,0,0
157777,-76.9230769230769,4,2,4,74,0,0
157872,-71.4285714285714,4,2,4,80,0,0
157967,-71.4285714285714,4,2,4,74,0,0
158631,-227.272727272727,4,2,4,52,0,0
161289,-227.272727272727,4,2,4,50,0,0
161669,-208.333333333333,4,2,5,54,0,0
162049,-208.333333333333,4,2,4,54,0,0
164327,-208.333333333333,4,2,4,50,0,0
164707,-196.078431372549,4,2,5,56,0,0
165087,-196.078431372549,4,2,4,56,0,0
167365,-196.078431372549,4,2,4,52,0,0
167745,-80,4,2,4,68,0,0
168030,-80,4,2,43,5,0,0
168125,-80,4,2,4,70,0,0
168410,-80,4,2,43,5,0,0
168505,-80,4,2,4,72,0,0
168789,-80,4,2,43,5,0,0
168884,-80,4,2,4,74,0,0
169169,-80,4,2,43,5,0,0
169264,-80,4,2,2,70,0,0
170024,-80,4,2,2,60,0,0
170213,-80,4,2,2,62,0,0
170498,-80,4,2,2,64,0,0
170783,-84.7457627118644,4,2,4,80,0,1
176100,-108.695652173913,4,2,4,80,0,1
176859,-84.7457627118644,4,2,4,80,0,1
181036,-84.7457627118644,4,2,4,75,0,1
181416,-79.3650793650794,4,2,4,80,0,1
182555,-74.6268656716418,4,2,4,80,0,1
182840,-84.7457627118644,4,2,4,80,0,0
182935,-84.7457627118644,4,2,4,80,0,1
188631,-133.333333333333,4,2,2,75,0,0
188821,-84.7457627118644,4,2,2,70,0,0
189011,-84.7457627118644,4,2,2,60,0,0
189201,-84.7457627118644,4,2,4,80,0,1
194138,-84.7457627118644,4,2,4,78,0,1
194232,-84.7457627118644,4,2,4,76,0,1
194707,-142.857142857143,4,2,5,64,0,0
194992,-142.857142857143,4,2,5,50,0,0
195087,-125,4,2,4,72,0,0
200641,-125,4,2,43,10,0,0
200783,-125,4,2,4,72,0,0
200831,-125,4,2,43,10,0,0
200973,-125,4,2,4,72,0,0
201020,-125,4,2,43,10,0,0
201163,-125,4,2,4,72,0,0
202160,-125,4,2,43,10,0,0
202302,-125,4,2,4,72,0,0
202350,-125,4,2,43,10,0,0
202492,-125,4,2,4,72,0,0
202539,-125,4,2,43,10,0,0
202682,-125,4,2,4,72,0,0
202729,-125,4,2,43,10,0,0
202872,-125,4,2,4,72,0,0
203631,-125,4,2,4,68,0,0
203821,-125,4,2,4,70,0,0
204011,-125,4,2,4,72,0,0
207239,-111.111111111111,4,2,4,74,0,0
213315,-100,4,2,4,74,0,0
216732,-100,4,2,4,76,0,0
217112,-100,4,2,4,78,0,0
217492,-90.9090909090909,4,2,4,80,0,0
217682,-90.9090909090909,4,2,4,70,0,0
219391,-100,4,2,4,75,0,0
228694,-142.857142857143,4,2,4,75,0,0
229169,-142.857142857143,4,2,4,68,0,0
229264,-100,4,2,4,70,0,0
229454,-100,4,2,4,66,0,0
229644,-125,4,2,4,66,0,0
230024,-83.3333333333333,4,2,4,74,0,0
230403,-76.9230769230769,4,2,4,76,0,0
230783,-71.4285714285714,4,2,4,78,0,0
231163,-66.6666666666667,4,2,4,80,0,0
231543,-90.9090909090909,4,2,4,78,0,0
240467,-83.3333333333333,4,2,4,78,0,0
240657,-76.9230769230769,4,2,4,78,0,0
241226,-142.857142857143,4,2,4,78,0,0
241321,-142.857142857143,4,2,4,68,0,0
241416,-76.9230769230769,4,2,4,78,0,0
241511,-76.9230769230769,4,2,4,76,0,0
241606,-76.9230769230769,4,2,4,74,0,0
241701,-76.9230769230769,4,2,4,72,0,0
241796,-76.9230769230769,4,2,4,70,0,0
242175,-76.9230769230769,4,2,4,74,0,0
242745,-76.9230769230769,4,2,4,77,0,0
243315,-66.6666666666667,4,2,4,80,0,0
243410,-66.6666666666667,4,2,4,70,0,0
243505,-66.6666666666667,4,2,4,80,0,0
243600,-66.6666666666667,4,2,4,70,0,0

[Colours]
Combo1 : 255,120,195
Combo2 : 190,180,230
Combo3 : 215,220,255
Combo4 : 140,220,255
Combo5 : 255,120,245
Combo6 : 245,175,255
Combo7 : 250,210,255
Combo8 : 120,180,255

[HitObjects]
2,73,6732,53,6,3:1:0:0:
49,194,6922,1,6,3:1:0:0:
49,194,7302,22,0,P|128:184|218:179,1,155.999995239258,2|0,0:0|0:0,0:0:0:0:
365,214,8251,69,4,3:1:0:0:
301,119,8441,1,4,3:1:0:0:
301,119,8821,102,0,P|292:192|274:278,1,155.999995239258,2|0,0:0|0:0,0:0:0:0:
185,384,9770,21,4,3:1:0:0:
120,286,9960,1,4,3:1:0:0:
120,286,10340,22,0,P|204:281|276:272,1,155.999995239258,2|0,0:0|0:0,0:0:0:0:
393,246,11289,37,12,0:0:0:0:
337,179,11479,1,8,0:3:0:0:
337,179,11574,1,8,0:0:0:0:
398,113,11764,1,8,0:3:0:0:
398,113,11859,1,8,0:0:0:0:
333,27,12049,53,0,1:0:0:0:
314,46,12144,1,0,1:0:0:0:
293,62,12239,1,0,1:0:0:0:
266,68,12334,1,0,1:0:0:0:
239,66,12429,1,8,1:3:0:0:
52,0,12808,21,6,3:2:0:0:
147,103,12998,1,10,0:0:0:0:
44,208,13188,53,2,3:0:0:0:
68,205,13283,1,0,3:0:0:0:
92,201,13378,1,8,0:0:0:0:
117,198,13473,1,0,0:0:0:0:
141,195,13568,53,2,3:0:0:0:
133,229,13663,1,0,0:0:0:0:
144,263,13758,1,8,0:0:0:0:
171,286,13853,1,0,3:0:0:0:
205,292,13948,54,0,B|252:281|252:281|277:296|277:296|353:285,1,130,2|8,0:0|0:0,0:0:0:0:
478,248,14327,53,6,3:3:0:0:
474,234,14422,1,0,0:0:0:0:
461,232,14517,1,8,0:0:0:0:
456,244,14612,1,0,0:0:0:0:
465,253,14707,53,2,3:0:0:0:
478,224,14802,1,0,3:0:0:0:
483,192,14897,1,8,0:0:0:0:
479,159,14992,1,0,0:0:0:0:
469,129,15087,53,2,3:0:0:0:
436,150,15182,1,0,0:0:0:0:
399,160,15277,1,8,0:0:0:0:
360,155,15372,1,0,3:0:0:0:
325,138,15467,54,0,L|304:58,3,65,2|0|8|0,0:0|3:0|0:0|0:0,0:0:0:0:
260,3,15846,53,6,3:1:0:0:
206,138,16036,1,10,0:0:0:0:
118,24,16226,53,2,3:0:0:0:
94,13,16321,1,0,3:0:0:0:
71,21,16416,1,8,0:0:0:0:
58,43,16511,1,0,0:0:0:0:
62,69,16606,53,2,3:0:0:0:
86,89,16701,1,0,0:0:0:0:
99,119,16796,1,8,0:0:0:0:
98,151,16891,1,0,3:0:0:0:
82,179,16986,54,0,B|53:213|53:213|87:307,1,130,2|8,0:0|0:0,0:0:0:0:
242,364,17365,22,0,L|150:384,2,86.6666666666667,6|0|0,0:3|0:0|0:0,0:0:0:0:
336,294,17745,2,0,L|428:314,2,86.6666666666667,2|0|0,3:0|0:0|0:0,0:0:0:0:
263,197,18125,53,2,3:0:0:0:
288,161,18251,1,0,0:0:0:0:
279,118,18378,1,0,0:0:0:0:
238,101,18505,53,2,0:0:0:0:
248,153,18631,1,0,0:0:0:0:
218,195,18758,1,0,0:0:0:0:
166,202,18884,22,0,B|117:190|117:190|89:203|89:203|3:184,2,130,6|8|0,3:2|0:0|3:0,0:0:0:0:
288,328,19454,1,10,0:0:0:0:
288,294,19549,1,0,0:0:0:0:
290,261,19644,1,2,3:0:0:0:
373,362,19834,1,10,0:0:0:0:
292,229,20024,1,2,0:0:0:0:
375,329,20213,1,10,0:0:0:0:
294,196,20403,54,0,P|289:158|199:127,1,130,6|8,0:1|0:0,0:0:0:0:
60,143,20783,1,2,3:0:0:0:
60,143,20878,1,0,3:0:0:0:
60,143,20973,1,8,0:0:0:0:
213,136,21163,54,0,L|348:113,1,130,2|8,3:3|0:0,0:0:0:0:
341,114,21448,1,0,3:0:0:0:
341,114,21543,1,2,0:0:0:0:
213,0,21732,21,10,0:0:0:0:
199,29,21827,1,0,0:0:0:0:
167,37,21922,1,6,3:1:0:0:
34,18,22112,53,10,0:0:0:0:
46,15,22207,1,0,0:0:0:0:
58,12,22302,1,0,3:0:0:0:
70,9,22397,1,0,3:0:0:0:
82,6,22492,1,10,0:0:0:0:
21,137,22682,54,0,B|-9:180|-9:180|27:275,1,143.000004364014,6|8,3:3|0:0,0:0:0:0:
161,298,23062,1,0,3:0:0:0:
177,290,23157,1,0,3:0:0:0:
193,282,23251,1,0,3:0:0:0:
209,275,23346,1,0,3:0:0:0:
225,267,23441,102,0,P|315:371|500:345,1,311.999990478516,14|0,3:1|3:0,0:0:0:0:
316,138,24011,2,0,P|226:242|41:216,1,311.999990478516,14|0,3:1|3:0,0:0:0:0:
0,63,24581,53,14,1:1:0:0:
34,58,24675,1,0,1:0:0:0:
69,54,24770,1,0,1:0:0:0:
105,51,24865,1,0,1:0:0:0:
139,49,24960,38,0,P|127:98|174:170,1,116.999996429443,6|8,3:1|0:0,0:0:0:0:
288,216,25340,1,2,3:0:0:0:
315,205,25435,1,0,3:0:0:0:
344,208,25530,2,0,B|397:229|397:229|459:193,1,116.999996429443,10|0,0:0|3:0,0:0:0:0:
512,68,25910,53,10,0:0:0:0:
484,79,26005,1,0,3:0:0:0:
456,87,26100,1,0,3:0:0:0:
431,71,26194,1,0,3:0:0:0:
410,50,26289,1,8,0:0:0:0:
282,15,26479,102,0,L|318:9,4,32.5,2|0|0|0|0,0:0|0:0|0:0|0:0|0:0,0:0:0:0:
227,75,27049,2,0,L|194:80,1,32.5,2|0,0:0|0:0,0:0:0:0:
300,109,27334,2,0,L|336:103,3,32.5,0|0|0|2,0:0|0:0|0:0|0:0,0:0:0:0:
509,274,27998,69,6,3:1:0:0:
424,368,28188,1,10,0:0:0:0:
415,339,28283,1,0,0:0:0:0:
407,310,28378,1,2,3:0:0:0:
302,256,28568,1,10,0:0:0:0:
320,139,28758,1,2,3:0:0:0:
436,119,28948,1,10,0:0:0:0:
436,119,29043,1,0,3:0:0:0:
436,119,29138,2,0,P|460:70|392:20,1,116.999996429443,2|10,2:0|0:0,0:0:0:0:
299,129,29517,38,0,L|221:117,2,65,2|0|0,0:0|0:0|0:0,0:0:0:0:
362,194,30087,2,0,L|440:206,2,65,2|0|0,0:0|0:0|0:0,0:0:0:0:
280,236,30657,2,0,L|202:224,1,65,2|0,0:0|0:0,0:0:0:0:
111,101,31036,69,6,3:1:0:0:
29,178,31226,1,10,0:0:0:0:
24,149,31321,1,0,0:0:0:0:
18,120,31416,1,2,3:0:0:0:
179,55,31606,2,0,P|122:62|74:31,1,116.999996429443,10|0,0:0|3:0,0:0:0:0:
246,132,31986,1,10,0:0:0:0:
246,132,32081,1,0,3:0:0:0:
246,132,32175,2,0,P|295:102|351:110,1,116.999996429443,2|10,0:0|0:0,0:0:0:0:
448,182,32555,37,2,0:0:0:0:
448,182,32745,2,0,L|460:144,2,32.5,0|0|0,0:0|0:0|0:0,0:0:0:0:
362,174,33125,2,0,L|350:101,2,65,2|0|0,0:0|0:0|0:0,0:0:0:0:
275,188,33694,2,0,L|245:131,1,65,2|0,0:0|0:0,0:0:0:0:
160,39,34074,69,6,3:1:0:0:
53,111,34264,1,10,0:0:0:0:
158,194,34454,1,2,3:0:0:0:
158,194,34549,1,0,3:0:0:0:
158,194,34644,2,0,L|289:187,1,116.999996429443,10|2,0:0|3:0,0:0:0:0:
194,293,35024,1,10,0:0:0:0:
194,293,35119,1,0,3:0:0:0:
194,293,35213,2,0,L|63:286,1,116.999996429443,2|8,0:0|0:0,0:0:0:0:
218,383,35593,21,6,3:0:0:0:
293,270,35783,1,14,0:1:0:0:
342,347,35973,1,14,0:1:0:0:
449,277,36163,69,8,0:0:0:0:
419,249,36258,1,8,0:0:0:0:
413,210,36353,2,0,P|425:182|418:120,1,90.9999972229005,0|0,1:0|1:0,0:0:0:0:
355,41,36732,85,0,1:0:0:0:
335,62,36827,1,0,1:0:0:0:
308,73,36922,1,0,1:0:0:0:
279,72,37017,1,0,1:0:0:0:
253,60,37112,86,0,P|192:27|133:30,1,130,6|0,3:2|3:0,0:0:0:0:
50,89,37682,1,0,0:0:0:0:
50,89,37777,1,0,0:0:0:0:
50,89,37872,2,0,L|64:229,1,130,2|2,3:2|3:0,0:0:0:0:
108,323,38441,1,0,0:0:0:0:
108,323,38536,1,0,0:0:0:0:
108,323,38631,2,0,P|152:302|235:301,1,130,2|2,3:2|3:0,0:0:0:0:
334,350,39201,1,0,0:0:0:0:
334,350,39296,1,0,0:0:0:0:
334,350,39391,2,0,P|378:371|461:372,1,130,2|2,3:2|3:0,0:0:0:0:
458,372,40150,54,0,L|474:219,1,130,6|2,3:2|3:0,0:0:0:0:
440,152,40720,1,0,0:0:0:0:
440,152,40815,1,0,0:0:0:0:
440,152,40910,2,0,P|398:180|304:171,1,130,2|2,3:0|3:0,0:0:0:0:
246,123,41479,1,0,0:0:0:0:
246,123,41574,1,0,0:0:0:0:
246,123,41669,2,0,P|190:90|126:95,1,130,2|2,3:0|3:0,0:0:0:0:
29,179,42239,101,0,0:0:0:0:
29,179,42334,1,0,0:0:0:0:
29,179,42429,2,0,B|36:217|36:217|34:231|34:231|45:274,1,97.50000371933,2|8,3:0|0:0,0:0:0:0:
157,384,42808,2,0,B|165:351|165:351|162:337|162:337|173:288,1,97.5,2|8,3:2|0:0,0:0:0:0:
234,166,43188,37,6,0:0:0:0:
37,167,46226,118,0,P|133:173|225:62,1,224.250004277229,6|0,3:1|0:0,0:0:0:0:
223,65,46606,2,0,P|141:116|132:260,1,224.250004277229,6|0,3:1|0:0,0:0:0:0:
132,256,46986,2,0,P|168:166|91:44,1,224.250004277229,6|0,3:1|0:0,0:0:0:0:
93,47,47365,2,0,P|116:140|250:193,1,224.250004277229,6|0,3:1|0:0,0:0:0:0:
301,169,47745,5,8,2:2:0:0:
295,156,47840,1,8,2:2:0:0:
293,142,47935,1,8,2:1:0:0:
294,129,48030,1,8,2:1:0:0:
299,116,48125,1,8,2:0:0:0:
445,0,48505,53,10,0:3:0:0:
507,98,48694,1,10,0:0:0:0:
507,98,48789,1,8,0:0:0:0:
426,197,48979,1,8,0:3:0:0:
426,197,49074,1,10,0:3:0:0:
512,330,49264,22,0,P|441:293|355:310,1,143.000004364014,6|8,3:2|0:0,0:0:0:0:
234,371,49644,1,0,3:0:0:0:
269,377,49739,1,0,3:0:0:0:
303,384,49834,1,10,0:0:0:0:
207,258,50024,2,0,P|238:200|200:118,1,143.000004364014,2|8,3:2|0:0,0:0:0:0:
161,78,50308,1,0,3:0:0:0:
161,78,50403,1,2,0:0:0:0:
282,0,50593,1,10,0:0:0:0:
376,41,50783,54,0,P|345:100|383:181,1,143.000004364014,6|8,3:3|0:0,0:0:0:0:
482,268,51163,1,2,3:0:0:0:
489,232,51258,1,0,3:0:0:0:
498,197,51353,1,8,0:0:0:0:
400,371,51543,2,0,P|380:292|300:289,1,143.000004364014,2|8,3:0|0:0,0:0:0:0:
257,293,51827,1,0,3:0:0:0:
257,293,51922,1,2,0:0:0:0:
372,170,52112,1,10,0:0:0:0:
148,44,52302,54,0,L|358:22,1,143.000004364014,6|8,3:1|0:0,0:0:0:0:
142,137,52682,1,2,3:0:0:0:
155,131,52777,1,0,3:0:0:0:
168,125,52872,2,0,L|310:111,1,143.000004364014,10|0,0:0|3:0,0:0:0:0:
455,107,53251,1,10,0:0:0:0:
421,99,53346,1,0,3:0:0:0:
400,71,53441,1,0,3:3:0:0:
401,37,53536,1,0,3:0:0:0:
422,11,53631,1,10,0:0:0:0:
512,190,53821,22,0,B|502:229|502:229|510:264|510:264|494:329,1,143.000004364014,6|8,3:1|0:0,0:0:0:0:
354,384,54201,1,2,3:0:0:0:
347,348,54296,1,0,3:0:0:0:
341,312,54391,1,8,0:0:0:0:
287,151,54581,53,2,0:0:0:0:
264,168,54675,1,0,0:0:0:0:
235,173,54770,1,8,0:0:0:0:
206,167,54865,1,0,3:0:0:0:
187,144,54960,2,0,P|197:76|168:24,1,116.999996429443,2|8,0:0|0:0,0:0:0:0:
51,171,55340,22,0,B|22:209|22:209|44:321,1,143.000004364014,6|8,3:2|0:0,0:0:0:0:
174,384,55720,1,2,3:0:0:0:
182,356,55815,1,0,3:0:0:0:
195,330,55910,2,0,B|246:318|246:318|283:344|283:344|362:336,1,143.000004364014,10|0,0:0|3:0,0:0:0:0:
484,310,56289,1,10,0:0:0:0:
453,313,56384,1,0,3:0:0:0:
426,300,56479,1,0,3:0:0:0:
409,276,56574,1,0,3:0:0:0:
407,246,56669,1,10,0:0:0:0:
474,114,56859,54,0,B|524:86|500:27|500:27|431:10,1,143.000004364014,6|8,3:0|0:0,0:0:0:0:
331,83,57239,1,2,3:0:0:0:
366,79,57334,1,0,3:0:0:0:
401,76,57429,1,8,0:0:0:0:
272,143,57619,2,0,B|231:133|231:133|207:74|257:46,1,143.000004364014,2|8,3:0|0:0,0:0:0:0:
299,53,57903,1,0,3:0:0:0:
331,83,57998,2,0,L|304:233,1,143.000004364014,2|8,0:0|0:0,0:0:0:0:
226,359,58378,85,6,3:1:0:0:
188,241,58568,1,8,0:0:0:0:
105,333,58758,1,0,3:0:0:0:
118,329,58853,1,0,3:0:0:0:
131,325,58948,1,8,0:0:0:0:
122,166,59138,53,2,3:0:0:0:
0,234,59327,1,8,0:0:0:0:
2,94,59517,1,0,3:0:0:0:
6,102,59612,1,0,3:0:0:0:
14,109,59707,1,0,3:0:0:0:
23,111,59802,1,0,3:0:0:0:
33,109,59897,38,0,P|139:64|398:75,1,311.999990478516,14|0,3:1|3:0,0:0:0:0:
481,235,60467,54,0,P|448:212|414:194,1,77.999997619629,10|0,3:1|3:0,0:0:0:0:
343,167,60657,2,0,P|239:150|167:156,1,155.999995239258,2|0,3:1|3:0,0:0:0:0:
7,258,61036,54,0,L|90:254,1,84.4999961318971,10|0,3:1|3:2,0:0:0:0:
93,246,61226,2,0,L|10:266,1,84.4999961318971,10|0,3:1|3:2,0:0:0:0:
179,304,61416,102,0,P|189:370|257:380,1,143.000004364014,6|8,3:2|0:0,0:0:0:0:
384,289,61796,1,0,3:0:0:0:
370,255,61891,1,0,3:0:0:0:
357,221,61986,1,10,0:0:0:0:
490,154,62175,2,0,P|480:88|412:78,1,143.000004364014,2|8,3:2|0:0,0:0:0:0:
348,120,62460,1,0,3:0:0:0:
348,120,62555,1,2,0:0:0:0:
217,19,62745,1,10,0:0:0:0:
141,79,62935,54,0,P|74:68|64:2,1,143.000004364014,6|8,3:0|0:0,0:0:0:0:
85,159,63315,1,2,3:0:0:0:
52,173,63410,1,0,3:0:0:0:
18,186,63505,1,8,0:0:0:0:
96,310,63694,2,0,P|107:243|173:233,1,143.000004364014,2|8,3:0|0:0,0:0:0:0:
249,260,63979,1,0,3:0:0:0:
249,260,64074,1,2,0:0:0:0:
321,382,64264,1,10,0:0:0:0:
471,275,64454,54,0,B|463:231|463:231|471:196|471:196|457:135,1,143.000004364014,6|8,3:1|0:0,0:0:0:0:
359,269,64834,1,2,3:0:0:0:
372,273,64929,1,0,3:0:0:0:
385,276,65024,2,0,B|377:232|377:232|385:197|385:197|371:136,1,143.000004364014,10|0,0:0|3:0,0:0:0:0:
267,14,65403,1,10,0:0:0:0:
270,48,65498,1,0,3:0:0:0:
252,79,65593,1,0,3:0:0:0:
220,92,65688,1,0,3:0:0:0:
186,83,65783,1,10,0:0:0:0:
74,0,65973,21,6,3:1:0:0:
21,113,66163,1,0,3:0:0:0:
25,99,66258,1,0,3:0:0:0:
30,85,66353,1,0,3:0:0:0:
152,212,66543,1,0,3:0:0:0:
148,198,66638,1,0,3:0:0:0:
144,184,66732,69,0,1:0:0:0:
95,169,66827,1,0,1:0:0:0:
56,200,66922,1,0,1:0:0:0:
62,249,67017,1,0,1:0:0:0:
106,271,67112,54,0,P|189:270|320:292,1,195.00000743866,10|8,3:1|3:1,0:0:0:0:
299,286,67682,69,12,0:0:0:0:
438,384,67872,1,2,3:0:0:0:
432,348,67967,1,0,3:0:0:0:
450,317,68062,2,0,P|482:260|452:176,1,143.000004364014,8|0,0:0|3:0,0:0:0:0:
368,63,68441,1,10,0:0:0:0:
344,90,68536,1,0,3:0:0:0:
308,92,68631,1,2,0:0:0:0:
434,2,68821,1,10,0:0:0:0:
276,74,69011,54,0,P|213:37|141:46,1,143.000004364014,6|8,3:0|0:0,0:0:0:0:
31,169,69391,1,2,3:0:0:0:
63,155,69486,1,0,3:0:0:0:
96,141,69581,1,8,0:0:0:0:
209,277,69770,2,0,L|191:122,1,143.000004364014,2|8,3:0|0:0,0:0:0:0:
193,135,70055,1,0,3:0:0:0:
193,135,70150,1,2,0:0:0:0:
97,236,70340,1,10,0:0:0:0:
314,315,70530,85,6,3:1:0:0:
76,357,70720,1,8,0:0:0:0:
200,142,70910,1,0,3:0:0:0:
200,156,71005,1,0,3:0:0:0:
199,170,71100,1,8,0:0:0:0:
66,93,71289,53,6,3:1:0:0:
297,48,71479,1,8,0:0:0:0:
297,48,71574,1,8,0:3:0:0:
141,3,71764,1,8,0:3:0:0:
141,3,71859,1,8,0:0:0:0:
297,184,72049,37,2,1:0:0:0:
384,0,72239,1,0,1:0:0:0:
441,201,72429,1,0,1:0:0:0:
490,89,72619,53,2,1:0:0:0:
440,91,72713,1,2,1:0:0:0:
390,95,72808,1,8,1:3:0:0:
512,297,73188,86,0,L|232:257,1,233.999992858887,10|0,3:2|0:0,0:0:0:0:
232,203,73568,69,6,3:2:0:0:
171,360,73758,1,10,0:0:0:0:
61,270,73948,53,2,3:0:0:0:
81,267,74043,1,0,3:0:0:0:
101,264,74138,1,8,0:0:0:0:
121,261,74232,1,0,0:0:0:0:
142,259,74327,53,2,3:0:0:0:
124,231,74422,1,0,0:0:0:0:
118,199,74517,1,8,0:0:0:0:
124,168,74612,1,0,3:0:0:0:
141,140,74707,54,0,P|165:102|111:21,1,130,2|8,0:0|0:0,0:0:0:0:
0,135,75087,53,6,3:3:0:0:
5,146,75182,1,0,0:0:0:0:
7,158,75277,1,8,0:0:0:0:
13,169,75372,1,0,0:0:0:0:
13,182,75467,53,2,3:0:0:0:
13,214,75562,1,0,3:0:0:0:
22,245,75657,1,8,0:0:0:0:
17,277,75751,1,0,0:0:0:0:
30,306,75846,53,2,3:0:0:0:
64,287,75941,1,0,0:0:0:0:
102,283,76036,1,8,0:0:0:0:
140,289,76131,1,0,3:0:0:0:
175,304,76226,54,0,P|209:316|252:292,3,65,2|0|8|0,0:0|3:0|0:0|0:0,0:0:0:0:
296,243,76606,53,6,3:1:0:0:
389,384,76796,1,10,0:0:0:0:
507,290,76986,53,2,3:0:0:0:
481,286,77081,1,0,3:0:0:0:
455,282,77175,1,8,0:0:0:0:
429,279,77270,1,0,0:0:0:0:
403,275,77365,53,2,3:0:0:0:
423,241,77460,1,0,0:0:0:0:
443,207,77555,1,8,0:0:0:0:
463,173,77650,1,0,3:0:0:0:
483,139,77745,54,0,B|510:80|510:80|449:10,1,130,2|8,0:0|0:0,0:0:0:0:
315,17,78125,21,6,0:3:0:0:
327,57,78251,1,0,0:0:0:0:
307,94,78378,1,0,0:0:0:0:
264,97,78505,53,2,3:0:0:0:
287,52,78631,1,0,0:0:0:0:
272,4,78758,1,0,0:0:0:0:
229,14,78884,53,2,3:0:0:0:
242,54,79011,1,0,0:0:0:0:
222,91,79138,1,0,0:0:0:0:
179,94,79264,53,2,0:0:0:0:
201,49,79391,1,0,0:0:0:0:
186,1,79517,1,0,0:0:0:0:
142,0,79644,86,0,B|93:16|93:16|76:39|76:39|28:52,2,130,6|8|0,3:2|0:0|3:0,0:0:0:0:
237,137,80213,1,10,0:0:0:0:
204,131,80308,1,0,0:0:0:0:
171,125,80403,1,2,3:0:0:0:
297,73,80593,1,10,0:0:0:0:
138,119,80783,1,2,0:0:0:0:
219,223,80973,1,10,0:0:0:0:
92,314,81163,54,0,L|80:170,1,130,6|8,0:1|0:0,0:0:0:0:
76,67,81543,1,2,3:0:0:0:
76,67,81638,1,0,3:0:0:0:
76,67,81732,1,8,0:0:0:0:
238,109,81922,54,0,P|297:116|369:71,1,130,2|8,3:3|0:0,0:0:0:0:
358,85,82207,1,0,3:0:0:0:
358,85,82302,1,2,0:0:0:0:
481,0,82492,21,10,0:0:0:0:
453,16,82587,1,0,0:0:0:0:
449,49,82682,1,6,3:1:0:0:
512,161,82872,53,10,0:0:0:0:
500,158,82967,1,0,0:0:0:0:
488,155,83062,1,0,3:0:0:0:
476,152,83157,1,0,3:0:0:0:
464,149,83251,1,10,0:0:0:0:
484,263,83441,54,0,B|448:232|448:232|401:255|327:235,1,143.000004364014,6|8,3:3|0:0,0:0:0:0:
245,132,83821,1,0,3:0:0:0:
242,114,83916,1,0,3:0:0:0:
240,96,84011,1,0,3:0:0:0:
238,79,84106,1,0,3:0:0:0:
236,61,84201,102,0,P|103:60|104:222,1,311.999990478516,14|0,3:1|3:0,0:0:0:0:
325,153,84770,2,0,P|467:160|470:302,1,311.999990478516,14|0,3:1|3:0,0:0:0:0:
286,384,85340,53,14,1:1:0:0:
281,348,85435,1,0,1:0:0:0:
277,313,85530,1,0,1:0:0:0:
272,277,85625,1,0,1:0:0:0:
268,242,85720,1,6,0:2:0:0:
115,317,86289,21,8,0:1:0:0:
115,317,86479,2,0,L|23:309,1,77.999997619629,8|8,0:0|0:1,0:0:0:0:
0,129,87619,53,8,0:1:0:0:
0,129,87998,1,8,0:0:0:0:
42,194,88188,1,8,0:1:0:0:
199,28,88758,53,10,2:1:0:0:
319,124,89327,53,8,0:1:0:0:
319,124,89517,2,0,L|327:32,1,77.999997619629,8|8,0:0|0:1,0:0:0:0:
512,189,90657,53,8,0:1:0:0:
512,189,91036,1,8,0:0:0:0:
439,155,91226,1,8,0:1:0:0:
279,225,91796,53,10,0:1:0:0:
365,329,92365,53,8,0:1:0:0:
365,329,92555,2,0,L|454:324,1,77.999997619629,8|8,0:0|0:1,0:0:0:0:
315,128,93694,53,8,0:1:0:0:
315,128,94074,1,8,0:0:0:0:
241,159,94264,1,8,0:1:0:0:
67,262,94834,38,0,B|120:267|138:201|90:176|90:176|42:152|60:86|114:92,1,260,8|6,0:3|0:2,0:0:0:0:
329,70,97049,38,0,L|362:81,2,21.6666666666667,2|2|2,0:2|0:0|0:0,0:0:0:0:
329,70,97872,22,0,B|293:57|281:29|281:29|244:15|209:40,1,130,6|0,3:2|3:0,0:0:0:0:
170,130,98441,1,0,0:0:0:0:
170,130,98536,1,0,0:0:0:0:
170,130,98631,2,0,P|196:178|180:262,1,130,2|2,3:2|3:0,0:0:0:0:
106,316,99201,1,0,0:0:0:0:
106,316,99296,1,0,0:0:0:0:
106,316,99391,2,0,P|80:268|96:184,1,130,2|2,3:2|3:0,0:0:0:0:
177,137,99960,1,0,0:0:0:0:
177,137,100055,1,0,0:0:0:0:
177,137,100150,2,0,P|249:144|308:98,1,130,2|2,3:2|3:0,0:0:0:0:
296,115,100910,54,0,P|281:176|313:239,1,130,6|2,3:2|3:0,0:0:0:0:
418,260,101479,1,0,0:0:0:0:
418,260,101574,1,0,0:0:0:0:
418,260,101669,2,0,P|459:211|459:147,1,130,2|2,3:0|3:0,0:0:0:0:
393,79,102239,1,0,0:0:0:0:
393,79,102334,1,0,0:0:0:0:
393,79,102429,2,0,L|242:61,1,130,2|2,3:0|3:0,0:0:0:0:
164,115,102998,101,0,0:0:0:0:
164,115,103093,1,0,0:0:0:0:
164,115,103188,2,0,B|155:79|155:79|159:63|159:63|148:20,1,97.5,2|8,3:0|0:0,0:0:0:0:
44,145,103568,2,0,B|53:109|53:109|49:93|49:93|60:50,1,97.5,2|8,3:2|0:0,0:0:0:0:
141,206,103948,37,6,0:0:0:0:
299,190,106986,118,0,P|411:212|512:157,1,233.999992858887,6|0,3:1|0:0,0:0:0:0:
512,141,107365,2,0,P|410:195|298:173,1,233.999992858887,6|0,3:1|0:0,0:0:0:0:
297,156,107745,2,0,P|409:178|511:124,1,233.999992858887,6|0,3:1|0:0,0:0:0:0:
509,106,108125,2,0,P|408:160|296:139,1,233.999992858887,6|0,3:1|0:0,0:0:0:0:
240,83,108505,5,8,2:2:0:0:
248,65,108600,1,8,2:2:0:0:
251,46,108694,1,8,2:1:0:0:
248,27,108789,1,8,2:1:0:0:
240,9,108884,1,8,2:0:0:0:
0,160,109264,53,10,0:3:0:0:
120,99,109454,1,10,0:0:0:0:
120,99,109549,1,8,0:0:0:0:
184,232,109739,1,8,0:3:0:0:
184,232,109834,1,10,0:3:0:0:
327,140,110024,22,0,P|333:68|404:55,1,143.000004364014,6|8,3:2|0:0,0:0:0:0:
502,167,110403,1,0,3:0:0:0:
466,161,110498,1,0,3:0:0:0:
430,157,110593,1,10,0:0:0:0:
328,264,110783,2,0,L|485:245,1,143.000004364014,2|8,3:2|0:0,0:0:0:0:
470,247,111068,1,0,3:0:0:0:
470,247,111163,1,2,0:0:0:0:
376,370,111353,1,10,0:0:0:0:
312,283,111543,54,0,P|306:211|235:198,1,143.000004364014,6|8,3:3|0:0,0:0:0:0:
144,328,111922,1,2,3:0:0:0:
179,322,112017,1,0,3:0:0:0:
214,316,112112,1,8,0:0:0:0:
107,218,112302,2,0,L|128:65,1,143.000004364014,2|8,3:0|0:0,0:0:0:0:
141,0,112587,1,0,3:0:0:0:
141,0,112682,1,2,0:0:0:0:
41,84,112872,1,10,0:0:0:0:
203,155,113062,54,0,B|287:140|253:200|334:192,1,143.000004364014,6|8,3:1|0:0,0:0:0:0:
467,118,113441,1,2,3:0:0:0:
452,120,113536,1,0,3:0:0:0:
437,120,113631,2,0,P|399:86|445:5,1,143.000004364014,10|0,0:0|3:0,0:0:0:0:
512,184,114011,1,10,0:0:0:0:
504,218,114106,1,0,3:0:0:0:
478,242,114201,1,0,3:3:0:0:
444,247,114296,1,0,3:0:0:0:
412,231,114391,1,10,0:0:0:0:
321,91,114581,22,0,B|375:82|375:82|402:95|402:95|464:87,1,143.000004364014,6|8,3:1|0:0,0:0:0:0:
333,206,114960,1,2,3:0:0:0:
303,185,115055,1,0,3:0:0:0:
266,180,115150,1,8,0:0:0:0:
157,246,115340,53,2,0:0:0:0:
130,256,115435,1,0,0:0:0:0:
101,253,115530,1,8,0:0:0:0:
74,240,115625,1,0,3:0:0:0:
62,213,115720,2,0,L|80:70,1,116.999996429443,2|8,0:0|0:0,0:0:0:0:
217,5,116100,22,0,B|302:7|249:73|338:76,1,143.000004364014,6|8,3:2|0:0,0:0:0:0:
504,61,116479,1,2,3:0:0:0:
476,54,116574,1,0,3:0:0:0:
447,49,116669,2,0,B|408:69|408:69|429:165,1,143.000004364014,10|0,0:0|3:0,0:0:0:0:
512,299,117049,1,10,0:0:0:0:
511,267,117144,1,0,3:0:0:0:
494,243,117239,1,0,3:0:0:0:
465,234,117334,1,0,3:0:0:0:
436,242,117429,1,10,0:0:0:0:
301,358,117619,54,0,B|358:351|358:351|386:368|386:368|438:360,1,143.000004364014,6|8,3:0|0:0,0:0:0:0:
301,260,117998,1,2,3:0:0:0:
289,226,118093,1,0,3:0:0:0:
277,192,118188,1,8,0:0:0:0:
179,312,118378,2,0,B|122:305|122:305|94:322|94:322|41:314,1,143.000004364014,2|8,3:0|0:0,0:0:0:0:
18,278,118663,1,0,3:0:0:0:
5,236,118758,2,0,L|29:86,1,143.000004364014,2|8,0:0|0:0,0:0:0:0:
154,0,119138,85,6,3:1:0:0:
192,118,119327,1,8,0:0:0:0:
275,26,119517,1,0,3:0:0:0:
262,30,119612,1,0,3:0:0:0:
249,34,119707,1,8,0:0:0:0:
324,170,119897,53,2,3:0:0:0:
419,46,120087,1,8,0:0:0:0:
477,190,120277,1,0,3:0:0:0:
470,179,120372,1,0,3:0:0:0:
463,170,120467,1,0,3:0:0:0:
453,163,120562,1,0,3:0:0:0:
443,157,120657,38,0,B|408:155|376:129|376:129|360:184|321:211|321:211|347:290|319:363,1,311.999990478516,14|0,3:1|3:0,0:0:0:0:
105,384,121226,54,0,P|93:346|92:307,1,77.999997619629,10|0,3:1|3:0,0:0:0:0:
50,241,121416,2,0,P|66:159|115:82,1,155.999995239258,2|0,3:1|3:0,0:0:0:0:
283,16,121796,54,0,L|365:27,1,84.4999961318971,10|0,3:1|3:2,0:0:0:0:
368,20,121986,2,0,L|282:23,1,84.4999961318971,10|0,3:1|3:2,0:0:0:0:
441,78,122175,102,0,P|498:89|494:185,1,143.000004364014,6|8,3:2|0:0,0:0:0:0:
414,278,122555,1,0,3:0:0:0:
400,244,122650,1,0,3:0:0:0:
387,210,122745,1,10,0:0:0:0:
292,338,122935,2,0,L|303:176,1,143.000004364014,2|8,3:2|0:0,0:0:0:0:
307,120,123220,1,0,3:0:0:0:
307,120,123315,1,2,0:0:0:0:
214,231,123505,1,10,0:0:0:0:
150,154,123694,54,0,P|143:86|78:68,1,143.000004364014,6|8,3:0|0:0,0:0:0:0:
0,211,124074,1,2,3:0:0:0:
35,206,124169,1,0,3:0:0:0:
70,202,124264,1,8,0:0:0:0:
206,257,124454,2,0,P|212:324|277:342,1,143.000004364014,2|8,3:0|0:0,0:0:0:0:
357,328,124739,1,0,3:0:0:0:
357,328,124834,1,2,0:0:0:0:
271,199,125024,1,10,0:0:0:0:
452,202,125213,54,0,B|491:172|491:172|466:62,1,143.000004364014,6|8,3:1|0:0,0:0:0:0:
343,0,125593,1,2,3:0:0:0:
336,12,125688,1,0,3:0:0:0:
328,23,125783,2,0,B|290:58|290:58|192:34,1,143.000004364014,10|0,0:0|3:0,0:0:0:0:
62,27,126163,1,10,0:0:0:0:
94,25,126258,1,0,3:0:0:0:
123,45,126353,1,0,3:0:0:0:
134,78,126448,1,0,3:0:0:0:
122,111,126543,1,10,0:0:0:0:
0,196,126732,21,6,3:1:0:0:
132,269,126922,1,0,3:0:0:0:
117,270,127017,1,0,3:0:0:0:
102,271,127112,1,0,3:0:0:0:
200,174,127302,1,0,3:0:0:0:
214,176,127397,1,0,3:0:0:0:
228,178,127492,69,0,1:0:0:0:
221,229,127587,1,0,1:0:0:0:
258,263,127682,1,0,1:0:0:0:
305,249,127777,1,0,1:0:0:0:
320,202,127872,54,0,P|313:80|360:11,1,195.00000743866,8|8,3:1|3:1,0:0:0:0:
349,21,128441,69,12,0:0:0:0:
497,110,128631,1,2,3:0:0:0:
469,117,128726,1,0,3:0:0:0:
441,124,128821,2,0,B|397:112|397:112|360:129|360:129|278:108,1,143.000004364014,8|0,0:0|3:0,0:0:0:0:
175,27,129201,1,10,0:0:0:0:
209,16,129296,1,0,3:0:0:0:
243,5,129391,1,2,0:0:0:0:
160,125,129581,1,10,0:0:0:0:
308,141,129770,54,0,B|363:131|363:131|392:148|392:148|462:139,1,143.000004364014,6|8,3:0|0:0,0:0:0:0:
367,299,130150,1,2,3:0:0:0:
352,266,130245,1,0,3:0:0:0:
338,233,130340,1,8,0:0:0:0:
205,320,130530,2,0,L|233:167,1,143.000004364014,2|8,3:0|0:0,0:0:0:0:
230,179,130815,1,0,3:0:0:0:
230,179,130910,1,2,0:0:0:0:
126,228,131100,1,10,0:0:0:0:
68,48,131289,85,6,3:1:0:0:
6,255,131479,1,8,0:0:0:0:
157,142,131669,1,0,3:0:0:0:
142,139,131764,1,0,3:0:0:0:
128,135,131859,1,8,0:0:0:0:
246,8,132049,53,6,3:1:0:0:
331,167,132239,1,8,0:0:0:0:
331,167,132334,1,8,0:3:0:0:
384,0,132524,1,8,0:3:0:0:
384,0,132619,1,8,0:0:0:0:
512,103,132808,37,2,1:0:0:0:
313,66,132998,1,0,1:0:0:0:
491,203,133188,1,0,1:0:0:0:
325,267,133378,53,2,1:0:0:0:
329,217,133473,1,2,1:0:0:0:
331,167,133568,1,8,1:3:0:0:
512,46,133948,86,0,B|478:71|465:105|465:105|313:66,1,233.999992858887,10|0,3:2|0:0,0:0:0:0:
232,10,134327,38,0,B|299:45|299:45|364:3,1,149.500002851486,6|8,3:2|0:0,0:0:0:0:
512,138,134707,1,2,3:0:0:0:
484,126,134802,1,0,3:0:0:0:
455,118,134897,2,0,B|409:102|409:102|374:229,1,149.500002851486,8|0,0:0|3:0,0:0:0:0:
382,358,135277,53,10,0:0:0:0:
426,355,135372,1,0,3:0:0:0:
470,350,135467,1,2,0:0:0:0:
382,199,135657,1,10,0:0:0:0:
255,296,135846,54,0,B|266:254|266:254|263:217|263:217|281:149,1,149.500002851486,6|8,3:3|0:0,0:0:0:0:
304,75,136131,1,2,0:0:0:0:
304,75,136226,1,2,3:0:0:0:
372,215,136416,1,10,0:0:0:0:
178,244,136606,54,0,B|167:202|167:202|170:165|170:165|152:97,1,149.500002851486,2|8,3:3|0:0,0:0:0:0:
117,9,136891,2,0,B|106:51|106:51|109:88|109:88|91:156,1,149.500002851486,2|0,0:0|3:0,0:0:0:0:
0,206,137175,1,8,0:0:0:0:
133,344,137365,54,0,B|176:336|176:336|179:333|179:333|182:336|182:336|321:314,1,149.500002851486,6|8,3:1|0:0,0:0:0:0:
356,313,137650,1,2,0:0:0:0:
356,313,137745,1,2,3:0:0:0:
178,244,137935,1,10,0:0:0:0:
347,179,138125,2,0,B|384:145|384:145|323:34|323:34|361:2,2,224.250004277229,2|2|10,0:0|3:0|0:0,0:0:0:0:
166,255,138884,54,0,B|185:185|185:185|144:100,1,149.500002851486,6|8,3:3|0:0,0:0:0:0:
23,14,139264,1,2,3:0:0:0:
17,43,139359,1,0,3:0:0:0:
10,72,139454,1,8,0:0:0:0:
167,125,139644,54,0,B|220:117|220:117|251:141|251:141|308:134,1,149.500002851486,2|8,3:0|0:0,0:0:0:0:
337,133,139929,1,0,3:0:0:0:
366,131,140024,2,0,B|402:64|402:64|341:10,1,149.500002851486,2|8,0:0|0:0,0:0:0:0:
233,168,140403,21,6,3:1:0:0:
228,204,140498,1,0,0:0:0:0:
235,241,140593,1,8,0:0:0:0:
251,275,140688,1,0,0:0:0:0:
275,303,140783,1,2,3:0:0:0:
306,324,140878,1,0,3:0:0:0:
341,336,140973,1,8,0:0:0:0:
379,338,141068,1,0,0:0:0:0:
415,330,141163,54,0,L|426:249,3,74.7500014257431,2|0|8|0,3:0|0:0|0:0|3:0,0:0:0:0:
512,195,141543,2,0,L|501:114,3,74.7500014257431,2|0|8|0,0:0|3:0|0:0|0:0,0:0:0:0:
438,32,141922,53,6,3:0:0:0:
420,75,142017,1,0,0:0:0:0:
392,112,142112,1,8,0:0:0:0:
356,141,142207,1,0,0:0:0:0:
313,158,142302,1,2,3:0:0:0:
266,164,142397,1,0,3:0:0:0:
220,157,142492,1,8,0:0:0:0:
178,138,142587,1,0,0:0:0:0:
141,108,142682,54,0,P|142:71|128:37,3,74.7500014257431,2|0|8|0,3:0|0:0|0:0|3:0,0:0:0:0:
49,131,143062,2,0,P|35:165|36:202,3,74.7500014257431,2|0|8|0,0:0|3:0|0:0|0:0,0:0:0:0:
108,280,143441,54,0,P|176:250|282:261,1,161.199993604737,6|8,3:1|0:0,0:0:0:0:
339,290,143726,1,2,0:0:0:0:
339,290,143821,1,2,3:0:0:0:
251,148,144011,1,10,0:0:0:0:
415,50,144201,53,2,3:0:0:0:
335,200,144391,1,10,0:0:0:0:
216,49,144581,37,0,3:0:0:0:
233,45,144675,1,0,3:0:0:0:
251,41,144770,1,0,3:0:0:0:
268,39,144865,1,0,3:0:0:0:
284,35,144960,22,0,P|351:170|499:144,1,322.399987209473,14|0,3:1|3:0,0:0:0:0:
292,238,145530,2,0,P|225:373|77:347,1,322.399987209473,14|0,3:1|3:0,0:0:0:0:
0,190,146100,53,14,1:1:0:0:
39,184,146194,1,0,1:0:0:0:
79,178,146289,1,0,1:0:0:0:
119,172,146384,1,0,1:0:0:0:
159,165,146479,38,0,P|181:109|163:51,1,123.499996702194,6|8,0:2|0:0,0:0:0:0:
32,5,146859,53,2,3:0:0:0:
36,28,146954,1,0,3:0:0:0:
30,52,147049,1,8,0:0:0:0:
34,76,147144,1,0,3:0:0:0:
26,99,147239,53,2,3:0:0:0:
37,128,147334,1,0,0:0:0:0:
26,157,147429,1,8,0:0:0:0:
39,184,147524,1,0,3:0:0:0:
30,213,147619,54,0,P|7:269|25:327,1,123.499996702194,2|8,0:0|0:0,0:0:0:0:
167,384,147998,53,6,3:0:0:0:
184,359,148093,1,0,0:0:0:0:
210,343,148188,1,8,0:0:0:0:
240,340,148283,1,0,3:0:0:0:
268,348,148378,53,2,3:0:0:0:
303,351,148473,1,0,3:0:0:0:
331,328,148568,1,8,0:0:0:0:
334,292,148663,1,0,0:0:0:0:
311,265,148758,53,2,3:0:0:0:
292,223,148853,1,0,0:0:0:0:
295,177,148948,1,8,0:0:0:0:
320,138,149043,1,0,3:0:0:0:
360,117,149138,54,0,L|431:125,3,61.7499983510972,2|0|8|0,0:0|3:0|0:0|0:0,0:0:0:0:
498,106,149517,54,0,P|526:44|481:9,1,123.499996702194,6|8,3:3|0:0,0:0:0:0:
352,69,149897,53,2,3:0:0:0:
356,93,149992,1,0,3:0:0:0:
360,117,150087,1,8,0:0:0:0:
365,141,150182,1,0,3:0:0:0:
369,165,150277,53,2,3:0:0:0:
364,194,150372,1,0,0:0:0:0:
359,223,150467,1,8,0:0:0:0:
353,252,150562,1,0,3:0:0:0:
348,282,150657,54,0,B|307:274|307:274|274:292|274:292|212:279,1,123.499996702194,2|8,0:0|0:0,0:0:0:0:
94,233,151036,53,6,3:0:0:0:
117,229,151131,1,0,0:0:0:0:
135,214,151226,1,8,0:0:0:0:
142,191,151321,1,0,3:0:0:0:
137,168,151416,53,2,3:0:0:0:
105,172,151511,1,0,3:0:0:0:
79,154,151606,1,8,0:0:0:0:
74,122,151701,1,0,0:0:0:0:
92,96,151796,53,2,3:0:0:0:
134,98,151891,1,0,0:0:0:0:
174,84,151986,1,8,0:0:0:0:
215,94,152081,1,0,3:0:0:0:
255,77,152175,54,0,B|268:47|268:47|246:9,3,61.7499983510972,2|0|8|0,0:0|3:0|0:0|0:0,0:0:0:0:
171,2,152555,54,0,B|126:43|126:43|173:83,1,123.499996702194,6|8,3:2|0:0,0:0:0:0:
304,144,152935,53,2,3:0:0:0:
324,140,153030,1,0,3:0:0:0:
344,136,153125,1,8,0:0:0:0:
365,132,153220,1,0,3:0:0:0:
385,128,153315,53,2,3:0:0:0:
372,155,153410,1,0,0:0:0:0:
370,186,153505,1,8,0:0:0:0:
379,215,153600,1,0,3:0:0:0:
398,240,153694,54,0,P|457:276|439:339,1,123.499996702194,2|8,0:0|0:0,0:0:0:0:
324,377,154074,53,6,3:0:0:0:
295,373,154169,1,0,0:0:0:0:
267,369,154264,1,8,0:0:0:0:
238,365,154359,1,0,3:0:0:0:
210,361,154454,53,2,3:0:0:0:
233,341,154549,1,0,3:0:0:0:
245,313,154644,1,8,0:0:0:0:
242,283,154739,1,0,0:0:0:0:
224,258,154834,53,2,3:0:0:0:
188,285,154929,1,0,0:0:0:0:
144,276,155024,1,8,0:0:0:0:
120,238,155119,1,0,3:0:0:0:
133,195,155213,54,0,P|147:158|134:118,3,61.7499983510972,2|0|8|0,0:0|3:0|0:0|0:0,0:0:0:0:
105,58,155593,54,0,B|68:36|12:51|12:51|54:6,1,123.499996702194,6|8,3:1|0:0,0:0:0:0:
196,5,155973,53,2,3:0:0:0:
190,31,156068,1,0,3:0:0:0:
202,57,156163,1,8,0:0:0:0:
224,72,156258,1,0,3:0:0:0:
252,71,156353,53,2,3:0:0:0:
288,42,156448,1,0,0:0:0:0:
331,26,156543,1,8,0:0:0:0:
377,25,156638,1,0,3:0:0:0:
421,39,156732,54,0,B|431:86|431:86|425:121|425:121|435:168,1,123.499996702194,2|8,3:0|3:2,0:0:0:0:
499,306,157112,70,0,L|514:219,1,77.999997619629,14|0,0:1|3:0,0:0:0:0:
503,219,157302,2,0,L|490:295,1,77.999997619629,10|0,0:1|3:0,0:0:0:0:
387,340,157492,54,0,L|401:256,1,84.4999961318971,10|0,0:1|3:0,0:0:0:0:
391,246,157682,2,0,L|377:331,1,84.4999961318971,10|0,0:1|3:0,0:0:0:0:
265,382,157872,54,0,L|280:289,1,90.9999972229005,10|0,0:1|3:0,0:0:0:0:
52,277,167745,118,0,P|152:282|105:193,1,243.75,6|0,3:1|0:0,0:0:0:0:
6,190,168125,2,0,P|51:279|106:195,1,243.75,6|0,3:1|0:0,0:0:0:0:
59,105,168505,2,0,P|4:189|104:194,1,243.75,6|0,3:1|0:0,0:0:0:0:
159,110,168884,2,0,P|58:104|105:193,1,243.75,6|0,3:1|0:0,0:0:0:0:
177,229,169264,5,8,2:2:0:0:
193,216,169359,1,8,2:2:0:0:
212,209,169454,1,8,2:1:0:0:
232,207,169549,1,8,2:1:0:0:
252,210,169644,1,8,2:0:0:0:
481,367,170024,53,10,0:3:0:0:
379,259,170213,1,10,0:0:0:0:
379,259,170308,1,8,0:0:0:0:
510,161,170498,1,8,0:3:0:0:
510,161,170593,1,10,0:3:0:0:
401,0,170783,22,0,P|425:66|376:162,1,153.399994616394,6|8,3:2|0:0,0:0:0:0:
272,242,171163,1,0,3:0:0:0:
268,203,171258,1,0,3:0:0:0:
266,164,171353,1,10,0:0:0:0:
128,243,171543,2,0,P|94:175|110:102,1,153.399994616394,2|8,3:2|0:0,0:0:0:0:
164,43,171827,1,0,3:0:0:0:
164,43,171922,1,2,0:0:0:0:
266,164,172112,1,10,0:0:0:0:
355,110,172302,54,0,B|378:132|409:126|409:126|446:85|425:25,1,153.399994616394,6|8,3:3|0:0,0:0:0:0:
280,0,172682,1,2,3:0:0:0:
275,38,172777,1,0,3:0:0:0:
268,75,172872,1,8,0:0:0:0:
162,191,173062,2,0,B|134:205|106:192|106:192|81:142|110:101,1,153.399994616394,2|8,3:0|0:0,0:0:0:0:
164,43,173346,1,0,3:0:0:0:
164,43,173441,1,2,0:0:0:0:
266,164,173631,1,10,0:0:0:0:
90,228,173821,54,0,P|64:159|110:102,1,153.399994616394,6|8,3:1|0:0,0:0:0:0:
230,255,174201,1,2,3:0:0:0:
229,270,174296,1,0,3:0:0:0:
227,285,174391,2,0,B|193:331|193:331|94:312,1,153.399994616394,10|0,0:0|3:0,0:0:0:0:
0,171,174770,1,10,0:0:0:0:
37,164,174865,1,0,3:0:0:0:
75,157,174960,1,0,3:3:0:0:
113,150,175055,1,0,3:0:0:0:
150,143,175150,1,10,0:0:0:0:
281,23,175340,22,0,B|225:15|225:15|200:32|200:32|122:21,1,153.399994616394,6|8,3:1|0:0,0:0:0:0:
258,191,175720,1,2,3:0:0:0:
267,153,175815,1,0,3:0:0:0:
275,115,175910,1,8,0:0:0:0:
396,32,176100,53,2,0:0:0:0:
403,60,176194,1,0,0:0:0:0:
422,82,176289,1,8,0:0:0:0:
448,95,176384,1,0,3:0:0:0:
477,100,176479,2,0,B|522:73|490:11|490:11|436:45,1,119.599995985108,2|8,0:0|0:0,0:0:0:0:
381,163,176859,22,0,B|403:210|386:276|386:276|448:232,1,153.399994616394,6|8,3:2|0:0,0:0:0:0:
275,115,177239,1,2,3:0:0:0:
258,131,177334,1,0,3:0:0:0:
242,147,177429,2,0,B|211:168|211:168|228:102|206:55,1,153.399994616394,10|0,0:0|3:0,0:0:0:0:
37,0,177808,1,10,0:0:0:0:
30,37,177903,1,0,3:0:0:0:
23,75,177998,1,0,3:0:0:0:
17,113,178093,1,0,3:0:0:0:
10,151,178188,1,10,0:0:0:0:
66,299,178378,54,0,B|150:288|115:359|202:360,1,153.399994616394,6|8,3:0|0:0,0:0:0:0:
363,329,178758,1,2,3:0:0:0:
348,293,178853,1,0,3:0:0:0:
334,256,178948,1,8,0:0:0:0:
415,124,179138,2,0,B|331:113|366:184|279:185,1,153.399994616394,2|8,3:0|0:0,0:0:0:0:
239,170,179422,1,0,3:0:0:0:
199,145,179517,2,0,P|222:81|167:6,1,153.399994616394,2|8,0:0|0:0,0:0:0:0:
0,54,179897,85,6,3:1:0:0:
157,20,180087,1,8,0:0:0:0:
97,156,180277,1,0,3:0:0:0:
99,140,180372,1,0,3:0:0:0:
102,125,180467,1,8,0:0:0:0:
239,170,180657,53,2,3:0:0:0:
101,278,180846,1,8,0:0:0:0:
264,344,181036,1,0,3:0:0:0:
254,335,181131,1,0,3:0:0:0:
246,325,181226,1,0,3:0:0:0:
242,313,181321,1,0,3:0:0:0:
240,301,181416,38,0,B|280:259|335:259|335:259|400:144|316:47,1,327.599990002442,14|0,3:1|3:0,0:0:0:0:
63,7,181986,54,0,P|51:37|55:100,1,81.8999975006104,10|0,3:1|3:0,0:0:0:0:
97,149,182175,2,0,P|165:120|278:123,1,163.799995001221,2|0,3:1|3:0,0:0:0:0:
422,217,182555,54,0,L|446:305,1,87.0999958799746,10|0,3:1|3:2,0:0:0:0:
437,304,182745,2,0,L|429:210,1,87.0999958799746,10|0,3:1|3:2,0:0:0:0:
344,337,182935,102,0,B|251:319|295:382|191:364,1,153.399994616394,6|8,3:2|0:0,0:0:0:0:
61,249,183315,1,0,3:0:0:0:
83,218,183410,1,0,3:0:0:0:
107,188,183505,1,10,0:0:0:0:
0,83,183694,2,0,P|62:113|132:74,1,153.399994616394,2|8,3:2|0:0,0:0:0:0:
173,7,183979,1,0,3:0:0:0:
173,7,184074,1,2,0:0:0:0:
208,174,184264,1,10,0:0:0:0:
298,129,184454,54,0,P|275:58|323:0,1,153.399994616394,6|8,3:0|0:0,0:0:0:0:
465,82,184834,1,2,3:0:0:0:
426,81,184929,1,0,3:0:0:0:
387,78,185024,1,8,0:0:0:0:
502,178,185213,2,0,P|524:248|479:306,1,153.399994616394,2|8,3:0|0:0,0:0:0:0:
413,348,185498,1,0,3:0:0:0:
413,348,185593,1,2,0:0:0:0:
308,214,185783,1,10,0:0:0:0:
177,317,185973,54,0,B|233:312|233:312|260:328|260:328|350:321,1,153.399994616394,6|8,3:1|0:0,0:0:0:0:
191,201,186353,1,2,3:0:0:0:
181,212,186448,1,0,3:0:0:0:
170,222,186543,2,0,B|114:217|114:217|87:233|87:233|-3:226,1,153.399994616394,10|0,0:0|3:0,0:0:0:0:
168,42,186922,1,10,0:0:0:0:
164,78,187017,1,0,3:0:0:0:
184,111,187112,1,0,3:0:0:0:
218,125,187207,1,0,3:0:0:0:
254,115,187302,1,10,0:0:0:0:
407,1,187492,21,6,3:1:0:0:
345,138,187682,1,0,3:0:0:0:
342,122,187777,1,0,3:0:0:0:
339,106,187872,1,0,3:0:0:0:
479,167,188062,1,0,3:0:0:0:
474,181,188157,1,0,3:0:0:0:
469,195,188251,69,0,1:0:0:0:
488,244,188346,1,0,1:0:0:0:
447,279,188441,1,0,1:0:0:0:
474,325,188536,1,0,1:0:0:0:
441,367,188631,54,0,B|389:349|346:351|356:364|314:370|235:348,1,195.00000743866,8|8,3:1|3:1,0:0:0:0:
248,351,189201,69,12,0:0:0:0:
150,230,189391,1,2,3:0:0:0:
186,217,189486,1,0,3:0:0:0:
221,201,189581,2,0,B|252:171|252:171|260:108|204:64,1,153.399994616394,8|0,0:0|3:0,0:0:0:0:
67,22,189960,1,10,0:0:0:0:
104,14,190055,1,0,3:0:0:0:
140,3,190150,1,2,0:0:0:0:
66,123,190340,1,10,0:0:0:0:
214,71,190530,54,0,B|262:69|280:105|280:105|315:129|366:107,1,153.399994616394,6|8,3:0|0:0,0:0:0:0:
496,20,190910,1,2,3:0:0:0:
458,10,191005,1,0,3:0:0:0:
420,1,191100,1,8,0:0:0:0:
331,134,191289,2,0,B|326:185|326:185|336:214|336:214|326:295,1,153.399994616394,2|8,3:0|0:0,0:0:0:0:
311,366,191574,1,0,3:0:0:0:
311,366,191669,1,2,0:0:0:0:
233,214,191859,1,10,0:0:0:0:
79,380,192049,85,6,3:1:0:0:
149,154,192239,1,8,0:0:0:0:
247,300,192429,1,0,3:0:0:0:
232,305,192524,1,0,3:0:0:0:
217,309,192619,1,8,0:0:0:0:
297,112,192808,53,6,3:1:0:0:
418,270,192998,1,8,0:0:0:0:
418,270,193093,1,8,0:3:0:0:
509,92,193283,1,8,0:3:0:0:
509,92,193378,1,8,0:0:0:0:
317,0,193568,37,2,1:0:0:0:
206,147,193758,1,0,1:0:0:0:
83,9,193948,1,0,1:0:0:0:
0,139,194138,53,2,1:0:0:0:
49,131,194232,1,2,1:0:0:0:
98,122,194327,1,8,1:3:0:0:
8,296,194707,22,0,P|61:247|136:250,1,136.499995834351,10|0,0:0|0:0,0:0:0:0:
194,284,195087,37,14,2:1:0:0:
225,132,195277,1,0,3:0:0:0:
225,132,195372,1,0,3:0:0:0:
225,132,195467,2,0,B|189:147|189:147|79:117,1,104,10|0,0:0|3:0,0:0:0:0:
285,7,195846,53,10,0:0:0:0:
363,22,196036,1,0,3:0:0:0:
410,130,196226,1,8,0:0:0:0:
488,145,196416,1,0,3:0:0:0:
332,228,196606,53,10,0:0:0:0:
402,299,196796,1,0,3:0:0:0:
402,299,196891,1,0,3:0:0:0:
402,299,196986,2,0,P|457:306|497:273,1,104,10|0,0:0|3:0,0:0:0:0:
315,126,197365,53,10,0:0:0:0:
236,217,197555,1,2,3:1:0:0:
221,231,197650,1,2,3:0:0:0:
203,242,197745,2,0,L|77:213,1,104,10|0,0:0|3:0,0:0:0:0:
7,38,198125,53,14,0:1:0:0:
115,108,198315,1,0,3:0:0:0:
115,108,198410,1,0,3:0:0:0:
115,108,198505,2,0,B|163:128|163:128|228:91,1,104,10|0,0:0|3:0,0:0:0:0:
318,0,198884,53,10,0:0:0:0:
339,77,199074,1,0,3:0:0:0:
477,111,199264,53,10,0:0:0:0:
456,188,199454,1,0,3:0:0:0:
295,256,199644,53,14,0:1:0:0:
358,327,199834,1,0,3:0:0:0:
358,327,199929,1,0,3:0:0:0:
358,327,200024,2,0,B|399:320|399:320|413:329|413:329|475:322,1,104,14|0,0:1|3:0,0:0:0:0:
295,256,200403,1,8,0:0:0:0:
189,373,200593,21,2,3:0:0:0:
197,290,200783,1,10,0:0:0:0:
205,207,200973,1,2,3:0:0:0:
108,127,201163,53,14,0:1:0:0:
17,190,201353,1,0,3:0:0:0:
17,190,201448,1,0,3:0:0:0:
17,190,201543,2,0,L|0:59,1,104,8|0,0:0|3:0,0:0:0:0:
108,127,201922,1,8,0:0:0:0:
208,11,202112,53,2,3:0:0:0:
224,92,202302,1,10,0:0:0:0:
240,173,202492,1,2,3:0:0:0:
329,242,202682,54,0,L|469:220,1,104,10|0,0:0|3:0,0:0:0:0:
432,226,202967,1,0,3:0:0:0:
432,226,203062,1,8,0:0:0:0:
478,102,203251,1,2,3:0:0:0:
447,108,203346,1,2,3:0:0:0:
416,115,203441,1,10,0:0:0:0:
299,21,203631,53,6,3:1:0:0:
240,173,203821,1,8,0:0:0:0:
92,73,204011,53,2,3:0:0:0:
119,86,204106,1,2,3:0:0:0:
147,98,204201,2,0,L|266:82,1,104,14|0,0:1|3:0,0:0:0:0:
250,84,204486,1,0,3:0:0:0:
250,84,204581,1,8,0:0:0:0:
173,218,204770,53,2,3:0:0:0:
277,295,204960,2,0,P|262:246|280:198,1,104,10|0,0:0|3:0,0:0:0:0:
307,173,205245,1,2,3:0:0:0:
335,150,205340,2,0,P|353:102|338:53,1,104,10|0,0:0|3:0,0:0:0:0:
184,4,205720,53,14,0:1:0:0:
108,131,205910,1,0,3:0:0:0:
93,125,206005,1,0,3:0:0:0:
79,117,206100,2,0,P|64:68|82:20,1,104,14|0,0:1|0:0,0:0:0:0:
197,154,206479,53,10,0:0:0:0:
152,220,206669,1,0,3:0:0:0:
296,255,206859,53,10,0:0:0:0:
291,335,207049,1,0,3:0:0:0:
439,383,207239,85,14,3:1:0:0:
503,275,207429,1,0,3:0:0:0:
503,275,207524,1,0,3:0:0:0:
503,275,207619,2,0,L|367:256,1,116.999996429443,10|0,0:0|3:0,0:0:0:0:
278,111,207998,53,10,0:0:0:0:
357,103,208188,1,0,3:3:0:0:
232,17,208378,1,8,0:0:0:0:
153,25,208568,1,0,3:3:0:0:
113,173,208758,53,10,0:0:0:0:
39,126,208948,1,0,3:0:0:0:
39,126,209043,1,0,3:0:0:0:
39,126,209138,2,0,L|58:-1,1,116.999996429443,10|0,0:0|3:0,0:0:0:0:
203,154,209517,53,10,0:0:0:0:
154,245,209707,1,2,0:0:0:0:
139,263,209802,1,2,0:0:0:0:
121,278,209897,2,0,L|-26:243,1,116.999996429443,10|0,0:0|3:0,0:0:0:0:
203,154,210277,53,14,0:1:0:0:
275,244,210467,1,0,3:0:0:0:
275,244,210562,1,0,3:0:0:0:
275,244,210657,2,0,B|324:270|324:270|422:209,1,116.999996429443,10|0,0:0|3:0,0:0:0:0:
486,133,211036,53,10,0:0:0:0:
408,148,211226,1,0,3:0:0:0:
496,49,211416,53,10,0:0:0:0:
425,16,211606,1,0,3:0:0:0:
309,119,211796,53,14,0:1:0:0:
220,30,211986,1,0,3:0:0:0:
220,30,212081,1,0,3:0:0:0:
220,30,212175,2,0,L|352:16,1,116.999996429443,14|0,0:1|3:0,0:0:0:0:
220,167,212555,2,0,L|88:153,1,116.999996429443,10|0,0:0|3:1,0:0:0:0:
309,119,212935,1,8,0:0:0:0:
388,251,213125,21,2,3:0:0:0:
394,273,213220,1,2,3:0:0:0:
400,295,213315,2,0,B|447:344|447:344|497:297,1,130,14|0,0:1|3:0,0:0:0:0:
505,286,213600,1,0,3:0:0:0:
511,267,213694,2,0,B|490:126,1,130,10|0,0:0|3:0,0:0:0:0:
398,2,214074,53,8,0:0:0:0:
331,120,214264,1,0,3:0:0:0:
198,41,214454,54,0,B|248:34|248:34|273:46|273:46|324:40,1,130,10|0,0:0|3:0,0:0:0:0:
251,184,214834,2,0,B|201:177|201:177|176:189|176:189|124:183,1,130,10|0,0:1|3:0,0:0:0:0:
124,183,215119,1,0,3:0:0:0:
124,183,215213,1,8,0:0:0:0:
213,332,215403,53,2,3:0:0:0:
238,326,215498,1,2,3:0:0:0:
263,319,215593,1,10,0:0:0:0:
132,191,215783,53,6,3:1:0:0:
19,268,215973,2,0,L|34:138,1,130,8|0,0:0|3:0,0:0:0:0:
109,24,216353,101,14,3:1:0:0:
126,40,216448,1,0,3:0:0:0:
149,50,216543,1,0,3:0:0:0:
173,52,216638,1,0,3:0:0:0:
196,46,216732,101,10,3:1:0:0:
222,25,216827,1,0,3:0:0:0:
253,16,216922,1,0,3:0:0:0:
285,17,217017,1,0,3:0:0:0:
315,31,217112,37,10,3:1:0:0:
293,74,217207,1,0,3:0:0:0:
301,121,217302,1,0,3:0:0:0:
335,155,217397,1,0,3:0:0:0:
383,162,217492,54,0,B|432:149|468:101|409:60|377:92|394:113|428:122,1,143.000004364014,14|0,3:1|3:0,0:0:0:0:
504,245,219011,53,14,0:1:0:0:
504,245,219201,1,14,0:1:0:0:
456,57,219391,101,6,3:2:0:0:
399,211,219581,1,10,0:0:0:0:
327,104,219770,53,2,3:0:0:0:
335,77,219865,1,0,3:0:0:0:
329,49,219960,1,8,0:0:0:0:
309,29,220055,1,0,0:0:0:0:
282,25,220150,53,2,3:0:0:0:
273,56,220245,1,0,0:0:0:0:
250,78,220340,1,8,0:0:0:0:
219,84,220435,1,0,3:0:0:0:
189,72,220530,54,0,P|138:33|63:46,1,130,2|8,0:0|0:0,0:0:0:0:
0,167,220910,53,6,3:3:0:0:
3,179,221005,1,0,0:0:0:0:
6,191,221100,1,8,0:0:0:0:
9,203,221194,1,0,0:0:0:0:
13,215,221289,53,2,3:0:0:0:
36,237,221384,1,0,3:0:0:0:
68,236,221479,1,8,0:0:0:0:
94,216,221574,1,0,0:0:0:0:
107,186,221669,53,2,3:0:0:0:
132,156,221764,1,0,0:0:0:0:
170,150,221859,1,8,0:0:0:0:
204,168,221954,1,0,3:0:0:0:
219,203,222049,54,0,L|234:281,3,65,2|0|8|0,0:0|3:0|0:0|0:0,0:0:0:0:
287,339,222429,53,6,3:1:0:0:
340,199,222619,1,10,0:0:0:0:
435,315,222808,53,2,3:0:0:0:
459,328,222903,1,0,3:0:0:0:
487,321,222998,1,8,0:0:0:0:
501,296,223093,1,0,0:0:0:0:
495,269,223188,53,2,3:0:0:0:
474,244,223283,1,0,0:0:0:0:
462,214,223378,1,8,0:0:0:0:
462,181,223473,1,0,3:0:0:0:
472,151,223568,54,0,B|500:90|500:90|460:30,1,130,2|8,0:0|0:0,0:0:0:0:
234,0,223948,22,0,L|140:16,2,86.6666666666667,6|0|0,0:3|0:0|0:0,0:0:0:0:
311,85,224327,2,0,L|405:101,2,86.6666666666667,2|0|0,3:0|0:0|0:0,0:0:0:0:
228,140,224707,53,2,3:0:0:0:
243,182,224834,1,0,0:0:0:0:
221,224,224960,1,0,0:0:0:0:
175,230,225087,53,2,0:0:0:0:
200,180,225213,1,0,0:0:0:0:
181,129,225340,1,0,0:0:0:0:
130,109,225467,22,0,B|82:98|82:98|50:110|50:110|-33:92,2,130,6|8|0,3:2|0:0|3:0,0:0:0:0:
221,224,226036,1,10,0:0:0:0:
225,190,226131,1,0,0:0:0:0:
231,157,226226,1,2,3:0:0:0:
301,268,226416,1,10,0:0:0:0:
237,126,226606,1,2,0:0:0:0:
126,195,226796,1,10,0:0:0:0:
243,93,226986,54,0,P|247:51|329:38,1,130,6|8,0:1|0:0,0:0:0:0:
411,153,227365,1,2,3:0:0:0:
411,153,227460,1,0,3:0:0:0:
411,153,227555,1,8,0:0:0:0:
288,233,227745,54,0,L|153:210,1,130,2|8,3:3|0:0,0:0:0:0:
159,211,228030,1,0,3:0:0:0:
159,211,228125,1,2,0:0:0:0:
95,109,228315,21,10,0:0:0:0:
122,92,228410,1,0,0:0:0:0:
135,62,228505,1,6,3:1:0:0:
5,5,228694,53,10,0:0:0:0:
6,17,228789,1,0,0:0:0:0:
7,29,228884,1,0,3:0:0:0:
8,41,228979,1,0,3:0:0:0:
10,54,229074,1,10,0:0:0:0:
123,141,229264,54,0,B|168:149|168:149|192:178|192:178|249:192,1,130,6|8,3:3|0:0,0:0:0:0:
348,130,229644,2,0,P|347:90|361:71,3,52,0|0|0|0,3:0|3:0|3:0|3:0,0:0:0:0:
434,47,230024,101,14,3:1:0:0:
434,47,230119,1,2,3:0:0:0:
434,47,230213,2,0,L|525:61,1,77.999997619629,2|0,3:0|3:0,0:0:0:0:
359,141,230403,53,6,3:3:0:0:
359,141,230498,1,2,3:0:0:0:
359,141,230593,2,0,L|268:127,1,84.4999961318971,8|0,3:2|3:0,0:0:0:0:
418,235,230783,54,0,L|514:249,1,90.9999972229005,6|0,3:1|3:0,0:0:0:0:
511,262,230973,2,0,L|421:249,1,90.9999972229005,10|0,3:3|3:0,0:0:0:0:
361,325,231163,54,0,L|264:339,1,97.50000371933,14|0,3:1|3:0,0:0:0:0:
264,352,231353,2,0,L|363:340,1,97.50000371933,10|0,3:3|3:0,0:0:0:0:
237,225,231543,37,6,3:2:0:0:
165,378,231732,1,10,0:0:0:0:
46,283,231922,53,2,3:0:0:0:
70,278,232017,1,0,3:0:0:0:
94,273,232112,1,8,0:0:0:0:
118,268,232207,1,0,0:0:0:0:
142,263,232302,53,2,3:0:0:0:
122,233,232397,1,0,0:0:0:0:
114,198,232492,1,8,0:0:0:0:
117,163,232587,1,0,3:0:0:0:
132,131,232682,54,0,P|162:70|117:9,1,143.000004364014,2|8,0:0|0:0,0:0:0:0:
3,91,233062,53,6,3:3:0:0:
1,105,233157,1,0,0:0:0:0:
9,116,233251,1,8,0:0:0:0:
5,131,233346,1,0,0:0:0:0:
11,145,233441,53,2,3:0:0:0:
25,177,233536,1,0,3:0:0:0:
57,191,233631,1,8,0:0:0:0:
92,185,233726,1,0,0:0:0:0:
117,163,233821,53,2,3:0:0:0:
134,123,233916,1,0,0:0:0:0:
171,101,234011,1,8,0:0:0:0:
213,106,234106,1,0,3:0:0:0:
245,134,234201,54,0,P|277:151|324:143,3,71.5000021820069,2|0|8|0,0:0|3:0|0:0|0:0,0:0:0:0:
390,88,234581,53,6,3:1:0:0:
462,229,234770,1,10,0:0:0:0:
354,332,234960,53,2,3:0:0:0:
340,306,235055,1,0,3:0:0:0:
317,289,235150,1,8,0:0:0:0:
288,284,235245,1,0,0:0:0:0:
261,293,235340,53,2,3:0:0:0:
225,317,235435,1,0,0:0:0:0:
182,313,235530,1,8,0:0:0:0:
153,281,235625,1,0,3:0:0:0:
153,238,235720,54,0,B|182:76,1,143.000004364014,2|8,0:0|0:0,0:0:0:0:
321,30,236100,21,6,0:3:0:0:
311,69,236226,1,0,0:0:0:0:
334,105,236353,1,0,0:0:0:0:
376,104,236479,53,2,3:0:0:0:
351,61,236606,1,0,0:0:0:0:
362,12,236732,1,0,0:0:0:0:
406,17,236859,53,2,3:0:0:0:
396,59,236986,1,0,0:0:0:0:
418,94,237112,1,0,0:0:0:0:
462,94,237239,53,2,0:0:0:0:
436,51,237365,1,0,0:0:0:0:
447,2,237492,1,0,0:0:0:0:
498,0,237619,86,0,B|538:33|538:33|498:144,2,143.000004364014,6|8|0,3:2|3:2|3:2,0:0:0:0:
380,133,238188,1,10,3:2:0:0:
373,90,238283,1,2,3:2:0:0:
364,47,238378,1,2,3:2:0:0:
280,157,238568,1,10,3:2:0:0:
355,4,238758,1,2,3:2:0:0:
271,114,238948,1,10,3:2:0:0:
135,19,239138,54,0,B|181:18|181:18|220:36|220:36|288:30,1,143.000004364014,2|8,3:2|3:2,0:0:0:0:
166,131,239517,1,2,3:2:0:0:
166,131,239612,1,0,3:2:0:0:
166,131,239707,1,8,3:2:0:0:
305,209,239897,54,0,B|355:206|355:206|390:226|390:226|458:220,1,143.000004364014,2|8,3:2|3:2,0:0:0:0:
442,221,240182,1,0,3:2:0:0:
442,221,240277,1,2,3:2:0:0:
512,122,240467,21,10,0:0:0:0:
480,122,240562,1,2,0:0:0:0:
452,107,240657,1,6,0:1:0:0:
332,26,240846,53,10,0:0:0:0:
344,23,240941,1,0,3:0:0:0:
356,20,241036,1,0,3:0:0:0:
368,17,241131,1,0,3:0:0:0:
380,14,241226,1,0,3:0:0:0:
272,136,241416,53,14,3:1:0:0:
217,0,241606,1,2,3:0:0:0:
77,96,241796,53,0,3:0:0:0:
80,114,241891,1,0,3:0:0:0:
82,132,241986,1,0,3:0:0:0:
84,149,242081,1,0,3:0:0:0:
86,167,242175,38,0,P|219:168|213:-3,1,337.999984527589,14|0,3:1|3:0,0:0:0:0:
423,233,242745,2,0,P|272:216|292:65,1,337.999984527589,14|0,3:1|3:0,0:0:0:0:
481,0,243315,53,14,0:1:0:0:
512,163,243505,1,14,0:1:0:0:
