osu file format v14

[General]
AudioFilename: audio.mp3
AudioLeadIn: 0
PreviewTime: 48410
Countdown: 0
SampleSet: Soft
StackLeniency: 0.7
Mode: 0
LetterboxInBreaks: 0
WidescreenStoryboard: 1

[Editor]
DistanceSpacing: 0.2
BeatDivisor: 4
GridSize: 32
TimelineZoom: 1.8

[Metadata]
Title:ito
TitleUnicode:絃-ito-
Artist:Emiru no Aishita Tsukiyo ni Dai San Gensou Kyoku wo
ArtistUnicode:エミルの愛した月夜に第III幻想曲を
Creator:Lasse
Version:Hard
Source:
Tags:japanese metal rock doujin Emille's Moonlight Serenade サラ Sara 荊 いばら Ibara
BeatmapID:2255706
BeatmapSetID:1077982

[Difficulty]
HPDrainRate:5
CircleSize:3.6
OverallDifficulty:6.7
ApproachRate:8
SliderMultiplier:2
SliderTickRate:1

[Events]
//Background and Video events
0,0,"bgfixed.jpg",0,0
//Break Periods
2,43388,45476
2,104148,106236
2,158631,166995
//Storyboard Layer 0 (Background)
//Storyboard Layer 1 (Fail)
//Storyboard Layer 2 (Pass)
//Storyboard Layer 3 (Foreground)
//Storyboard Layer 4 (Overlay)
//Storyboard Sound Samples

[TimingPoints]
657,379.746835443038,4,2,4,70,1,0
6732,-166.666666666667,4,2,4,70,0,0
7302,-166.666666666667,4,2,4,55,0,0
7492,-166.666666666667,4,2,4,5,0,0
7872,-166.666666666667,4,2,4,40,0,0
8251,-166.666666666667,4,2,4,70,0,0
8821,-166.666666666667,4,2,4,55,0,0
9011,-166.666666666667,4,2,4,5,0,0
9391,-166.666666666667,4,2,4,40,0,0
9770,-166.666666666667,4,2,4,70,0,0
10340,-166.666666666667,4,2,4,55,0,0
10530,-166.666666666667,4,2,4,5,0,0
10910,-166.666666666667,4,2,4,40,0,0
11289,-125,4,2,2,60,0,0
11479,-125,4,2,2,58,0,0
11574,-125,4,2,2,60,0,0
11764,-125,4,2,2,58,0,0
11859,-125,4,2,2,60,0,0
12049,-125,4,2,2,62,0,0
12144,-125,4,2,2,64,0,0
12239,-125,4,2,2,66,0,0
12334,-125,4,2,2,68,0,0
12429,-125,4,2,2,70,0,0
12808,-100,4,2,4,75,0,0
22492,-100,4,2,4,75,0,0
22587,-100,4,2,4,68,0,0
22682,-100,4,2,4,70,0,0
22872,-100,4,2,4,66,0,0
23441,-100,4,2,4,68,0,0
24011,-100,4,2,4,70,0,0
24581,-100,4,2,4,72,0,0
24960,-111.111111111111,4,2,4,70,0,0
26479,-111.111111111111,4,2,4,50,0,0
27998,-111.111111111111,4,2,4,70,0,0
29422,-111.111111111111,4,2,4,60,0,0
29517,-111.111111111111,4,2,4,50,0,0
31036,-111.111111111111,4,2,4,70,0,0
32460,-111.111111111111,4,2,4,60,0,0
32555,-111.111111111111,4,2,4,50,0,0
34074,-111.111111111111,4,2,4,70,0,0
36353,-111.111111111111,4,2,4,69,0,0
36448,-111.111111111111,4,2,4,68,0,0
36543,-111.111111111111,4,2,4,67,0,0
36638,-111.111111111111,4,2,4,66,0,0
36732,-111.111111111111,4,2,4,65,0,0
36827,-111.111111111111,4,2,4,64,0,0
36922,-111.111111111111,4,2,4,63,0,0
37017,-111.111111111111,4,2,4,62,0,0
37112,-166.666666666667,4,2,4,60,0,0
37492,-166.666666666667,4,2,4,55,0,0
42619,-166.666666666667,4,2,5,57,0,0
42808,-166.666666666667,4,2,5,54,0,0
42998,-166.666666666667,4,2,5,56,0,0
43188,-200,4,2,4,48,0,0
46226,-100,4,2,4,68,0,0
46511,-100,4,2,43,5,0,0
46606,-100,4,2,4,70,0,0
46891,-100,4,2,43,5,0,0
46986,-100,4,2,4,72,0,0
47270,-100,4,2,43,5,0,0
47365,-100,4,2,4,74,0,0
47650,-100,4,2,43,5,0,0
47745,-111.111111111111,4,2,2,70,0,0
48505,-133.333333333333,4,2,2,60,0,0
48694,-133.333333333333,4,2,2,62,0,0
48979,-133.333333333333,4,2,2,64,0,0
49264,-90.9090909090909,4,2,4,80,0,1
54581,-100,4,2,4,80,0,1
55340,-90.9090909090909,4,2,4,80,0,1
59517,-90.9090909090909,4,2,4,75,0,1
59897,-90.9090909090909,4,2,4,80,0,1
61321,-90.9090909090909,4,2,4,80,0,0
61416,-90.9090909090909,4,2,4,80,0,1
67112,-117.647058823529,4,2,2,75,0,0
67492,-200,4,2,2,60,0,0
67682,-90.9090909090909,4,2,4,80,0,1
72619,-90.9090909090909,4,2,4,78,0,1
72713,-90.9090909090909,4,2,4,76,0,1
72808,-90.9090909090909,4,2,4,76,0,0
73188,-80,4,2,5,74,0,0
73473,-66.6666666666667,4,2,4,50,0,0
73568,-100,4,2,4,75,0,0
83251,-100,4,2,4,75,0,0
83346,-100,4,2,4,68,0,0
83441,-100,4,2,4,70,0,0
83631,-100,4,2,4,66,0,0
84201,-100,4,2,4,68,0,0
84770,-100,4,2,4,70,0,0
85340,-100,4,2,4,68,0,0
85435,-100,4,2,4,66,0,0
85530,-100,4,2,4,64,0,0
85625,-100,4,2,4,62,0,0
85720,-166.666666666667,4,2,2,60,0,0
86100,-166.666666666667,4,2,2,45,0,0
94834,-166.666666666667,4,2,43,38,0,0
94929,-166.666666666667,4,2,43,10,0,0
96353,-166.666666666667,4,2,43,30,0,0
97049,-200,4,2,43,44,0,0
97112,-200,4,2,43,40,0,0
97175,-200,4,2,43,36,0,0
97872,-166.666666666667,4,2,4,55,0,0
103378,-166.666666666667,4,2,5,57,0,0
103568,-166.666666666667,4,2,5,54,0,0
103758,-166.666666666667,4,2,5,58,0,0
103948,-166.666666666667,4,2,4,48,0,0
106986,-111.111111111111,4,2,4,68,0,0
107270,-111.111111111111,4,2,43,5,0,0
107365,-111.111111111111,4,2,4,70,0,0
107650,-111.111111111111,4,2,43,5,0,0
107745,-111.111111111111,4,2,4,72,0,0
108030,-111.111111111111,4,2,43,5,0,0
108125,-111.111111111111,4,2,4,74,0,0
108410,-111.111111111111,4,2,43,5,0,0
108505,-111.111111111111,4,2,2,70,0,0
109264,-133.333333333333,4,2,2,60,0,0
109454,-133.333333333333,4,2,2,62,0,0
109739,-133.333333333333,4,2,2,64,0,0
110024,-90.9090909090909,4,2,4,80,0,1
115340,-90.9090909090909,4,2,4,80,0,1
116100,-90.9090909090909,4,2,4,80,0,1
120277,-90.9090909090909,4,2,4,75,0,1
120657,-90.9090909090909,4,2,4,80,0,1
122081,-90.9090909090909,4,2,4,80,0,0
122175,-90.9090909090909,4,2,4,80,0,1
127872,-117.647058823529,4,2,2,75,0,0
128062,-200,4,2,2,70,0,0
128251,-200,4,2,2,60,0,0
128441,-90.9090909090909,4,2,4,80,0,1
133378,-90.9090909090909,4,2,4,78,0,1
133473,-90.9090909090909,4,2,4,76,0,1
133948,-83.3333333333333,4,2,5,74,0,0
134233,-100,4,2,4,50,0,0
134327,-90.9090909090909,4,2,4,80,0,1
140403,-90.9090909090909,4,2,4,80,0,1
141163,-90.9090909090909,4,2,4,80,0,1
141922,-90.9090909090909,4,2,4,80,0,1
142682,-90.9090909090909,4,2,4,80,0,1
143062,-90.9090909090909,4,2,4,80,0,1
143441,-90.9090909090909,4,2,4,80,0,1
144581,-90.9090909090909,4,2,4,76,0,1
144960,-90.9090909090909,4,2,4,78,0,1
145530,-90.9090909090909,4,2,4,80,0,1
146100,-100,4,2,4,82,0,1
146194,-90.9090909090909,4,2,4,80,0,1
146289,-90.9090909090909,4,2,4,78,0,1
146384,-90.9090909090909,4,2,4,76,0,1
146479,-105.263157894737,4,2,4,74,0,0
146859,-105.263157894737,4,2,4,74,0,0
149517,-105.263157894737,4,2,4,74,0,0
149897,-105.263157894737,4,2,4,74,0,0
152555,-105.263157894737,4,2,4,74,0,0
152935,-105.263157894737,4,2,4,74,0,0
155593,-105.263157894737,4,2,4,74,0,0
155973,-105.263157894737,4,2,4,74,0,0
157112,-94.3396226415094,4,2,4,75,0,0
157207,-94.3396226415094,4,2,4,74,0,0
157302,-94.3396226415094,4,2,4,76,0,0
157397,-94.3396226415094,4,2,4,74,0,0
157492,-94.3396226415094,4,2,4,77,0,0
157587,-94.3396226415094,4,2,4,74,0,0
157682,-94.3396226415094,4,2,4,78,0,0
157777,-94.3396226415094,4,2,4,74,0,0
157872,-94.3396226415094,4,2,4,80,0,0
157967,-94.3396226415094,4,2,4,74,0,0
158631,-227.272727272727,4,2,4,52,0,0
161289,-227.272727272727,4,2,4,50,0,0
161669,-208.333333333333,4,2,5,54,0,0
162049,-208.333333333333,4,2,4,54,0,0
164327,-208.333333333333,4,2,4,50,0,0
164707,-196.078431372549,4,2,5,56,0,0
165087,-196.078431372549,4,2,4,56,0,0
167365,-196.078431372549,4,2,4,52,0,0
167745,-111.111111111111,4,2,4,68,0,0
168030,-111.111111111111,4,2,43,5,0,0
168125,-111.111111111111,4,2,4,70,0,0
168410,-111.111111111111,4,2,43,5,0,0
168505,-111.111111111111,4,2,4,72,0,0
168789,-111.111111111111,4,2,43,5,0,0
168884,-111.111111111111,4,2,4,74,0,0
169169,-111.111111111111,4,2,43,5,0,0
169264,-111.111111111111,4,2,2,70,0,0
170024,-133.333333333333,4,2,2,60,0,0
170213,-133.333333333333,4,2,2,62,0,0
170498,-133.333333333333,4,2,2,64,0,0
170783,-90.9090909090909,4,2,4,80,0,1
176100,-90.9090909090909,4,2,4,80,0,1
176859,-90.9090909090909,4,2,4,80,0,1
181036,-90.9090909090909,4,2,4,75,0,1
181416,-90.9090909090909,4,2,4,80,0,1
182840,-90.9090909090909,4,2,4,80,0,0
182935,-90.9090909090909,4,2,4,80,0,1
188631,-117.647058823529,4,2,2,75,0,0
188821,-90.9090909090909,4,2,2,70,0,0
189011,-90.9090909090909,4,2,2,60,0,0
189201,-90.9090909090909,4,2,4,80,0,1
194138,-90.9090909090909,4,2,4,78,0,1
194232,-90.9090909090909,4,2,4,76,0,1
194707,-125,4,2,5,64,0,0
194992,-142.857142857143,4,2,5,50,0,0
195087,-117.647058823529,4,2,4,72,0,0
200641,-117.647058823529,4,2,43,10,0,0
200783,-117.647058823529,4,2,4,72,0,0
200831,-117.647058823529,4,2,43,10,0,0
200973,-117.647058823529,4,2,4,72,0,0
201020,-117.647058823529,4,2,43,10,0,0
201163,-117.647058823529,4,2,4,72,0,0
202160,-117.647058823529,4,2,43,10,0,0
202302,-117.647058823529,4,2,4,72,0,0
202350,-117.647058823529,4,2,43,10,0,0
202492,-117.647058823529,4,2,4,72,0,0
202539,-117.647058823529,4,2,43,10,0,0
202682,-117.647058823529,4,2,4,72,0,0
202729,-117.647058823529,4,2,43,10,0,0
202872,-117.647058823529,4,2,4,72,0,0
203631,-117.647058823529,4,2,4,68,0,0
203821,-117.647058823529,4,2,4,70,0,0
204011,-117.647058823529,4,2,4,72,0,0
207239,-111.111111111111,4,2,4,74,0,0
213315,-100,4,2,4,74,0,0
216732,-100,4,2,4,76,0,0
217112,-100,4,2,4,78,0,0
217492,-100,4,2,4,80,0,0
217682,-100,4,2,4,70,0,0
219391,-100,4,2,4,75,0,0
228694,-100,4,2,4,75,0,0
229169,-100,4,2,4,68,0,0
229264,-100,4,2,4,70,0,0
229454,-100,4,2,4,66,0,0
230024,-90.9090909090909,4,2,4,74,0,0
230403,-90.9090909090909,4,2,4,76,0,0
230783,-90.9090909090909,4,2,4,78,0,0
231163,-90.9090909090909,4,2,4,80,0,0
231543,-100,4,2,4,78,0,0
240467,-100,4,2,4,78,0,0
240657,-100,4,2,4,78,0,0
241226,-100,4,2,4,78,0,0
241321,-100,4,2,4,68,0,0
241416,-100,4,2,4,78,0,0
241511,-100,4,2,4,76,0,0
241606,-100,4,2,4,74,0,0
241701,-100,4,2,4,72,0,0
241796,-100,4,2,4,70,0,0
242175,-100,4,2,4,74,0,0
242745,-100,4,2,4,77,0,0
243315,-100,4,2,4,80,0,0
243410,-100,4,2,4,70,0,0
243505,-100,4,2,4,80,0,0
243600,-100,4,2,4,70,0,0

[Colours]
Combo1 : 255,120,195
Combo2 : 190,180,230
Combo3 : 215,220,255
Combo4 : 140,220,255
Combo5 : 255,120,245
Combo6 : 245,175,255
Combo7 : 250,210,255
Combo8 : 120,180,255

[HitObjects]
18,70,6732,53,6,3:1:0:0:
40,151,6922,1,6,3:1:0:0:
40,151,7302,22,0,P|129:138|238:128,1,179.999994506836,2|0,0:0|0:0,0:0:0:0:
419,140,8251,69,4,3:1:0:0:
381,75,8441,1,4,3:1:0:0:
381,75,8821,102,0,P|376:147|363:257,1,179.999994506836,2|0,0:0|0:0,0:0:0:0:
262,376,9770,21,4,3:1:0:0:
188,358,9960,1,4,3:1:0:0:
188,358,10340,22,0,P|201:306|211:171,1,179.999994506836,2|0,0:0|0:0,0:0:0:0:
211,180,11289,38,0,P|171:177|114:166,1,80,12|8,0:0|0:3,0:0:0:0:
105,152,11574,2,0,P|113:112|111:56,1,80,8|8,0:0|0:3,0:0:0:0:
90,49,11859,1,8,0:0:0:0:
190,0,12049,53,0,1:0:0:0:
194,15,12144,1,0,1:0:0:0:
203,27,12239,1,0,1:0:0:0:
217,36,12334,1,0,1:0:0:0:
234,39,12429,1,8,1:3:0:0:
503,39,12808,22,0,L|393:30,1,100,6|10,3:2|0:0,0:0:0:0:
318,102,13188,1,2,3:0:0:0:
320,111,13283,1,0,3:0:0:0:
323,120,13378,1,8,0:0:0:0:
325,129,13473,1,0,0:0:0:0:
329,138,13568,2,0,L|439:147,1,100,2|8,3:0|0:0,0:0:0:0:
504,226,13948,1,2,0:0:0:0:
455,325,14138,1,8,0:0:0:0:
347,271,14327,54,0,P|292:252|230:251,1,100,6|8,3:3|0:0,0:0:0:0:
148,292,14707,1,2,3:0:0:0:
57,229,14897,1,8,0:0:0:0:
101,128,15087,1,2,3:0:0:0:
107,120,15182,1,0,0:0:0:0:
114,113,15277,1,8,0:0:0:0:
120,105,15372,1,0,3:0:0:0:
126,97,15467,2,0,B|145:58|108:17|108:17|82:49,1,100,2|8,0:0|0:0,0:0:0:0:
216,100,15846,54,0,L|342:90,1,100,6|10,3:1|0:0,0:0:0:0:
423,39,16226,1,2,3:0:0:0:
413,37,16321,1,0,3:0:0:0:
403,34,16416,1,8,0:0:0:0:
393,32,16511,1,0,0:0:0:0:
383,30,16606,2,0,L|270:2,1,100,2|8,3:0|0:0,0:0:0:0:
176,25,16986,1,2,0:0:0:0:
242,116,17175,1,8,0:0:0:0:
134,171,17365,86,0,L|65:154,2,66.6666666666667,6|0|0,0:3|0:0|0:0,0:0:0:0:
181,236,17745,2,0,L|250:253,2,66.6666666666667,2|0|0,3:0|0:0|0:0,0:0:0:0:
110,268,18125,1,2,3:0:0:0:
110,268,18251,2,0,P|96:297|101:339,1,66.6666666666667,0|0,0:0|0:0,0:0:0:0:
165,381,18505,1,2,0:0:0:0:
165,381,18631,2,0,L|239:367,1,66.6666666666667,0|0,0:0|0:0,0:0:0:0:
325,349,18884,22,0,B|360:356|360:356|373:369|373:369|448:385,2,100,6|8|0,3:2|0:0|3:0,0:0:0:0:
227,277,19454,1,10,0:0:0:0:
230,267,19549,1,0,0:0:0:0:
233,257,19644,2,0,L|229:140,1,100,2|10,3:0|0:0,0:0:0:0:
208,48,20024,1,2,0:0:0:0:
115,107,20213,1,10,0:0:0:0:
229,157,20403,54,0,P|280:165|341:129,1,100,6|8,0:1|0:0,0:0:0:0:
405,30,20783,2,0,L|300:16,1,100,2|8,3:0|0:0,0:0:0:0:
295,15,21068,1,0,0:0:0:0:
285,13,21163,2,0,L|175:32,1,100,2|8,3:3|0:0,0:0:0:0:
82,7,21543,1,2,0:0:0:0:
4,95,21732,85,10,0:0:0:0:
6,104,21827,1,0,0:0:0:0:
7,113,21922,2,0,L|25:244,1,100,6|10,3:1|0:0,0:0:0:0:
59,328,22302,2,0,P|103:305|171:303,1,100,0|10,3:0|0:0,0:0:0:0:
276,306,22682,53,6,3:3:0:0:
336,384,22872,1,8,0:0:0:0:
423,335,23062,1,0,3:0:0:0:
426,325,23157,1,0,3:0:0:0:
430,316,23251,1,0,3:0:0:0:
434,306,23346,1,0,3:0:0:0:
438,296,23441,38,0,P|462:202|419:106,1,200,14|0,3:1|3:0,0:0:0:0:
318,26,24011,2,0,B|299:56|264:64|264:64|210:25|116:33,1,200,14|0,3:1|3:0,0:0:0:0:
0,84,24581,2,0,L|8:163,3,50,14|0|0|0,1:1|1:0|1:0|1:0,0:0:0:0:
9,178,24960,102,0,P|45:200|103:186,1,89.9999972534181,6|8,3:1|0:0,0:0:0:0:
179,149,25340,1,2,3:0:0:0:
241,226,25530,2,0,L|257:320,1,89.9999972534181,10|0,0:0|3:0,0:0:0:0:
348,383,25910,1,10,0:0:0:0:
348,383,26005,1,0,3:0:0:0:
348,383,26100,2,0,L|360:283,1,89.9999972534181,0|8,3:0|0:0,0:0:0:0:
512,52,27998,53,6,3:1:0:0:
452,129,28188,1,10,0:0:0:0:
452,129,28283,1,0,0:0:0:0:
452,129,28378,1,2,3:0:0:0:
379,57,28568,2,0,P|342:32|292:32,1,89.9999972534181,10|0,0:0|3:0,0:0:0:0:
227,100,28948,2,0,L|242:209,1,89.9999972534181,10|0,0:0|2:0,0:0:0:0:
199,279,29327,1,10,0:0:0:0:
0,384,31036,53,6,3:1:0:0:
92,350,31226,1,10,0:0:0:0:
92,350,31321,1,0,0:0:0:0:
92,350,31416,1,2,3:0:0:0:
38,268,31606,2,0,P|26:226|37:168,1,89.9999972534181,10|0,0:0|3:0,0:0:0:0:
90,103,31986,1,10,0:0:0:0:
174,148,32175,1,2,0:0:0:0:
256,86,32365,1,10,0:0:0:0:
512,181,34074,53,6,3:1:0:0:
429,230,34264,1,10,0:0:0:0:
383,156,34454,1,2,3:0:0:0:
383,156,34549,1,0,3:0:0:0:
383,156,34644,2,0,L|369:57,1,89.9999972534181,10|0,0:0|3:0,0:0:0:0:
278,7,35024,1,10,0:0:0:0:
270,105,35213,1,2,0:0:0:0:
262,203,35403,1,8,0:0:0:0:
176,123,35593,86,0,P|136:100|82:104,1,89.9999972534181,6|14,3:0|0:1,0:0:0:0:
0,157,35973,1,14,0:1:0:0:
46,244,36163,1,8,0:0:0:0:
50,251,36258,1,8,0:0:0:0:
56,257,36353,2,0,P|100:256|138:234,1,89.9999972534181,0|0,1:0|1:0,0:0:0:0:
176,123,36732,2,0,P|165:83|196:18,1,89.9999972534181,0|0,1:0|1:0,0:0:0:0:
254,1,37112,70,0,L|274:148,1,119.999996337891,6|0,3:2|3:0,0:0:0:0:
343,190,37682,1,0,0:0:0:0:
343,190,37872,2,0,P|392:199|437:137,1,119.999996337891,2|2,3:2|3:0,0:0:0:0:
465,71,38441,1,0,0:0:0:0:
465,71,38631,2,0,L|338:49,1,119.999996337891,2|2,3:2|3:0,0:0:0:0:
263,76,39201,1,0,0:0:0:0:
263,76,39391,2,0,L|240:218,1,119.999996337891,2|2,3:2|3:0,0:0:0:0:
168,325,40150,54,0,P|124:346|46:305,1,119.999996337891,6|2,3:2|3:0,0:0:0:0:
11,259,40720,1,0,0:0:0:0:
11,259,40910,2,0,L|33:124,1,119.999996337891,2|2,3:0|3:0,0:0:0:0:
68,68,41479,1,0,0:0:0:0:
68,68,41669,2,0,P|118:86|202:57,1,119.999996337891,2|2,3:0|3:0,0:0:0:0:
261,37,42239,1,0,0:0:0:0:
261,37,42429,2,0,P|294:23|340:20,1,59.9999981689454,2|8,3:0|0:0,0:0:0:0:
398,68,42808,2,0,P|404:106|420:136,1,59.9999981689454,2|8,3:2|0:0,0:0:0:0:
487,181,43188,37,6,0:0:0:0:
155,160,46226,37,6,3:1:0:0:
346,101,46606,1,6,3:1:0:0:
226,260,46986,1,6,3:1:0:0:
229,60,47365,1,6,3:1:0:0:
344,223,47745,1,8,2:2:0:0:
349,232,47840,1,8,2:2:0:0:
355,240,47935,2,0,P|411:243|447:222,1,89.9999972534181,8|8,2:1|2:0,0:0:0:0:
512,97,48505,6,0,B|497:79|497:79|498:50|498:50|476:10,1,75.0000028610231,10|10,0:3|0:0,0:0:0:0:
450,22,48789,2,0,B|426:31|409:56|409:56|389:34|358:27,1,112.500004291535,8|10,0:0|0:3,0:0:0:0:
231,97,49264,86,0,B|224:140|224:140|230:159|230:159|220:220,1,110.000003356934,6|8,3:2|0:0,0:0:0:0:
131,281,49644,1,0,3:0:0:0:
131,281,49739,1,0,3:0:0:0:
131,281,49834,1,10,0:0:0:0:
39,201,50024,2,0,P|19:155|40:91,1,110.000003356934,2|8,3:2|0:0,0:0:0:0:
129,18,50403,1,2,0:0:0:0:
231,97,50593,2,0,B|287:149|358:125|358:125|364:91|401:56,1,220.000006713867,10|8,0:0|0:0,0:0:0:0:
506,0,51163,53,2,3:0:0:0:
506,0,51258,1,0,3:0:0:0:
506,0,51353,1,8,0:0:0:0:
512,118,51543,2,0,B|504:159|504:159|507:183|507:183|495:241,1,110.000003356934,2|8,3:0|0:0,0:0:0:0:
469,350,51922,1,2,0:0:0:0:
469,350,52112,1,10,0:0:0:0:
340,275,52302,54,0,B|332:216|332:216|324:199|324:199|326:174|326:174|305:33,1,220.000006713867,6|2,3:1|3:0,0:0:0:0:
194,10,52872,2,0,L|186:123,1,110.000003356934,10|0,0:0|3:0,0:0:0:0:
107,211,53251,1,10,0:0:0:0:
107,211,53346,1,0,3:0:0:0:
107,211,53441,1,2,2:3:0:0:
14,133,53631,1,10,0:0:0:0:
85,26,53821,86,0,L|214:6,1,110.000003356934,6|8,3:1|0:0,0:0:0:0:
295,63,54201,2,0,L|362:50,2,55.0000016784668,2|0|8,3:0|3:0|0:0,0:0:0:0:
230,147,54581,1,2,0:0:0:0:
228,156,54675,1,0,0:0:0:0:
225,165,54770,1,8,0:0:0:0:
223,174,54865,1,0,3:0:0:0:
220,183,54960,2,0,B|210:221|210:221|216:239|216:239|200:295,1,100,2|8,0:0|0:0,0:0:0:0:
310,377,55340,22,0,P|371:383|425:256,1,220.000006713867,6|2,3:2|3:0,0:0:0:0:
329,192,55910,2,0,B|284:185|284:185|266:189|266:189|211:181,1,110.000003356934,10|0,0:0|3:0,0:0:0:0:
167,85,56289,1,10,0:0:0:0:
58,67,56479,1,2,0:0:0:0:
0,160,56669,1,10,0:0:0:0:
95,231,56859,54,0,B|212:214,1,110.000003356934,6|8,3:0|0:0,0:0:0:0:
313,277,57239,1,2,3:0:0:0:
313,277,57334,1,0,3:0:0:0:
313,277,57429,1,8,0:0:0:0:
347,161,57619,2,0,P|333:105|354:39,1,110.000003356934,2|8,3:0|0:0,0:0:0:0:
351,46,57903,1,0,3:0:0:0:
360,40,57998,2,0,B|398:34|398:34|409:39|409:39|468:32,1,110.000003356934,2|8,0:0|0:0,0:0:0:0:
347,161,58378,22,0,B|309:155|309:155|298:160|298:160|238:153,1,110.000003356934,6|8,3:1|0:0,0:0:0:0:
152,67,58758,1,0,3:0:0:0:
152,67,58853,1,0,3:0:0:0:
152,67,58948,1,8,0:0:0:0:
61,146,59138,2,0,P|42:196|83:267,1,110.000003356934,2|8,3:0|0:0,0:0:0:0:
154,327,59517,2,0,L|226:332,3,55.0000016784668,0|0|0|0,3:0|3:0|3:0|3:0,0:0:0:0:
253,363,59897,38,0,P|248:259|280:134,1,220.000006713867,14|0,3:1|3:0,0:0:0:0:
356,42,60467,2,0,L|441:32,1,55.0000016784668,10|0,3:1|3:0,0:0:0:0:
458,39,60657,2,0,P|497:80|510:148,1,110.000003356934,2|0,3:1|3:0,0:0:0:0:
495,265,61036,54,0,L|421:235,1,55.0000016784668,10|0,3:1|3:2,0:0:0:0:
393,244,61226,2,0,L|319:271,1,55.0000016784668,10|0,3:1|3:2,0:0:0:0:
291,266,61416,38,0,P|243:238|172:243,1,110.000003356934,6|8,3:2|0:0,0:0:0:0:
75,289,61796,1,0,3:0:0:0:
75,289,61891,1,0,3:0:0:0:
75,289,61986,1,10,0:0:0:0:
17,182,62175,2,0,P|17:122|51:68,1,110.000003356934,2|8,3:2|0:0,0:0:0:0:
150,16,62555,1,2,0:0:0:0:
238,103,62745,2,0,B|255:187|255:187|248:233|248:233|270:327,1,220.000006713867,10|8,0:0|0:0,0:0:0:0:
390,384,63315,53,2,3:0:0:0:
390,384,63410,1,0,3:0:0:0:
390,384,63505,1,8,0:0:0:0:
480,309,63694,2,0,B|487:268|487:268|484:250|484:250|492:184,1,110.000003356934,2|8,3:0|0:0,0:0:0:0:
512,70,64074,1,2,0:0:0:0:
512,70,64264,1,10,0:0:0:0:
378,111,64454,54,0,B|313:96|313:96|269:36|269:36|191:19,1,220.000006713867,6|2,3:1|3:0,0:0:0:0:
85,78,65024,2,0,B|66:132|66:132|88:196,1,110.000003356934,10|0,0:0|3:0,0:0:0:0:
148,280,65403,1,10,0:0:0:0:
251,243,65593,1,2,0:0:0:0:
312,334,65783,1,10,0:0:0:0:
433,285,65973,86,0,B|455:239|455:239|425:158,1,110.000003356934,6|0,3:1|3:0,0:0:0:0:
426,175,66258,1,0,3:0:0:0:
418,166,66353,2,0,L|288:134,1,110.000003356934,0|0,3:0|3:0,0:0:0:0:
302,146,66638,1,0,3:0:0:0:
293,153,66732,2,0,L|152:159,1,110.000003356934,0|0,1:0|1:0,0:0:0:0:
69,118,67112,70,0,P|99:21|155:24,1,170.000003242493,10|8,3:1|3:1,0:0:0:0:
151,22,67682,69,12,0:0:0:0:
204,142,67872,1,2,3:0:0:0:
204,142,67967,1,0,3:0:0:0:
204,142,68062,2,0,L|190:255,1,110.000003356934,8|0,0:0|3:0,0:0:0:0:
253,356,68441,1,10,0:0:0:0:
335,288,68631,1,2,0:0:0:0:
418,366,68821,1,10,0:0:0:0:
510,265,69011,54,0,L|496:155,1,110.000003356934,6|8,3:0|0:0,0:0:0:0:
458,44,69391,1,2,3:0:0:0:
458,44,69486,1,0,3:0:0:0:
458,44,69581,1,8,0:0:0:0:
351,116,69770,2,0,B|308:125|308:125|282:99|244:94,1,110.000003356934,2|8,3:0|0:0,0:0:0:0:
241,101,70055,1,0,3:0:0:0:
232,108,70150,1,2,0:0:0:0:
166,197,70340,1,10,0:0:0:0:
48,162,70530,22,0,P|31:101|68:52,1,110.000003356934,6|8,3:1|0:0,0:0:0:0:
159,7,70910,1,0,3:0:0:0:
159,7,71005,1,0,3:0:0:0:
159,7,71100,1,8,0:0:0:0:
232,108,71289,2,0,P|279:135|333:127,1,110.000003356934,6|8,3:1|0:0,0:0:0:0:
346,104,71574,2,0,P|392:77|446:85,1,110.000003356934,8|8,0:3|0:3,0:0:0:0:
468,101,71859,1,8,0:0:0:0:
402,207,72049,37,2,1:0:0:0:
489,253,72239,1,0,1:0:0:0:
443,341,72429,1,0,1:0:0:0:
354,294,72619,1,2,1:0:0:0:
348,285,72713,1,2,1:0:0:0:
343,276,72808,1,8,1:3:0:0:
155,375,73188,22,0,B|184:272|134:292|176:186,1,187.5,10|0,3:2|0:0,0:0:0:0:
206,162,73568,70,0,L|320:153,1,100,6|10,3:2|0:0,0:0:0:0:
410,191,73948,1,2,3:0:0:0:
418,193,74043,1,0,3:0:0:0:
427,195,74138,1,8,0:0:0:0:
436,197,74232,1,0,0:0:0:0:
444,198,74327,2,0,P|463:139|431:82,1,100,2|8,3:0|0:0,0:0:0:0:
384,15,74707,1,2,0:0:0:0:
300,86,74897,1,8,0:0:0:0:
189,30,75087,54,0,B|139:15|139:15|69:24,1,100,6|8,3:3|0:0,0:0:0:0:
12,98,75467,1,2,3:0:0:0:
104,158,75657,1,8,0:0:0:0:
25,233,75846,1,2,3:0:0:0:
24,242,75941,1,0,0:0:0:0:
24,252,76036,1,8,0:0:0:0:
24,261,76131,1,0,3:0:0:0:
24,270,76226,2,0,B|3:320|3:320|36:370,1,100,2|8,0:0|0:0,0:0:0:0:
157,384,76606,54,0,L|168:252,1,100,6|10,3:1|0:0,0:0:0:0:
280,255,76986,1,2,3:0:0:0:
279,245,77081,1,0,3:0:0:0:
276,235,77175,1,8,0:0:0:0:
274,225,77270,1,0,0:0:0:0:
272,215,77365,2,0,L|249:99,1,100,2|8,3:0|0:0,0:0:0:0:
284,11,77745,1,2,0:0:0:0:
393,8,77935,1,8,0:0:0:0:
472,102,78125,86,0,L|485:33,2,66.6666666666667,6|0|0,0:3|0:0|0:0,0:0:0:0:
436,173,78505,2,0,L|448:238,2,66.6666666666667,2|0|0,3:0|0:0|0:0,0:0:0:0:
380,116,78884,1,2,3:0:0:0:
380,116,79011,2,0,P|349:108|306:108,1,66.6666666666667,0|0,0:0|0:0,0:0:0:0:
240,138,79264,1,2,0:0:0:0:
240,138,79391,2,0,P|209:146|166:146,1,66.6666666666667,0|0,0:0|0:0,0:0:0:0:
89,108,79644,22,0,B|67:-22,2,100,6|8|0,3:2|0:0|3:0,0:0:0:0:
58,215,80213,1,10,0:0:0:0:
56,224,80308,1,0,0:0:0:0:
55,233,80403,2,0,B|35:279|35:279|62:349,1,100,2|10,3:0|0:0,0:0:0:0:
147,382,80783,1,2,0:0:0:0:
226,307,80973,1,10,0:0:0:0:
331,381,81163,54,0,L|444:376,1,100,6|8,0:1|0:0,0:0:0:0:
502,292,81543,2,0,P|506:244|476:182,1,100,2|8,3:0|0:0,0:0:0:0:
479,191,81827,1,0,0:0:0:0:
470,185,81922,2,0,L|356:173,1,100,2|8,3:3|0:0,0:0:0:0:
264,205,82302,1,2,0:0:0:0:
216,106,82492,85,10,0:0:0:0:
225,102,82587,1,0,0:0:0:0:
234,99,82682,2,0,P|248:55|203:-13,1,100,6|10,3:1|0:0,0:0:0:0:
116,32,83062,2,0,P|97:77|111:124,1,100,0|10,3:0|0:0,0:0:0:0:
180,210,83441,53,6,3:3:0:0:
275,180,83631,1,8,0:0:0:0:
338,257,83821,1,0,3:0:0:0:
340,266,83916,1,0,3:0:0:0:
342,275,84011,1,0,3:0:0:0:
344,284,84106,1,0,3:0:0:0:
348,293,84201,38,0,B|383:344|383:344|468:331|472:247,1,200,14|0,3:1|3:0,0:0:0:0:
428,142,84770,2,0,B|371:100|388:17|388:17|337:97,1,200,14|0,3:1|3:0,0:0:0:0:
255,136,85340,2,0,L|170:123,3,50,14|0|0|0,1:1|1:0|1:0|1:0,0:0:0:0:
180,150,85720,86,0,L|175:26,2,119.999996337891,6|0|8,0:2|0:0|0:0,0:0:0:0:
391,203,87239,2,0,L|396:79,2,119.999996337891,2|8|8,0:0|0:1|0:0,0:0:0:0:
509,361,88758,2,0,P|436:332|367:328,1,119.999996337891,10|0,2:1|0:0,0:0:0:0:
279,295,89517,2,0,P|224:319|165:328,1,119.999996337891,8|8,0:0|0:1,0:0:0:0:
61,267,90277,2,0,L|56:143,2,119.999996337891,2|8|8,0:0|0:1|0:0,0:0:0:0:
289,367,91796,54,0,L|294:243,2,119.999996337891,10|0|8,0:1|0:0|0:0,0:0:0:0:
54,315,93315,2,0,L|49:191,2,119.999996337891,2|8|8,0:0|0:1|0:0,0:0:0:0:
264,199,94834,38,0,B|212:143|111:137|61:140|0:274|155:335|214:251|219:148|121:59,1,479.999985351563,8|6,0:3|0:2,0:0:0:0:
0,348,97872,6,0,L|148:332,1,119.999996337891,6|0,3:2|3:0,0:0:0:0:
180,277,98441,1,0,0:0:0:0:
180,277,98631,2,0,P|137:237|139:168,1,119.999996337891,2|2,3:2|3:0,0:0:0:0:
171,103,99201,1,0,0:0:0:0:
171,103,99391,2,0,L|293:80,1,119.999996337891,2|2,3:2|3:0,0:0:0:0:
368,25,99960,1,0,0:0:0:0:
368,25,100150,2,0,P|350:69|387:152,1,119.999996337891,2|2,3:2|3:0,0:0:0:0:
488,244,100910,54,0,P|506:299|486:355,1,119.999996337891,6|2,3:2|3:0,0:0:0:0:
403,373,101479,1,0,0:0:0:0:
403,373,101669,2,0,B|359:366|359:366|337:372|337:372|270:361,1,119.999996337891,2|2,3:0|3:0,0:0:0:0:
201,372,102239,1,0,0:0:0:0:
201,372,102429,2,0,L|189:252,1,119.999996337891,2|2,3:0|3:0,0:0:0:0:
130,194,102998,1,0,0:0:0:0:
130,194,103188,2,0,L|56:180,1,59.9999981689454,2|8,3:0|0:0,0:0:0:0:
16,113,103568,2,0,P|14:80|35:43,1,59.9999981689454,2|8,3:2|0:0,0:0:0:0:
97,0,103948,37,6,0:0:0:0:
0,271,106986,37,6,3:1:0:0:
191,212,107365,1,6,3:1:0:0:
71,371,107745,1,6,3:1:0:0:
74,171,108125,1,6,3:1:0:0:
189,334,108505,1,8,2:2:0:0:
194,343,108600,1,8,2:2:0:0:
199,352,108694,2,0,B|235:381|235:381|275:360,1,89.9999972534181,8|8,2:1|2:0,0:0:0:0:
343,226,109264,6,0,P|337:190|363:130,1,75.0000028610231,10|10,0:3|0:0,0:0:0:0:
379,132,109549,2,0,B|400:166|444:155|444:155|440:128|400:119,1,112.500004291535,8|10,0:0|0:3,0:0:0:0:
319,48,110024,86,0,B|284:40|284:40|261:51|261:51|210:41,1,110.000003356934,6|8,3:2|0:0,0:0:0:0:
107,5,110403,1,0,3:0:0:0:
107,5,110498,1,0,3:0:0:0:
107,5,110593,1,10,0:0:0:0:
28,96,110783,2,0,P|8:142|36:204,1,110.000003356934,2|8,3:2|0:0,0:0:0:0:
115,280,111163,1,2,0:0:0:0:
241,252,111353,2,0,B|359:242|284:374|408:372,1,220.000006713867,10|8,0:0|0:0,0:0:0:0:
512,297,111922,53,2,3:0:0:0:
512,297,112017,1,0,3:0:0:0:
512,297,112112,1,8,0:0:0:0:
454,190,112302,2,0,B|446:151|446:151|451:126|451:126|437:67,1,110.000003356934,2|8,3:0|0:0,0:0:0:0:
345,6,112682,1,2,0:0:0:0:
345,6,112872,1,10,0:0:0:0:
268,111,113062,54,0,B|248:158|254:200|254:200|274:226|274:226|281:283|252:319,1,220.000006713867,6|2,3:1|3:0,0:0:0:0:
143,381,113631,2,0,P|141:318|118:271,1,110.000003356934,10|0,0:0|3:0,0:0:0:0:
23,203,114011,1,10,0:0:0:0:
23,203,114106,1,0,3:0:0:0:
23,203,114201,1,2,0:3:0:0:
24,81,114391,1,10,0:0:0:0:
134,20,114581,86,0,B|180:23|180:23|196:38|196:38|255:55,1,110.000003356934,6|8,3:1|0:0,0:0:0:0:
357,51,114960,2,0,B|382:44|382:44|387:46|387:46|422:36,2,55.0000016784668,2|0|8,3:0|3:0|0:0,0:0:0:0:
291,153,115340,1,2,0:0:0:0:
289,162,115435,1,0,0:0:0:0:
286,171,115530,1,8,0:0:0:0:
284,180,115625,1,0,3:0:0:0:
281,189,115720,2,0,B|264:242|264:242|287:298,1,110.000003356934,2|8,0:0|0:0,0:0:0:0:
405,371,116100,22,0,B|441:383|441:383|430:341|452:294|452:294|491:274|506:216,1,220.000006713867,6|2,3:2|3:0,0:0:0:0:
458,110,116669,2,0,B|422:98|422:98|396:109|396:109|349:109,1,110.000003356934,10|0,0:0|3:0,0:0:0:0:
255,177,117049,1,10,0:0:0:0:
225,70,117239,1,2,0:0:0:0:
117,42,117429,1,10,0:0:0:0:
26,132,117619,54,0,B|0:181|0:181|12:246,1,110.000003356934,6|8,3:0|0:0,0:0:0:0:
60,347,117998,1,2,3:0:0:0:
60,347,118093,1,0,3:0:0:0:
60,347,118188,1,8,0:0:0:0:
161,292,118378,2,0,P|205:277|284:293,1,110.000003356934,2|8,3:0|0:0,0:0:0:0:
276,290,118663,1,0,3:0:0:0:
284,297,118758,2,0,P|336:312|390:304,1,110.000003356934,2|8,0:0|0:0,0:0:0:0:
501,222,119138,22,0,B|496:191|496:191|500:172|500:172|493:112,1,110.000003356934,6|8,3:1|0:0,0:0:0:0:
414,27,119517,1,0,3:0:0:0:
414,27,119612,1,0,3:0:0:0:
414,27,119707,1,8,0:0:0:0:
322,106,119897,2,0,P|266:125|198:103,1,110.000003356934,2|8,3:0|0:0,0:0:0:0:
114,50,120277,2,0,P|96:32|51:20,3,55.0000016784668,0|0|0|0,3:0|3:0|3:0|3:0,0:0:0:0:
28,46,120657,38,0,B|29:83|18:116|18:116|24:114|24:114|-17:183|28:261,1,220.000006713867,14|0,3:1|3:0,0:0:0:0:
107,352,121226,2,0,L|196:339,1,55.0000016784668,10|0,3:1|3:0,0:0:0:0:
205,320,121416,2,0,B|209:279|209:279|205:261|205:261|210:210,1,110.000003356934,2|0,3:1|3:0,0:0:0:0:
294,119,121796,54,0,P|323:111|363:111,1,55.0000016784668,10|0,3:1|3:2,0:0:0:0:
389,137,121986,2,0,P|398:164|440:197,1,55.0000016784668,10|0,3:1|3:2,0:0:0:0:
463,193,122175,38,0,B|491:146|491:146|460:81,1,110.000003356934,6|8,3:2|0:0,0:0:0:0:
390,5,122555,1,0,3:0:0:0:
390,5,122650,1,0,3:0:0:0:
390,5,122745,1,10,0:0:0:0:
300,86,122935,2,0,B|247:108|247:108|186:80,1,110.000003356934,2|8,3:2|0:0,0:0:0:0:
94,16,123315,1,2,0:0:0:0:
13,116,123505,2,0,B|-18:194|16:275|16:275|66:312,1,220.000006713867,10|8,0:0|0:0,0:0:0:0:
189,372,124074,53,2,3:0:0:0:
189,372,124169,1,0,3:0:0:0:
189,372,124264,1,8,0:0:0:0:
254,270,124454,2,0,B|259:230|259:230|256:215|256:215|266:145,1,110.000003356934,2|8,3:0|0:0,0:0:0:0:
324,51,124834,1,2,0:0:0:0:
324,51,125024,1,10,0:0:0:0:
440,126,125213,54,0,B|477:146|477:146|517:119|517:20|442:7,1,220.000006713867,6|2,3:1|3:0,0:0:0:0:
324,51,125783,2,0,B|204:37,1,110.000003356934,10|0,0:0|3:0,0:0:0:0:
110,2,126163,1,10,0:0:0:0:
37,85,126353,1,2,0:0:0:0:
141,121,126543,1,10,0:0:0:0:
33,201,126732,86,0,P|7:239|24:323,1,110.000003356934,6|0,3:1|3:0,0:0:0:0:
16,310,127017,1,0,3:0:0:0:
22,317,127112,2,0,L|153:309,1,110.000003356934,0|0,3:0|3:0,0:0:0:0:
141,317,127397,1,0,3:0:0:0:
147,326,127492,2,0,L|283:357,1,110.000003356934,0|0,1:0|1:0,0:0:0:0:
384,382,127872,70,0,B|342:352|346:297|346:297|374:274|392:238,1,170.000003242493,10|8,3:1|3:1,0:0:0:0:
390,240,128441,69,12,0:0:0:0:
327,144,128631,1,2,3:0:0:0:
327,144,128726,1,0,3:0:0:0:
327,144,128821,2,0,B|285:134|285:134|269:139|269:139|215:127,1,110.000003356934,8|0,0:0|3:0,0:0:0:0:
127,48,129201,1,10,0:0:0:0:
235,26,129391,1,2,0:0:0:0:
343,4,129581,1,10,0:0:0:0:
427,97,129770,54,0,P|442:151|413:207,1,110.000003356934,6|8,3:0|0:0,0:0:0:0:
338,276,130150,1,2,3:0:0:0:
338,276,130245,1,0,3:0:0:0:
338,276,130340,1,8,0:0:0:0:
240,204,130530,2,0,B|194:173|194:173|145:198,1,110.000003356934,2|8,3:0|0:0,0:0:0:0:
140,207,130815,1,0,3:0:0:0:
134,216,130910,1,2,0:0:0:0:
76,309,131100,1,10,0:0:0:0:
0,205,131289,22,0,L|21:93,1,110.000003356934,6|8,3:1|0:0,0:0:0:0:
116,17,131669,1,0,3:0:0:0:
116,17,131764,1,0,3:0:0:0:
116,17,131859,1,8,0:0:0:0:
206,97,132049,2,0,B|228:224,1,110.000003356934,6|8,3:1|0:0,0:0:0:0:
244,232,132334,2,0,B|292:258|292:258|342:233,1,110.000003356934,8|8,0:3|0:3,0:0:0:0:
370,216,132619,1,8,0:0:0:0:
402,113,132808,37,2,1:0:0:0:
305,127,132998,1,0,1:0:0:0:
291,30,133188,1,0,1:0:0:0:
389,18,133378,1,2,1:0:0:0:
399,15,133473,1,2,1:0:0:0:
409,13,133568,1,8,1:3:0:0:
225,87,133948,22,0,B|157:68|157:68|112:92|112:92|54:75,1,179.999994506836,10|0,3:2|0:0,0:0:0:0:
28,93,134327,38,0,P|2:152|41:222,1,110.000003356934,6|8,3:2|0:0,0:0:0:0:
103,275,134707,1,2,3:0:0:0:
103,275,134802,1,0,3:0:0:0:
103,275,134897,2,0,B|232:257,1,110.000003356934,8|0,0:0|3:0,0:0:0:0:
318,319,135277,1,10,0:0:0:0:
387,233,135467,1,2,0:0:0:0:
387,233,135657,1,10,0:0:0:0:
291,161,135846,54,0,P|272:110|291:47,1,110.000003356934,6|8,3:3|0:0,0:0:0:0:
292,50,136131,1,2,0:0:0:0:
301,44,136226,2,0,L|414:31,1,110.000003356934,2|10,3:0|0:0,0:0:0:0:
503,119,136606,2,0,P|515:171|496:222,1,110.000003356934,2|8,3:3|0:0,0:0:0:0:
470,243,136891,2,0,L|351:259,1,110.000003356934,2|0,0:0|3:0,0:0:0:0:
344,286,137175,1,8,0:0:0:0:
247,213,137365,54,0,P|260:160|234:102,1,110.000003356934,6|8,3:1|0:0,0:0:0:0:
233,101,137650,1,2,0:0:0:0:
224,93,137745,2,0,L|110:85,1,110.000003356934,2|10,3:0|0:0,0:0:0:0:
13,150,138125,2,0,P|-14:228|7:309,2,165.000005035401,2|2|10,0:0|3:0|0:0,0:0:0:0:
114,85,138884,54,0,L|238:71,1,110.000003356934,6|8,3:3|0:0,0:0:0:0:
329,141,139264,1,2,3:0:0:0:
329,141,139359,1,0,3:0:0:0:
329,141,139454,1,8,0:0:0:0:
434,113,139644,2,0,B|466:68|466:68|425:29,1,110.000003356934,2|8,3:0|0:0,0:0:0:0:
329,141,140024,2,0,B|297:186|297:186|338:224,1,110.000003356934,2|8,0:0|0:0,0:0:0:0:
454,286,140403,86,0,P|466:350|405:361,1,110.000003356934,6|8,3:1|0:0,0:0:0:0:
331,328,140783,1,2,3:0:0:0:
230,372,140973,1,8,0:0:0:0:
140,308,141163,1,2,3:0:0:0:
144,298,141258,1,0,0:0:0:0:
147,287,141353,1,8,0:0:0:0:
150,276,141448,1,0,3:0:0:0:
152,265,141543,2,0,L|132:139,1,110.000003356934,2|8,0:0|0:0,0:0:0:0:
43,65,141922,54,0,B|92:88|92:88|144:60,1,110.000003356934,6|8,3:0|0:0,0:0:0:0:
239,11,142302,1,2,3:0:0:0:
319,86,142492,1,8,0:0:0:0:
279,188,142682,1,2,3:0:0:0:
276,198,142777,1,0,0:0:0:0:
273,208,142872,1,8,0:0:0:0:
270,218,142967,1,0,3:0:0:0:
268,228,143062,2,0,B|251:280|251:280|293:338,1,110.000003356934,2|8,0:0|0:0,0:0:0:0:
416,384,143441,54,0,L|428:249,1,110.000003356934,6|8,3:1|0:0,0:0:0:0:
433,266,143726,1,2,0:0:0:0:
441,259,143821,2,0,L|453:124,1,110.000003356934,2|10,3:0|0:0,0:0:0:0:
493,34,144201,2,0,P|434:59|392:47,1,110.000003356934,2|10,3:0|0:0,0:0:0:0:
382,41,144486,1,0,0:0:0:0:
372,34,144581,2,0,P|323:9|271:20,1,110.000003356934,0|0,3:0|3:0,0:0:0:0:
193,137,144960,6,0,B|201:186|227:200|227:200|224:211|224:211|270:255|249:343,1,220.000006713867,14|0,3:1|3:0,0:0:0:0:
125,384,145530,2,0,B|111:375|106:361|106:361|103:364|103:364|113:340|94:303|94:303|92:304|92:304|115:238|67:178,1,220.000006713867,14|0,3:1|3:0,0:0:0:0:
0,95,146100,2,0,B|5:78|5:78|4:67|4:67|16:28,3,50,14|0|0|0,1:1|1:0|1:0|1:0,0:0:0:0:
42,27,146479,102,0,L|149:20,1,94.9999974632264,6|8,0:2|0:0,0:0:0:0:
226,77,146859,1,2,3:0:0:0:
223,86,146954,1,0,3:0:0:0:
220,95,147049,1,8,0:0:0:0:
217,104,147144,1,0,3:0:0:0:
215,113,147239,2,0,P|203:163|232:211,1,94.9999974632264,2|8,3:0|0:0,0:0:0:0:
296,274,147619,1,2,0:0:0:0:
400,275,147808,1,8,0:0:0:0:
472,193,147998,54,0,P|484:143|455:95,1,94.9999974632264,6|8,3:0|0:0,0:0:0:0:
392,30,148378,1,2,3:0:0:0:
311,96,148568,1,8,0:0:0:0:
226,38,148758,1,2,3:0:0:0:
217,34,148853,1,0,0:0:0:0:
208,30,148948,1,8,0:0:0:0:
199,25,149043,1,0,3:0:0:0:
190,21,149138,2,0,B|155:22|155:22|136:30|136:30|72:38,1,94.9999974632264,2|8,0:0|0:0,0:0:0:0:
18,108,149517,54,0,P|7:167|30:208,1,94.9999974632264,6|8,3:3|0:0,0:0:0:0:
103,261,149897,1,2,3:0:0:0:
111,257,149992,1,0,3:0:0:0:
120,254,150087,1,8,0:0:0:0:
128,250,150182,1,0,3:0:0:0:
137,248,150277,2,0,B|176:244|176:244|188:251|188:251|241:249,1,94.9999974632264,2|8,3:0|0:0,0:0:0:0:
313,185,150657,1,2,0:0:0:0:
245,105,150846,1,8,0:0:0:0:
334,23,151036,54,0,L|442:10,1,94.9999974632264,6|8,3:0|0:0,0:0:0:0:
503,85,151416,1,2,3:0:0:0:
435,164,151606,1,8,0:0:0:0:
494,249,151796,1,2,3:0:0:0:
497,257,151891,1,0,0:0:0:0:
500,265,151986,1,8,0:0:0:0:
503,274,152081,1,0,3:0:0:0:
507,282,152175,2,0,B|526:326|526:326|501:374,1,94.9999974632264,2|8,0:0|0:0,0:0:0:0:
389,384,152555,54,0,L|377:271,1,94.9999974632264,6|8,3:2|0:0,0:0:0:0:
336,191,152935,1,2,3:0:0:0:
327,195,153030,1,0,3:0:0:0:
318,200,153125,1,8,0:0:0:0:
309,203,153220,1,0,3:0:0:0:
300,207,153315,2,0,B|264:200|264:200|258:189|258:189|207:180,1,94.9999974632264,2|8,3:0|0:0,0:0:0:0:
150,265,153694,1,2,0:0:0:0:
47,246,153884,1,8,0:0:0:0:
2,141,154074,54,0,P|4:90|30:46,1,94.9999974632264,6|8,3:0|0:0,0:0:0:0:
116,1,154454,1,2,3:0:0:0:
200,63,154644,1,8,0:0:0:0:
297,29,154834,1,2,3:0:0:0:
306,28,154929,1,0,0:0:0:0:
315,26,155024,1,8,0:0:0:0:
324,24,155119,1,0,3:0:0:0:
333,21,155213,2,0,B|368:22|368:22|383:29|383:29|451:38,1,94.9999974632264,2|8,0:0|0:0,0:0:0:0:
510,116,155593,54,0,P|525:160|509:205,1,94.9999974632264,6|8,3:1|0:0,0:0:0:0:
434,277,155973,1,2,3:0:0:0:
426,273,156068,1,0,3:0:0:0:
417,270,156163,1,8,0:0:0:0:
409,266,156258,1,0,3:0:0:0:
400,264,156353,2,0,P|358:241|311:242,1,94.9999974632264,2|8,3:0|0:0,0:0:0:0:
246,320,156732,2,0,P|204:342|157:341,1,94.9999974632264,2|8,3:0|3:2,0:0:0:0:
74,285,157112,5,14,0:1:0:0:
128,226,157302,1,10,0:1:0:0:
89,156,157492,1,10,0:1:0:0:
10,169,157682,1,10,0:1:0:0:
0,249,157872,1,10,0:1:0:0:
512,117,167745,117,6,3:1:0:0:
321,58,168125,1,6,3:1:0:0:
441,217,168505,1,6,3:1:0:0:
438,17,168884,1,6,3:1:0:0:
323,180,169264,1,8,2:2:0:0:
318,189,169359,1,8,2:2:0:0:
312,197,169454,2,0,P|256:200|220:179,1,89.9999972534181,8|8,2:1|2:0,0:0:0:0:
144,59,170024,6,0,B|173:53|173:53|182:56|182:56|217:50,1,75.0000028610231,10|10,0:3|0:0,0:0:0:0:
255,54,170308,2,0,B|293:62|293:62|320:32|375:26,1,112.500004291535,8|10,0:0|0:3,0:0:0:0:
471,98,170783,86,0,B|489:218,1,110.000003356934,6|8,3:2|0:0,0:0:0:0:
447,321,171163,1,0,3:0:0:0:
447,321,171258,1,0,3:0:0:0:
447,321,171353,1,10,0:0:0:0:
344,256,171543,2,0,B|296:229|296:229|242:262,1,110.000003356934,2|8,3:2|0:0,0:0:0:0:
160,347,171922,1,2,0:0:0:0:
40,294,172112,2,0,B|35:264|24:250|24:250|28:242|28:242|5:164|47:81,1,220.000006713867,10|8,0:0|0:0,0:0:0:0:
162,12,172682,53,2,3:0:0:0:
162,12,172777,1,0,3:0:0:0:
162,12,172872,1,8,0:0:0:0:
199,127,173062,2,0,B|209:165|209:165|207:177|207:177|221:252,1,110.000003356934,2|8,3:0|0:0,0:0:0:0:
289,336,173441,1,2,0:0:0:0:
289,336,173631,1,10,0:0:0:0:
412,290,173821,54,0,B|426:231|426:231|421:199|421:199|447:48,1,220.000006713867,6|2,3:1|3:0,0:0:0:0:
331,13,174391,2,0,P|296:46|208:35,1,110.000003356934,10|0,0:0|3:0,0:0:0:0:
136,4,174770,1,10,0:0:0:0:
136,4,174865,1,0,3:0:0:0:
136,4,174960,1,2,0:3:0:0:
48,87,175150,1,10,0:0:0:0:
144,179,175340,86,0,B|180:174|180:174|193:179|193:179|266:174,1,110.000003356934,6|8,3:1|0:0,0:0:0:0:
355,110,175720,2,0,L|368:42,2,55.0000016784668,2|0|8,3:0|3:0|0:0,0:0:0:0:
424,210,176100,1,2,0:0:0:0:
426,219,176194,1,0,0:0:0:0:
429,228,176289,1,8,0:0:0:0:
431,237,176384,1,0,3:0:0:0:
434,246,176479,2,0,B|459:297|459:297|428:357,1,110.000003356934,2|8,0:0|0:0,0:0:0:0:
306,384,176859,22,0,B|300:348|300:348|301:340|301:340|297:335|297:335|270:149,1,220.000006713867,6|2,3:2|3:0,0:0:0:0:
187,80,177429,2,0,B|167:205,1,110.000003356934,10|0,0:0|3:0,0:0:0:0:
73,241,177808,1,10,0:0:0:0:
21,143,177998,1,2,0:0:0:0:
65,42,178188,1,10,0:0:0:0:
187,80,178378,54,0,B|240:97|240:97|290:79,1,110.000003356934,6|8,3:0|0:0,0:0:0:0:
402,26,178758,1,2,3:0:0:0:
402,26,178853,1,0,3:0:0:0:
402,26,178948,1,8,0:0:0:0:
493,105,179138,2,0,P|512:158|490:210,1,110.000003356934,2|8,3:0|0:0,0:0:0:0:
486,214,179422,1,0,3:0:0:0:
479,222,179517,2,0,B|441:216|441:216|428:222|428:222|371:214,1,110.000003356934,2|8,0:0|0:0,0:0:0:0:
253,145,179897,22,0,P|260:86|228:32,1,110.000003356934,6|8,3:1|0:0,0:0:0:0:
131,6,180277,1,0,3:0:0:0:
131,6,180372,1,0,3:0:0:0:
131,6,180467,1,8,0:0:0:0:
44,91,180657,2,0,L|56:217,1,110.000003356934,2|8,3:0|0:0,0:0:0:0:
114,305,181036,2,0,L|170:315,3,55.0000016784668,0|0|0|0,3:0|3:0|3:0|3:0,0:0:0:0:
198,340,181416,38,0,B|198:309|190:292|190:292|193:286|193:286|170:189|209:126,1,220.000006713867,14|0,3:1|3:0,0:0:0:0:
281,32,181986,2,0,B|302:26|302:26|309:29|309:29|333:23,1,55.0000016784668,10|0,3:1|3:0,0:0:0:0:
383,17,182175,2,0,P|424:39|440:106,1,110.000003356934,2|0,3:1|3:0,0:0:0:0:
391,213,182555,54,0,L|316:200,1,55.0000016784668,10|0,3:1|3:2,0:0:0:0:
290,185,182745,2,0,L|262:100,1,55.0000016784668,10|0,3:1|3:2,0:0:0:0:
249,85,182935,38,0,P|204:52|129:61,1,110.000003356934,6|8,3:2|0:0,0:0:0:0:
36,90,183315,1,0,3:0:0:0:
36,90,183410,1,0,3:0:0:0:
36,90,183505,1,10,0:0:0:0:
65,206,183694,2,0,B|73:248|73:248|71:264|71:264|83:331,1,110.000003356934,2|8,3:2|0:0,0:0:0:0:
183,384,184074,1,2,0:0:0:0:
277,300,184264,2,0,B|296:217|296:217|286:178|286:178|309:76,1,220.000006713867,10|8,0:0|0:0,0:0:0:0:
416,0,184834,53,2,3:0:0:0:
416,0,184929,1,0,3:0:0:0:
416,0,185024,1,8,0:0:0:0:
493,92,185213,2,0,B|500:133|500:133|496:155|496:155|505:217,1,110.000003356934,2|8,3:0|0:0,0:0:0:0:
452,311,185593,1,2,0:0:0:0:
452,311,185783,1,10,0:0:0:0:
364,227,185973,54,0,B|312:204|262:254|262:254|261:252|261:252|225:296|161:278,1,220.000006713867,6|2,3:1|3:0,0:0:0:0:
61,217,186543,2,0,B|51:100,1,110.000003356934,10|0,0:0|3:0,0:0:0:0:
124,16,186922,1,10,0:0:0:0:
199,95,187112,1,2,0:0:0:0:
276,17,187302,1,10,0:0:0:0:
381,95,187492,86,0,B|408:142|408:142|391:212,1,110.000003356934,6|0,3:1|3:0,0:0:0:0:
391,206,187777,1,0,3:0:0:0:
386,216,187872,2,0,B|341:206|341:206|325:211|325:211|254:198,1,110.000003356934,0|0,3:0|3:0,0:0:0:0:
267,201,188157,1,0,3:0:0:0:
256,197,188251,2,0,B|211:167|211:167|129:182,1,110.000003356934,0|0,1:0|1:0,0:0:0:0:
65,262,188631,70,0,P|95:359|152:347,1,170.000003242493,10|8,3:1|3:1,0:0:0:0:
143,352,189201,69,12,0:0:0:0:
253,302,189391,1,2,3:0:0:0:
253,302,189486,1,0,3:0:0:0:
253,302,189581,2,0,L|239:189,1,110.000003356934,8|0,0:0|3:0,0:0:0:0:
229,83,189960,1,10,0:0:0:0:
308,6,190150,1,2,0:0:0:0:
417,17,190340,1,10,0:0:0:0:
478,123,190530,54,0,L|469:264,1,110.000003356934,6|8,3:0|0:0,0:0:0:0:
464,354,190910,1,2,3:0:0:0:
464,354,191005,1,0,3:0:0:0:
464,354,191100,1,8,0:0:0:0:
368,281,191289,2,0,P|327:253|261:259,1,110.000003356934,2|8,3:0|0:0,0:0:0:0:
260,262,191574,1,0,3:0:0:0:
252,270,191669,1,2,0:0:0:0:
182,356,191859,1,10,0:0:0:0:
85,263,192049,22,0,L|83:150,1,110.000003356934,6|8,3:1|0:0,0:0:0:0:
120,41,192429,1,0,3:0:0:0:
120,41,192524,1,0,3:0:0:0:
120,41,192619,1,8,0:0:0:0:
229,91,192808,2,0,B|281:106|281:106|334:85,1,110.000003356934,6|8,3:1|0:0,0:0:0:0:
356,70,193093,2,0,B|407:49|407:49|459:64,1,110.000003356934,8|8,0:3|0:3,0:0:0:0:
480,83,193378,1,8,0:0:0:0:
411,153,193568,37,2,1:0:0:0:
504,181,193758,1,0,1:0:0:0:
476,275,193948,1,0,1:0:0:0:
379,246,194138,1,2,1:0:0:0:
369,240,194232,1,2,1:0:0:0:
359,235,194327,1,8,1:3:0:0:
271,367,194707,86,0,P|304:345|265:276,1,120,10|0,0:0|0:0,0:0:0:0:
265,275,195087,38,0,L|154:287,1,85.0000016212464,14|0,2:1|3:0,0:0:0:0:
172,291,195372,1,0,3:0:0:0:
165,299,195467,2,0,L|54:311,1,85.0000016212464,10|0,0:0|3:0,0:0:0:0:
6,250,195846,2,0,P|-3:206|34:152,1,85.0000016212464,10|0,0:0|3:0,0:0:0:0:
91,120,196226,1,8,0:0:0:0:
166,175,196416,1,0,3:0:0:0:
264,142,196606,54,0,B|304:130|304:130|364:149,1,85.0000016212464,10|0,0:0|3:0,0:0:0:0:
354,149,196891,1,0,3:0:0:0:
362,155,196986,2,0,B|402:167|402:167|462:148,1,85.0000016212464,10|0,0:0|3:0,0:0:0:0:
506,84,197365,1,10,0:0:0:0:
440,24,197555,1,2,3:1:0:0:
440,24,197650,1,2,3:0:0:0:
440,24,197745,2,0,B|400:12|400:12|358:25,1,85.0000016212464,10|0,0:0|3:0,0:0:0:0:
269,88,198125,54,0,B|229:100|229:100|187:87,1,85.0000016212464,14|0,0:1|3:0,0:0:0:0:
178,82,198410,1,0,3:0:0:0:
168,76,198505,2,0,B|126:63|126:63|86:75,1,85.0000016212464,10|0,0:0|3:0,0:0:0:0:
16,136,198884,2,0,L|17:235,1,85.0000016212464,10|0,0:0|3:0,0:0:0:0:
51,308,199264,1,10,0:0:0:0:
136,270,199454,1,0,3:0:0:0:
217,336,199644,54,0,P|286:366|383:313,2,170.000003242493,14|14|8,0:1|0:1|0:0,0:0:0:0:
136,270,200593,1,2,3:0:0:0:
176,195,200783,1,10,0:0:0:0:
145,115,200973,1,2,3:0:0:0:
190,29,201163,22,0,B|222:24|222:24|234:32|234:32|297:26,1,85.0000016212464,14|0,0:1|3:0,0:0:0:0:
280,34,201448,1,0,3:0:0:0:
288,40,201543,2,0,B|345:35|345:35|370:48|370:48|468:37,1,170.000003242493,8|8,0:0|0:0,0:0:0:0:
512,124,202112,1,2,3:0:0:0:
469,197,202302,1,10,0:0:0:0:
496,277,202492,1,2,3:0:0:0:
418,357,202682,54,0,B|365:356|369:348|311:368|315:374|249:360,1,170.000003242493,10|8,0:0|0:0,0:0:0:0:
184,293,203251,1,2,3:0:0:0:
184,293,203346,1,2,3:0:0:0:
184,293,203441,1,10,0:0:0:0:
249,226,203631,2,0,P|270:176|262:131,1,85.0000016212464,6|8,3:1|0:0,0:0:0:0:
234,58,204011,1,2,3:0:0:0:
129,23,204201,54,0,L|31:12,1,85.0000016212464,14|0,0:1|3:0,0:0:0:0:
34,17,204486,1,0,3:0:0:0:
25,22,204581,1,8,0:0:0:0:
80,100,204770,1,2,3:0:0:0:
7,170,204960,2,0,P|-10:222|0:261,1,85.0000016212464,10|0,0:0|3:0,0:0:0:0:
1,259,205245,1,2,3:0:0:0:
7,267,205340,2,0,L|98:278,1,85.0000016212464,10|0,0:0|3:0,0:0:0:0:
202,232,205720,54,0,B|218:175|218:175|211:137|211:137|236:49,1,170.000003242493,14|14,0:1|0:1,0:0:0:0:
311,20,206289,1,0,0:0:0:0:
391,66,206479,2,0,L|402:157,1,85.0000016212464,10|0,0:0|3:0,0:0:0:0:
471,213,206859,2,0,L|453:323,1,85.0000016212464,10|0,0:0|3:0,0:0:0:0:
377,379,207239,86,0,P|348:346|305:341,1,89.9999972534181,14|0,3:1|3:0,0:0:0:0:
296,345,207524,1,0,3:0:0:0:
288,350,207619,2,0,P|257:365|191:337,1,89.9999972534181,10|0,0:0|3:0,0:0:0:0:
136,281,207998,2,0,L|127:181,1,89.9999972534181,10|0,0:0|3:3,0:0:0:0:
36,149,208378,1,8,0:0:0:0:
35,58,208568,1,0,3:3:0:0:
134,19,208758,54,0,B|167:18|167:18|177:27|177:27|228:31,1,89.9999972534181,10|0,0:0|3:0,0:0:0:0:
229,29,209043,1,0,3:0:0:0:
237,28,209138,2,0,B|270:27|270:27|280:36|280:36|331:40,1,89.9999972534181,10|0,0:0|3:0,0:0:0:0:
415,15,209517,1,10,0:0:0:0:
504,71,209707,1,2,0:0:0:0:
504,71,209802,1,2,0:0:0:0:
504,71,209897,2,0,L|491:177,1,89.9999972534181,10|0,0:0|3:0,0:0:0:0:
435,244,210277,54,0,P|393:222|344:222,1,89.9999972534181,14|0,0:1|3:0,0:0:0:0:
342,224,210562,1,0,3:0:0:0:
334,228,210657,2,0,P|294:249|250:251,1,89.9999972534181,10|0,0:0|3:0,0:0:0:0:
172,189,211036,2,0,P|132:168|87:166,1,89.9999972534181,10|0,0:0|3:0,0:0:0:0:
0,220,211416,1,10,0:0:0:0:
6,309,211606,1,0,3:0:0:0:
100,353,211796,54,0,B|137:353|137:353|149:361|149:361|192:371,1,89.9999972534181,14|0,0:1|3:0,0:0:0:0:
195,369,212081,1,0,3:0:0:0:
203,366,212175,2,0,P|225:307|200:277,1,89.9999972534181,14|0,0:1|3:0,0:0:0:0:
141,219,212555,2,0,P|111:133|178:50,1,179.999994506836,10|8,0:0|0:0,0:0:0:0:
263,27,213125,21,2,3:0:0:0:
263,27,213220,1,2,3:0:0:0:
263,27,213315,2,0,B|307:25|307:25|325:30|325:30|379:31,1,100,14|0,0:1|3:0,0:0:0:0:
466,67,213694,2,0,B|496:108|496:108|466:177,1,100,10|0,0:0|3:0,0:0:0:0:
405,237,214074,1,8,0:0:0:0:
324,176,214264,1,0,3:0:0:0:
253,265,214454,54,0,P|187:270|133:233,1,100,10|0,0:0|3:0,0:0:0:0:
117,152,214834,2,0,B|167:91|111:12|111:12|43:48,1,200,10|8,0:1|0:0,0:0:0:0:
0,125,215403,53,2,3:0:0:0:
0,125,215498,1,2,3:0:0:0:
0,125,215593,1,10,0:0:0:0:
54,208,215783,1,6,3:1:0:0:
142,162,215973,2,0,P|188:151|244:162,1,100,8|0,0:0|3:0,0:0:0:0:
324,249,216353,86,0,B|311:300|311:300|340:358,1,100,14|0,3:1|3:0,0:0:0:0:
342,351,216638,1,0,3:0:0:0:
350,361,216732,2,0,L|460:347,1,100,10|0,3:1|3:0,0:0:0:0:
512,256,217112,1,10,3:1:0:0:
501,247,217207,1,0,3:0:0:0:
491,237,217302,1,0,3:0:0:0:
482,226,217397,1,0,3:0:0:0:
474,215,217492,2,0,B|488:166|488:166|465:122,1,100,14|0,3:1|3:0,0:0:0:0:
14,35,219011,37,14,0:1:0:0:
14,35,219201,1,14,0:1:0:0:
80,123,219391,102,0,L|194:110,1,100,6|10,3:2|0:0,0:0:0:0:
265,179,219770,1,2,3:0:0:0:
264,189,219865,1,0,3:0:0:0:
263,199,219960,1,8,0:0:0:0:
261,208,220055,1,0,0:0:0:0:
260,218,220150,2,0,P|251:263|267:322,1,100,2|8,3:0|0:0,0:0:0:0:
352,380,220530,1,2,0:0:0:0:
461,371,220720,1,8,0:0:0:0:
512,263,220910,54,0,P|523:219|496:152,1,100,6|8,3:3|0:0,0:0:0:0:
437,78,221289,1,2,3:0:0:0:
353,150,221479,1,8,0:0:0:0:
269,78,221669,1,2,3:0:0:0:
261,72,221764,1,0,0:0:0:0:
254,65,221859,1,8,0:0:0:0:
246,59,221954,1,0,3:0:0:0:
238,53,222049,2,0,B|195:31|195:31|125:43,1,100,2|8,0:0|0:0,0:0:0:0:
51,124,222429,54,0,L|59:229,1,100,6|10,3:1|0:0,0:0:0:0:
121,314,222808,1,2,3:0:0:0:
129,308,222903,1,0,3:0:0:0:
138,301,222998,1,8,0:0:0:0:
146,296,223093,1,0,0:0:0:0:
154,290,223188,2,0,P|196:269|253:274,1,100,2|8,3:0|0:0,0:0:0:0:
342,329,223568,1,2,0:0:0:0:
424,257,223758,1,8,0:0:0:0:
354,164,223948,86,0,L|282:151,2,66.6666666666667,6|0|0,0:3|0:0|0:0,0:0:0:0:
426,129,224327,2,0,L|498:116,2,66.6666666666667,2|0|0,3:0|0:0|0:0,0:0:0:0:
363,85,224707,1,2,3:0:0:0:
363,85,224834,2,0,P|360:53|331:22,1,66.6666666666667,0|0,0:0|0:0,0:0:0:0:
260,19,225087,1,2,0:0:0:0:
260,19,225213,2,0,L|186:33,1,66.6666666666667,0|0,0:0|0:0,0:0:0:0:
105,74,225467,22,0,B|70:67|70:67|51:52|51:52|-22:38,2,100,6|8|0,3:2|0:0|3:0,0:0:0:0:
181,153,226036,1,10,0:0:0:0:
185,161,226131,1,0,0:0:0:0:
188,170,226226,2,0,P|205:216|201:265,1,100,2|10,3:0|0:0,0:0:0:0:
166,370,226606,1,2,0:0:0:0:
57,359,226796,1,10,0:0:0:0:
1,254,226986,54,0,P|5:204|30:162,1,100,6|8,0:1|0:0,0:0:0:0:
132,119,227365,2,0,B|169:117|169:117|185:130|185:130|233:143,1,100,2|8,3:0|0:0,0:0:0:0:
235,144,227650,1,0,0:0:0:0:
244,146,227745,2,0,L|354:129,1,100,2|8,3:3|0:0,0:0:0:0:
415,46,228125,1,2,0:0:0:0:
505,127,228315,85,10,0:0:0:0:
506,136,228410,1,0,0:0:0:0:
507,145,228505,2,0,L|490:276,1,100,6|10,3:1|0:0,0:0:0:0:
482,354,228884,2,0,P|437:326|369:333,1,100,0|10,3:0|0:0,0:0:0:0:
300,367,229264,53,6,3:3:0:0:
226,299,229454,1,8,0:0:0:0:
316,255,229644,1,0,3:0:0:0:
323,248,229739,1,0,3:0:0:0:
330,242,229834,1,0,3:0:0:0:
337,235,229929,1,0,3:0:0:0:
345,229,230024,38,0,L|354:175,2,55.0000016784668,14|2|2,3:1|3:0|3:0,0:0:0:0:
226,299,230403,2,0,L|217:353,2,55.0000016784668,6|2|8,3:3|3:0|3:2,0:0:0:0:
144,198,230783,54,0,B|109:186|109:186|81:191|81:191|-1:170,1,110.000003356934,6|10,3:1|3:3,0:0:0:0:
170,104,231163,2,0,P|168:46|210:15,1,110.000003356934,14|10,3:1|3:3,0:0:0:0:
311,73,231543,38,0,L|324:179,1,100,6|10,3:2|0:0,0:0:0:0:
414,234,231922,1,2,3:0:0:0:
422,236,232017,1,0,3:0:0:0:
431,238,232112,1,8,0:0:0:0:
440,240,232207,1,0,0:0:0:0:
448,241,232302,2,0,B|476:196|476:196|455:137,1,100,2|8,3:0|0:0,0:0:0:0:
405,55,232682,1,2,0:0:0:0:
300,90,232872,1,8,0:0:0:0:
203,37,233062,54,0,P|155:20|83:31,1,100,6|8,3:3|0:0,0:0:0:0:
23,95,233441,1,2,3:0:0:0:
73,192,233631,1,8,0:0:0:0:
180,169,233821,1,2,3:0:0:0:
189,165,233916,1,0,0:0:0:0:
198,161,234011,1,8,0:0:0:0:
207,157,234106,1,0,3:0:0:0:
216,153,234201,2,0,B|262:135|262:135|311:149,1,100,2|8,0:0|0:0,0:0:0:0:
397,216,234581,54,0,L|408:348,1,100,6|10,3:1|0:0,0:0:0:0:
317,383,234960,1,2,3:0:0:0:
307,381,235055,1,0,3:0:0:0:
297,377,235150,1,8,0:0:0:0:
287,374,235245,1,0,0:0:0:0:
277,371,235340,2,0,B|241:363|241:363|220:370|220:370|162:357,1,100,2|8,3:0|0:0,0:0:0:0:
79,313,235720,1,2,0:0:0:0:
135,218,235910,1,8,0:0:0:0:
63,122,236100,86,0,L|-1:103,2,66.6666666666667,6|0|0,0:3|0:0|0:0,0:0:0:0:
129,75,236479,2,0,L|137:-3,2,66.6666666666667,2|0|0,3:0|0:0|0:0,0:0:0:0:
187,136,236859,1,2,3:0:0:0:
187,136,236986,2,0,L|263:119,1,66.6666666666667,0|0,0:0|0:0,0:0:0:0:
305,185,237239,1,2,0:0:0:0:
305,185,237365,2,0,L|381:202,1,66.6666666666667,0|0,0:0|0:0,0:0:0:0:
448,166,237619,22,0,P|463:132|442:67,2,100,6|8|0,3:2|3:2|3:2,0:0:0:0:
360,230,238188,1,10,3:2:0:0:
351,235,238283,1,2,3:2:0:0:
342,240,238378,2,0,B|308:240|308:240|297:248|297:248|241:251,1,100,2|10,3:2|3:2,0:0:0:0:
144,203,238758,1,2,3:2:0:0:
89,298,238948,1,10,3:2:0:0:
0,216,239138,54,0,L|14:105,1,100,2|8,3:2|3:2,0:0:0:0:
87,35,239517,2,0,P|132:54|182:50,1,100,2|8,3:2|3:2,0:0:0:0:
192,48,239802,1,0,3:2:0:0:
201,46,239897,2,0,P|246:26|296:30,1,100,2|8,3:2|3:2,0:0:0:0:
389,88,240277,1,2,3:2:0:0:
325,190,240467,85,10,0:0:0:0:
316,195,240562,1,2,0:0:0:0:
306,198,240657,2,0,L|195:176,1,100,6|10,0:1|0:0,0:0:0:0:
102,212,241036,2,0,P|75:252|78:303,1,100,0|0,3:0|3:0,0:0:0:0:
172,378,241416,53,14,3:1:0:0:
248,299,241606,1,2,3:0:0:0:
349,342,241796,1,0,3:0:0:0:
357,347,241891,1,0,3:0:0:0:
365,351,241986,1,0,3:0:0:0:
373,355,242081,1,0,3:0:0:0:
382,358,242175,38,0,B|420:376|420:376|510:334|459:216,1,200,14|0,3:1|3:0,0:0:0:0:
424,131,242745,2,0,B|378:172|378:172|386:84|280:50,1,200,14|0,3:1|3:0,0:0:0:0:
186,16,243315,53,14,0:1:0:0:
209,133,243505,1,14,0:1:0:0:
