osu file format v14

[General]
AudioFilename: audio.mp3
AudioLeadIn: 0
PreviewTime: 48410
Countdown: 0
SampleSet: Soft
StackLeniency: 0.2
Mode: 0
LetterboxInBreaks: 0
WidescreenStoryboard: 1

[Editor]
DistanceSpacing: 0.6
BeatDivisor: 4
GridSize: 32
TimelineZoom: 2.4

[Metadata]
Title:ito
TitleUnicode:絃-ito-
Artist:Emiru no Aishita Tsukiyo ni Dai San Gensou Kyoku wo
ArtistUnicode:エミルの愛した月夜に第III幻想曲を
Creator:Lasse
Version:Expert
Source:
Tags:japanese metal rock doujin Emille's Moonlight Serenade サラ Sara 荊 いばら Ibara
BeatmapID:2255705
BeatmapSetID:1077982

[Difficulty]
HPDrainRate:5
CircleSize:4.6
OverallDifficulty:8.6
ApproachRate:9.2
SliderMultiplier:2.5
SliderTickRate:1

[Events]
//Background and Video events
0,0,"bgfixed.jpg",0,0
//Break Periods
2,43388,45656
2,104148,106416
2,158631,167175
//Storyboard Layer 0 (Background)
//Storyboard Layer 1 (Fail)
//Storyboard Layer 2 (Pass)
//Storyboard Layer 3 (Foreground)
//Storyboard Layer 4 (Overlay)
//Storyboard Sound Samples

[TimingPoints]
657,379.746835443038,4,2,4,70,1,0
6732,-1000,4,2,4,70,0,0
7302,-1000,4,2,4,55,0,0
7492,-1000,4,2,4,5,0,0
8062,-1000,4,2,4,40,0,0
8251,-1000,4,2,4,70,0,0
8821,-833.333333333333,4,2,4,55,0,0
9011,-1000,4,2,4,5,0,0
9581,-1000,4,2,4,40,0,0
9770,-1000,4,2,4,70,0,0
10340,-666.666666666667,4,2,4,55,0,0
10530,-1000,4,2,4,5,0,0
11100,-1000,4,2,4,40,0,0
11289,-1000,4,2,2,60,0,0
11479,-1000,4,2,2,58,0,0
11574,-1000,4,2,2,60,0,0
11764,-1000,4,2,2,58,0,0
11859,-1000,4,2,2,60,0,0
12049,-133.333333333333,4,2,2,62,0,0
12144,-1000,4,2,2,64,0,0
12239,-1000,4,2,2,66,0,0
12334,-1000,4,2,2,68,0,0
12429,-1000,4,2,2,70,0,0
12808,-90.9090909090909,4,2,4,75,0,0
22492,-142.857142857143,4,2,4,75,0,0
22587,-142.857142857143,4,2,4,68,0,0
22682,-90.9090909090909,4,2,4,70,0,0
22872,-90.9090909090909,4,2,4,66,0,0
23441,-90.9090909090909,4,2,4,68,0,0
24011,-90.9090909090909,4,2,4,70,0,0
24581,-90.9090909090909,4,2,4,72,0,0
24960,-111.111111111111,4,2,4,70,0,0
26479,-111.111111111111,4,2,4,50,0,0
27998,-111.111111111111,4,2,4,70,0,0
29422,-111.111111111111,4,2,4,60,0,0
29517,-111.111111111111,4,2,4,50,0,0
31036,-111.111111111111,4,2,4,70,0,0
32460,-111.111111111111,4,2,4,60,0,0
32555,-111.111111111111,4,2,4,50,0,0
34074,-111.111111111111,4,2,4,70,0,0
36353,-111.111111111111,4,2,4,69,0,0
36448,-111.111111111111,4,2,4,68,0,0
36543,-111.111111111111,4,2,4,67,0,0
36638,-111.111111111111,4,2,4,66,0,0
36732,-111.111111111111,4,2,4,65,0,0
36827,-111.111111111111,4,2,4,64,0,0
36922,-111.111111111111,4,2,4,63,0,0
37017,-111.111111111111,4,2,4,62,0,0
37112,-200,4,2,4,60,0,0
37492,-200,4,2,4,55,0,0
42619,-200,4,2,5,57,0,0
42808,-200,4,2,5,54,0,0
42998,-200,4,2,5,56,0,0
43188,-250,4,2,4,48,0,0
46226,-83.3333333333333,4,2,4,68,0,0
46511,-83.3333333333333,4,2,43,5,0,0
46606,-83.3333333333333,4,2,4,70,0,0
46891,-83.3333333333333,4,2,43,5,0,0
46986,-83.3333333333333,4,2,4,72,0,0
47270,-83.3333333333333,4,2,43,5,0,0
47365,-83.3333333333333,4,2,4,74,0,0
47650,-83.3333333333333,4,2,43,5,0,0
47745,-83.3333333333333,4,2,2,70,0,0
48505,-83.3333333333333,4,2,2,60,0,0
48694,-83.3333333333333,4,2,2,62,0,0
48979,-83.3333333333333,4,2,2,64,0,0
49264,-83.3333333333333,4,2,4,80,0,1
54581,-100,4,2,4,80,0,1
55340,-83.3333333333333,4,2,4,80,0,1
59517,-83.3333333333333,4,2,4,75,0,1
59897,-83.3333333333333,4,2,4,80,0,1
61321,-83.3333333333333,4,2,4,80,0,0
61416,-83.3333333333333,4,2,4,80,0,1
67112,-133.333333333333,4,2,2,75,0,0
67302,-133.333333333333,4,2,2,70,0,0
67492,-133.333333333333,4,2,2,60,0,0
67682,-83.3333333333333,4,2,4,80,0,1
72619,-83.3333333333333,4,2,4,78,0,1
72713,-83.3333333333333,4,2,4,76,0,1
72808,-83.3333333333333,4,2,4,76,0,0
73188,-66.6666666666667,4,2,5,74,0,0
73473,-66.6666666666667,4,2,4,50,0,0
73568,-90.9090909090909,4,2,4,75,0,0
83251,-142.857142857143,4,2,4,75,0,0
83346,-142.857142857143,4,2,4,68,0,0
83441,-90.9090909090909,4,2,4,70,0,0
83631,-90.9090909090909,4,2,4,66,0,0
84201,-90.9090909090909,4,2,4,68,0,0
84770,-90.9090909090909,4,2,4,70,0,0
85340,-90.9090909090909,4,2,4,68,0,0
85435,-90.9090909090909,4,2,4,66,0,0
85530,-90.9090909090909,4,2,4,64,0,0
85625,-90.9090909090909,4,2,4,62,0,0
85720,-333.333333333333,4,2,2,60,0,0
86289,-333.333333333333,4,2,2,45,0,0
94834,-285.714285714286,4,2,43,38,0,0
94929,-400,4,2,43,10,0,0
96353,-400,4,2,43,30,0,0
97049,-200,4,2,43,44,0,0
97112,-200,4,2,43,40,0,0
97175,-200,4,2,43,36,0,0
97872,-200,4,2,4,55,0,0
103378,-200,4,2,5,57,0,0
103568,-200,4,2,5,54,0,0
103758,-200,4,2,5,58,0,0
103948,-250,4,2,4,48,0,0
106986,-83.3333333333333,4,2,4,68,0,0
107270,-83.3333333333333,4,2,43,5,0,0
107365,-83.3333333333333,4,2,4,70,0,0
107650,-83.3333333333333,4,2,43,5,0,0
107745,-83.3333333333333,4,2,4,72,0,0
108030,-83.3333333333333,4,2,43,5,0,0
108125,-83.3333333333333,4,2,4,74,0,0
108410,-83.3333333333333,4,2,43,5,0,0
108505,-83.3333333333333,4,2,2,70,0,0
109264,-83.3333333333333,4,2,2,60,0,0
109454,-66.6666666666667,4,2,2,62,0,0
109739,-66.6666666666667,4,2,2,64,0,0
110024,-83.3333333333333,4,2,4,80,0,1
115340,-100,4,2,4,80,0,1
116100,-83.3333333333333,4,2,4,80,0,1
120277,-83.3333333333333,4,2,4,75,0,1
120657,-83.3333333333333,4,2,4,80,0,1
122081,-83.3333333333333,4,2,4,80,0,0
122175,-83.3333333333333,4,2,4,80,0,1
127872,-83.3333333333333,4,2,2,75,0,0
128062,-133.333333333333,4,2,2,70,0,0
128251,-200,4,2,2,60,0,0
128441,-83.3333333333333,4,2,4,80,0,1
133378,-83.3333333333333,4,2,4,78,0,1
133473,-83.3333333333333,4,2,4,76,0,1
133948,-66.6666666666667,4,2,5,74,0,0
134233,-66.6666666666667,4,2,4,50,0,0
134327,-76.9230769230769,4,2,4,80,0,1
140403,-105.263157894737,4,2,4,80,0,1
141163,-98.0392156862745,4,2,4,80,0,1
141922,-94.3396226415094,4,2,4,80,0,1
142682,-90.9090909090909,4,2,4,80,0,1
143062,-86.2068965517241,4,2,4,80,0,1
143441,-71.4285714285714,4,2,4,80,0,1
144581,-71.4285714285714,4,2,4,76,0,1
144960,-71.4285714285714,4,2,4,78,0,1
145530,-71.4285714285714,4,2,4,80,0,1
146100,-71.4285714285714,4,2,4,82,0,1
146194,-71.4285714285714,4,2,4,80,0,1
146289,-71.4285714285714,4,2,4,78,0,1
146384,-71.4285714285714,4,2,4,76,0,1
146479,-111.111111111111,4,2,4,74,0,0
157112,-83.3333333333333,4,2,4,75,0,0
157207,-83.3333333333333,4,2,4,74,0,0
157302,-76.9230769230769,4,2,4,76,0,0
157397,-76.9230769230769,4,2,4,74,0,0
157492,-71.4285714285714,4,2,4,77,0,0
157587,-71.4285714285714,4,2,4,74,0,0
157682,-66.6666666666667,4,2,4,78,0,0
157777,-66.6666666666667,4,2,4,74,0,0
157872,-62.5,4,2,4,80,0,0
157967,-62.5,4,2,4,74,0,0
158631,-227.272727272727,4,2,4,52,0,0
161289,-227.272727272727,4,2,4,50,0,0
161669,-208.333333333333,4,2,5,54,0,0
162049,-208.333333333333,4,2,4,54,0,0
164327,-208.333333333333,4,2,4,50,0,0
164707,-196.078431372549,4,2,5,56,0,0
165087,-196.078431372549,4,2,4,56,0,0
167365,-196.078431372549,4,2,4,52,0,0
167745,-80,4,2,4,68,0,0
168030,-80,4,2,43,5,0,0
168125,-80,4,2,4,70,0,0
168410,-80,4,2,43,5,0,0
168505,-80,4,2,4,72,0,0
168789,-80,4,2,43,5,0,0
168884,-80,4,2,4,74,0,0
169169,-80,4,2,43,5,0,0
169264,-80,4,2,2,70,0,0
170024,-80,4,2,2,60,0,0
170213,-80,4,2,2,62,0,0
170498,-80,4,2,2,64,0,0
170783,-76.9230769230769,4,2,4,80,0,1
176100,-100,4,2,4,80,0,1
176859,-76.9230769230769,4,2,4,80,0,1
181036,-76.9230769230769,4,2,4,75,0,1
181416,-76.9230769230769,4,2,4,80,0,1
182840,-76.9230769230769,4,2,4,80,0,0
182935,-76.9230769230769,4,2,4,80,0,1
188631,-76.9230769230769,4,2,2,75,0,0
188821,-133.333333333333,4,2,2,70,0,0
189011,-200,4,2,2,60,0,0
189201,-76.9230769230769,4,2,4,80,0,1
194138,-76.9230769230769,4,2,4,78,0,1
194232,-76.9230769230769,4,2,4,76,0,1
194707,-166.666666666667,4,2,5,64,0,0
194992,-142.857142857143,4,2,5,50,0,0
195087,-125,4,2,4,72,0,0
200641,-125,4,2,43,10,0,0
200783,-125,4,2,4,72,0,0
200831,-125,4,2,43,10,0,0
200973,-125,4,2,4,72,0,0
201020,-125,4,2,43,10,0,0
201163,-125,4,2,4,72,0,0
202160,-125,4,2,43,10,0,0
202302,-125,4,2,4,72,0,0
202350,-125,4,2,43,10,0,0
202492,-125,4,2,4,72,0,0
202539,-125,4,2,43,10,0,0
202682,-125,4,2,4,72,0,0
202729,-125,4,2,43,10,0,0
202872,-125,4,2,4,72,0,0
203631,-125,4,2,4,68,0,0
203821,-125,4,2,4,70,0,0
204011,-125,4,2,4,72,0,0
207239,-111.111111111111,4,2,4,74,0,0
213315,-100,4,2,4,74,0,0
216732,-100,4,2,4,76,0,0
217112,-100,4,2,4,78,0,0
217492,-100,4,2,4,80,0,0
217682,-90.9090909090909,4,2,4,70,0,0
219391,-90.9090909090909,4,2,4,75,0,0
228694,-142.857142857143,4,2,4,75,0,0
229169,-142.857142857143,4,2,4,68,0,0
229264,-90.9090909090909,4,2,4,70,0,0
229454,-90.9090909090909,4,2,4,66,0,0
230024,-83.3333333333333,4,2,4,74,0,0
230403,-76.9230769230769,4,2,4,76,0,0
230783,-71.4285714285714,4,2,4,78,0,0
231163,-66.6666666666667,4,2,4,80,0,0
231543,-83.3333333333333,4,2,4,78,0,0
240467,-76.9230769230769,4,2,4,78,0,0
240657,-76.9230769230769,4,2,4,78,0,0
241226,-142.857142857143,4,2,4,78,0,0
241321,-142.857142857143,4,2,4,68,0,0
241416,-76.9230769230769,4,2,4,78,0,0
241511,-76.9230769230769,4,2,4,76,0,0
241606,-76.9230769230769,4,2,4,74,0,0
241701,-76.9230769230769,4,2,4,72,0,0
241796,-76.9230769230769,4,2,4,70,0,0
242175,-76.9230769230769,4,2,4,74,0,0
242745,-76.9230769230769,4,2,4,77,0,0
243315,-66.6666666666667,4,2,4,80,0,0
243410,-66.6666666666667,4,2,4,70,0,0
243505,-66.6666666666667,4,2,4,80,0,0
243600,-66.6666666666667,4,2,4,70,0,0

[Colours]
Combo1 : 255,120,195
Combo2 : 190,180,230
Combo3 : 215,220,255
Combo4 : 140,220,255
Combo5 : 255,120,245
Combo6 : 245,175,255
Combo7 : 250,210,255
Combo8 : 120,180,255

[HitObjects]
110,106,6732,53,6,3:1:0:0:
136,237,6922,1,6,3:1:0:0:
136,237,7302,22,0,L|142:187,1,50,2|0,0:0|0:0,0:0:0:0:
214,88,8251,69,4,3:1:0:0:
245,245,8441,1,4,3:1:0:0:
245,245,8821,102,0,L|252:185,1,60.0000014648438,2|0,0:0|0:0,0:0:0:0:
335,62,9770,21,4,3:1:0:0:
372,250,9960,1,4,3:1:0:0:
372,250,10340,22,0,L|381:173,1,74.9999977111817,2|0,0:0|0:0,0:0:0:0:
400,36,11289,37,12,0:0:0:0:
467,120,11479,1,8,0:3:0:0:
467,120,11574,1,8,0:0:0:0:
384,179,11764,1,8,0:3:0:0:
384,179,11859,1,8,0:0:0:0:
487,243,12049,53,0,1:0:0:0:
498,235,12144,1,0,1:0:0:0:
492,223,12239,1,0,1:0:0:0:
479,230,12334,1,0,1:0:0:0:
489,233,12429,1,8,1:3:0:0:
315,91,12808,22,0,B|283:78|283:78|249:85,1,68.7500020980836,6|0,3:2|0:0,0:0:0:0:
245,164,12998,2,0,B|277:177|277:177|310:169,1,68.7500020980836,10|0,0:0|0:0,0:0:0:0:
161,108,13188,53,2,3:0:0:0:
155,141,13283,1,0,3:0:0:0:
150,175,13378,1,8,0:0:0:0:
145,209,13473,1,0,0:0:0:0:
139,243,13568,1,2,3:0:0:0:
112,221,13663,1,0,0:0:0:0:
85,199,13758,1,8,0:0:0:0:
58,178,13853,1,0,3:0:0:0:
31,156,13948,1,2,0:0:0:0:
63,143,14043,1,0,3:0:0:0:
96,131,14138,1,8,0:0:0:0:
127,118,14232,1,0,0:0:0:0:
161,108,14327,53,6,3:3:0:0:
167,149,14422,1,0,0:0:0:0:
196,180,14517,1,8,0:0:0:0:
237,189,14612,1,0,0:0:0:0:
276,173,14707,1,2,3:0:0:0:
234,167,14802,1,0,3:0:0:0:
203,139,14897,1,8,0:0:0:0:
193,97,14992,1,0,0:0:0:0:
208,59,15087,1,2,3:0:0:0:
214,100,15182,1,0,0:0:0:0:
243,131,15277,1,8,0:0:0:0:
284,140,15372,1,0,3:0:0:0:
323,124,15467,1,2,0:0:0:0:
281,118,15562,1,0,3:0:0:0:
250,90,15657,1,8,0:0:0:0:
240,48,15751,1,0,0:0:0:0:
255,10,15846,54,0,L|338:0,1,68.7500020980836,6|0,3:1|0:0,0:0:0:0:
214,120,16036,2,0,L|131:130,1,68.7500020980836,10|0,0:0|0:0,0:0:0:0:
328,205,16226,53,2,3:0:0:0:
324,238,16321,1,0,3:0:0:0:
337,266,16416,1,8,0:0:0:0:
333,299,16511,1,0,0:0:0:0:
346,328,16606,1,2,3:0:0:0:
349,295,16701,1,0,0:0:0:0:
337,266,16796,1,8,0:0:0:0:
340,233,16891,1,0,3:0:0:0:
328,205,16986,54,0,B|278:200|278:200|250:216|250:216|180:209,1,137.500004196167,2|8,0:0|0:0,0:0:0:0:
64,91,17365,21,6,0:3:0:0:
113,45,17492,1,0,0:0:0:0:
50,25,17619,1,0,0:0:0:0:
67,96,17745,53,2,3:0:0:0:
126,64,17872,1,0,0:0:0:0:
71,29,17998,1,0,0:0:0:0:
68,101,18125,53,2,3:0:0:0:
133,86,18251,1,0,0:0:0:0:
90,37,18378,1,0,0:0:0:0:
68,106,18505,53,2,0:0:0:0:
134,109,18631,1,0,0:0:0:0:
105,49,18758,1,0,0:0:0:0:
65,109,18884,86,0,P|39:165|88:247,2,137.500004196167,6|8|0,3:2|0:0|3:0,0:0:0:0:
218,16,19454,53,10,0:0:0:0:
267,39,19549,1,0,0:0:0:0:
320,24,19644,2,0,L|396:15,1,68.7500020980836,2|0,3:0|0:0,0:0:0:0:
388,25,19834,2,0,L|268:11,1,68.7500020980836,10|0,0:0|3:0,0:0:0:0:
434,111,20024,54,0,L|510:102,1,68.7500020980836,2|0,0:0|3:0,0:0:0:0:
502,112,20213,2,0,L|382:98,1,68.7500020980836,10|0,0:0|0:0,0:0:0:0:
512,207,20403,54,0,P|477:279|410:257,1,137.500004196167,6|8,0:1|0:0,0:0:0:0:
322,206,20783,1,2,3:0:0:0:
322,206,20878,1,0,3:0:0:0:
322,206,20973,2,0,P|330:161|305:120,1,68.7500020980836,8|0,0:0|0:0,0:0:0:0:
132,139,21163,54,0,P|167:67|234:89,1,137.500004196167,2|8,3:3|0:0,0:0:0:0:
246,172,21448,1,0,3:0:0:0:
246,172,21543,2,0,P|238:217|263:258,1,68.7500020980836,2|0,0:0|3:0,0:0:0:0:
411,297,21732,21,10,0:0:0:0:
419,232,21827,1,0,0:0:0:0:
427,167,21922,1,6,3:1:0:0:
250,74,22112,53,10,0:0:0:0:
230,92,22207,1,0,0:0:0:0:
205,100,22302,1,0,3:0:0:0:
178,96,22397,1,0,3:0:0:0:
156,81,22492,2,0,L|150:19,1,43.749998664856,10|0,0:0|0:0,0:0:0:0:
57,118,22682,54,0,P|5:163|12:230,1,137.500004196167,6|8,3:3|0:0,0:0:0:0:
136,367,23062,5,0,3:0:0:0:
141,353,23157,1,0,3:0:0:0:
146,339,23251,1,0,3:0:0:0:
150,327,23346,1,0,3:0:0:0:
190,320,23441,85,14,3:1:0:0:
176,359,23536,1,0,3:0:0:0:
136,367,23631,1,0,3:0:0:0:
109,334,23726,1,0,3:0:0:0:
123,296,23821,1,0,3:0:0:0:
164,289,23916,1,0,3:0:0:0:
198,319,24011,53,14,3:1:0:0:
167,281,24106,1,0,3:0:0:0:
118,290,24201,1,0,3:0:0:0:
101,336,24296,1,0,3:0:0:0:
133,374,24391,1,0,3:0:0:0:
181,365,24486,1,0,3:0:0:0:
205,317,24581,5,14,1:1:0:0:
247,305,24675,53,0,1:0:0:0:
275,315,24770,53,0,1:0:0:0:
296,334,24865,53,0,1:0:0:0:
304,347,24960,86,0,P|342:361|428:309,1,112.499996566773,6|8,3:1|0:0,0:0:0:0:
508,239,25340,1,2,3:0:0:0:
477,198,25435,1,0,3:0:0:0:
501,153,25530,2,0,P|515:99|492:49,1,112.499996566773,10|0,0:0|3:0,0:0:0:0:
350,0,25910,53,10,0:0:0:0:
337,31,26005,1,0,3:0:0:0:
356,58,26100,1,0,3:0:0:0:
340,87,26194,1,0,3:0:0:0:
354,117,26289,1,8,0:0:0:0:
267,200,26479,101,2,0:0:0:0:
265,193,26574,1,0,0:0:0:0:
263,186,26669,1,0,0:0:0:0:
261,179,26764,1,0,0:0:0:0:
259,171,26859,1,0,0:0:0:0:
199,130,27049,53,2,0:0:0:0:
197,123,27144,1,0,0:0:0:0:
245,69,27334,53,0,0:0:0:0:
243,62,27429,1,0,0:0:0:0:
241,55,27524,1,0,0:0:0:0:
239,48,27619,1,2,0:0:0:0:
3,0,27998,69,6,3:1:0:0:
97,188,28188,1,10,0:0:0:0:
135,132,28283,1,0,0:0:0:0:
115,67,28378,1,2,3:0:0:0:
2,112,28568,1,10,0:0:0:0:
97,188,28758,1,2,3:0:0:0:
115,67,28948,1,10,0:0:0:0:
2,112,29138,1,2,2:0:0:0:
97,188,29327,1,10,0:0:0:0:
235,135,29517,37,2,0:0:0:0:
235,135,29707,1,0,0:0:0:0:
235,135,29897,1,0,0:0:0:0:
266,227,30087,53,2,0:0:0:0:
266,227,30277,1,0,0:0:0:0:
266,227,30467,1,0,0:0:0:0:
310,167,30657,53,2,0:0:0:0:
310,167,30846,1,0,0:0:0:0:
395,290,31036,69,6,3:1:0:0:
497,204,31226,1,10,0:0:0:0:
450,154,31321,1,0,0:0:0:0:
463,87,31416,1,2,3:0:0:0:
360,0,31606,2,0,P|332:57|264:33,1,112.499996566773,10|0,0:0|3:0,0:0:0:0:
146,0,31986,1,10,0:0:0:0:
169,152,32175,1,2,0:0:0:0:
289,57,32365,1,10,0:0:0:0:
202,70,32555,37,2,0:0:0:0:
257,139,32745,53,0,0:0:0:0:
261,144,32840,1,0,0:0:0:0:
265,148,32935,1,0,0:0:0:0:
169,152,33125,53,2,0:0:0:0:
202,70,33315,1,0,0:0:0:0:
169,152,33505,1,0,0:0:0:0:
115,83,33694,53,2,0:0:0:0:
115,83,33884,1,0,0:0:0:0:
35,235,34074,5,6,3:1:0:0:
169,152,34264,1,10,0:0:0:0:
25,90,34454,1,2,3:0:0:0:
45,130,34549,1,0,3:0:0:0:
84,151,34644,1,10,0:0:0:0:
184,60,34834,1,2,3:0:0:0:
240,182,35024,1,10,0:0:0:0:
140,273,35213,1,2,0:0:0:0:
84,151,35403,1,8,0:0:0:0:
189,33,35593,21,6,3:0:0:0:
189,33,35783,2,0,L|269:28,1,56.2499982833863,14|0,0:1|0:0,0:0:0:0:
339,101,35973,2,0,L|259:106,1,56.2499982833863,14|0,0:1|0:0,0:0:0:0:
389,0,36163,69,8,0:0:0:0:
400,38,36258,1,8,0:0:0:0:
415,79,36353,21,0,1:0:0:0:
415,79,36448,1,0,1:0:0:0:
444,63,36543,53,0,1:0:0:0:
444,63,36638,1,0,1:0:0:0:
471,65,36732,53,0,1:0:0:0:
471,65,36827,1,0,1:0:0:0:
490,76,36922,53,0,1:0:0:0:
490,76,37017,1,0,1:0:0:0:
499,85,37112,86,0,L|493:228,1,125,6|0,3:2|3:0,0:0:0:0:
493,210,37682,1,0,0:0:0:0:
485,227,37777,1,0,0:0:0:0:
476,243,37872,2,0,L|338:281,1,125,2|2,3:2|3:0,0:0:0:0:
355,276,38441,1,0,0:0:0:0:
336,273,38536,1,0,0:0:0:0:
318,270,38631,2,0,L|239:150,1,125,2|2,3:2|3:0,0:0:0:0:
249,165,39201,1,0,0:0:0:0:
245,146,39296,1,0,0:0:0:0:
243,127,39391,2,0,L|332:14,1,125,2|2,3:2|3:0,0:0:0:0:
321,29,40150,102,0,L|342:169,1,125,6|2,3:2|3:0,0:0:0:0:
339,152,40720,1,0,0:0:0:0:
333,169,40815,1,0,0:0:0:0:
326,186,40910,2,0,L|215:274,1,125,2|2,3:0|3:0,0:0:0:0:
228,263,41479,1,0,0:0:0:0:
210,266,41574,1,0,0:0:0:0:
192,268,41669,2,0,L|60:215,1,125,2|2,3:0|3:0,0:0:0:0:
76,221,42239,5,0,0:0:0:0:
58,213,42334,1,0,0:0:0:0:
40,205,42429,1,2,3:0:0:0:
163,97,42619,85,8,0:0:0:0:
75,120,42808,69,2,3:2:0:0:
233,14,42998,37,8,0:0:0:0:
278,205,43188,69,6,0:0:0:0:
43,321,46226,38,0,P|127:250|146:142,1,224.999993133545,6|0,3:1|0:0,0:0:0:0:
165,347,46606,2,0,P|123:244|26:193,1,224.999993133545,6|0,3:1|0:0,0:0:0:0:
233,236,46986,2,0,P|123:244|42:321,1,224.999993133545,6|0,3:1|0:0,0:0:0:0:
145,141,47365,2,0,P|117:247|165:347,1,224.999993133545,6|0,3:1|0:0,0:0:0:0:
246,366,47745,5,8,2:2:0:0:
287,346,47840,1,8,2:2:0:0:
297,356,47935,1,8,2:1:0:0:
307,366,48030,1,8,2:1:0:0:
348,346,48125,1,8,2:0:0:0:
149,12,48505,53,10,0:3:0:0:
160,189,48694,1,10,0:0:0:0:
160,189,48789,1,8,0:0:0:0:
0,110,48979,1,8,0:3:0:0:
0,110,49074,1,10,0:3:0:0:
143,83,49264,22,0,P|156:48|149:12,1,74.9999977111817,6|0,3:2|0:0,0:0:0:0:
74,2,49454,2,0,P|60:36|67:72,1,74.9999977111817,8|0,0:0|0:0,0:0:0:0:
199,157,49644,53,0,3:0:0:0:
261,137,49739,1,0,3:0:0:0:
326,120,49834,1,10,0:0:0:0:
496,294,50024,54,0,P|436:249|362:244,1,149.999995422363,2|8,3:2|0:0,0:0:0:0:
289,262,50308,1,0,3:0:0:0:
289,262,50403,2,0,P|309:298|367:311,1,74.9999977111817,2|0,0:0|3:0,0:0:0:0:
380,375,50593,2,0,P|421:375|461:331,1,74.9999977111817,10|0,0:0|0:0,0:0:0:0:
495,294,50783,2,0,P|504:220|471:154,1,149.999995422363,6|8,3:3|0:0,0:0:0:0:
350,21,51163,53,2,3:0:0:0:
340,87,51258,1,0,3:0:0:0:
328,153,51353,1,8,0:0:0:0:
166,37,51543,54,0,B|179:98|127:124|127:124|82:113,1,149.999995422363,2|8,3:0|0:0,0:0:0:0:
0,140,51827,1,0,3:0:0:0:
0,140,51922,2,0,B|-10:105|-10:105|6:64,1,74.9999977111817,2|0,0:0|3:0,0:0:0:0:
86,42,52112,2,0,B|96:77|96:77|80:118,1,74.9999977111817,10|0,0:0|0:0,0:0:0:0:
92,267,52302,54,0,B|180:272|131:319|234:325,1,149.999995422363,6|8,3:1|0:0,0:0:0:0:
419,175,52682,1,2,3:0:0:0:
382,168,52777,1,0,3:0:0:0:
345,161,52872,2,0,B|256:153|298:207|195:199,1,149.999995422363,10|0,0:0|3:0,0:0:0:0:
62,42,53251,1,10,0:0:0:0:
62,42,53346,2,0,B|149:24|114:82|215:62,1,149.999995422363,0|0,3:0|3:0,0:0:0:0:
278,3,53631,85,10,0:0:0:0:
205,199,53821,2,0,P|177:136|214:57,1,149.999995422363,6|8,3:1|0:0,0:0:0:0:
325,211,54201,53,2,3:0:0:0:
323,218,54296,1,0,3:0:0:0:
321,225,54391,1,8,0:0:0:0:
414,147,54581,53,2,0:0:0:0:
417,178,54675,1,0,0:0:0:0:
421,209,54770,1,8,0:0:0:0:
424,240,54865,1,0,3:0:0:0:
428,271,54960,2,0,L|437:351,1,62.5,2|0,0:0|3:0,0:0:0:0:
505,327,55150,2,0,L|498:264,1,62.5,8|0,0:0|0:0,0:0:0:0:
381,211,55340,86,0,B|326:208|326:208|299:230|299:230|228:225,1,149.999995422363,6|8,3:2|0:0,0:0:0:0:
154,82,55720,1,2,3:0:0:0:
154,82,55815,1,0,3:0:0:0:
96,121,55910,2,0,P|86:50|146:11,1,149.999995422363,10|0,0:0|3:0,0:0:0:0:
240,226,56289,54,0,L|318:214,1,74.9999977111817,10|0,0:0|3:0,0:0:0:0:
154,82,56479,2,0,L|125:155,1,74.9999977111817,2|0,0:0|3:0,0:0:0:0:
321,79,56669,2,0,L|271:17,1,74.9999977111817,10|0,0:0|0:0,0:0:0:0:
217,240,56859,54,0,B|244:258|244:258|359:238,1,149.999995422363,6|8,3:0|0:0,0:0:0:0:
512,168,57239,1,2,3:0:0:0:
465,118,57334,1,0,3:0:0:0:
490,55,57429,1,8,0:0:0:0:
273,20,57619,54,0,P|321:79|293:152,1,149.999995422363,2|8,3:0|0:0,0:0:0:0:
236,185,57903,1,0,3:0:0:0:
161,177,57998,2,0,P|113:122|132:52,1,149.999995422363,2|8,0:0|0:0,0:0:0:0:
301,144,58378,85,6,3:1:0:0:
113,293,58568,1,8,0:0:0:0:
221,384,58758,53,0,3:0:0:0:
224,346,58853,1,0,3:0:0:0:
228,309,58948,1,8,0:0:0:0:
301,144,59138,53,2,3:0:0:0:
373,350,59327,1,8,0:0:0:0:
416,202,59517,53,0,3:0:0:0:
394,207,59612,1,0,3:0:0:0:
372,213,59707,1,0,3:0:0:0:
350,219,59802,1,0,3:0:0:0:
312,277,59897,37,14,3:1:0:0:
324,241,59992,1,0,3:0:0:0:
319,203,60087,1,0,3:0:0:0:
307,167,60182,1,0,3:0:0:0:
306,129,60277,1,0,3:0:0:0:
324,96,60372,1,0,3:0:0:0:
344,64,60467,2,0,B|343:25|343:25|297:70,1,74.9999977111817,10|0,3:1|3:0,0:0:0:0:
206,183,60657,53,2,3:1:0:0:
256,175,60751,1,0,3:0:0:0:
307,167,60846,1,0,3:0:0:0:
358,160,60941,1,0,3:0:0:0:
409,152,61036,2,0,B|441:137|441:137|402:128,1,74.9999977111817,10|0,3:1|3:2,0:0:0:0:
300,143,61226,2,0,B|268:158|268:158|307:167,1,74.9999977111817,10|0,3:1|3:2,0:0:0:0:
421,296,61416,38,0,P|424:257|408:224,1,74.9999977111817,6|0,3:2|0:0,0:0:0:0:
336,236,61606,2,0,P|332:274|348:307,1,74.9999977111817,8|0,0:0|0:0,0:0:0:0:
492,379,61796,53,0,3:0:0:0:
498,311,61891,1,0,3:0:0:0:
504,243,61986,1,10,0:0:0:0:
300,143,62175,54,0,P|261:156|225:56,1,149.999995422363,2|8,3:2|0:0,0:0:0:0:
270,11,62460,1,0,3:0:0:0:
270,11,62555,2,0,B|305:16|305:16|340:-1,1,74.9999977111817,2|0,0:0|3:0,0:0:0:0:
210,79,62745,2,0,B|175:84|175:84|139:66,1,74.9999977111817,10|0,0:0|0:0,0:0:0:0:
300,143,62935,2,0,P|361:175|346:243,1,149.999995422363,6|8,3:0|0:0,0:0:0:0:
229,384,63315,53,2,3:0:0:0:
219,318,63410,1,0,3:0:0:0:
207,252,63505,1,8,0:0:0:0:
28,369,63694,54,0,L|54:210,1,149.999995422363,2|8,3:0|0:0,0:0:0:0:
110,140,63979,1,0,3:0:0:0:
110,140,64074,2,0,P|73:147|44:128,1,74.9999977111817,2|0,0:0|3:0,0:0:0:0:
59,56,64264,2,0,P|95:48|124:67,1,74.9999977111817,10|0,0:0|0:0,0:0:0:0:
262,148,64454,54,0,B|354:149|296:93|407:98,1,149.999995422363,6|8,3:1|0:0,0:0:0:0:
511,207,64834,1,2,3:0:0:0:
494,272,64929,1,0,3:0:0:0:
475,337,65024,2,0,P|401:327|388:259,1,149.999995422363,10|0,0:0|3:0,0:0:0:0:
490,71,65403,53,10,0:0:0:0:
499,137,65498,1,0,3:0:0:0:
447,180,65593,1,2,0:0:0:0:
373,3,65783,1,10,0:0:0:0:
257,219,65973,21,6,3:1:0:0:
197,93,66163,1,0,3:0:0:0:
219,95,66258,1,0,3:0:0:0:
241,99,66353,1,0,3:0:0:0:
123,17,66543,1,0,3:0:0:0:
100,21,66638,1,0,3:0:0:0:
77,24,66732,69,0,1:0:0:0:
96,72,66827,1,0,1:0:0:0:
80,122,66922,1,0,1:0:0:0:
107,166,67017,1,0,1:0:0:0:
81,211,67112,53,8,3:1:0:0:
74,209,67175,1,8,3:1:0:0:
68,206,67239,1,8,3:1:0:0:
61,204,67302,2,0,B|26:229|26:229|42:294,1,93.7500035762788,10|8,3:1|3:1,0:0:0:0:
38,278,67682,70,0,L|131:286,1,74.9999977111817,12|0,0:0|0:0,0:0:0:0:
216,384,67872,1,2,3:0:0:0:
221,316,67967,1,0,3:0:0:0:
226,249,68062,2,0,L|242:63,1,149.999995422363,8|0,0:0|3:0,0:0:0:0:
345,0,68441,53,10,0:0:0:0:
404,39,68536,1,0,3:0:0:0:
465,73,68631,2,0,B|481:39|481:39|463:-15,1,74.9999977111817,2|0,0:0|3:0,0:0:0:0:
345,0,68821,2,0,B|328:34|328:34|346:88,1,74.9999977111817,10|0,0:0|0:0,0:0:0:0:
435,181,69011,54,0,B|492:228|492:228|478:147,1,149.999995422363,6|8,3:0|0:0,0:0:0:0:
340,69,69391,1,2,3:0:0:0:
304,126,69486,1,0,3:0:0:0:
268,183,69581,1,8,0:0:0:0:
30,75,69770,54,0,B|17:-1|17:-1|74:46,1,149.999995422363,2|8,3:0|0:0,0:0:0:0:
165,117,70055,1,0,3:0:0:0:
165,117,70150,2,0,B|131:134|131:134|96:121,1,74.9999977111817,2|0,0:0|3:0,0:0:0:0:
162,20,70340,2,0,B|196:3|196:3|230:15,1,74.9999977111817,10|0,0:0|0:0,0:0:0:0:
340,69,70530,85,6,3:1:0:0:
156,209,70720,1,8,0:0:0:0:
332,256,70910,53,0,3:0:0:0:
320,232,71005,1,0,3:0:0:0:
308,208,71100,1,8,0:0:0:0:
165,117,71289,53,6,3:1:0:0:
241,280,71479,1,8,0:0:0:0:
241,280,71574,1,8,0:3:0:0:
365,149,71764,1,8,0:3:0:0:
365,149,71859,1,8,0:0:0:0:
440,251,72049,101,2,1:0:0:0:
440,251,72239,1,0,1:0:0:0:
440,251,72429,1,0,1:0:0:0:
498,76,72619,53,2,1:0:0:0:
501,94,72713,1,2,1:0:0:0:
504,113,72808,1,8,1:3:0:0:
504,113,73188,86,0,P|412:58|220:38,1,281.250010728836,10|0,3:2|0:0,0:0:0:0:
111,116,73568,70,0,P|144:117|174:100,1,68.7500020980836,6|0,3:2|0:0,0:0:0:0:
151,28,73758,2,0,P|117:26|87:43,1,68.7500020980836,10|0,0:0|0:0,0:0:0:0:
22,120,73948,53,2,3:0:0:0:
18,154,74043,1,0,3:0:0:0:
15,188,74138,1,8,0:0:0:0:
12,222,74232,1,0,0:0:0:0:
9,256,74327,1,2,3:0:0:0:
43,259,74422,1,0,0:0:0:0:
77,262,74517,1,8,0:0:0:0:
111,265,74612,1,0,3:0:0:0:
145,268,74707,1,2,0:0:0:0:
148,234,74802,1,0,3:0:0:0:
151,200,74897,1,8,0:0:0:0:
154,166,74992,1,0,0:0:0:0:
157,132,75087,53,6,3:3:0:0:
183,162,75182,1,0,0:0:0:0:
220,174,75277,1,8,0:0:0:0:
258,165,75372,1,0,0:0:0:0:
286,138,75467,1,2,3:0:0:0:
248,147,75562,1,0,3:0:0:0:
220,174,75657,1,8,0:0:0:0:
209,211,75751,1,0,0:0:0:0:
216,250,75846,1,2,3:0:0:0:
228,212,75941,1,0,0:0:0:0:
220,174,76036,1,8,0:0:0:0:
195,144,76131,1,0,3:0:0:0:
157,132,76226,1,2,0:0:0:0:
183,162,76321,1,0,3:0:0:0:
220,174,76416,1,8,0:0:0:0:
258,165,76511,1,0,0:0:0:0:
286,138,76606,54,0,L|282:46,1,68.7500020980836,6|0,3:1|0:0,0:0:0:0:
360,65,76796,2,0,L|362:133,1,68.7500020980836,10|0,0:0|0:0,0:0:0:0:
428,216,76986,53,2,3:0:0:0:
462,211,77081,1,0,3:0:0:0:
489,231,77175,1,8,0:0:0:0:
493,264,77270,1,0,0:0:0:0:
472,290,77365,1,2,3:0:0:0:
468,257,77460,1,0,0:0:0:0:
441,237,77555,1,8,0:0:0:0:
407,242,77650,1,0,3:0:0:0:
378,265,77745,54,0,B|354:294|317:287|317:287|302:251|260:235,1,137.500004196167,2|8,0:0|0:0,0:0:0:0:
45,214,78125,21,6,0:3:0:0:
75,280,78251,1,0,0:0:0:0:
140,245,78378,1,0,0:0:0:0:
50,206,78505,53,2,3:0:0:0:
80,272,78631,1,0,0:0:0:0:
145,237,78758,1,0,0:0:0:0:
55,198,78884,53,2,3:0:0:0:
85,264,79011,1,0,0:0:0:0:
150,229,79138,1,0,0:0:0:0:
60,190,79264,53,2,0:0:0:0:
90,256,79391,1,0,0:0:0:0:
155,221,79517,1,0,0:0:0:0:
65,182,79644,86,0,P|59:109|122:42,2,137.500004196167,6|8|0,3:2|0:0|3:0,0:0:0:0:
174,334,80213,53,10,0:0:0:0:
226,317,80308,1,0,0:0:0:0:
278,334,80403,2,0,L|353:344,1,68.7500020980836,2|0,3:0|0:0,0:0:0:0:
343,352,80593,2,0,L|279:326,1,68.7500020980836,10|0,0:0|3:0,0:0:0:0:
449,347,80783,54,0,L|518:316,1,68.7500020980836,2|0,0:0|3:0,0:0:0:0:
508,313,80973,2,0,L|452:353,1,68.7500020980836,10|0,0:0|0:0,0:0:0:0:
394,275,81163,54,0,B|387:223|387:223|392:201|392:201|382:136,1,137.500004196167,6|8,0:1|0:0,0:0:0:0:
313,29,81543,1,2,3:0:0:0:
313,29,81638,1,0,3:0:0:0:
313,29,81732,2,0,B|289:53|289:53|259:22,1,68.7500020980836,8|0,0:0|0:0,0:0:0:0:
76,92,81922,54,0,B|129:85|129:85|150:95|150:95|213:86,1,137.500004196167,2|8,3:3|0:0,0:0:0:0:
291,156,82207,1,0,3:0:0:0:
291,156,82302,2,0,P|299:186|278:237,1,68.7500020980836,2|0,0:0|3:0,0:0:0:0:
171,331,82492,21,10,0:0:0:0:
167,265,82587,1,0,0:0:0:0:
164,200,82682,1,6,3:1:0:0:
98,46,82872,53,10,0:0:0:0:
92,72,82967,1,0,0:0:0:0:
76,92,83062,1,0,3:0:0:0:
52,105,83157,1,0,3:0:0:0:
26,105,83251,2,0,P|17:79|30:35,1,43.749998664856,10|0,0:0|0:0,0:0:0:0:
163,11,83441,54,0,B|244:11|199:61|285:72,1,137.500004196167,6|8,3:3|0:0,0:0:0:0:
468,60,83821,5,0,3:0:0:0:
453,55,83916,1,0,3:0:0:0:
439,51,84011,1,0,3:0:0:0:
427,47,84106,1,0,3:0:0:0:
398,76,84201,85,14,3:1:0:0:
438,87,84296,1,0,3:0:0:0:
468,60,84391,1,0,3:0:0:0:
457,18,84486,1,0,3:0:0:0:
418,7,84581,1,0,3:0:0:0:
388,36,84675,1,0,3:0:0:0:
392,81,84770,53,14,3:1:0:0:
380,34,84865,1,0,3:0:0:0:
416,0,84960,1,0,3:0:0:0:
463,13,85055,1,0,3:0:0:0:
475,61,85150,1,0,3:0:0:0:
439,95,85245,1,0,3:0:0:0:
386,86,85340,69,14,1:1:0:0:
351,107,85435,53,0,1:0:0:0:
344,140,85530,53,0,1:0:0:0:
357,164,85625,53,0,1:0:0:0:
375,173,85720,5,6,0:2:0:0:
375,173,86289,1,8,0:1:0:0:
320,218,86479,2,0,L|228:208,1,74.9999977111817,8|8,0:0|0:1,0:0:0:0:
246,210,87619,53,8,0:1:0:0:
246,210,87998,1,8,0:0:0:0:
218,276,88188,1,8,0:1:0:0:
101,50,88758,53,10,2:1:0:0:
101,50,89327,1,8,0:1:0:0:
156,95,89517,2,0,L|248:85,1,74.9999977111817,8|8,0:0|0:1,0:0:0:0:
231,87,90657,53,8,0:1:0:0:
231,87,91036,1,8,0:0:0:0:
269,25,91226,1,8,0:1:0:0:
454,191,91796,53,10,0:1:0:0:
454,191,92365,1,8,0:1:0:0:
399,236,92555,2,0,L|307:226,1,74.9999977111817,8|8,0:0|0:1,0:0:0:0:
325,228,93694,53,8,0:1:0:0:
325,228,94074,1,8,0:0:0:0:
290,297,94264,1,8,0:1:0:0:
89,193,94834,38,0,B|112:124|203:138|208:211|208:211|212:283|303:298|325:228,1,349.999989318848,8|6,0:3|0:2,0:0:0:0:
325,227,97049,38,0,L|339:195,2,20.8333333333333,2|2|2,0:2|0:0|0:0,0:0:0:0:
219,361,97872,86,0,P|163:384|96:370,1,125,6|2,3:2|3:0,0:0:0:0:
102,373,98441,1,0,0:0:0:0:
85,363,98536,1,0,0:0:0:0:
69,351,98631,2,0,P|36:299|38:231,1,125,2|2,3:2|3:0,0:0:0:0:
36,237,99201,1,0,0:0:0:0:
42,218,99296,1,0,0:0:0:0:
51,200,99391,2,0,P|95:159|163:149,1,125,2|2,3:2|3:0,0:0:0:0:
157,148,99960,1,0,0:0:0:0:
176,150,100055,1,0,0:0:0:0:
196,156,100150,2,0,P|243:192|265:258,1,125,2|2,3:2|3:0,0:0:0:0:
265,253,100910,54,0,P|281:319|345:352,1,125,6|2,3:2|3:0,0:0:0:0:
326,349,101479,1,0,0:0:0:0:
344,353,101574,1,0,0:0:0:0:
361,350,101669,2,0,P|409:302|406:230,1,125,2|2,3:0|3:0,0:0:0:0:
413,248,102239,1,0,0:0:0:0:
406,231,102334,1,0,0:0:0:0:
395,217,102429,2,0,P|328:198|268:237,1,125,2|2,3:0|3:0,0:0:0:0:
281,222,102998,53,0,0:0:0:0:
269,236,103093,1,0,0:0:0:0:
258,251,103188,1,2,3:0:0:0:
184,354,103378,21,8,0:0:0:0:
98,259,103568,69,2,3:2:0:0:
218,136,103758,37,8,0:0:0:0:
325,342,103948,69,6,0:0:0:0:
399,112,106986,38,0,B|390:54|336:23|336:23|305:77|328:131,1,224.999993133545,6|0,3:1|0:0,0:0:0:0:
421,267,107365,2,0,B|461:308|523:302|523:302|516:240|466:209,1,224.999993133545,6|0,3:1|0:0,0:0:0:0:
312,154,107745,2,0,B|255:144|208:185|208:185|251:231|309:227,1,224.999993133545,6|0,3:1|0:0,0:0:0:0:
466,181,108125,2,0,B|517:155|530:94|530:94|469:82|424:120,1,224.999993133545,6|0,3:1|0:0,0:0:0:0:
387,185,108505,5,8,2:2:0:0:
380,231,108600,1,8,2:2:0:0:
393,237,108694,1,8,2:1:0:0:
406,242,108789,1,8,2:1:0:0:
401,288,108884,1,8,2:0:0:0:
69,384,109264,53,10,0:3:0:0:
206,271,109454,1,10,0:0:0:0:
206,271,109549,1,8,0:0:0:0:
41,206,109739,1,8,0:3:0:0:
41,206,109834,1,10,0:3:0:0:
172,107,110024,22,0,L|246:101,1,74.9999977111817,6|0,3:2|0:0,0:0:0:0:
239,26,110213,2,0,L|164:31,1,74.9999977111817,8|0,0:0|0:0,0:0:0:0:
344,165,110403,53,0,3:0:0:0:
358,99,110498,1,0,3:0:0:0:
372,33,110593,1,10,0:0:0:0:
471,233,110783,54,0,P|503:170|464:91,1,149.999995422363,2|8,3:2|0:0,0:0:0:0:
397,251,111068,1,0,3:0:0:0:
397,251,111163,2,0,P|412:285|444:304,1,74.9999977111817,2|0,0:0|3:0,0:0:0:0:
430,375,111353,2,0,P|466:378|498:360,1,74.9999977111817,10|0,0:0|0:0,0:0:0:0:
397,251,111543,2,0,P|344:203|258:221,1,149.999995422363,6|8,3:3|0:0,0:0:0:0:
63,342,111922,53,2,3:0:0:0:
129,332,112017,1,0,3:0:0:0:
195,320,112112,1,8,0:0:0:0:
74,152,112302,54,0,B|42:175|-8:154|-8:106|-8:106|16:62,1,149.999995422363,2|8,3:0|0:0,0:0:0:0:
86,10,112587,1,0,3:0:0:0:
86,10,112682,2,0,P|75:42|95:85,1,74.9999977111817,2|0,0:0|3:0,0:0:0:0:
168,74,112872,2,0,P|178:38|165:4,1,74.9999977111817,10|0,0:0|0:0,0:0:0:0:
221,174,113062,54,0,B|273:179|273:179|294:210|294:210|375:231,1,149.999995422363,6|8,3:1|0:0,0:0:0:0:
512,94,113441,1,2,3:0:0:0:
483,69,113536,1,0,3:0:0:0:
448,54,113631,2,0,B|396:59|396:59|375:90|375:90|294:111,1,149.999995422363,10|0,0:0|3:0,0:0:0:0:
486,216,114011,1,10,0:0:0:0:
486,216,114106,2,0,B|509:248|488:298|440:298|440:298|399:271,1,149.999995422363,0|0,3:0|3:0,0:0:0:0:
352,225,114391,85,10,0:0:0:0:
236,371,114581,2,0,L|406:363,1,149.999995422363,6|8,3:1|0:0,0:0:0:0:
178,260,114960,53,2,3:0:0:0:
171,258,115055,1,0,3:0:0:0:
164,256,115150,1,8,0:0:0:0:
286,186,115340,53,2,0:0:0:0:
289,155,115435,1,0,0:0:0:0:
293,124,115530,1,8,0:0:0:0:
296,93,115625,1,0,3:0:0:0:
300,62,115720,2,0,L|309:-18,1,62.5,2|0,0:0|3:0,0:0:0:0:
377,6,115910,2,0,L|370:69,1,62.5,8|0,0:0|0:0,0:0:0:0:
223,109,116100,86,0,B|192:134|147:120|147:120|137:84|106:64,1,149.999995422363,6|8,3:2|0:0,0:0:0:0:
0,230,116479,1,2,3:0:0:0:
0,230,116574,1,0,3:0:0:0:
49,284,116669,2,0,B|80:309|125:295|125:295|135:259|165:239,1,149.999995422363,10|0,0:0|3:0,0:0:0:0:
380,381,117049,54,0,L|302:369,1,74.9999977111817,10|0,0:0|3:0,0:0:0:0:
466,237,117239,2,0,L|495:310,1,74.9999977111817,2|0,0:0|3:0,0:0:0:0:
299,234,117429,2,0,L|349:172,1,74.9999977111817,10|0,0:0|0:0,0:0:0:0:
512,75,117619,54,0,B|481:99|481:99|370:73,1,149.999995422363,6|8,3:0|0:0,0:0:0:0:
150,21,117998,1,2,3:0:0:0:
217,12,118093,1,0,3:0:0:0:
284,3,118188,1,8,0:0:0:0:
152,151,118378,54,0,P|119:87|149:21,1,149.999995422363,2|8,3:0|0:0,0:0:0:0:
227,160,118663,1,0,3:0:0:0:
182,221,118758,2,0,P|108:212|61:136,1,149.999995422363,2|8,0:0|0:0,0:0:0:0:
286,4,119138,85,6,3:1:0:0:
333,224,119327,1,8,0:0:0:0:
489,101,119517,53,0,3:0:0:0:
451,92,119612,1,0,3:0:0:0:
415,83,119707,1,8,0:0:0:0:
227,160,119897,53,2,3:0:0:0:
386,1,120087,1,8,0:0:0:0:
454,240,120277,53,0,3:0:0:0:
439,220,120372,1,0,3:0:0:0:
425,200,120467,1,0,3:0:0:0:
411,181,120562,1,0,3:0:0:0:
382,117,120657,37,14,3:1:0:0:
379,154,120751,1,0,3:0:0:0:
360,185,120846,1,0,3:0:0:0:
328,205,120941,1,0,3:0:0:0:
291,208,121036,1,0,3:0:0:0:
257,193,121131,1,0,3:0:0:0:
233,165,121226,2,0,B|223:71,1,74.9999977111817,10|0,3:1|3:0,0:0:0:0:
96,0,121416,53,2,3:1:0:0:
88,50,121511,1,0,3:0:0:0:
80,101,121606,1,0,3:0:0:0:
73,152,121701,1,0,3:0:0:0:
65,203,121796,2,0,B|59:232|38:241|38:241|38:226|53:207,1,74.9999977111817,10|0,3:1|3:2,0:0:0:0:
113,90,121986,2,0,B|119:61|140:52|140:52|140:67|125:86,1,74.9999977111817,10|0,3:1|3:2,0:0:0:0:
235,244,122175,38,0,B|198:250|198:250|165:231,1,74.9999977111817,6|0,3:2|0:0,0:0:0:0:
179,157,122365,2,0,B|216:151|216:151|248:169,1,74.9999977111817,8|0,0:0|0:0,0:0:0:0:
373,299,122555,53,0,3:0:0:0:
313,331,122650,1,0,3:0:0:0:
253,364,122745,1,10,0:0:0:0:
353,167,122935,54,0,P|355:100|440:91,1,149.999995422363,2|8,3:2|0:0,0:0:0:0:
512,165,123220,1,0,3:0:0:0:
512,165,123315,2,0,L|505:256,1,74.9999977111817,2|0,0:0|3:0,0:0:0:0:
428,249,123505,2,0,L|435:158,1,74.9999977111817,10|0,0:0|0:0,0:0:0:0:
425,81,123694,2,0,P|423:148|338:157,1,149.999995422363,6|8,3:0|0:0,0:0:0:0:
166,27,124074,53,2,3:0:0:0:
232,17,124169,1,0,3:0:0:0:
298,5,124264,1,8,0:0:0:0:
169,190,124454,54,0,P|167:123|82:114,1,149.999995422363,2|8,3:0|0:0,0:0:0:0:
15,186,124739,1,0,3:0:0:0:
15,186,124834,2,0,L|22:277,1,74.9999977111817,2|0,0:0|3:0,0:0:0:0:
96,269,125024,2,0,L|89:178,1,74.9999977111817,10|0,0:0|0:0,0:0:0:0:
216,80,125213,54,0,B|271:83|271:83|293:112|293:112|355:131,1,149.999995422363,6|8,3:1|0:0,0:0:0:0:
512,208,125593,1,2,3:0:0:0:
495,273,125688,1,0,3:0:0:0:
473,337,125783,2,0,B|458:372|458:372|413:254,1,149.999995422363,10|0,0:0|3:0,0:0:0:0:
342,62,126163,53,10,0:0:0:0:
348,129,126258,1,0,3:0:0:0:
386,184,126353,1,2,0:0:0:0:
371,1,126543,1,10,0:0:0:0:
244,216,126732,21,6,3:1:0:0:
186,86,126922,1,0,3:0:0:0:
177,64,127017,1,0,3:0:0:0:
167,43,127112,1,0,3:0:0:0:
80,206,127302,1,0,3:0:0:0:
59,215,127397,1,0,3:0:0:0:
38,223,127492,69,0,1:0:0:0:
0,186,127587,1,0,1:0:0:0:
19,137,127682,1,0,1:0:0:0:
71,135,127777,1,0,1:0:0:0:
98,179,127872,53,8,3:1:0:0:
100,185,127935,1,8,3:1:0:0:
100,192,127998,1,8,3:1:0:0:
103,199,128062,2,0,B|114:235|114:235|110:253|110:253|125:293,1,93.7500035762788,10|8,3:1|3:1,0:0:0:0:
123,288,128441,70,0,L|198:276,1,74.9999977111817,12|0,0:0|0:0,0:0:0:0:
362,359,128631,1,2,3:0:0:0:
328,300,128726,1,0,3:0:0:0:
363,241,128821,2,0,P|382:171|347:106,1,149.999995422363,8|0,0:0|3:0,0:0:0:0:
175,36,129201,53,10,0:0:0:0:
109,55,129296,1,0,3:0:0:0:
44,74,129391,2,0,P|42:36|75:-4,1,74.9999977111817,2|0,0:0|3:0,0:0:0:0:
175,36,129581,2,0,P|176:73|143:114,1,74.9999977111817,10|0,0:0|0:0,0:0:0:0:
59,242,129770,54,0,B|24:226|20:182|45:154|45:154|98:141,1,149.999995422363,6|8,3:0|0:0,0:0:0:0:
307,146,130150,1,2,3:0:0:0:
256,192,130245,1,0,3:0:0:0:
205,238,130340,1,8,0:0:0:0:
453,242,130530,2,0,B|488:226|492:182|467:154|467:154|414:141,1,149.999995422363,2|8,3:0|0:0,0:0:0:0:
383,264,130815,1,0,3:0:0:0:
383,264,130910,2,0,P|382:304|420:339,1,74.9999977111817,2|0,0:0|3:0,0:0:0:0:
473,309,131100,2,0,P|473:268|435:233,1,74.9999977111817,10|0,0:0|0:0,0:0:0:0:
256,96,131289,21,6,3:1:0:0:
114,326,131479,1,8,0:0:0:0:
58,151,131669,53,0,3:0:0:0:
83,157,131764,1,0,3:0:0:0:
109,164,131859,1,8,0:0:0:0:
106,55,132049,53,6,3:1:0:0:
7,222,132239,1,8,0:0:0:0:
7,222,132334,1,8,0:3:0:0:
5,41,132524,1,8,0:3:0:0:
5,41,132619,1,8,0:0:0:0:
105,251,132808,101,2,1:0:0:0:
105,251,132998,1,0,1:0:0:0:
105,251,133188,1,0,1:0:0:0:
217,97,133378,53,2,1:0:0:0:
199,100,133473,1,2,1:0:0:0:
180,103,133568,1,8,1:3:0:0:
180,103,133948,86,0,P|243:187|456:166,1,281.250010728836,10|0,3:2|0:0,0:0:0:0:
512,73,134327,38,0,B|528:35|528:35|509:0,1,81.2499962806703,6|0,3:2|0:0,0:0:0:0:
370,40,134517,2,0,B|354:78|354:78|372:113,1,81.2499962806703,8|0,0:0|0:0,0:0:0:0:
512,261,134707,53,2,3:0:0:0:
471,234,134802,1,0,3:0:0:0:
422,238,134897,2,0,B|384:268|384:268|249:235,1,162.499992561341,8|0,0:0|3:0,0:0:0:0:
79,176,135277,54,0,P|119:179|155:162,1,81.2499962806703,10|0,0:0|3:0,0:0:0:0:
35,31,135467,2,0,P|12:64|8:104,1,81.2499962806703,2|0,0:0|3:0,0:0:0:0:
182,65,135657,2,0,P|164:28|132:5,1,81.2499962806703,10|0,0:0|0:0,0:0:0:0:
57,187,135846,54,0,B|126:221|181:168|181:168|132:156,1,162.499992561341,6|8,3:3|0:0,0:0:0:0:
55,266,136131,1,2,0:0:0:0:
55,266,136226,2,0,B|33:301|33:301|47:338,1,81.2499962806703,2|0,3:0|3:0,0:0:0:0:
123,347,136416,2,0,B|144:311|144:311|130:274,1,81.2499962806703,10|0,0:0|0:0,0:0:0:0:
241,136,136606,54,0,B|217:105|217:105|186:180|186:180|208:218,1,162.499992561341,2|8,3:3|0:0,0:0:0:0:
322,279,136891,2,0,B|343:242|343:242|312:167|312:167|288:198,1,162.499992561341,2|0,0:0|3:0,0:0:0:0:
244,306,137175,1,8,0:0:0:0:
442,368,137365,54,0,B|469:382|469:382|467:311|467:311|513:241,1,162.499992561341,6|8,3:1|0:0,0:0:0:0:
457,143,137650,1,2,0:0:0:0:
457,143,137745,2,0,B|421:165|421:165|376:144,1,81.2499962806703,2|0,3:0|3:0,0:0:0:0:
376,71,137935,2,0,B|412:49|412:49|457:70,1,81.2499962806703,10|0,0:0|0:0,0:0:0:0:
288,198,138125,54,0,B|239:222|239:222|155:119|155:119|90:154,2,243.749988842011,2|2|10,0:0|3:0|0:0,0:0:0:0:
484,358,138884,54,0,B|527:342|529:283|481:259|481:259|438:271,1,162.499992561341,6|8,3:3|0:0,0:0:0:0:
236,346,139264,1,2,3:0:0:0:
305,339,139359,1,0,3:0:0:0:
372,332,139454,1,8,0:0:0:0:
184,162,139644,54,0,P|153:137|114:145,1,81.2499962806703,2|0,3:0|0:0,0:0:0:0:
99,217,139834,2,0,P|129:241|168:233,1,81.2499962806703,8|0,0:0|3:0,0:0:0:0:
396,144,140024,54,0,P|358:136|327:161,1,81.2499962806703,2|0,0:0|3:0,0:0:0:0:
343,233,140213,2,0,P|381:241|412:217,1,81.2499962806703,8|0,0:0|0:0,0:0:0:0:
256,50,140403,85,6,3:1:0:0:
240,78,140498,1,0,0:0:0:0:
221,104,140593,1,8,0:0:0:0:
196,122,140688,1,0,0:0:0:0:
165,135,140783,1,2,3:0:0:0:
135,143,140878,1,0,3:0:0:0:
101,141,140973,1,8,0:0:0:0:
72,133,141068,1,0,0:0:0:0:
44,118,141163,53,2,3:0:0:0:
59,91,141258,1,0,0:0:0:0:
79,65,141353,1,8,0:0:0:0:
104,46,141448,1,0,3:0:0:0:
134,33,141543,1,2,0:0:0:0:
164,25,141638,1,0,3:0:0:0:
198,28,141732,1,8,0:0:0:0:
227,35,141827,1,0,0:0:0:0:
256,50,141922,53,6,3:0:0:0:
252,88,142017,1,0,0:0:0:0:
259,129,142112,1,8,0:0:0:0:
274,167,142207,1,0,0:0:0:0:
299,200,142302,1,2,3:0:0:0:
329,227,142397,1,0,3:0:0:0:
367,246,142492,1,8,0:0:0:0:
404,258,142587,1,0,0:0:0:0:
445,259,142682,53,2,3:0:0:0:
446,219,142777,1,0,0:0:0:0:
442,176,142872,1,8,0:0:0:0:
426,141,142967,1,0,3:0:0:0:
400,107,143062,1,2,0:0:0:0:
372,78,143157,1,0,3:0:0:0:
333,59,143251,1,8,0:0:0:0:
296,50,143346,1,0,0:0:0:0:
256,50,143441,54,0,B|231:84|177:78|177:78|175:18|207:0,1,174.999994659424,6|8,3:1|0:0,0:0:0:0:
283,155,143726,1,2,0:0:0:0:
283,155,143821,2,0,P|287:194|237:245,1,87.499997329712,2|0,3:0|3:0,0:0:0:0:
204,175,144011,2,0,P|235:152|304:169,1,87.499997329712,10|0,0:0|0:0,0:0:0:0:
433,247,144201,54,0,L|447:341,1,87.499997329712,2|0,3:0|0:0,0:0:0:0:
435,334,144391,2,0,L|445:227,1,87.499997329712,10|0,0:0|0:0,0:0:0:0:
407,105,144581,37,0,3:0:0:0:
399,90,144675,1,0,3:0:0:0:
391,77,144770,1,0,3:0:0:0:
385,65,144865,1,0,3:0:0:0:
344,65,144960,21,14,3:1:0:0:
364,103,145055,1,0,3:0:0:0:
407,105,145150,1,0,3:0:0:0:
429,66,145245,1,0,3:0:0:0:
408,29,145340,1,0,3:0:0:0:
365,29,145435,1,0,3:0:0:0:
335,65,145530,53,14,3:1:0:0:
359,21,145625,1,0,3:0:0:0:
413,22,145720,1,0,3:0:0:0:
437,66,145815,1,0,3:0:0:0:
411,112,145910,1,0,3:0:0:0:
359,110,146005,1,0,3:0:0:0:
328,64,146100,5,14,1:1:0:0:
282,59,146194,53,0,1:0:0:0:
256,75,146289,53,0,1:0:0:0:
245,99,146384,53,0,1:0:0:0:
245,117,146479,86,0,P|241:149|167:148,1,112.499996566773,6|8,0:2|0:0,0:0:0:0:
173,156,146859,53,2,3:0:0:0:
168,129,146954,1,0,3:0:0:0:
151,107,147049,1,8,0:0:0:0:
125,96,147144,1,0,3:0:0:0:
98,100,147239,1,2,3:0:0:0:
123,110,147334,1,0,0:0:0:0:
140,132,147429,1,8,0:0:0:0:
144,159,147524,1,0,3:0:0:0:
135,185,147619,1,2,0:0:0:0:
129,157,147713,1,0,3:0:0:0:
112,136,147808,1,8,0:0:0:0:
87,126,147903,1,0,0:0:0:0:
59,134,147998,53,6,3:0:0:0:
61,167,148093,1,0,0:0:0:0:
64,200,148188,1,8,0:0:0:0:
68,234,148283,1,0,3:0:0:0:
71,268,148378,1,2,3:0:0:0:
87,238,148473,1,0,3:0:0:0:
105,208,148568,1,8,0:0:0:0:
121,178,148663,1,0,0:0:0:0:
139,148,148758,1,2,3:0:0:0:
108,162,148853,1,0,0:0:0:0:
76,176,148948,1,8,0:0:0:0:
45,191,149043,1,0,3:0:0:0:
13,205,149138,1,2,0:0:0:0:
46,211,149232,1,0,3:0:0:0:
80,219,149327,1,8,0:0:0:0:
114,225,149422,1,0,0:0:0:0:
148,232,149517,54,0,B|188:227|188:227|203:239|203:239|271:231,1,112.499996566773,6|8,3:3|0:0,0:0:0:0:
255,232,149897,53,2,3:0:0:0:
245,206,149992,1,0,3:0:0:0:
244,178,150087,1,8,0:0:0:0:
251,151,150182,1,0,3:0:0:0:
266,127,150277,1,2,3:0:0:0:
293,131,150372,1,0,0:0:0:0:
318,144,150467,1,8,0:0:0:0:
338,163,150562,1,0,3:0:0:0:
350,189,150657,1,2,0:0:0:0:
333,210,150751,1,0,3:0:0:0:
309,225,150846,1,8,0:0:0:0:
283,233,150941,1,0,0:0:0:0:
255,232,151036,53,6,3:0:0:0:
249,198,151131,1,0,0:0:0:0:
243,165,151226,1,8,0:0:0:0:
238,132,151321,1,0,3:0:0:0:
232,98,151416,1,2,3:0:0:0:
261,82,151511,1,0,3:0:0:0:
291,66,151606,1,8,0:0:0:0:
321,51,151701,1,0,0:0:0:0:
351,35,151796,1,2,3:0:0:0:
375,56,151891,1,0,0:0:0:0:
400,80,151986,1,8,0:0:0:0:
423,104,152081,1,0,3:0:0:0:
448,127,152175,1,2,0:0:0:0:
435,156,152270,1,0,3:0:0:0:
420,187,152365,1,8,0:0:0:0:
404,216,152460,1,0,0:0:0:0:
390,247,152555,54,0,B|377:302|377:302|426:343,1,112.499996566773,6|8,3:2|0:0,0:0:0:0:
420,337,152935,53,2,3:0:0:0:
447,345,153030,1,0,3:0:0:0:
473,335,153125,1,8,0:0:0:0:
488,312,153220,1,0,3:0:0:0:
487,284,153315,1,2,3:0:0:0:
460,291,153410,1,0,0:0:0:0:
434,281,153505,1,8,0:0:0:0:
419,258,153600,1,0,3:0:0:0:
420,230,153694,1,2,0:0:0:0:
447,236,153789,1,0,3:0:0:0:
473,226,153884,1,8,0:0:0:0:
488,203,153979,1,0,0:0:0:0:
487,175,154074,53,6,3:0:0:0:
453,170,154169,1,0,0:0:0:0:
420,165,154264,1,8,0:0:0:0:
386,160,154359,1,0,3:0:0:0:
353,156,154454,1,2,3:0:0:0:
386,151,154549,1,0,3:0:0:0:
419,146,154644,1,8,0:0:0:0:
453,141,154739,1,0,0:0:0:0:
486,137,154834,1,2,3:0:0:0:
453,132,154929,1,0,0:0:0:0:
420,127,155024,1,8,0:0:0:0:
386,122,155119,1,0,3:0:0:0:
353,118,155213,1,2,0:0:0:0:
386,113,155308,1,0,3:0:0:0:
419,108,155403,1,8,0:0:0:0:
453,103,155498,1,0,0:0:0:0:
486,99,155593,54,0,B|509:85|509:85|528:37|482:4,1,112.499996566773,6|8,3:1|0:0,0:0:0:0:
488,8,155973,53,2,3:0:0:0:
473,37,156068,1,0,3:0:0:0:
445,56,156163,1,8,0:0:0:0:
412,60,156258,1,0,3:0:0:0:
381,46,156353,1,2,3:0:0:0:
346,31,156448,1,0,0:0:0:0:
309,34,156543,1,8,0:0:0:0:
278,56,156638,1,0,3:0:0:0:
261,89,156732,1,2,3:0:0:0:
242,126,156827,1,0,3:0:0:0:
208,150,156922,1,8,3:2:0:0:
166,154,157017,1,0,3:0:0:0:
128,137,157112,6,0,L|119:48,1,74.9999977111817,14|0,0:1|3:0,0:0:0:0:
9,223,157302,54,0,L|18:312,1,81.2499962806703,10|0,0:1|3:0,0:0:0:0:
136,143,157492,54,0,L|127:54,1,87.499997329712,10|0,0:1|3:0,0:0:0:0:
0,218,157682,54,0,L|9:315,1,93.7500035762788,10|0,0:1|3:0,0:0:0:0:
144,148,157872,54,0,L|133:47,1,100,10|0,0:1|3:0,0:0:0:0:
229,157,167745,118,0,B|123:134|123:134|106:139|106:139|0:116,1,234.375,6|0,3:1|0:0,0:0:0:0:
169,34,168125,2,0,B|114:127|114:127|113:145|113:145|59:238,1,234.375,6|0,3:1|0:0,0:0:0:0:
34,53,168505,2,0,B|106:133|106:133|122:139|122:139|195:220,1,234.375,6|0,3:1|0:0,0:0:0:0:
10,187,168884,2,0,B|108:143|108:143|120:129|120:129|218:85,1,234.375,6|0,3:1|0:0,0:0:0:0:
316,53,169264,5,8,2:2:0:0:
349,84,169359,1,8,2:2:0:0:
343,97,169454,1,8,2:1:0:0:
337,109,169549,1,8,2:1:0:0:
371,141,169644,1,8,2:0:0:0:
145,354,170024,53,10,0:3:0:0:
298,260,170213,1,10,0:0:0:0:
298,260,170308,1,8,0:0:0:0:
140,172,170498,1,8,0:3:0:0:
140,172,170593,1,10,0:3:0:0:
316,84,170783,22,0,B|332:46|332:46|310:11,1,81.2499962806703,6|0,3:2|0:0,0:0:0:0:
237,18,170973,2,0,B|221:56|221:56|242:90,1,81.2499962806703,8|0,0:0|0:0,0:0:0:0:
351,183,171163,53,0,3:0:0:0:
420,167,171258,1,0,3:0:0:0:
489,151,171353,1,10,0:0:0:0:
414,378,171543,54,0,P|444:305|405:237,1,162.499992561341,2|8,3:2|0:0,0:0:0:0:
355,187,171827,1,0,3:0:0:0:
355,187,171922,2,0,P|330:227|346:279,1,81.2499962806703,2|0,0:0|3:0,0:0:0:0:
451,292,172112,2,0,P|474:259|472:219,1,81.2499962806703,10|0,0:0|0:0,0:0:0:0:
365,99,172302,2,0,B|275:77|304:141|208:113,1,162.499992561341,6|8,3:3|0:0,0:0:0:0:
0,49,172682,53,2,3:0:0:0:
68,31,172777,1,0,3:0:0:0:
136,13,172872,1,8,0:0:0:0:
255,166,173062,54,0,P|270:252|332:259,1,162.499992561341,2|8,3:0|0:0,0:0:0:0:
476,223,173346,1,0,3:0:0:0:
476,223,173441,2,0,B|491:183|491:183|472:149,1,81.2499962806703,2|0,0:0|3:0,0:0:0:0:
396,155,173631,2,0,B|381:195|381:195|399:228,1,81.2499962806703,10|0,0:0|0:0,0:0:0:0:
279,381,173821,54,0,P|264:295|202:288,1,162.499992561341,6|8,3:1|0:0,0:0:0:0:
0,335,174201,1,2,3:0:0:0:
39,346,174296,1,0,3:0:0:0:
78,355,174391,2,0,B|126:366|126:366|81:326|98:252,1,162.499992561341,10|0,0:0|3:0,0:0:0:0:
234,116,174770,1,10,0:0:0:0:
234,116,174865,2,0,P|219:202|157:209,1,162.499992561341,0|0,3:0|3:0,0:0:0:0:
88,169,175150,21,10,0:0:0:0:
241,279,175340,2,0,B|294:274|294:274|319:290|319:290|404:283,1,162.499992561341,6|8,3:1|0:0,0:0:0:0:
512,128,175720,53,2,3:0:0:0:
505,126,175815,1,0,3:0:0:0:
498,124,175910,1,8,0:0:0:0:
359,0,176100,53,2,0:0:0:0:
352,30,176194,1,0,0:0:0:0:
345,60,176289,1,8,0:0:0:0:
339,91,176384,1,0,3:0:0:0:
332,121,176479,2,0,L|314:199,1,62.5,2|0,0:0|3:0,0:0:0:0:
249,169,176669,2,0,L|262:107,1,62.5,8|0,0:0|0:0,0:0:0:0:
176,16,176859,22,0,B|131:-5|87:20|79:64|79:64|102:91,1,162.499992561341,6|8,3:2|0:0,0:0:0:0:
256,176,177239,1,2,3:0:0:0:
256,176,177334,1,0,3:0:0:0:
197,227,177429,2,0,B|157:257|109:243|91:202|91:202|107:169,1,162.499992561341,10|0,0:0|3:0,0:0:0:0:
285,27,177808,54,0,L|366:1,1,81.2499962806703,10|0,0:0|3:0,0:0:0:0:
316,230,177998,2,0,L|252:172,1,81.2499962806703,2|0,0:0|3:0,0:0:0:0:
477,102,178188,2,0,L|459:185,1,81.2499962806703,10|0,0:0|0:0,0:0:0:0:
442,380,178378,54,0,B|419:332|419:332|425:287|425:287|395:229,1,162.499992561341,6|8,3:0|0:0,0:0:0:0:
285,27,178758,1,2,3:0:0:0:
258,92,178853,1,0,3:0:0:0:
228,156,178948,1,8,0:0:0:0:
0,52,179138,54,0,B|70:46|70:46|93:63|93:63|175:57,1,162.499992561341,2|8,3:0|0:0,0:0:0:0:
105,110,179422,1,0,3:0:0:0:
49,158,179517,2,0,P|22:257|56:302,1,162.499992561341,2|8,0:0|0:0,0:0:0:0:
304,367,179897,85,6,3:1:0:0:
258,92,180087,1,8,0:0:0:0:
128,324,180277,53,0,3:0:0:0:
166,315,180372,1,0,3:0:0:0:
202,309,180467,1,8,0:0:0:0:
370,214,180657,53,2,3:0:0:0:
122,112,180846,1,8,0:0:0:0:
368,4,181036,53,0,3:0:0:0:
373,28,181131,1,0,3:0:0:0:
377,52,181226,1,0,3:0:0:0:
381,75,181321,1,0,3:0:0:0:
437,130,181416,37,14,3:1:0:0:
407,105,181511,1,0,3:0:0:0:
372,97,181606,1,0,3:0:0:0:
336,105,181701,1,0,3:0:0:0:
307,129,181796,1,0,3:0:0:0:
293,164,181891,1,0,3:0:0:0:
296,200,181986,2,0,P|330:219|394:196,1,81.2499962806703,10|0,3:1|3:0,0:0:0:0:
246,75,182175,53,2,3:1:0:0:
197,61,182270,1,0,3:0:0:0:
147,48,182365,1,0,3:0:0:0:
97,34,182460,1,0,3:0:0:0:
47,20,182555,2,0,B|-3:30|-3:30|46:45,1,81.2499962806703,10|0,3:1|3:2,0:0:0:0:
140,137,182745,2,0,B|169:128|169:128|120:115,1,81.2499962806703,10|0,3:1|3:2,0:0:0:0:
0,196,182935,38,0,P|-8:234|6:271,1,81.2499962806703,6|0,3:2|0:0,0:0:0:0:
82,261,183125,2,0,P|90:221|74:184,1,81.2499962806703,8|0,0:0|0:0,0:0:0:0:
266,8,183315,53,0,3:0:0:0:
246,75,183410,1,0,3:0:0:0:
265,143,183505,1,10,0:0:0:0:
493,272,183694,54,0,P|505:216|414:181,1,162.499992561341,2|8,3:2|0:0,0:0:0:0:
396,267,183979,1,0,3:0:0:0:
396,267,184074,2,0,B|417:301|417:301|402:338,1,81.2499962806703,2|0,0:0|3:0,0:0:0:0:
329,344,184264,2,0,B|308:310|308:310|322:272,1,81.2499962806703,10|0,0:0|0:0,0:0:0:0:
422,176,184454,2,0,P|494:155|492:80,1,162.499992561341,6|8,3:0|0:0,0:0:0:0:
197,1,184834,53,2,3:0:0:0:
266,8,184929,1,0,3:0:0:0:
335,14,185024,1,8,0:0:0:0:
127,82,185213,54,0,P|54:103|58:178,1,162.499992561341,2|8,3:0|0:0,0:0:0:0:
219,246,185498,1,0,3:0:0:0:
219,246,185593,2,0,P|234:210|223:171,1,81.2499962806703,2|0,0:0|3:0,0:0:0:0:
147,166,185783,2,0,P|133:203|144:242,1,81.2499962806703,10|0,0:0|0:0,0:0:0:0:
277,366,185973,54,0,B|342:358|342:358|371:378|371:378|461:366,1,162.499992561341,6|8,3:1|0:0,0:0:0:0:
512,120,186353,1,2,3:0:0:0:
447,147,186448,1,0,3:0:0:0:
379,166,186543,2,0,B|314:158|314:158|285:178|285:178|195:166,1,162.499992561341,10|0,0:0|3:0,0:0:0:0:
0,64,186922,53,10,0:0:0:0:
68,49,187017,1,0,3:0:0:0:
136,36,187112,1,2,0:0:0:0:
29,208,187302,1,10,0:0:0:0:
237,319,187492,21,6,3:1:0:0:
192,110,187682,1,0,3:0:0:0:
187,133,187777,1,0,3:0:0:0:
183,157,187872,1,0,3:0:0:0:
322,89,188062,1,0,3:0:0:0:
318,66,188157,1,0,3:0:0:0:
315,42,188251,69,0,1:0:0:0:
353,6,188346,1,0,1:0:0:0:
404,16,188441,1,0,1:0:0:0:
418,66,188536,1,0,1:0:0:0:
389,110,188631,53,8,3:1:0:0:
385,117,188694,1,8,3:1:0:0:
383,125,188758,1,8,3:1:0:0:
384,133,188821,2,0,B|393:167|416:183|416:183|428:129,1,93.7500035762788,10|8,3:1|3:1,0:0:0:0:
423,150,189201,70,0,L|332:139,1,81.2499962806703,12|0,0:0|0:0,0:0:0:0:
158,213,189391,1,2,3:0:0:0:
228,220,189486,1,0,3:0:0:0:
298,227,189581,2,0,B|341:229|341:229|381:218|390:155|343:140,1,162.499992561341,8|0,0:0|3:0,0:0:0:0:
129,18,189960,53,10,0:0:0:0:
66,50,190055,1,0,3:0:0:0:
4,84,190150,2,0,B|-8:46|-8:46|8:9,1,81.2499962806703,2|0,0:0|3:0,0:0:0:0:
129,18,190340,2,0,B|141:54|141:54|123:91,1,81.2499962806703,10|0,0:0|0:0,0:0:0:0:
26,301,190530,54,0,B|-19:281|-3:219|37:212|37:212|79:219,1,162.499992561341,6|8,3:0|0:0,0:0:0:0:
252,336,190910,1,2,3:0:0:0:
182,351,191005,1,0,3:0:0:0:
114,371,191100,1,8,0:0:0:0:
262,203,191289,54,0,P|263:138|362:134,1,162.499992561341,2|8,3:0|0:0,0:0:0:0:
424,213,191574,1,0,3:0:0:0:
424,213,191669,2,0,L|437:306,1,81.2499962806703,2|0,0:0|3:0,0:0:0:0:
512,284,191859,2,0,L|499:191,1,81.2499962806703,10|0,0:0|0:0,0:0:0:0:
373,30,192049,85,6,3:1:0:0:
293,299,192239,1,8,0:0:0:0:
196,123,192429,53,0,3:0:0:0:
221,119,192524,1,0,3:0:0:0:
248,115,192619,1,8,0:0:0:0:
196,19,192808,53,6,3:1:0:0:
52,222,192998,1,8,0:0:0:0:
52,222,193093,1,8,0:3:0:0:
22,14,193283,1,8,0:3:0:0:
22,14,193378,1,8,0:0:0:0:
206,212,193568,101,2,1:0:0:0:
206,212,193758,1,0,1:0:0:0:
206,212,193948,1,0,1:0:0:0:
4,359,194138,53,2,1:0:0:0:
6,340,194232,1,2,1:0:0:0:
9,321,194327,1,8,1:3:0:0:
9,321,194707,22,0,B|49:331|49:331|63:352|63:352|125:368,1,112.499996566773,10|0,0:0|0:0,0:0:0:0:
181,378,195087,37,14,2:1:0:0:
82,240,195277,1,0,3:0:0:0:
82,240,195372,1,0,3:0:0:0:
82,240,195467,2,0,L|103:120,1,100,10|0,0:0|3:0,0:0:0:0:
160,47,195846,53,10,0:0:0:0:
195,203,196036,1,0,3:0:0:0:
313,156,196226,1,8,0:0:0:0:
278,0,196416,1,0,3:0:0:0:
236,101,196606,53,10,0:0:0:0:
421,158,196796,1,0,3:0:0:0:
421,158,196891,1,0,3:0:0:0:
421,158,196986,2,0,L|400:38,1,100,10|0,0:0|3:0,0:0:0:0:
278,0,197365,53,10,0:0:0:0:
199,207,197555,1,2,3:1:0:0:
199,207,197650,1,2,3:0:0:0:
259,249,197745,2,0,L|379:228,1,100,10|0,0:0|3:0,0:0:0:0:
160,137,198125,53,14,0:1:0:0:
62,275,198315,1,0,3:0:0:0:
62,275,198410,1,0,3:0:0:0:
62,275,198505,2,0,L|83:155,1,100,10|0,0:0|3:0,0:0:0:0:
116,12,198884,53,10,0:0:0:0:
116,12,199074,1,0,3:0:0:0:
236,163,199264,53,10,0:0:0:0:
236,163,199454,1,0,3:0:0:0:
369,15,199644,53,14,0:1:0:0:
350,209,199834,1,0,3:0:0:0:
350,209,199929,1,0,3:0:0:0:
350,209,200024,2,0,L|329:89,1,100,14|0,0:1|3:0,0:0:0:0:
369,15,200403,1,8,0:0:0:0:
510,104,200593,22,0,P|500:100|485:92,1,25,2|0,3:0|0:0,0:0:0:0:
477,120,200783,2,0,P|470:111|461:97,1,25,10|0,0:0|0:0,0:0:0:0:
440,117,200973,2,0,P|438:105|437:89,1,25,2|0,3:0|0:0,0:0:0:0:
494,20,201163,53,14,0:1:0:0:
454,190,201353,1,0,3:0:0:0:
454,190,201448,1,0,3:0:0:0:
454,190,201543,2,0,L|433:70,1,100,8|0,0:0|3:0,0:0:0:0:
494,20,201922,1,8,0:0:0:0:
342,103,202112,54,0,L|332:61,1,25,2|0,3:0|0:0,0:0:0:0:
276,115,202302,2,0,L|266:73,1,25,10|0,0:0|0:0,0:0:0:0:
382,202,202492,54,0,L|392:160,1,25,2|0,3:0|0:0,0:0:0:0:
448,214,202682,2,0,L|458:172,1,25,10|0,0:0|0:0,0:0:0:0:
502,301,202872,53,0,3:0:0:0:
502,301,202967,1,0,3:0:0:0:
502,301,203062,1,8,0:0:0:0:
399,384,203251,53,2,3:0:0:0:
389,340,203346,1,2,3:0:0:0:
380,295,203441,1,10,0:0:0:0:
302,187,203631,53,6,3:1:0:0:
255,353,203821,1,8,0:0:0:0:
142,240,204011,53,2,3:0:0:0:
142,240,204106,1,2,3:0:0:0:
203,275,204201,2,0,L|320:261,1,100,14|0,0:1|3:0,0:0:0:0:
302,263,204486,1,0,3:0:0:0:
302,263,204581,1,8,0:0:0:0:
123,162,204770,53,2,3:0:0:0:
52,311,204960,2,0,L|66:194,1,100,10|0,0:0|3:0,0:0:0:0:
24,150,205245,1,2,3:0:0:0:
24,150,205340,2,0,L|38:33,1,100,10|0,0:0|3:0,0:0:0:0:
224,6,205720,53,14,0:1:0:0:
337,125,205910,1,0,3:0:0:0:
337,125,206005,1,0,3:0:0:0:
337,125,206100,2,0,L|325:25,1,100,14|0,0:1|0:0,0:0:0:0:
189,200,206479,53,10,0:0:0:0:
324,236,206669,1,0,3:0:0:0:
238,91,206859,53,10,0:0:0:0:
238,91,207049,1,0,3:0:0:0:
78,234,207239,85,14,3:1:0:0:
175,311,207429,1,0,3:0:0:0:
175,311,207524,1,0,3:0:0:0:
175,311,207619,2,0,L|190:187,1,112.499996566773,10|0,0:0|3:0,0:0:0:0:
238,91,207998,53,10,0:0:0:0:
285,254,208188,1,0,3:3:0:0:
407,173,208378,1,8,0:0:0:0:
360,10,208568,1,0,3:3:0:0:
279,170,208758,53,10,0:0:0:0:
420,284,208948,1,0,3:0:0:0:
420,284,209043,1,0,3:0:0:0:
420,284,209138,2,0,L|405:160,1,112.499996566773,10|0,0:0|3:0,0:0:0:0:
360,10,209517,53,10,0:0:0:0:
229,99,209707,1,2,0:0:0:0:
229,99,209802,1,2,0:0:0:0:
164,60,209897,2,0,L|40:45,1,112.499996566773,10|0,0:0|3:0,0:0:0:0:
267,0,210277,53,14,0:1:0:0:
373,121,210467,1,0,3:0:0:0:
373,121,210562,1,0,3:0:0:0:
373,121,210657,2,0,L|358:-3,1,112.499996566773,10|0,0:0|3:0,0:0:0:0:
160,136,211036,53,10,0:0:0:0:
160,136,211226,1,0,3:0:0:0:
279,257,211416,53,10,0:0:0:0:
279,257,211606,1,0,3:0:0:0:
113,384,211796,53,14,0:1:0:0:
23,279,211986,1,0,3:0:0:0:
23,279,212081,1,0,3:0:0:0:
23,279,212175,2,0,L|38:155,1,112.499996566773,14|0,0:1|3:0,0:0:0:0:
101,10,212555,53,10,0:0:0:0:
160,136,212745,1,0,3:1:0:0:
240,22,212935,1,8,0:0:0:0:
344,177,213125,85,2,3:0:0:0:
344,177,213220,1,2,3:0:0:0:
282,140,213315,2,0,B|236:134|236:134|210:144|210:144|159:135,1,125,14|0,0:1|3:0,0:0:0:0:
95,121,213600,1,0,3:0:0:0:
95,121,213694,2,0,P|80:65|120:3,1,125,10|0,0:0|3:0,0:0:0:0:
282,140,214074,53,8,0:0:0:0:
101,220,214264,1,0,3:0:0:0:
275,342,214454,54,0,B|321:339|321:339|346:351|346:351|397:346,1,125,10|0,0:0|3:0,0:0:0:0:
512,152,214834,2,0,B|465:149|465:149|440:161|440:161|389:156,1,125,10|0,0:1|3:0,0:0:0:0:
389,156,215119,1,0,3:0:0:0:
389,156,215213,1,8,0:0:0:0:
261,32,215403,53,2,3:0:0:0:
292,28,215498,1,2,3:0:0:0:
323,24,215593,1,10,0:0:0:0:
239,171,215783,53,6,3:1:0:0:
164,0,215973,1,8,0:0:0:0:
105,74,216163,1,0,3:0:0:0:
238,171,216353,101,14,3:1:0:0:
274,166,216448,1,0,3:0:0:0:
309,161,216543,1,0,3:0:0:0:
344,157,216638,1,0,3:0:0:0:
380,152,216732,101,10,3:1:0:0:
346,125,216827,1,0,3:0:0:0:
339,82,216922,1,0,3:0:0:0:
362,45,217017,1,0,3:0:0:0:
404,33,217112,37,10,3:1:0:0:
386,81,217207,1,0,3:0:0:0:
343,109,217302,1,0,3:0:0:0:
292,107,217397,1,0,3:0:0:0:
251,76,217492,54,0,B|269:50|269:50|248:-1|248:-1|225:43,1,125,14|0,3:1|3:0,0:0:0:0:
19,139,219011,53,14,0:1:0:0:
68,363,219201,1,14,0:1:0:0:
254,228,219391,102,0,B|261:194|261:194|249:161,1,68.7500020980836,6|0,3:2|0:0,0:0:0:0:
170,168,219581,2,0,B|162:201|162:201|175:232,1,68.7500020980836,10|0,0:0|0:0,0:0:0:0:
318,333,219770,53,2,3:0:0:0:
350,339,219865,1,0,3:0:0:0:
384,346,219960,1,8,0:0:0:0:
418,354,220055,1,0,0:0:0:0:
451,360,220150,1,2,3:0:0:0:
441,327,220245,1,0,0:0:0:0:
430,294,220340,1,8,0:0:0:0:
420,261,220435,1,0,3:0:0:0:
409,228,220530,1,2,0:0:0:0:
385,254,220625,1,0,3:0:0:0:
362,280,220720,1,8,0:0:0:0:
339,304,220815,1,0,0:0:0:0:
318,333,220910,53,6,3:3:0:0:
329,293,221005,1,0,0:0:0:0:
333,252,221100,1,8,0:0:0:0:
331,211,221194,1,0,0:0:0:0:
322,170,221289,1,2,3:0:0:0:
309,209,221384,1,0,3:0:0:0:
291,245,221479,1,8,0:0:0:0:
266,279,221574,1,0,0:0:0:0:
237,308,221669,1,2,3:0:0:0:
248,268,221764,1,0,0:0:0:0:
252,227,221859,1,8,0:0:0:0:
250,186,221954,1,0,3:0:0:0:
241,145,222049,1,2,0:0:0:0:
228,184,222144,1,0,3:0:0:0:
210,220,222239,1,8,0:0:0:0:
185,254,222334,1,0,0:0:0:0:
156,283,222429,54,0,L|86:297,1,68.7500020980836,6|0,3:1|0:0,0:0:0:0:
53,229,222619,2,0,L|123:215,1,68.7500020980836,10|0,0:0|0:0,0:0:0:0:
170,123,222808,53,2,3:0:0:0:
174,90,222903,1,0,3:0:0:0:
161,62,222998,1,8,0:0:0:0:
165,29,223093,1,0,0:0:0:0:
152,0,223188,1,2,3:0:0:0:
149,33,223283,1,0,0:0:0:0:
161,62,223378,1,8,0:0:0:0:
158,95,223473,1,0,3:0:0:0:
170,123,223568,54,0,P|218:163|304:153,1,137.500004196167,2|8,0:0|0:0,0:0:0:0:
478,42,223948,21,6,0:3:0:0:
419,0,224074,1,0,0:0:0:0:
412,70,224201,1,0,0:0:0:0:
483,47,224327,53,2,3:0:0:0:
424,5,224454,1,0,0:0:0:0:
417,75,224581,1,0,0:0:0:0:
488,52,224707,53,2,3:0:0:0:
429,10,224834,1,0,0:0:0:0:
422,80,224960,1,0,0:0:0:0:
493,57,225087,53,2,0:0:0:0:
434,15,225213,1,0,0:0:0:0:
427,85,225340,1,0,0:0:0:0:
498,62,225467,86,0,B|445:48|445:48|420:55|420:55|351:37,2,137.500004196167,6|8|0,3:2|0:0|3:0,0:0:0:0:
388,296,226036,53,10,0:0:0:0:
370,243,226131,1,0,0:0:0:0:
352,190,226226,2,0,L|329:105,1,68.7500020980836,2|0,3:0|0:0,0:0:0:0:
341,121,226416,2,0,L|346:189,1,68.7500020980836,10|0,0:0|3:0,0:0:0:0:
244,246,226606,54,0,L|221:161,1,68.7500020980836,2|0,0:0|3:0,0:0:0:0:
233,177,226796,2,0,L|238:245,1,68.7500020980836,10|0,0:0|0:0,0:0:0:0:
152,337,226986,54,0,P|97:341|76:262,1,137.500004196167,6|8,0:1|0:0,0:0:0:0:
165,190,227365,1,2,3:0:0:0:
165,190,227460,1,0,3:0:0:0:
165,190,227555,2,0,L|232:177,1,68.7500020980836,8|0,0:0|0:0,0:0:0:0:
160,59,227745,54,0,P|95:60|78:122,1,137.500004196167,2|8,3:3|0:0,0:0:0:0:
172,197,228030,1,0,3:0:0:0:
172,197,228125,2,0,L|239:184,1,68.7500020980836,2|0,0:0|3:0,0:0:0:0:
414,51,228315,21,10,0:0:0:0:
346,39,228410,1,0,0:0:0:0:
277,29,228505,1,6,3:1:0:0:
411,137,228694,53,10,0:0:0:0:
412,163,228789,1,0,0:0:0:0:
424,187,228884,1,0,3:0:0:0:
446,203,228979,1,0,3:0:0:0:
472,208,229074,2,0,P|493:193|504:159,1,43.749998664856,10|0,0:0|0:0,0:0:0:0:
346,39,229264,54,0,B|294:42|294:42|277:65|277:65|174:74,1,137.500004196167,6|8,3:3|0:0,0:0:0:0:
4,60,229644,5,0,3:0:0:0:
20,57,229739,1,0,3:0:0:0:
37,54,229834,1,0,3:0:0:0:
54,52,229929,1,0,3:0:0:0:
116,24,230024,85,14,3:1:0:0:
109,91,230119,1,2,3:0:0:0:
104,157,230213,2,0,L|94:253,1,74.9999977111817,2|0,3:0|3:0,0:0:0:0:
258,0,230403,53,6,3:3:0:0:
249,70,230498,1,2,3:0:0:0:
244,140,230593,2,0,L|233:242,1,81.2499962806703,8|0,3:2|3:0,0:0:0:0:
406,87,230783,54,0,L|415:-5,1,87.499997329712,6|0,3:1|3:0,0:0:0:0:
482,114,230973,2,0,L|491:22,1,87.499997329712,10|0,3:3|3:0,0:0:0:0:
327,286,231163,54,0,L|316:189,1,93.7500035762788,14|0,3:1|3:0,0:0:0:0:
246,314,231353,2,0,L|235:217,1,93.7500035762788,10|0,3:3|3:0,0:0:0:0:
114,108,231543,38,0,P|78:120|42:113,1,74.9999977111817,6|0,3:2|0:0,0:0:0:0:
36,33,231732,2,0,P|71:20|107:27,1,74.9999977111817,10|0,0:0|0:0,0:0:0:0:
206,95,231922,53,2,3:0:0:0:
241,107,232017,1,0,3:0:0:0:
278,108,232112,1,8,0:0:0:0:
314,97,232207,1,0,0:0:0:0:
344,76,232302,1,2,3:0:0:0:
342,113,232397,1,0,0:0:0:0:
353,149,232492,1,8,0:0:0:0:
374,179,232587,1,0,3:0:0:0:
404,202,232682,1,2,0:0:0:0:
368,211,232777,1,0,3:0:0:0:
337,233,232872,1,8,0:0:0:0:
315,262,232967,1,0,0:0:0:0:
302,297,233062,53,6,3:3:0:0:
346,293,233157,1,0,0:0:0:0:
390,289,233251,1,8,0:0:0:0:
434,285,233346,1,0,0:0:0:0:
478,281,233441,1,2,3:0:0:0:
437,262,233536,1,0,3:0:0:0:
397,243,233631,1,8,0:0:0:0:
357,225,233726,1,0,0:0:0:0:
317,206,233821,1,2,3:0:0:0:
353,180,233916,1,0,0:0:0:0:
389,155,234011,1,8,0:0:0:0:
425,129,234106,1,0,3:0:0:0:
461,104,234201,1,2,0:0:0:0:
416,108,234296,1,0,3:0:0:0:
372,111,234391,1,8,0:0:0:0:
328,116,234486,1,0,0:0:0:0:
284,119,234581,54,0,B|246:122|246:122|213:104,1,74.9999977111817,6|0,3:1|0:0,0:0:0:0:
232,30,234770,2,0,B|270:27|270:27|302:44,1,74.9999977111817,10|0,0:0|0:0,0:0:0:0:
353,180,234960,53,2,3:0:0:0:
339,214,235055,1,0,3:0:0:0:
342,251,235150,1,8,0:0:0:0:
361,283,235245,1,0,0:0:0:0:
393,304,235340,1,2,3:0:0:0:
406,269,235435,1,0,0:0:0:0:
403,232,235530,1,8,0:0:0:0:
384,200,235625,1,0,3:0:0:0:
353,180,235720,54,0,B|304:184|304:184|276:217|276:217|195:226,1,149.999995422363,2|8,0:0|0:0,0:0:0:0:
14,254,236100,21,6,0:3:0:0:
56,314,236226,1,0,0:0:0:0:
127,287,236353,1,0,0:0:0:0:
23,241,236479,53,2,3:0:0:0:
49,310,236606,1,0,0:0:0:0:
124,302,236732,1,0,0:0:0:0:
36,232,236859,53,2,3:0:0:0:
43,305,236986,1,0,0:0:0:0:
117,316,237112,1,0,0:0:0:0:
50,225,237239,53,2,0:0:0:0:
38,298,237365,1,0,0:0:0:0:
107,329,237492,1,0,0:0:0:0:
65,221,237619,86,0,B|53:180|53:180|62:128|62:128|42:64,2,149.999995422363,6|8|0,3:2|3:2|3:2,0:0:0:0:
213,364,238188,53,10,3:2:0:0:
268,352,238283,1,2,3:2:0:0:
322,338,238378,2,0,L|409:318,1,74.9999977111817,2|0,3:2|3:2,0:0:0:0:
396,329,238568,2,0,L|321:331,1,74.9999977111817,10|0,3:2|3:2,0:0:0:0:
412,210,238758,54,0,L|499:190,1,74.9999977111817,2|0,3:2|3:2,0:0:0:0:
486,201,238948,2,0,L|411:203,1,74.9999977111817,10|0,3:2|3:2,0:0:0:0:
280,163,239138,54,0,B|274:126|274:126|280:104|280:104|261:3,1,149.999995422363,2|8,3:2|3:2,0:0:0:0:
148,129,239517,1,2,3:2:0:0:
148,129,239612,1,0,3:2:0:0:
148,129,239707,2,0,L|160:34,1,74.9999977111817,8|0,3:2|3:2,0:0:0:0:
280,163,239897,54,0,B|274:200|274:200|280:222|280:222|261:323,1,149.999995422363,2|8,3:2|3:2,0:0:0:0:
161,361,240182,1,0,3:2:0:0:
161,361,240277,2,0,L|152:287,1,74.9999977111817,2|0,3:2|3:2,0:0:0:0:
43,119,240467,21,10,0:0:0:0:
30,191,240562,1,2,0:0:0:0:
17,263,240657,1,6,0:1:0:0:
195,202,240846,53,10,0:0:0:0:
201,228,240941,1,0,3:0:0:0:
217,248,241036,1,0,3:0:0:0:
241,261,241131,1,0,3:0:0:0:
267,261,241226,2,0,L|327:243,1,43.749998664856,0|0,3:0|3:0,0:0:0:0:
357,112,241416,54,0,P|338:72|344:32,1,81.2499962806703,14|0,3:1|0:0,0:0:0:0:
419,23,241606,2,0,P|438:63|432:103,1,81.2499962806703,2|0,3:0|0:0,0:0:0:0:
308,248,241796,69,0,3:0:0:0:
289,243,241891,1,0,3:0:0:0:
275,238,241986,1,0,3:0:0:0:
261,236,242081,1,0,3:0:0:0:
233,269,242175,101,14,3:1:0:0:
276,278,242270,1,0,3:0:0:0:
308,248,242365,1,0,3:0:0:0:
291,202,242460,1,0,3:0:0:0:
249,194,242555,1,0,3:0:0:0:
218,226,242650,1,0,3:0:0:0:
227,274,242745,37,14,3:1:0:0:
211,224,242840,1,0,3:0:0:0:
245,187,242935,1,0,3:0:0:0:
296,196,243030,1,0,3:0:0:0:
312,248,243125,1,0,3:0:0:0:
278,287,243220,1,0,3:0:0:0:
220,281,243315,53,14,0:1:0:0:
409,31,243505,1,14,0:1:0:0:
