osu file format v14

[General]
AudioFilename: audio.mp3
AudioLeadIn: 0
PreviewTime: 48257
Countdown: 0
SampleSet: Normal
StackLeniency: 0.7
Mode: 1
LetterboxInBreaks: 0
WidescreenStoryboard: 1

[Editor]
DistanceSpacing: 0.4
BeatDivisor: 4
GridSize: 32
TimelineZoom: 1.900001

[Metadata]
Title:ito
TitleUnicode:絃
Artist:Emiru no Aishita Tsukiyo ni Dai San Gensou Kyoku wo
ArtistUnicode:エミルの愛した月夜に第III幻想曲を
Creator:Esutarosa
Version:Muzukashii
Source:
Tags:japanese metal pop j-pop jpop rock jrock j-rock featured artist fa mappers' guild mpg female vocals vocalist doujin Emille's Moonlight Serenade サラ Sara 荊 いばら Ibara Ito
BeatmapID:3610202
BeatmapSetID:1763833

[Difficulty]
HPDrainRate:6
CircleSize:2
OverallDifficulty:4
ApproachRate:10
SliderMultiplier:1.4
SliderTickRate:1

[Events]
//Background and Video events
0,0,"BG.jpg",0,80
//Break Periods
2,85862,97364
//Storyboard Layer 0 (Background)
//Storyboard Layer 1 (Fail)
//Storyboard Layer 2 (Pass)
//Storyboard Layer 3 (Foreground)
//Storyboard Layer 4 (Overlay)
//Storyboard Sound Samples

[TimingPoints]
599,379.746835443038,4,1,0,54,1,0
6674,-100,4,1,0,54,0,0
12750,-100,4,1,0,74,0,0
24902,-100,4,1,0,64,0,0
26421,-100,4,1,0,54,0,0
27940,-100,4,1,0,64,0,0
29459,-100,4,1,0,54,0,0
30978,-100,4,1,0,64,0,0
32497,-100,4,1,0,54,0,0
34016,-100,4,1,0,64,0,0
37054,-100,4,1,0,54,0,0
43130,-100,4,1,0,44,0,0
46168,-100,4,1,0,74,0,0
47687,-100,4,1,0,64,0,0
49206,-100,4,1,0,84,0,1
73510,-100,4,1,0,74,0,0
85662,-100,4,1,0,64,0,0
86042,-100,4,1,0,44,0,0
97814,-100,4,1,0,54,0,0
103890,-100,4,1,0,44,0,0
106928,-100,4,1,0,74,0,0
108447,-100,4,1,0,64,0,0
109966,-100,4,1,0,84,0,1
134269,-100,4,1,0,74,0,0
146421,-100,4,1,0,74,0,0
158573,-100,4,1,0,54,0,0
164649,-100,4,1,0,44,0,0
167687,-100,4,1,0,74,0,0
169206,-100,4,1,0,64,0,0
170725,-100,4,1,0,84,0,1
195029,-100,4,1,0,74,0,0
195409,-100,4,1,0,68,0,0
201105,-100,4,1,0,74,0,0
219333,-100,4,1,0,74,0,0
243636,-100,4,1,0,54,0,0

[HitObjects]
256,192,6674,5,12,0:0:0:0:
256,192,6864,1,12,0:0:0:0:
256,192,7244,1,0,0:0:0:0:
256,192,8193,1,12,0:0:0:0:
256,192,8383,1,12,0:0:0:0:
256,192,8763,1,0,0:0:0:0:
256,192,9712,1,12,0:0:0:0:
256,192,9902,1,12,0:0:0:0:
256,192,10282,1,0,0:0:0:0:
256,192,11231,1,0,0:0:0:0:
256,192,11516,1,8,0:0:0:0:
256,192,11801,1,0,0:0:0:0:
256,192,11991,1,8,0:0:0:0:
256,192,12086,1,8,0:0:0:0:
256,192,12181,1,8,0:0:0:0:
256,192,12371,1,0,0:0:0:0:
256,192,12750,1,12,0:0:0:0:
256,192,13130,1,0,0:0:0:0:
256,192,13320,1,8,0:0:0:0:
256,192,13510,1,0,0:0:0:0:
256,192,13700,1,8,0:0:0:0:
256,192,13795,1,8,0:0:0:0:
256,192,13890,1,8,0:0:0:0:
256,192,14080,1,0,0:0:0:0:
256,192,14269,1,8,0:0:0:0:
256,192,14649,1,8,0:0:0:0:
256,192,15029,1,8,0:0:0:0:
256,192,15219,1,0,0:0:0:0:
256,192,15409,1,8,0:0:0:0:
256,192,15599,1,0,0:0:0:0:
256,192,15693,1,0,0:0:0:0:
256,192,15788,1,0,0:0:0:0:
256,192,16168,1,8,0:0:0:0:
256,192,16358,1,8,0:0:0:0:
256,192,16548,1,0,0:0:0:0:
256,192,16738,1,8,0:0:0:0:
256,192,16833,1,8,0:0:0:0:
256,192,16928,1,8,0:0:0:0:
256,192,17117,1,0,0:0:0:0:
256,192,17307,1,8,0:0:0:0:
256,192,17434,1,8,0:0:0:0:
256,192,17687,1,0,0:0:0:0:
256,192,17814,1,0,0:0:0:0:
256,192,18067,1,8,0:0:0:0:
256,192,18193,1,8,0:0:0:0:
256,192,18447,1,0,0:0:0:0:
256,192,18573,1,0,0:0:0:0:
256,192,18826,1,12,0:0:0:0:
256,192,19396,1,0,0:0:0:0:
256,192,19491,1,0,0:0:0:0:
256,192,19586,1,0,0:0:0:0:
256,192,19776,1,8,0:0:0:0:
256,192,19966,1,0,0:0:0:0:
256,192,20155,1,0,0:0:0:0:
256,192,20345,1,8,0:0:0:0:
256,192,20725,1,8,0:0:0:0:
256,192,20915,1,0,0:0:0:0:
256,192,21105,1,8,0:0:0:0:
256,192,21485,1,0,0:0:0:0:
256,192,21674,1,8,0:0:0:0:
256,192,21769,1,8,0:0:0:0:
256,192,21864,1,8,0:0:0:0:
256,192,22244,1,8,0:0:0:0:
256,192,22434,1,8,0:0:0:0:
256,192,22624,1,0,0:0:0:0:
256,192,23004,1,0,0:0:0:0:
256,192,23193,1,8,0:0:0:0:
256,192,23383,1,12,0:0:0:0:
256,192,23763,1,0,0:0:0:0:
256,192,23953,1,12,0:0:0:0:
256,192,24333,1,0,0:0:0:0:
256,192,24523,1,12,0:0:0:0:
256,192,24712,1,8,0:0:0:0:
256,192,24902,1,0,0:0:0:0:
256,192,25282,1,0,0:0:0:0:
256,192,25472,1,8,0:0:0:0:
256,192,25852,1,8,0:0:0:0:
256,192,26042,1,0,0:0:0:0:
256,192,26231,1,0,0:0:0:0:
256,192,26421,1,8,0:0:0:0:
256,192,26991,1,0,0:0:0:0:
256,192,27561,1,0,0:0:0:0:
256,192,27940,1,12,0:0:0:0:
256,192,28130,1,0,0:0:0:0:
256,192,28225,1,0,0:0:0:0:
256,192,28320,1,0,0:0:0:0:
256,192,28510,1,8,0:0:0:0:
256,192,28890,1,0,0:0:0:0:
256,192,29080,1,8,0:0:0:0:
256,192,29269,1,8,0:0:0:0:
256,192,29459,1,0,0:0:0:0:
256,192,30029,1,0,0:0:0:0:
256,192,30599,1,0,0:0:0:0:
256,192,30978,1,12,0:0:0:0:
256,192,31168,1,0,0:0:0:0:
256,192,31263,1,0,0:0:0:0:
256,192,31358,1,0,0:0:0:0:
256,192,31548,1,8,0:0:0:0:
256,192,31928,1,8,0:0:0:0:
256,192,32117,1,0,0:0:0:0:
256,192,32307,1,0,0:0:0:0:
256,192,32497,1,8,0:0:0:0:
256,192,33067,1,0,0:0:0:0:
256,192,33636,1,0,0:0:0:0:
256,192,34016,1,12,0:0:0:0:
256,192,34396,1,8,0:0:0:0:
256,192,34586,1,0,0:0:0:0:
256,192,34776,1,8,0:0:0:0:
256,192,34966,1,0,0:0:0:0:
256,192,35061,1,0,0:0:0:0:
256,192,35155,1,0,0:0:0:0:
256,192,35345,1,8,0:0:0:0:
256,192,35535,1,8,0:0:0:0:
256,192,35725,1,0,0:0:0:0:
256,192,35915,1,0,0:0:0:0:
256,192,36295,1,0,0:0:0:0:
256,192,36674,1,8,0:0:0:0:
256,192,36864,1,8,0:0:0:0:
256,192,37054,1,0,0:0:0:0:
256,192,37434,1,0,0:0:0:0:
256,192,37624,1,0,0:0:0:0:
256,192,37814,1,8,0:0:0:0:
256,192,38193,1,0,0:0:0:0:
256,192,38573,1,8,0:0:0:0:
256,192,38953,1,0,0:0:0:0:
256,192,39143,1,0,0:0:0:0:
256,192,39333,1,8,0:0:0:0:
256,192,39712,1,0,0:0:0:0:
256,192,40092,1,8,0:0:0:0:
256,192,40472,1,0,0:0:0:0:
256,192,40662,1,0,0:0:0:0:
256,192,40852,1,8,0:0:0:0:
256,192,41231,1,0,0:0:0:0:
256,192,41611,1,8,0:0:0:0:
256,192,41991,1,0,0:0:0:0:
256,192,42181,1,0,0:0:0:0:
256,192,42371,1,8,0:0:0:0:
256,192,42750,1,8,0:0:0:0:
256,192,43130,1,0,0:0:0:0:
256,192,43890,1,0,0:0:0:0:
256,192,44269,1,0,0:0:0:0:
256,192,44649,1,0,0:0:0:0:
256,192,45409,1,0,0:0:0:0:
256,192,46168,1,12,0:0:0:0:
256,192,46548,1,12,0:0:0:0:
256,192,46928,1,12,0:0:0:0:
256,192,47307,1,12,0:0:0:0:
256,192,47687,1,0,0:0:0:0:
256,192,47782,1,0,0:0:0:0:
256,192,47877,1,0,0:0:0:0:
256,192,48067,1,8,0:0:0:0:
256,192,48447,1,0,0:0:0:0:
256,192,48636,1,8,0:0:0:0:
256,192,48731,1,8,0:0:0:0:
256,192,49016,1,0,0:0:0:0:
256,192,49206,1,12,0:0:0:0:
256,192,49776,1,8,0:0:0:0:
256,192,49966,1,0,0:0:0:0:
256,192,50155,1,8,0:0:0:0:
256,192,50250,1,8,0:0:0:0:
256,192,50345,1,8,0:0:0:0:
256,192,50535,1,0,0:0:0:0:
256,192,50725,1,8,0:0:0:0:
256,192,51105,1,0,0:0:0:0:
256,192,51200,1,0,0:0:0:0:
256,192,51295,1,0,0:0:0:0:
256,192,51485,1,8,0:0:0:0:
256,192,51864,1,0,0:0:0:0:
256,192,52054,1,0,0:0:0:0:
256,192,52244,1,12,0:0:0:0:
256,192,52624,1,8,0:0:0:0:
256,192,52814,1,0,0:0:0:0:
256,192,53004,1,0,0:0:0:0:
256,192,53193,1,8,0:0:0:0:
256,192,53573,1,0,0:0:0:0:
256,192,53763,1,8,0:0:0:0:
256,192,53953,1,8,0:0:0:0:
256,192,54143,1,0,0:0:0:0:
256,192,54523,1,8,0:0:0:0:
256,192,55092,1,0,0:0:0:0:
256,192,55282,1,12,0:0:0:0:
256,192,55662,1,8,0:0:0:0:
256,192,55852,1,0,0:0:0:0:
256,192,56231,1,8,0:0:0:0:
256,192,56421,1,0,0:0:0:0:
256,192,56516,1,0,0:0:0:0:
256,192,56611,1,0,0:0:0:0:
256,192,56801,1,8,0:0:0:0:
256,192,57181,1,8,0:0:0:0:
256,192,57371,1,8,0:0:0:0:
256,192,57561,1,0,0:0:0:0:
256,192,57655,1,0,0:0:0:0:
256,192,57750,1,0,0:0:0:0:
256,192,57940,1,8,0:0:0:0:
256,192,58130,1,0,0:0:0:0:
256,192,58320,1,12,0:0:0:0:
256,192,58510,1,8,0:0:0:0:
256,192,58890,1,0,0:0:0:0:
256,192,59080,1,8,0:0:0:0:
256,192,59269,1,8,0:0:0:0:
256,192,59459,1,0,0:0:0:0:
256,192,59554,1,0,0:0:0:0:
256,192,59649,1,0,0:0:0:0:
256,192,59839,1,12,0:0:0:0:
256,192,60029,1,0,0:0:0:0:
256,192,60409,1,0,0:0:0:0:
256,192,60599,1,8,0:0:0:0:
256,192,60978,1,0,0:0:0:0:
256,192,61168,1,0,0:0:0:0:
256,192,61358,1,12,0:0:0:0:
256,192,61928,1,8,0:0:0:0:
256,192,62118,1,0,0:0:0:0:
256,192,62307,1,8,0:0:0:0:
256,192,62402,1,8,0:0:0:0:
256,192,62497,1,8,0:0:0:0:
256,192,62687,1,0,0:0:0:0:
256,192,62877,1,8,0:0:0:0:
256,192,63257,1,0,0:0:0:0:
256,192,63352,1,0,0:0:0:0:
256,192,63447,1,0,0:0:0:0:
256,192,63637,1,8,0:0:0:0:
256,192,64016,1,8,0:0:0:0:
256,192,64206,1,0,0:0:0:0:
256,192,64396,1,12,0:0:0:0:
256,192,64776,1,8,0:0:0:0:
256,192,64966,1,0,0:0:0:0:
256,192,65345,1,0,0:0:0:0:
256,192,65535,1,8,0:0:0:0:
256,192,65630,1,8,0:0:0:0:
256,192,65725,1,8,0:0:0:0:
256,192,65915,1,4,0:0:0:0:
256,192,66295,1,12,0:0:0:0:
256,192,66674,1,0,0:0:0:0:
256,192,66864,1,8,0:0:0:0:
256,192,67054,1,0,0:0:0:0:
256,192,67624,1,12,0:0:0:0:
256,192,67814,1,0,0:0:0:0:
256,192,67909,1,0,0:0:0:0:
256,192,68004,1,0,0:0:0:0:
256,192,68193,1,8,0:0:0:0:
256,192,68383,1,0,0:0:0:0:
256,192,68573,1,0,0:0:0:0:
256,192,68763,1,8,0:0:0:0:
256,192,68953,1,0,0:0:0:0:
256,192,69333,1,0,0:0:0:0:
256,192,69428,1,0,0:0:0:0:
256,192,69523,1,0,0:0:0:0:
256,192,69712,1,8,0:0:0:0:
256,192,69902,1,0,0:0:0:0:
256,192,69997,1,0,0:0:0:0:
256,192,70092,1,0,0:0:0:0:
256,192,70282,1,8,0:0:0:0:
256,192,70472,1,12,0:0:0:0:
256,192,70662,1,0,0:0:0:0:
256,192,71042,1,0,0:0:0:0:
256,192,71231,1,8,0:0:0:0:
256,192,71421,1,8,0:0:0:0:
256,192,71801,1,0,0:0:0:0:
256,192,71991,1,12,0:0:0:0:
256,192,72181,1,12,0:0:0:0:
256,192,72371,1,12,0:0:0:0:
256,192,72750,1,0,0:0:0:0:
256,192,73130,1,0,0:0:0:0:
256,192,73510,1,12,0:0:0:0:
256,192,73890,1,0,0:0:0:0:
256,192,74080,1,0,0:0:0:0:
256,192,74270,1,8,0:0:0:0:
256,192,74460,1,0,0:0:0:0:
256,192,74555,1,0,0:0:0:0:
256,192,74650,1,0,0:0:0:0:
256,192,74840,1,8,0:0:0:0:
256,192,75029,1,8,0:0:0:0:
256,192,75409,1,0,0:0:0:0:
256,192,75789,1,8,0:0:0:0:
256,192,75979,1,0,0:0:0:0:
256,192,76169,1,8,0:0:0:0:
256,192,76359,1,0,0:0:0:0:
256,192,76453,1,0,0:0:0:0:
256,192,76548,1,0,0:0:0:0:
256,192,76928,1,8,0:0:0:0:
256,192,77118,1,8,0:0:0:0:
256,192,77308,1,0,0:0:0:0:
256,192,77498,1,8,0:0:0:0:
256,192,77593,1,8,0:0:0:0:
256,192,77688,1,8,0:0:0:0:
256,192,77877,1,0,0:0:0:0:
256,192,78067,1,8,0:0:0:0:
256,192,78194,1,8,0:0:0:0:
256,192,78447,1,0,0:0:0:0:
256,192,78574,1,0,0:0:0:0:
256,192,78827,1,8,0:0:0:0:
256,192,78953,1,8,0:0:0:0:
256,192,79207,1,0,0:0:0:0:
256,192,79333,1,0,0:0:0:0:
256,192,79586,1,12,0:0:0:0:
256,192,80156,1,0,0:0:0:0:
256,192,80251,1,0,0:0:0:0:
256,192,80346,1,0,0:0:0:0:
256,192,80536,1,8,0:0:0:0:
256,192,80726,1,8,0:0:0:0:
256,192,80915,1,0,0:0:0:0:
256,192,81105,1,8,0:0:0:0:
256,192,81485,1,0,0:0:0:0:
256,192,81675,1,8,0:0:0:0:
256,192,81865,1,0,0:0:0:0:
256,192,82245,1,0,0:0:0:0:
256,192,82434,1,8,0:0:0:0:
256,192,82529,1,8,0:0:0:0:
256,192,82624,1,8,0:0:0:0:
256,192,83004,1,0,0:0:0:0:
256,192,83194,1,0,0:0:0:0:
256,192,83384,1,8,0:0:0:0:
256,192,83763,1,8,0:0:0:0:
256,192,83953,1,0,0:0:0:0:
256,192,84143,1,12,0:0:0:0:
256,192,84523,1,0,0:0:0:0:
256,192,84712,1,12,0:0:0:0:
256,192,85093,1,0,0:0:0:0:
256,192,85282,1,12,0:0:0:0:
256,192,85472,1,0,0:0:0:0:
256,192,85662,1,8,0:0:0:0:
256,192,97814,5,0,0:0:0:0:
256,192,98194,1,0,0:0:0:0:
256,192,98384,1,0,0:0:0:0:
256,192,98574,1,8,0:0:0:0:
256,192,98953,1,0,0:0:0:0:
256,192,99333,1,8,0:0:0:0:
256,192,99713,1,0,0:0:0:0:
256,192,99903,1,0,0:0:0:0:
256,192,100093,1,8,0:0:0:0:
256,192,100472,1,0,0:0:0:0:
256,192,100852,1,8,0:0:0:0:
256,192,101232,1,0,0:0:0:0:
256,192,101422,1,0,0:0:0:0:
256,192,101612,1,8,0:0:0:0:
256,192,101991,1,0,0:0:0:0:
256,192,102371,1,8,0:0:0:0:
256,192,102751,1,0,0:0:0:0:
256,192,102941,1,0,0:0:0:0:
256,192,103131,1,8,0:0:0:0:
256,192,103510,1,8,0:0:0:0:
256,192,103890,1,0,0:0:0:0:
256,192,104650,1,0,0:0:0:0:
256,192,105029,1,0,0:0:0:0:
256,192,105409,1,0,0:0:0:0:
256,192,106169,1,0,0:0:0:0:
256,192,106928,1,12,0:0:0:0:
256,192,107308,1,12,0:0:0:0:
256,192,107688,1,12,0:0:0:0:
256,192,108067,1,12,0:0:0:0:
256,192,108447,1,0,0:0:0:0:
256,192,108542,1,0,0:0:0:0:
256,192,108827,1,8,0:0:0:0:
256,192,109207,1,0,0:0:0:0:
256,192,109396,1,8,0:0:0:0:
256,192,109491,1,8,0:0:0:0:
256,192,109586,1,8,0:0:0:0:
256,192,109776,1,0,0:0:0:0:
256,192,109966,1,12,0:0:0:0:
256,192,110536,1,0,0:0:0:0:
256,192,110725,1,8,0:0:0:0:
256,192,110915,1,0,0:0:0:0:
256,192,111010,1,0,0:0:0:0:
256,192,111105,1,0,0:0:0:0:
256,192,111295,1,8,0:0:0:0:
256,192,111485,1,0,0:0:0:0:
256,192,111865,1,8,0:0:0:0:
256,192,111960,1,8,0:0:0:0:
256,192,112055,1,8,0:0:0:0:
256,192,112245,1,0,0:0:0:0:
256,192,112624,1,8,0:0:0:0:
256,192,112814,1,0,0:0:0:0:
256,192,113004,1,12,0:0:0:0:
256,192,113384,1,8,0:0:0:0:
256,192,113574,1,0,0:0:0:0:
256,192,113764,1,8,0:0:0:0:
256,192,113953,1,0,0:0:0:0:
256,192,114333,1,0,0:0:0:0:
256,192,114523,1,8,0:0:0:0:
256,192,114713,1,8,0:0:0:0:
256,192,114903,1,0,0:0:0:0:
256,192,115283,1,8,0:0:0:0:
256,192,115852,1,0,0:0:0:0:
256,192,116042,1,12,0:0:0:0:
256,192,116422,1,8,0:0:0:0:
256,192,116612,1,0,0:0:0:0:
256,192,116991,1,8,0:0:0:0:
256,192,117181,1,0,0:0:0:0:
256,192,117276,1,0,0:0:0:0:
256,192,117371,1,0,0:0:0:0:
256,192,117561,1,8,0:0:0:0:
256,192,117941,1,8,0:0:0:0:
256,192,118131,1,0,0:0:0:0:
256,192,118321,1,8,0:0:0:0:
256,192,118510,1,0,0:0:0:0:
256,192,118605,1,0,0:0:0:0:
256,192,118700,1,0,0:0:0:0:
256,192,118890,1,8,0:0:0:0:
256,192,119080,1,12,0:0:0:0:
256,192,119270,1,0,0:0:0:0:
256,192,119650,1,0,0:0:0:0:
256,192,119839,1,0,0:0:0:0:
256,192,120029,1,8,0:0:0:0:
256,192,120219,1,0,0:0:0:0:
256,192,120314,1,0,0:0:0:0:
256,192,120409,1,0,0:0:0:0:
256,192,120599,1,12,0:0:0:0:
256,192,120789,1,0,0:0:0:0:
256,192,121168,1,0,0:0:0:0:
256,192,121359,1,8,0:0:0:0:
256,192,121738,1,8,0:0:0:0:
256,192,121928,1,0,0:0:0:0:
256,192,122118,1,12,0:0:0:0:
256,192,122688,1,8,0:0:0:0:
256,192,122878,1,0,0:0:0:0:
256,192,123067,1,8,0:0:0:0:
256,192,123162,1,8,0:0:0:0:
256,192,123257,1,8,0:0:0:0:
256,192,123447,1,0,0:0:0:0:
256,192,123637,1,8,0:0:0:0:
256,192,124017,1,0,0:0:0:0:
256,192,124112,1,0,0:0:0:0:
256,192,124207,1,0,0:0:0:0:
256,192,124397,1,8,0:0:0:0:
256,192,124776,1,8,0:0:0:0:
256,192,124966,1,0,0:0:0:0:
256,192,125156,1,12,0:0:0:0:
256,192,125536,1,0,0:0:0:0:
256,192,125726,1,8,0:0:0:0:
256,192,126105,1,8,0:0:0:0:
256,192,126295,1,0,0:0:0:0:
256,192,126390,1,0,0:0:0:0:
256,192,126485,1,0,0:0:0:0:
256,192,126675,1,12,0:0:0:0:
256,192,127055,1,12,0:0:0:0:
256,192,127434,1,12,0:0:0:0:
256,192,127624,1,0,0:0:0:0:
256,192,127814,1,0,0:0:0:0:
256,192,128384,1,12,0:0:0:0:
256,192,128574,1,0,0:0:0:0:
256,192,128669,1,0,0:0:0:0:
256,192,128764,1,0,0:0:0:0:
256,192,128953,1,8,0:0:0:0:
256,192,129143,1,0,0:0:0:0:
256,192,129333,1,8,0:0:0:0:
256,192,129523,1,0,0:0:0:0:
256,192,129903,1,8,0:0:0:0:
256,192,130093,1,0,0:0:0:0:
256,192,130188,1,0,0:0:0:0:
256,192,130283,1,0,0:0:0:0:
256,192,130472,1,8,0:0:0:0:
256,192,130662,1,0,0:0:0:0:
256,192,130757,1,0,0:0:0:0:
256,192,130852,1,0,0:0:0:0:
256,192,131042,1,8,0:0:0:0:
256,192,131232,1,12,0:0:0:0:
256,192,131422,1,0,0:0:0:0:
256,192,131802,1,0,0:0:0:0:
256,192,131991,1,8,0:0:0:0:
256,192,132181,1,8,0:0:0:0:
256,192,132561,1,0,0:0:0:0:
256,192,132750,1,12,0:0:0:0:
256,192,132940,1,12,0:0:0:0:
256,192,133130,1,12,0:0:0:0:
256,192,133510,1,0,0:0:0:0:
256,192,133890,1,0,0:0:0:0:
256,192,134269,1,12,0:0:0:0:
256,192,134459,1,0,0:0:0:0:
256,192,134649,1,8,0:0:0:0:
256,192,134839,1,0,0:0:0:0:
256,192,135219,1,8,0:0:0:0:
256,192,135314,1,8,0:0:0:0:
256,192,135504,1,0,0:0:0:0:
256,192,135599,1,0,0:0:0:0:
256,192,135788,1,8,0:0:0:0:
256,192,136168,1,8,0:0:0:0:
256,192,136358,1,8,0:0:0:0:
256,192,136548,1,0,0:0:0:0:
256,192,136738,1,0,0:0:0:0:
256,192,136833,1,8,0:0:0:0:
256,192,137023,1,8,0:0:0:0:
256,192,137118,1,0,0:0:0:0:
256,192,137307,1,12,0:0:0:0:
256,192,137497,1,0,0:0:0:0:
256,192,137877,1,8,0:0:0:0:
256,192,138067,1,0,0:0:0:0:
256,192,138257,1,8,0:0:0:0:
256,192,138352,1,8,0:0:0:0:
256,192,138542,1,0,0:0:0:0:
256,192,138637,1,0,0:0:0:0:
256,192,139016,1,0,0:0:0:0:
256,192,139206,1,8,0:0:0:0:
256,192,139396,1,8,0:0:0:0:
256,192,139586,1,0,0:0:0:0:
256,192,139776,1,0,0:0:0:0:
256,192,139871,1,8,0:0:0:0:
256,192,140061,1,8,0:0:0:0:
256,192,140156,1,0,0:0:0:0:
256,192,140345,1,12,0:0:0:0:
256,192,140915,1,8,0:0:0:0:
256,192,141105,1,0,0:0:0:0:
256,192,141200,1,0,0:0:0:0:
256,192,141295,1,0,0:0:0:0:
256,192,141485,1,8,0:0:0:0:
256,192,141674,1,8,0:0:0:0:
256,192,142054,1,0,0:0:0:0:
256,192,142244,1,8,0:0:0:0:
256,192,142434,1,8,0:0:0:0:
256,192,142624,1,0,0:0:0:0:
256,192,142814,1,0,0:0:0:0:
256,192,142909,1,8,0:0:0:0:
256,192,143099,1,8,0:0:0:0:
256,192,143194,1,0,0:0:0:0:
256,192,143383,1,12,0:0:0:0:
256,192,143763,1,8,0:0:0:0:
256,192,143858,1,8,0:0:0:0:
256,192,143953,1,8,0:0:0:0:
256,192,144143,1,0,0:0:0:0:
256,192,144333,1,0,0:0:0:0:
256,192,144523,1,8,0:0:0:0:
256,192,144712,1,0,0:0:0:0:
256,192,144902,1,12,0:0:0:0:
256,192,145092,1,0,0:0:0:0:
256,192,145187,1,0,0:0:0:0:
256,192,145282,1,0,0:0:0:0:
256,192,145472,1,12,0:0:0:0:
256,192,145662,1,0,0:0:0:0:
256,192,145757,1,0,0:0:0:0:
256,192,145852,1,0,0:0:0:0:
256,192,146042,1,12,0:0:0:0:
256,192,146421,1,12,0:0:0:0:
256,192,146801,1,0,0:0:0:0:
256,192,146991,1,8,0:0:0:0:
256,192,147181,1,8,0:0:0:0:
256,192,147371,1,0,0:0:0:0:
256,192,147466,1,0,0:0:0:0:
256,192,147561,1,0,0:0:0:0:
256,192,147751,1,8,0:0:0:0:
256,192,147940,1,8,0:0:0:0:
256,192,148320,1,0,0:0:0:0:
256,192,148700,1,0,0:0:0:0:
256,192,149080,1,8,0:0:0:0:
256,192,149270,1,0,0:0:0:0:
256,192,149364,1,0,0:0:0:0:
256,192,149459,1,0,0:0:0:0:
256,192,149839,1,8,0:0:0:0:
256,192,150029,1,8,0:0:0:0:
256,192,150219,1,0,0:0:0:0:
256,192,150409,1,8,0:0:0:0:
256,192,150504,1,8,0:0:0:0:
256,192,150599,1,8,0:0:0:0:
256,192,150788,1,0,0:0:0:0:
256,192,150978,1,0,0:0:0:0:
256,192,151105,1,8,0:0:0:0:
256,192,151358,1,0,0:0:0:0:
256,192,151485,1,8,0:0:0:0:
256,192,151738,1,0,0:0:0:0:
256,192,151864,1,8,0:0:0:0:
256,192,152118,1,0,0:0:0:0:
256,192,152244,1,8,0:0:0:0:
256,192,152497,1,12,0:0:0:0:
256,192,153067,1,8,0:0:0:0:
256,192,153162,1,8,0:0:0:0:
256,192,153257,1,8,0:0:0:0:
256,192,153447,1,0,0:0:0:0:
256,192,153637,1,8,0:0:0:0:
256,192,153826,1,0,0:0:0:0:
256,192,154016,1,8,0:0:0:0:
256,192,154396,1,8,0:0:0:0:
256,192,154586,1,8,0:0:0:0:
256,192,154776,1,0,0:0:0:0:
256,192,155156,1,0,0:0:0:0:
256,192,155345,1,8,0:0:0:0:
256,192,155440,1,8,0:0:0:0:
256,192,155535,1,8,0:0:0:0:
256,192,155915,1,0,0:0:0:0:
256,192,156105,1,8,0:0:0:0:
256,192,156295,1,0,0:0:0:0:
256,192,156675,1,0,0:0:0:0:
256,192,157054,1,12,0:0:0:0:
256,192,157244,1,12,0:0:0:0:
256,192,157434,1,12,0:0:0:0:
256,192,157624,1,12,0:0:0:0:
256,192,157814,1,12,0:0:0:0:
256,192,158194,1,0,0:0:0:0:
256,192,158383,1,8,0:0:0:0:
256,192,158573,1,0,0:0:0:0:
256,192,158953,1,0,0:0:0:0:
256,192,159143,1,0,0:0:0:0:
256,192,159333,1,8,0:0:0:0:
256,192,159712,1,0,0:0:0:0:
256,192,160092,1,8,0:0:0:0:
256,192,160472,1,0,0:0:0:0:
256,192,160662,1,0,0:0:0:0:
256,192,160852,1,8,0:0:0:0:
256,192,161231,1,0,0:0:0:0:
256,192,161611,1,8,0:0:0:0:
256,192,161991,1,0,0:0:0:0:
256,192,162181,1,0,0:0:0:0:
256,192,162371,1,8,0:0:0:0:
256,192,162750,1,0,0:0:0:0:
256,192,163130,1,8,0:0:0:0:
256,192,163510,1,0,0:0:0:0:
256,192,163700,1,0,0:0:0:0:
256,192,163890,1,8,0:0:0:0:
256,192,164269,1,8,0:0:0:0:
256,192,164649,1,0,0:0:0:0:
256,192,165409,1,0,0:0:0:0:
256,192,165788,1,0,0:0:0:0:
256,192,166168,1,0,0:0:0:0:
256,192,166928,1,0,0:0:0:0:
256,192,167687,1,12,0:0:0:0:
256,192,168067,1,12,0:0:0:0:
256,192,168447,1,12,0:0:0:0:
256,192,168826,1,12,0:0:0:0:
256,192,169206,1,0,0:0:0:0:
256,192,169301,1,0,0:0:0:0:
256,192,169586,1,8,0:0:0:0:
256,192,169966,1,0,0:0:0:0:
256,192,170155,1,8,0:0:0:0:
256,192,170250,1,8,0:0:0:0:
256,192,170345,1,8,0:0:0:0:
256,192,170535,1,0,0:0:0:0:
256,192,170725,1,12,0:0:0:0:
256,192,171295,1,8,0:0:0:0:
256,192,171485,1,0,0:0:0:0:
256,192,171674,1,8,0:0:0:0:
256,192,171769,1,8,0:0:0:0:
256,192,171864,1,8,0:0:0:0:
256,192,172054,1,0,0:0:0:0:
256,192,172244,1,8,0:0:0:0:
256,192,172624,1,0,0:0:0:0:
256,192,172719,1,0,0:0:0:0:
256,192,172814,1,0,0:0:0:0:
256,192,173004,1,8,0:0:0:0:
256,192,173383,1,8,0:0:0:0:
256,192,173573,1,0,0:0:0:0:
256,192,173763,1,12,0:0:0:0:
256,192,174143,1,0,0:0:0:0:
256,192,174333,1,8,0:0:0:0:
256,192,174523,1,8,0:0:0:0:
256,192,174712,1,0,0:0:0:0:
256,192,175092,1,8,0:0:0:0:
256,192,175282,1,0,0:0:0:0:
256,192,175472,1,0,0:0:0:0:
256,192,175662,1,8,0:0:0:0:
256,192,176042,1,8,0:0:0:0:
256,192,176611,1,0,0:0:0:0:
256,192,176801,1,12,0:0:0:0:
256,192,177181,1,8,0:0:0:0:
256,192,177371,1,0,0:0:0:0:
256,192,177750,1,8,0:0:0:0:
256,192,177940,1,0,0:0:0:0:
256,192,178035,1,0,0:0:0:0:
256,192,178130,1,0,0:0:0:0:
256,192,178320,1,8,0:0:0:0:
256,192,178700,1,8,0:0:0:0:
256,192,178890,1,8,0:0:0:0:
256,192,179080,1,0,0:0:0:0:
256,192,179269,1,8,0:0:0:0:
256,192,179364,1,8,0:0:0:0:
256,192,179459,1,8,0:0:0:0:
256,192,179649,1,0,0:0:0:0:
256,192,179839,1,12,0:0:0:0:
256,192,180029,1,0,0:0:0:0:
256,192,180409,1,0,0:0:0:0:
256,192,180599,1,8,0:0:0:0:
256,192,180788,1,8,0:0:0:0:
256,192,180978,1,0,0:0:0:0:
256,192,181073,1,0,0:0:0:0:
256,192,181168,1,0,0:0:0:0:
256,192,181358,1,12,0:0:0:0:
256,192,181548,1,0,0:0:0:0:
256,192,181928,1,8,0:0:0:0:
256,192,182118,1,8,0:0:0:0:
256,192,182497,1,0,0:0:0:0:
256,192,182687,1,0,0:0:0:0:
256,192,182877,1,12,0:0:0:0:
256,192,183447,1,8,0:0:0:0:
256,192,183637,1,0,0:0:0:0:
256,192,183826,1,8,0:0:0:0:
256,192,183921,1,8,0:0:0:0:
256,192,184016,1,8,0:0:0:0:
256,192,184206,1,0,0:0:0:0:
256,192,184396,1,8,0:0:0:0:
256,192,184776,1,0,0:0:0:0:
256,192,184871,1,0,0:0:0:0:
256,192,184966,1,0,0:0:0:0:
256,192,185155,1,8,0:0:0:0:
256,192,185535,1,0,0:0:0:0:
256,192,185725,1,0,0:0:0:0:
256,192,185915,1,12,0:0:0:0:
256,192,186295,1,0,0:0:0:0:
256,192,186485,1,0,0:0:0:0:
256,192,186864,1,8,0:0:0:0:
256,192,187054,1,0,0:0:0:0:
256,192,187149,1,0,0:0:0:0:
256,192,187244,1,0,0:0:0:0:
256,192,187434,1,12,0:0:0:0:
256,192,187814,1,12,0:0:0:0:
256,192,188193,1,12,0:0:0:0:
256,192,188383,1,0,0:0:0:0:
256,192,188573,1,0,0:0:0:0:
256,192,189143,1,12,0:0:0:0:
256,192,189333,1,0,0:0:0:0:
256,192,189428,1,0,0:0:0:0:
256,192,189523,1,0,0:0:0:0:
256,192,189712,1,8,0:0:0:0:
256,192,189902,1,0,0:0:0:0:
256,192,190092,1,0,0:0:0:0:
256,192,190282,1,8,0:0:0:0:
256,192,190662,1,0,0:0:0:0:
256,192,190852,1,8,0:0:0:0:
256,192,190947,1,8,0:0:0:0:
256,192,191042,1,8,0:0:0:0:
256,192,191231,1,0,0:0:0:0:
256,192,191421,1,8,0:0:0:0:
256,192,191516,1,8,0:0:0:0:
256,192,191611,1,8,0:0:0:0:
256,192,191801,1,0,0:0:0:0:
256,192,191991,1,12,0:0:0:0:
256,192,192181,1,8,0:0:0:0:
256,192,192561,1,0,0:0:0:0:
256,192,192750,1,12,0:0:0:0:
256,192,192940,1,8,0:0:0:0:
256,192,193320,1,0,0:0:0:0:
256,192,193510,1,12,0:0:0:0:
256,192,193700,1,12,0:0:0:0:
256,192,193890,1,12,0:0:0:0:
256,192,194269,1,0,0:0:0:0:
256,192,194649,1,0,0:0:0:0:
256,192,195029,1,12,0:0:0:0:
256,192,195409,1,0,0:0:0:0:
256,192,195599,1,0,0:0:0:0:
256,192,195789,1,8,0:0:0:0:
256,192,196168,1,0,0:0:0:0:
256,192,196548,1,0,0:0:0:0:
256,192,196928,1,8,0:0:0:0:
256,192,197117,1,0,0:0:0:0:
256,192,197307,1,8,0:0:0:0:
256,192,197687,1,8,0:0:0:0:
256,192,197877,1,0,0:0:0:0:
256,192,198067,1,12,0:0:0:0:
256,192,198447,1,0,0:0:0:0:
256,192,198826,1,8,0:0:0:0:
256,192,199206,1,0,0:0:0:0:
256,192,199396,1,8,0:0:0:0:
256,192,199586,1,12,0:0:0:0:
256,192,199966,1,0,0:0:0:0:
256,192,200345,1,0,0:0:0:0:
256,192,200725,1,8,0:0:0:0:
256,192,200915,1,0,0:0:0:0:
256,192,201105,1,12,0:0:0:0:
256,192,201485,1,0,0:0:0:0:
256,192,201864,1,0,0:0:0:0:
256,192,202244,1,8,0:0:0:0:
256,192,202434,1,0,0:0:0:0:
256,192,202624,1,8,0:0:0:0:
256,192,203004,1,0,0:0:0:0:
256,192,203383,1,8,0:0:0:0:
256,192,203573,1,0,0:0:0:0:
256,192,203763,1,8,0:0:0:0:
256,192,203953,1,0,0:0:0:0:
256,192,204143,1,12,0:0:0:0:
256,192,204523,1,0,0:0:0:0:
256,192,204902,1,0,0:0:0:0:
256,192,205282,1,8,0:0:0:0:
256,192,205472,1,0,0:0:0:0:
256,192,205662,1,12,0:0:0:0:
256,192,206042,1,0,0:0:0:0:
256,192,206421,1,0,0:0:0:0:
256,192,206801,1,8,0:0:0:0:
256,192,206991,1,0,0:0:0:0:
256,192,207181,1,12,0:0:0:0:
256,192,207561,1,0,0:0:0:0:
256,192,207940,1,0,0:0:0:0:
256,192,208320,1,8,0:0:0:0:
256,192,208510,1,0,0:0:0:0:
256,192,208700,1,8,0:0:0:0:
256,192,209080,1,0,0:0:0:0:
256,192,209459,1,8,0:0:0:0:
256,192,209839,1,0,0:0:0:0:
256,192,210029,1,0,0:0:0:0:
256,192,210219,1,12,0:0:0:0:
256,192,210599,1,0,0:0:0:0:
256,192,210978,1,8,0:0:0:0:
256,192,211358,1,0,0:0:0:0:
256,192,211548,1,0,0:0:0:0:
256,192,211738,1,12,0:0:0:0:
256,192,212118,1,0,0:0:0:0:
256,192,212497,1,0,0:0:0:0:
256,192,212877,1,8,0:0:0:0:
256,192,213067,1,0,0:0:0:0:
256,192,213257,1,12,0:0:0:0:
256,192,213637,1,8,0:0:0:0:
256,192,214016,1,0,0:0:0:0:
256,192,214396,1,8,0:0:0:0:
256,192,214586,1,0,0:0:0:0:
256,192,214776,1,12,0:0:0:0:
256,192,215155,1,0,0:0:0:0:
256,192,215535,1,8,0:0:0:0:
256,192,215725,1,0,0:0:0:0:
256,192,215915,1,0,0:0:0:0:
256,192,216105,1,0,0:0:0:0:
256,192,216295,1,8,0:0:0:0:
256,192,216675,1,8,0:0:0:0:
256,192,217054,1,8,0:0:0:0:
256,192,217434,1,8,0:0:0:0:
256,192,217624,1,0,0:0:0:0:
256,192,217814,1,8,0:0:0:0:
256,192,218953,1,0,0:0:0:0:
256,192,219143,1,0,0:0:0:0:
256,192,219333,1,12,0:0:0:0:
256,192,219713,1,0,0:0:0:0:
256,192,219903,1,8,0:0:0:0:
256,192,220093,1,0,0:0:0:0:
256,192,220283,1,8,0:0:0:0:
256,192,220378,1,8,0:0:0:0:
256,192,220473,1,8,0:0:0:0:
256,192,220663,1,0,0:0:0:0:
256,192,220852,1,0,0:0:0:0:
256,192,221232,1,8,0:0:0:0:
256,192,221612,1,0,0:0:0:0:
256,192,221802,1,8,0:0:0:0:
256,192,221992,1,0,0:0:0:0:
256,192,222182,1,8,0:0:0:0:
256,192,222276,1,8,0:0:0:0:
256,192,222371,1,8,0:0:0:0:
256,192,222750,1,8,0:0:0:0:
256,192,222941,1,0,0:0:0:0:
256,192,223130,1,8,0:0:0:0:
256,192,223321,1,0,0:0:0:0:
256,192,223416,1,0,0:0:0:0:
256,192,223511,1,0,0:0:0:0:
256,192,223700,1,8,0:0:0:0:
256,192,223890,1,0,0:0:0:0:
256,192,224017,1,0,0:0:0:0:
256,192,224270,1,8,0:0:0:0:
256,192,224397,1,8,0:0:0:0:
256,192,224650,1,0,0:0:0:0:
256,192,224776,1,0,0:0:0:0:
256,192,225030,1,8,0:0:0:0:
256,192,225156,1,8,0:0:0:0:
256,192,225409,1,12,0:0:0:0:
256,192,225979,1,8,0:0:0:0:
256,192,226074,1,8,0:0:0:0:
256,192,226169,1,8,0:0:0:0:
256,192,226359,1,0,0:0:0:0:
256,192,226549,1,8,0:0:0:0:
256,192,226738,1,0,0:0:0:0:
256,192,226928,1,8,0:0:0:0:
256,192,227308,1,8,0:0:0:0:
256,192,227498,1,0,0:0:0:0:
256,192,227688,1,8,0:0:0:0:
256,192,228068,1,0,0:0:0:0:
256,192,228257,1,8,0:0:0:0:
256,192,228352,1,8,0:0:0:0:
256,192,228447,1,8,0:0:0:0:
256,192,228827,1,8,0:0:0:0:
256,192,229017,1,8,0:0:0:0:
256,192,229207,1,0,0:0:0:0:
256,192,229587,1,0,0:0:0:0:
256,192,229776,1,8,0:0:0:0:
256,192,229966,1,8,0:0:0:0:
256,192,230345,1,8,0:0:0:0:
256,192,230535,1,8,0:0:0:0:
256,192,230725,1,0,0:0:0:0:
256,192,231105,1,0,0:0:0:0:
256,192,231295,1,0,0:0:0:0:
256,192,231485,1,12,0:0:0:0:
256,192,231865,1,0,0:0:0:0:
256,192,232055,1,8,0:0:0:0:
256,192,232245,1,0,0:0:0:0:
256,192,232435,1,8,0:0:0:0:
256,192,232530,1,8,0:0:0:0:
256,192,232625,1,8,0:0:0:0:
256,192,232815,1,0,0:0:0:0:
256,192,233004,1,8,0:0:0:0:
256,192,233384,1,8,0:0:0:0:
256,192,233764,1,8,0:0:0:0:
256,192,233954,1,0,0:0:0:0:
256,192,234144,1,8,0:0:0:0:
256,192,234334,1,0,0:0:0:0:
256,192,234428,1,0,0:0:0:0:
256,192,234523,1,0,0:0:0:0:
256,192,234903,1,8,0:0:0:0:
256,192,235093,1,8,0:0:0:0:
256,192,235283,1,0,0:0:0:0:
256,192,235473,1,8,0:0:0:0:
256,192,235568,1,8,0:0:0:0:
256,192,235663,1,8,0:0:0:0:
256,192,235852,1,0,0:0:0:0:
256,192,236042,1,8,0:0:0:0:
256,192,236169,1,8,0:0:0:0:
256,192,236422,1,0,0:0:0:0:
256,192,236549,1,0,0:0:0:0:
256,192,236802,1,8,0:0:0:0:
256,192,236928,1,8,0:0:0:0:
256,192,237182,1,0,0:0:0:0:
256,192,237308,1,0,0:0:0:0:
256,192,237561,1,12,0:0:0:0:
256,192,238131,1,0,0:0:0:0:
256,192,238226,1,0,0:0:0:0:
256,192,238321,1,0,0:0:0:0:
256,192,238511,1,8,0:0:0:0:
256,192,238701,1,0,0:0:0:0:
256,192,238890,1,0,0:0:0:0:
256,192,239080,1,8,0:0:0:0:
256,192,239460,1,8,0:0:0:0:
256,192,239650,1,0,0:0:0:0:
256,192,239840,1,8,0:0:0:0:
256,192,240220,1,0,0:0:0:0:
256,192,240409,1,8,0:0:0:0:
256,192,240504,1,8,0:0:0:0:
256,192,240599,1,8,0:0:0:0:
256,192,240979,1,8,0:0:0:0:
256,192,241169,1,8,0:0:0:0:
256,192,241359,1,0,0:0:0:0:
256,192,241739,1,0,0:0:0:0:
256,192,241928,1,8,0:0:0:0:
256,192,242118,1,12,0:0:0:0:
256,192,242498,1,0,0:0:0:0:
256,192,242687,1,12,0:0:0:0:
256,192,243068,1,0,0:0:0:0:
256,192,243258,1,12,0:0:0:0:
256,192,243447,1,12,0:0:0:0:
256,192,243637,1,0,0:0:0:0:
