osu file format v14

[General]
AudioFilename: audio.mp3
AudioLeadIn: 0
PreviewTime: 48257
Countdown: 0
SampleSet: Normal
StackLeniency: 0.7
Mode: 1
LetterboxInBreaks: 0
WidescreenStoryboard: 1

[Editor]
DistanceSpacing: 0.4
BeatDivisor: 4
GridSize: 32
TimelineZoom: 1.700001

[Metadata]
Title:ito
TitleUnicode:絃
Artist:Emiru no Aishita Tsukiyo ni Dai San Gensou Kyoku wo
ArtistUnicode:エミルの愛した月夜に第III幻想曲を
Creator:Esutarosa
Version:Kantan
Source:
Tags:japanese metal pop j-pop jpop rock jrock j-rock featured artist fa mappers' guild mpg female vocals vocalist doujin Emille's Moonlight Serenade サラ Sara 荊 いばら Ibara Ito
BeatmapID:3610201
BeatmapSetID:1763833

[Difficulty]
HPDrainRate:8
CircleSize:2
OverallDifficulty:2
ApproachRate:10
SliderMultiplier:1.4
SliderTickRate:1

[Events]
//Background and Video events
0,0,"BG.jpg",0,80
//Break Periods
2,85862,97364
//Storyboard Layer 0 (Background)
//Storyboard Layer 1 (Fail)
//Storyboard Layer 2 (Pass)
//Storyboard Layer 3 (Foreground)
//Storyboard Layer 4 (Overlay)
//Storyboard Sound Samples

[TimingPoints]
599,379.746835443038,4,1,0,54,1,0
6674,-100,4,1,0,54,0,0
12750,-100,4,1,0,74,0,0
24902,-100,4,1,0,64,0,0
26421,-100,4,1,0,54,0,0
27940,-100,4,1,0,64,0,0
29459,-100,4,1,0,54,0,0
30978,-100,4,1,0,64,0,0
32497,-100,4,1,0,54,0,0
34016,-100,4,1,0,64,0,0
37054,-100,4,1,0,54,0,0
43130,-100,4,1,0,44,0,0
46168,-100,4,1,0,74,0,0
47687,-100,4,1,0,64,0,0
49206,-100,4,1,0,84,0,1
73510,-100,4,1,0,74,0,0
85662,-100,4,1,0,64,0,0
86042,-100,4,1,0,44,0,0
97814,-100,4,1,0,54,0,0
103890,-100,4,1,0,44,0,0
106928,-100,4,1,0,74,0,0
108447,-100,4,1,0,64,0,0
109966,-100,4,1,0,84,0,1
134269,-100,4,1,0,74,0,0
146421,-100,4,1,0,74,0,0
158573,-100,4,1,0,54,0,0
164649,-100,4,1,0,44,0,0
167687,-100,4,1,0,74,0,0
169206,-100,4,1,0,64,0,0
170725,-100,4,1,0,84,0,1
195029,-100,4,1,0,74,0,0
195409,-100,4,1,0,68,0,0
201105,-100,4,1,0,74,0,0
219333,-100,4,1,0,74,0,0
243636,-100,4,1,0,54,0,0

[HitObjects]
256,192,6674,5,4,0:0:0:0:
256,192,8193,1,12,0:0:0:0:
256,192,9712,1,12,0:0:0:0:
256,192,11231,1,0,0:0:0:0:
256,192,12750,1,12,0:0:0:0:
256,192,13510,1,0,0:0:0:0:
256,192,13890,1,8,0:0:0:0:
256,192,14269,1,0,0:0:0:0:
256,192,15029,1,0,0:0:0:0:
256,192,15788,1,8,0:0:0:0:
256,192,16548,1,8,0:0:0:0:
256,192,16928,1,8,0:0:0:0:
256,192,17307,1,0,0:0:0:0:
256,192,18447,1,0,0:0:0:0:
256,192,18826,1,12,0:0:0:0:
256,192,19586,1,0,0:0:0:0:
256,192,19966,1,0,0:0:0:0:
256,192,20345,1,8,0:0:0:0:
256,192,21105,1,0,0:0:0:0:
256,192,21864,1,8,0:0:0:0:
256,192,22624,1,0,0:0:0:0:
256,192,23383,1,12,0:0:0:0:
256,192,23953,1,12,0:0:0:0:
256,192,24523,1,12,0:0:0:0:
256,192,24902,1,0,0:0:0:0:
256,192,25472,1,8,0:0:0:0:
256,192,26421,1,0,0:0:0:0:
256,192,27940,1,12,0:0:0:0:
256,192,28700,1,8,0:0:0:0:
256,192,29459,1,0,0:0:0:0:
256,192,30978,1,12,0:0:0:0:
256,192,31548,1,0,0:0:0:0:
256,192,32117,1,0,0:0:0:0:
256,192,34016,1,12,0:0:0:0:
256,192,34776,1,0,0:0:0:0:
256,192,35535,1,8,0:0:0:0:
256,192,35915,1,8,0:0:0:0:
256,192,36295,1,0,0:0:0:0:
256,192,37054,1,8,0:0:0:0:
256,192,37814,1,0,0:0:0:0:
256,192,38573,1,8,0:0:0:0:
256,192,40092,1,8,0:0:0:0:
256,192,40852,1,0,0:0:0:0:
256,192,41611,1,8,0:0:0:0:
256,192,43130,1,0,0:0:0:0:
256,192,44649,1,0,0:0:0:0:
256,192,46168,1,12,0:0:0:0:
256,192,46548,1,12,0:0:0:0:
256,192,46928,1,12,0:0:0:0:
256,192,47307,1,12,0:0:0:0:
256,192,47687,1,0,0:0:0:0:
256,192,48447,1,0,0:0:0:0:
256,192,49206,1,12,0:0:0:0:
256,192,49966,1,0,0:0:0:0:
256,192,50535,1,8,0:0:0:0:
256,192,51485,1,0,0:0:0:0:
256,192,52244,1,12,0:0:0:0:
256,192,52814,1,0,0:0:0:0:
256,192,53193,1,8,0:0:0:0:
256,192,53573,1,0,0:0:0:0:
256,192,54902,1,0,0:0:0:0:
256,192,55282,1,12,0:0:0:0:
256,192,55852,1,0,0:0:0:0:
256,192,56801,1,8,0:0:0:0:
256,192,57181,1,8,0:0:0:0:
256,192,57561,1,0,0:0:0:0:
256,192,58320,1,12,0:0:0:0:
256,192,59080,1,0,0:0:0:0:
256,192,59839,1,12,0:0:0:0:
256,192,60409,1,8,0:0:0:0:
256,192,60978,1,8,0:0:0:0:
256,192,61358,1,4,0:0:0:0:
256,192,62117,1,8,0:0:0:0:
256,192,62687,1,0,0:0:0:0:
256,192,63636,1,8,0:0:0:0:
256,192,64396,1,12,0:0:0:0:
256,192,64966,1,0,0:0:0:0:
256,192,65915,1,12,0:0:0:0:
256,192,66295,1,4,0:0:0:0:
256,192,66674,1,12,0:0:0:0:
256,192,67624,1,4,0:0:0:0:
256,192,68573,1,0,0:0:0:0:
256,192,68953,1,8,0:0:0:0:
256,192,70092,1,0,0:0:0:0:
256,192,70472,1,12,0:0:0:0:
256,192,71231,1,8,0:0:0:0:
256,192,71991,1,12,0:0:0:0:
256,192,72371,1,12,0:0:0:0:
256,192,72750,1,0,0:0:0:0:
256,192,73510,1,12,0:0:0:0:
256,192,74270,1,0,0:0:0:0:
256,192,74650,1,8,0:0:0:0:
256,192,75029,1,8,0:0:0:0:
256,192,75789,1,0,0:0:0:0:
256,192,76548,1,8,0:0:0:0:
256,192,77308,1,8,0:0:0:0:
256,192,77688,1,8,0:0:0:0:
256,192,78067,1,0,0:0:0:0:
256,192,79207,1,0,0:0:0:0:
256,192,79586,1,12,0:0:0:0:
256,192,80345,1,8,0:0:0:0:
256,192,80726,1,0,0:0:0:0:
256,192,81105,1,8,0:0:0:0:
256,192,81865,1,0,0:0:0:0:
256,192,82624,1,8,0:0:0:0:
256,192,83384,1,0,0:0:0:0:
256,192,84143,1,12,0:0:0:0:
256,192,84713,1,12,0:0:0:0:
256,192,85283,1,12,0:0:0:0:
256,192,85662,1,0,0:0:0:0:
256,192,97814,5,8,0:0:0:0:
256,192,98574,1,0,0:0:0:0:
256,192,99333,1,8,0:0:0:0:
256,192,100852,1,8,0:0:0:0:
256,192,101612,1,0,0:0:0:0:
256,192,102371,1,8,0:0:0:0:
256,192,103890,1,0,0:0:0:0:
256,192,105409,1,0,0:0:0:0:
256,192,106928,1,12,0:0:0:0:
256,192,107308,1,12,0:0:0:0:
256,192,107688,1,12,0:0:0:0:
256,192,108067,1,12,0:0:0:0:
256,192,108447,1,0,0:0:0:0:
256,192,109207,1,0,0:0:0:0:
256,192,109966,1,12,0:0:0:0:
256,192,110726,1,0,0:0:0:0:
256,192,111295,1,0,0:0:0:0:
256,192,112245,1,8,0:0:0:0:
256,192,113004,1,12,0:0:0:0:
256,192,113574,1,0,0:0:0:0:
256,192,113953,1,8,0:0:0:0:
256,192,114333,1,0,0:0:0:0:
256,192,115662,1,0,0:0:0:0:
256,192,116042,1,12,0:0:0:0:
256,192,116612,1,8,0:0:0:0:
256,192,117561,1,0,0:0:0:0:
256,192,117941,1,8,0:0:0:0:
256,192,118321,1,0,0:0:0:0:
256,192,119080,1,12,0:0:0:0:
256,192,119840,1,8,0:0:0:0:
256,192,120599,1,12,0:0:0:0:
256,192,121169,1,0,0:0:0:0:
256,192,121738,1,0,0:0:0:0:
256,192,122117,1,12,0:0:0:0:
256,192,122877,1,0,0:0:0:0:
256,192,123447,1,8,0:0:0:0:
256,192,124396,1,0,0:0:0:0:
256,192,125155,1,12,0:0:0:0:
256,192,125726,1,0,0:0:0:0:
256,192,126675,1,12,0:0:0:0:
256,192,127055,1,12,0:0:0:0:
256,192,127434,1,12,0:0:0:0:
256,192,128383,1,12,0:0:0:0:
256,192,129333,1,0,0:0:0:0:
256,192,129713,1,0,0:0:0:0:
256,192,130852,1,0,0:0:0:0:
256,192,131232,1,12,0:0:0:0:
256,192,131991,1,0,0:0:0:0:
256,192,132751,1,12,0:0:0:0:
256,192,133131,1,12,0:0:0:0:
256,192,133510,1,12,0:0:0:0:
256,192,134269,1,12,0:0:0:0:
256,192,135409,1,0,0:0:0:0:
256,192,135788,1,8,0:0:0:0:
256,192,136548,1,0,0:0:0:0:
256,192,137307,1,12,0:0:0:0:
256,192,138826,1,0,0:0:0:0:
256,192,139586,1,0,0:0:0:0:
256,192,139966,1,0,0:0:0:0:
256,192,140345,1,12,0:0:0:0:
256,192,141105,1,8,0:0:0:0:
256,192,141485,1,0,0:0:0:0:
256,192,141864,1,0,0:0:0:0:
256,192,142624,1,0,0:0:0:0:
256,192,143004,1,0,0:0:0:0:
256,192,143383,1,12,0:0:0:0:
256,192,144902,1,12,0:0:0:0:
256,192,145472,1,12,0:0:0:0:
256,192,146042,1,12,0:0:0:0:
256,192,146421,1,12,0:0:0:0:
256,192,147181,1,0,0:0:0:0:
256,192,147561,1,8,0:0:0:0:
256,192,147940,1,0,0:0:0:0:
256,192,148700,1,8,0:0:0:0:
256,192,149459,1,0,0:0:0:0:
256,192,150219,1,8,0:0:0:0:
256,192,150599,1,8,0:0:0:0:
256,192,150978,1,0,0:0:0:0:
256,192,152118,1,0,0:0:0:0:
256,192,152497,1,12,0:0:0:0:
256,192,153257,1,0,0:0:0:0:
256,192,153637,1,0,0:0:0:0:
256,192,154016,1,8,0:0:0:0:
256,192,154776,1,8,0:0:0:0:
256,192,155535,1,0,0:0:0:0:
256,192,156295,1,0,0:0:0:0:
256,192,157054,1,12,0:0:0:0:
256,192,157434,1,12,0:0:0:0:
256,192,157814,1,12,0:0:0:0:
256,192,158573,1,0,0:0:0:0:
256,192,159333,1,0,0:0:0:0:
256,192,160092,1,8,0:0:0:0:
256,192,161611,1,8,0:0:0:0:
256,192,162371,1,0,0:0:0:0:
256,192,163130,1,8,0:0:0:0:
256,192,164649,1,0,0:0:0:0:
256,192,166168,1,0,0:0:0:0:
256,192,167687,1,12,0:0:0:0:
256,192,168067,1,12,0:0:0:0:
256,192,168447,1,12,0:0:0:0:
256,192,168826,1,12,0:0:0:0:
256,192,169206,1,0,0:0:0:0:
256,192,169966,1,0,0:0:0:0:
256,192,170725,1,12,0:0:0:0:
256,192,171485,1,0,0:0:0:0:
256,192,172054,1,8,0:0:0:0:
256,192,173004,1,0,0:0:0:0:
256,192,173763,1,12,0:0:0:0:
256,192,174333,1,8,0:0:0:0:
256,192,174712,1,0,0:0:0:0:
256,192,175092,1,8,0:0:0:0:
256,192,176421,1,0,0:0:0:0:
256,192,176801,1,12,0:0:0:0:
256,192,177371,1,0,0:0:0:0:
256,192,178320,1,8,0:0:0:0:
256,192,178700,1,8,0:0:0:0:
256,192,179080,1,0,0:0:0:0:
256,192,179839,1,12,0:0:0:0:
256,192,180599,1,8,0:0:0:0:
256,192,181358,1,4,0:0:0:0:
256,192,181928,1,0,0:0:0:0:
256,192,182497,1,8,0:0:0:0:
256,192,182877,1,12,0:0:0:0:
256,192,183636,1,0,0:0:0:0:
256,192,184206,1,0,0:0:0:0:
256,192,185155,1,8,0:0:0:0:
256,192,185915,1,12,0:0:0:0:
256,192,186485,1,0,0:0:0:0:
256,192,187434,1,12,0:0:0:0:
256,192,187814,1,12,0:0:0:0:
256,192,188193,1,12,0:0:0:0:
256,192,189143,1,12,0:0:0:0:
256,192,190092,1,0,0:0:0:0:
256,192,190472,1,8,0:0:0:0:
256,192,191611,1,0,0:0:0:0:
256,192,191991,1,12,0:0:0:0:
256,192,192750,1,12,0:0:0:0:
256,192,193510,1,12,0:0:0:0:
256,192,193890,1,12,0:0:0:0:
256,192,194269,1,4,0:0:0:0:
256,192,195029,1,12,0:0:0:0:
256,192,195409,1,0,0:0:0:0:
256,192,195788,1,0,0:0:0:0:
256,192,196548,1,8,0:0:0:0:
256,192,197307,1,0,0:0:0:0:
256,192,197687,1,8,0:0:0:0:
256,192,198067,1,12,0:0:0:0:
256,192,199586,1,12,0:0:0:0:
256,192,200345,1,0,0:0:0:0:
256,192,200725,1,0,0:0:0:0:
256,192,201105,1,12,0:0:0:0:
256,192,202244,1,0,0:0:0:0:
256,192,202624,1,8,0:0:0:0:
256,192,203383,1,0,0:0:0:0:
256,192,204143,1,12,0:0:0:0:
256,192,204902,1,0,0:0:0:0:
256,192,205662,1,12,0:0:0:0:
256,192,206421,1,0,0:0:0:0:
256,192,206801,1,0,0:0:0:0:
256,192,207181,1,12,0:0:0:0:
256,192,207940,1,0,0:0:0:0:
256,192,208700,1,8,0:0:0:0:
256,192,209459,1,0,0:0:0:0:
256,192,209839,1,0,0:0:0:0:
256,192,210219,1,12,0:0:0:0:
256,192,210978,1,0,0:0:0:0:
256,192,211738,1,12,0:0:0:0:
256,192,213257,1,12,0:0:0:0:
256,192,214016,1,0,0:0:0:0:
256,192,214396,1,0,0:0:0:0:
256,192,214776,1,12,0:0:0:0:
256,192,215535,1,8,0:0:0:0:
256,192,216295,1,0,0:0:0:0:
256,192,216674,1,8,0:0:0:0:
256,192,217054,1,0,0:0:0:0:
256,192,217434,1,8,0:0:0:0:
256,192,218953,1,0,0:0:0:0:
256,192,219333,1,12,0:0:0:0:
256,192,220093,1,0,0:0:0:0:
256,192,220473,1,0,0:0:0:0:
256,192,220852,1,8,0:0:0:0:
256,192,221612,1,8,0:0:0:0:
256,192,222371,1,8,0:0:0:0:
256,192,223131,1,0,0:0:0:0:
256,192,223511,1,0,0:0:0:0:
256,192,223890,1,8,0:0:0:0:
256,192,225030,1,0,0:0:0:0:
256,192,225409,1,12,0:0:0:0:
256,192,226168,1,0,0:0:0:0:
256,192,226549,1,8,0:0:0:0:
256,192,226928,1,0,0:0:0:0:
256,192,227688,1,0,0:0:0:0:
256,192,228447,1,8,0:0:0:0:
256,192,229207,1,0,0:0:0:0:
256,192,229966,1,8,0:0:0:0:
256,192,230345,1,0,0:0:0:0:
256,192,230725,1,8,0:0:0:0:
256,192,231106,1,0,0:0:0:0:
256,192,231485,1,12,0:0:0:0:
256,192,232624,1,0,0:0:0:0:
256,192,233003,1,8,0:0:0:0:
256,192,233763,1,0,0:0:0:0:
256,192,234522,1,8,0:0:0:0:
256,192,235282,1,0,0:0:0:0:
256,192,235662,1,8,0:0:0:0:
256,192,236041,1,0,0:0:0:0:
256,192,237181,1,8,0:0:0:0:
256,192,237560,1,12,0:0:0:0:
256,192,238320,1,0,0:0:0:0:
256,192,238700,1,0,0:0:0:0:
256,192,239079,1,8,0:0:0:0:
256,192,239839,1,0,0:0:0:0:
256,192,240598,1,8,0:0:0:0:
256,192,241358,1,8,0:0:0:0:
256,192,242117,1,12,0:0:0:0:
256,192,242687,1,12,0:0:0:0:
256,192,243257,1,12,0:0:0:0:
