osu file format v14

[General]
AudioFilename: audio.mp3
AudioLeadIn: 0
PreviewTime: 48257
Countdown: 0
SampleSet: Normal
StackLeniency: 0.7
Mode: 1
LetterboxInBreaks: 0
WidescreenStoryboard: 0

[Editor]
DistanceSpacing: 0.4
BeatDivisor: 4
GridSize: 32
TimelineZoom: 2.9

[Metadata]
Title:ito
TitleUnicode:絃
Artist:Emiru no Aishita Tsukiyo ni Dai San Gensou Kyoku wo
ArtistUnicode:エミルの愛した月夜に第III幻想曲を
Creator:Esutarosa
Version:Inner Oni
Source:
Tags:japanese metal pop j-pop jpop rock jrock j-rock featured artist fa mappers' guild mpg female vocals vocalist doujin Emille's Moonlight Serenade サラ Sara 荊 いばら Ibara Ito
BeatmapID:3610200
BeatmapSetID:1763833

[Difficulty]
HPDrainRate:5.5
CircleSize:2
OverallDifficulty:5.5
ApproachRate:10
SliderMultiplier:1.4
SliderTickRate:1

[Events]
//Background and Video events
0,0,"BG.jpg",0,80
//Break Periods
//Storyboard Layer 0 (Background)
//Storyboard Layer 1 (Fail)
//Storyboard Layer 2 (Pass)
//Storyboard Layer 3 (Foreground)
//Storyboard Layer 4 (Overlay)
//Storyboard Sound Samples

[TimingPoints]
599,379.746835443038,4,1,0,54,1,0
6674,-111.111111111111,4,1,0,54,0,0
12086,-108.104258652614,4,1,0,54,0,0
12181,-105.255859104146,4,1,0,54,0,0
12276,-102.553708958249,4,1,0,54,0,0
12371,-99.9868265050718,4,1,0,54,0,0
12750,-90.9090909090909,4,1,0,74,0,0
23099,-91.3246403310398,4,1,0,74,0,0
23193,-91.7395717531055,4,1,0,74,0,0
23288,-92.1627658541323,4,1,0,74,0,0
23383,-92.5898824332894,4,1,0,74,0,0
23478,-93.0209762791609,4,1,0,74,0,0
23573,-93.4561032054754,4,1,0,74,0,0
23668,-93.8953200751954,4,1,0,74,0,0
23763,-94.3386848252895,4,1,0,74,0,0
23858,-94.7862564922093,4,1,0,74,0,0
23953,-95.2380952380952,4,1,0,74,0,0
24048,-95.6942623777352,4,1,0,74,0,0
24143,-96.1548204063022,4,1,0,74,0,0
24238,-96.6198330278965,4,1,0,74,0,0
24333,-97.0893651849199,4,1,0,74,0,0
24428,-97.5634830883109,4,1,0,74,0,0
24523,-98.0422542486699,4,1,0,74,0,0
24617,-98.5206332727745,4,1,0,74,0,0
24712,-99.0088680229525,4,1,0,74,0,0
24807,-99.5019659239843,4,1,0,74,0,0
24902,-100,4,1,0,64,0,0
25947,-103.454545454545,4,1,0,64,0,0
26042,-107.156308851224,4,1,0,64,0,0
26136,-111.089418196017,4,1,0,64,0,0
26231,-115.36901865369,4,1,0,64,0,0
26421,-125,4,1,0,54,0,0
27940,-100,4,1,0,64,0,0
28985,-103.454545454545,4,1,0,64,0,0
29080,-107.156308851224,4,1,0,64,0,0
29174,-111.089418196017,4,1,0,64,0,0
29269,-115.36901865369,4,1,0,64,0,0
29459,-125,4,1,0,54,0,0
30978,-100,4,1,0,64,0,0
32023,-103.454545454545,4,1,0,64,0,0
32117,-107.156308851224,4,1,0,64,0,0
32212,-111.089418196017,4,1,0,64,0,0
32307,-115.36901865369,4,1,0,64,0,0
32497,-125,4,1,0,54,0,0
34016,-100,4,1,0,64,0,0
36200,-101.011176157531,4,1,0,64,0,0
36295,-102.043010752688,4,1,0,64,0,0
36390,-103.096143400326,4,1,0,64,0,0
36485,-104.17124039517,4,1,0,64,0,0
36580,-105.268996117582,4,1,0,64,0,0
36674,-106.378208720995,4,1,0,64,0,0
36769,-107.523226829821,4,1,0,64,0,0
36864,-108.69316229527,4,1,0,64,0,0
36959,-109.888837424734,4,1,0,64,0,0
37054,-111.111111111111,4,1,0,54,0,0
43035,-117.647058823529,4,1,0,54,0,0
43130,-125,4,1,0,44,0,0
46168,-100,4,1,0,74,0,0
47687,-100,4,1,0,64,0,0
49206,-83.3333333333333,4,1,0,84,0,1
67244,-83.3333333333333,4,1,0,84,0,0
67624,-83.3333333333333,4,1,0,84,0,1
73193,-84.5007782966422,4,1,0,84,0,1
73257,-85.7207308820212,4,1,0,84,0,1
73320,-86.9565217391304,4,1,0,84,0,1
73383,-88.2284652890643,4,1,0,84,0,1
73447,-89.5592740985152,4,1,0,84,0,1
73510,-90.9090909090909,4,1,0,74,0,0
83859,-92.1672412955859,4,1,0,74,0,0
83953,-93.4469006942051,4,1,0,74,0,0
84048,-94.7767901727754,4,1,0,74,0,0
84143,-96.1450787700724,4,1,0,74,0,0
84238,-97.5534539473684,4,1,0,74,0,0
84333,-99.0037035105107,4,1,0,74,0,0
84428,-100.497723181192,4,1,0,74,0,0
84523,-102.037524864255,4,1,0,74,0,0
84618,-103.625245686831,4,1,0,74,0,0
84713,-105.263157894737,4,1,0,74,0,0
84808,-106.953679702468,4,1,0,74,0,0
84903,-108.699387205773,4,1,0,74,0,0
84998,-110.503027480205,4,1,0,74,0,0
85093,-112.367533005743,4,1,0,74,0,0
85188,-114.296037576779,4,1,0,74,0,0
85283,-116.291893879052,4,1,0,74,0,0
85377,-118.336554648045,4,1,0,74,0,0
85472,-120.477339088485,4,1,0,74,0,0
85567,-122.69700691706,4,1,0,74,0,0
85662,-125,4,1,0,64,0,0
86042,-125,4,1,0,44,0,0
97434,-117.647058823529,4,1,0,44,0,0
97814,-111.111111111111,4,1,0,54,0,0
103795,-117.647058823529,4,1,0,54,0,0
103890,-125,4,1,0,44,0,0
106928,-100,4,1,0,74,0,0
108447,-100,4,1,0,64,0,0
109966,-83.3333333333333,4,1,0,84,0,1
128004,-83.3333333333333,4,1,0,84,0,0
128383,-83.3333333333333,4,1,0,84,0,1
133953,-84.5007782966422,4,1,0,84,0,1
134017,-85.7207308820212,4,1,0,84,0,1
134080,-86.9565217391304,4,1,0,84,0,1
134143,-88.2284652890643,4,1,0,84,0,1
134207,-89.5592740985152,4,1,0,84,0,1
134269,-90.9090909090909,4,1,0,74,0,0
146042,-83.3333333333333,4,1,0,74,0,0
156010,-91.5037179840264,4,1,0,74,0,0
156105,-92.106175064107,4,1,0,74,0,0
156200,-92.7166178317288,4,1,0,74,0,0
156295,-93.3352061240256,4,1,0,74,0,0
156390,-93.9621040723982,4,1,0,74,0,0
156485,-94.5974802477045,4,1,0,74,0,0
156580,-95.2415078113802,4,1,0,74,0,0
156674,-95.8874458874459,4,1,0,74,0,0
156769,-96.5492190337813,4,1,0,74,0,0
156864,-97.2201901975128,4,1,0,74,0,0
156959,-97.9005524861878,4,1,0,74,0,0
157054,-98.5905044510386,4,1,0,74,0,0
157149,-99.2902502801644,4,1,0,74,0,0
157244,-100,4,1,0,74,0,0
157339,-100.719969685487,4,1,0,74,0,0
157434,-101.450381679389,4,1,0,74,0,0
157529,-102.191464821223,4,1,0,74,0,0
157624,-102.94345468629,4,1,0,74,0,0
157719,-103.706593835349,4,1,0,74,0,0
157814,-104.481132075472,4,1,0,74,0,0
157909,-105.267326732673,4,1,0,74,0,0
158004,-106.065442936951,4,1,0,74,0,0
158099,-106.875753920386,4,1,0,74,0,0
158193,-107.689814439673,4,1,0,74,0,0
158288,-108.525232729054,4,1,0,74,0,0
158383,-109.373714097605,4,1,0,74,0,0
158478,-110.235567352356,4,1,0,74,0,0
158573,-111.111111111111,4,1,0,54,0,0
164364,-114.285714285714,4,1,0,54,0,0
164459,-117.647058823529,4,1,0,54,0,0
164554,-121.212121212121,4,1,0,54,0,0
164649,-125,4,1,0,44,0,0
167687,-100,4,1,0,74,0,0
169206,-100,4,1,0,64,0,0
170725,-83.3333333333333,4,1,0,84,0,1
188763,-83.3333333333333,4,1,0,84,0,0
189143,-83.3333333333333,4,1,0,84,0,1
194712,-84.5007782966422,4,1,0,84,0,1
194776,-85.7207308820212,4,1,0,84,0,1
194839,-86.9565217391304,4,1,0,84,0,1
194902,-88.2284652890643,4,1,0,84,0,1
194966,-89.5592740985152,4,1,0,84,0,1
195029,-90.9090909090909,4,1,0,74,0,0
195409,-90.9090909090909,4,1,0,68,0,0
201105,-90.9090909090909,4,1,0,74,0,0
217624,-100,4,1,0,74,0,0
217814,-111.111111111111,4,1,0,74,0,0
219143,-100,4,1,0,74,0,0
219333,-90.9090909090909,4,1,0,74,0,0
243636,-90.9090909090909,4,1,0,54,0,0

[HitObjects]
256,192,6674,5,12,0:0:0:0:
256,192,6864,1,12,0:0:0:0:
256,192,7244,1,0,0:0:0:0:
256,192,8193,1,12,0:0:0:0:
256,192,8383,1,12,0:0:0:0:
256,192,8763,1,0,0:0:0:0:
256,192,9712,1,12,0:0:0:0:
256,192,9902,1,12,0:0:0:0:
256,192,10282,1,0,0:0:0:0:
256,192,10472,1,8,0:0:0:0:
256,192,10852,1,0,0:0:0:0:
256,192,11231,1,8,0:0:0:0:
256,192,11421,1,0,0:0:0:0:
256,192,11516,1,8,0:0:0:0:
256,192,11706,1,8,0:0:0:0:
256,192,11801,1,0,0:0:0:0:
256,192,11991,1,0,0:0:0:0:
256,192,12086,1,0,0:0:0:0:
256,192,12181,1,8,0:0:0:0:
256,192,12276,1,8,0:0:0:0:
256,192,12371,1,0,0:0:0:0:
256,192,12750,1,12,0:0:0:0:
256,192,12940,1,0,0:0:0:0:
256,192,13130,1,8,0:0:0:0:
256,192,13225,1,0,0:0:0:0:
256,192,13320,1,8,0:0:0:0:
256,192,13415,1,8,0:0:0:0:
256,192,13510,1,8,0:0:0:0:
256,192,13605,1,0,0:0:0:0:
256,192,13700,1,8,0:0:0:0:
256,192,13795,1,0,0:0:0:0:
256,192,13890,1,8,0:0:0:0:
256,192,13985,1,8,0:0:0:0:
256,192,14080,1,0,0:0:0:0:
256,192,14174,1,0,0:0:0:0:
256,192,14269,1,8,0:0:0:0:
256,192,14364,1,0,0:0:0:0:
256,192,14459,1,8,0:0:0:0:
256,192,14553,1,0,0:0:0:0:
256,192,14649,1,8,0:0:0:0:
256,192,14744,1,8,0:0:0:0:
256,192,14839,1,8,0:0:0:0:
256,192,14933,1,0,0:0:0:0:
256,192,15029,1,8,0:0:0:0:
256,192,15124,1,0,0:0:0:0:
256,192,15219,1,0,0:0:0:0:
256,192,15313,1,8,0:0:0:0:
256,192,15409,1,0,0:0:0:0:
256,192,15504,1,0,0:0:0:0:
256,192,15599,1,8,0:0:0:0:
256,192,15693,1,0,0:0:0:0:
256,192,15788,1,8,0:0:0:0:
256,192,15978,1,0,0:0:0:0:
256,192,16168,1,8,0:0:0:0:
256,192,16263,1,0,0:0:0:0:
256,192,16358,1,0,0:0:0:0:
256,192,16452,1,8,0:0:0:0:
256,192,16548,1,0,0:0:0:0:
256,192,16643,1,8,0:0:0:0:
256,192,16738,1,0,0:0:0:0:
256,192,16832,1,8,0:0:0:0:
256,192,16928,1,8,0:0:0:0:
256,192,17023,1,0,0:0:0:0:
256,192,17117,1,8,0:0:0:0:
256,192,17307,1,8,0:0:0:0:
256,192,17434,1,8,0:0:0:0:
256,192,17497,1,8,0:0:0:0:
256,192,17561,1,0,0:0:0:0:
256,192,17687,1,0,0:0:0:0:
256,192,17814,1,0,0:0:0:0:
256,192,17877,1,8,0:0:0:0:
256,192,17940,1,8,0:0:0:0:
256,192,18067,1,0,0:0:0:0:
256,192,18194,1,0,0:0:0:0:
256,192,18257,1,8,0:0:0:0:
256,192,18321,1,0,0:0:0:0:
256,192,18447,1,0,0:0:0:0:
256,192,18574,1,8,0:0:0:0:
256,192,18636,1,0,0:0:0:0:
256,192,18701,1,8,0:0:0:0:
256,192,18826,1,12,0:0:0:0:
256,192,19016,1,0,0:0:0:0:
256,192,19206,1,0,0:0:0:0:
256,192,19301,1,0,0:0:0:0:
256,192,19396,1,8,0:0:0:0:
256,192,19491,1,8,0:0:0:0:
256,192,19586,1,8,0:0:0:0:
256,192,19776,1,0,0:0:0:0:
256,192,19871,1,0,0:0:0:0:
256,192,19966,1,8,0:0:0:0:
256,192,20061,1,8,0:0:0:0:
256,192,20155,1,0,0:0:0:0:
256,192,20345,1,8,0:0:0:0:
256,192,20535,1,8,0:0:0:0:
256,192,20725,1,0,0:0:0:0:
256,192,20820,1,8,0:0:0:0:
256,192,20915,1,8,0:0:0:0:
256,192,21105,1,8,0:0:0:0:
256,192,21295,1,0,0:0:0:0:
256,192,21390,1,0,0:0:0:0:
256,192,21485,1,8,0:0:0:0:
256,192,21580,1,0,0:0:0:0:
256,192,21674,1,8,0:0:0:0:
256,192,21769,1,8,0:0:0:0:
256,192,21864,1,8,0:0:0:0:
256,192,22054,1,0,0:0:0:0:
256,192,22244,1,8,0:0:0:0:
256,192,22339,1,8,0:0:0:0:
256,192,22434,1,8,0:0:0:0:
256,192,22624,1,0,0:0:0:0:
256,192,22814,1,0,0:0:0:0:
256,192,23004,1,8,0:0:0:0:
256,192,23099,1,0,0:0:0:0:
256,192,23193,1,0,0:0:0:0:
256,192,23288,1,0,0:0:0:0:
256,192,23383,1,8,0:0:0:0:
256,192,23478,1,8,0:0:0:0:
256,192,23573,1,8,0:0:0:0:
256,192,23668,1,0,0:0:0:0:
256,192,23763,1,8,0:0:0:0:
256,192,23858,1,0,0:0:0:0:
256,192,23953,1,8,0:0:0:0:
256,192,24048,1,8,0:0:0:0:
256,192,24143,1,8,0:0:0:0:
256,192,24238,1,0,0:0:0:0:
256,192,24333,1,8,0:0:0:0:
256,192,24428,1,0,0:0:0:0:
256,192,24523,1,8,0:0:0:0:
256,192,24617,1,8,0:0:0:0:
256,192,24712,1,0,0:0:0:0:
256,192,24807,1,8,0:0:0:0:
256,192,24902,1,0,0:0:0:0:
256,192,25092,1,0,0:0:0:0:
256,192,25282,1,8,0:0:0:0:
256,192,25377,1,8,0:0:0:0:
256,192,25472,1,0,0:0:0:0:
256,192,25662,1,0,0:0:0:0:
256,192,25852,1,8,0:0:0:0:
256,192,25947,1,0,0:0:0:0:
256,192,26042,1,8,0:0:0:0:
256,192,26136,1,8,0:0:0:0:
256,192,26231,1,0,0:0:0:0:
256,192,26421,1,0,0:0:0:0:
256,192,26516,1,0,0:0:0:0:
256,192,26611,1,8,0:0:0:0:
256,192,26706,1,0,0:0:0:0:
256,192,26801,1,8,0:0:0:0:
256,192,26991,1,0,0:0:0:0:
256,192,27086,1,0,0:0:0:0:
256,192,27276,1,8,0:0:0:0:
256,192,27371,1,0,0:0:0:0:
256,192,27466,1,0,0:0:0:0:
256,192,27561,1,8,0:0:0:0:
256,192,27940,1,12,0:0:0:0:
256,192,28130,1,8,0:0:0:0:
256,192,28225,1,8,0:0:0:0:
256,192,28320,1,0,0:0:0:0:
256,192,28415,1,0,0:0:0:0:
256,192,28510,1,8,0:0:0:0:
256,192,28700,1,0,0:0:0:0:
256,192,28890,1,8,0:0:0:0:
256,192,28985,1,0,0:0:0:0:
256,192,29080,1,8,0:0:0:0:
256,192,29174,1,8,0:0:0:0:
256,192,29269,1,0,0:0:0:0:
256,192,29459,1,8,0:0:0:0:
256,192,29649,1,0,0:0:0:0:
256,192,29744,1,0,0:0:0:0:
256,192,29839,1,8,0:0:0:0:
256,192,30029,1,0,0:0:0:0:
256,192,30219,1,0,0:0:0:0:
256,192,30409,1,8,0:0:0:0:
256,192,30504,1,0,0:0:0:0:
256,192,30599,1,8,0:0:0:0:
256,192,30789,1,0,0:0:0:0:
256,192,30978,1,12,0:0:0:0:
256,192,31168,1,0,0:0:0:0:
256,192,31263,1,8,0:0:0:0:
256,192,31358,1,0,0:0:0:0:
256,192,31453,1,0,0:0:0:0:
256,192,31548,1,8,0:0:0:0:
256,192,31738,1,8,0:0:0:0:
256,192,31928,1,0,0:0:0:0:
256,192,32023,1,0,0:0:0:0:
256,192,32117,1,8,0:0:0:0:
256,192,32212,1,8,0:0:0:0:
256,192,32307,1,0,0:0:0:0:
256,192,32497,1,0,0:0:0:0:
256,192,32687,1,8,0:0:0:0:
256,192,32782,1,8,0:0:0:0:
256,192,32877,1,0,0:0:0:0:
256,192,33067,1,0,0:0:0:0:
256,192,33257,1,8,0:0:0:0:
256,192,33352,1,0,0:0:0:0:
256,192,33447,1,8,0:0:0:0:
256,192,33636,1,0,0:0:0:0:
256,192,33826,1,0,0:0:0:0:
256,192,34016,1,12,0:0:0:0:
256,192,34206,1,0,0:0:0:0:
256,192,34301,1,0,0:0:0:0:
256,192,34396,1,8,0:0:0:0:
256,192,34491,1,8,0:0:0:0:
256,192,34586,1,0,0:0:0:0:
256,192,34776,1,0,0:0:0:0:
256,192,34966,1,0,0:0:0:0:
256,192,35061,1,8,0:0:0:0:
256,192,35155,1,8,0:0:0:0:
256,192,35250,1,8,0:0:0:0:
256,192,35345,1,0,0:0:0:0:
256,192,35535,1,0,0:0:0:0:
256,192,35725,1,8,0:0:0:0:
256,192,35915,1,0,0:0:0:0:
256,192,36105,1,8,0:0:0:0:
256,192,36200,1,0,0:0:0:0:
256,192,36295,1,8,0:0:0:0:
256,192,36390,1,8,0:0:0:0:
256,192,36485,1,0,0:0:0:0:
256,192,36580,1,0,0:0:0:0:
256,192,36674,1,8,0:0:0:0:
256,192,36769,1,0,0:0:0:0:
256,192,36864,1,8,0:0:0:0:
256,192,36959,1,8,0:0:0:0:
256,192,37054,1,0,0:0:0:0:
256,192,37434,1,0,0:0:0:0:
256,192,37624,1,8,0:0:0:0:
256,192,37719,1,8,0:0:0:0:
256,192,37814,1,8,0:0:0:0:
256,192,38193,1,0,0:0:0:0:
256,192,38383,1,8,0:0:0:0:
256,192,38478,1,0,0:0:0:0:
256,192,38573,1,8,0:0:0:0:
256,192,38953,1,0,0:0:0:0:
256,192,39143,1,0,0:0:0:0:
256,192,39238,1,8,0:0:0:0:
256,192,39333,1,8,0:0:0:0:
256,192,39712,1,0,0:0:0:0:
256,192,39902,1,8,0:0:0:0:
256,192,39997,1,8,0:0:0:0:
256,192,40092,1,0,0:0:0:0:
256,192,40472,1,0,0:0:0:0:
256,192,40662,1,0,0:0:0:0:
256,192,40757,1,8,0:0:0:0:
256,192,40852,1,0,0:0:0:0:
256,192,41231,1,0,0:0:0:0:
256,192,41421,1,8,0:0:0:0:
256,192,41516,1,8,0:0:0:0:
256,192,41611,1,8,0:0:0:0:
256,192,41991,1,0,0:0:0:0:
256,192,42181,1,0,0:0:0:0:
256,192,42276,1,0,0:0:0:0:
256,192,42371,1,8,0:0:0:0:
256,192,42561,1,0,0:0:0:0:
256,192,42750,1,0,0:0:0:0:
256,192,42940,1,8,0:0:0:0:
256,192,43035,1,8,0:0:0:0:
256,192,43130,1,0,0:0:0:0:
256,192,43510,1,0,0:0:0:0:
256,192,43700,1,0,0:0:0:0:
256,192,43795,1,8,0:0:0:0:
256,192,43890,1,8,0:0:0:0:
256,192,44269,1,0,0:0:0:0:
256,192,44459,1,8,0:0:0:0:
256,192,44554,1,0,0:0:0:0:
256,192,44649,1,8,0:0:0:0:
256,192,45029,1,0,0:0:0:0:
256,192,45219,1,8,0:0:0:0:
256,192,45314,1,8,0:0:0:0:
256,192,45409,1,0,0:0:0:0:
256,192,45788,1,0,0:0:0:0:
256,192,46168,1,12,0:0:0:0:
256,192,46548,1,12,0:0:0:0:
256,192,46928,1,12,0:0:0:0:
256,192,47307,1,12,0:0:0:0:
256,192,47687,1,8,0:0:0:0:
256,192,47782,1,8,0:0:0:0:
256,192,47877,1,0,0:0:0:0:
256,192,47972,1,0,0:0:0:0:
256,192,48067,1,8,0:0:0:0:
256,192,48447,1,0,0:0:0:0:
256,192,48636,1,8,0:0:0:0:
256,192,48731,1,8,0:0:0:0:
256,192,48921,1,0,0:0:0:0:
256,192,49016,1,0,0:0:0:0:
256,192,49206,1,12,0:0:0:0:
256,192,49396,1,0,0:0:0:0:
256,192,49491,1,0,0:0:0:0:
256,192,49586,1,8,0:0:0:0:
256,192,49681,1,0,0:0:0:0:
256,192,49776,1,8,0:0:0:0:
256,192,49966,1,0,0:0:0:0:
256,192,50155,1,8,0:0:0:0:
256,192,50250,1,0,0:0:0:0:
256,192,50345,1,8,0:0:0:0:
256,192,50440,1,8,0:0:0:0:
256,192,50535,1,0,0:0:0:0:
256,192,50725,1,8,0:0:0:0:
256,192,50915,1,8,0:0:0:0:
256,192,51105,1,0,0:0:0:0:
256,192,51200,1,8,0:0:0:0:
256,192,51295,1,8,0:0:0:0:
256,192,51485,1,0,0:0:0:0:
256,192,51674,1,8,0:0:0:0:
256,192,51769,1,0,0:0:0:0:
256,192,51864,1,8,0:0:0:0:
256,192,51959,1,0,0:0:0:0:
256,192,52054,1,8,0:0:0:0:
256,192,52244,1,12,0:0:0:0:
256,192,52434,1,0,0:0:0:0:
256,192,52624,1,8,0:0:0:0:
256,192,52719,1,8,0:0:0:0:
256,192,52814,1,8,0:0:0:0:
256,192,53004,1,0,0:0:0:0:
256,192,53193,1,0,0:0:0:0:
256,192,53288,1,8,0:0:0:0:
256,192,53383,1,8,0:0:0:0:
256,192,53478,1,8,0:0:0:0:
256,192,53573,1,0,0:0:0:0:
256,192,53763,1,0,0:0:0:0:
256,192,53953,1,8,0:0:0:0:
256,192,54143,1,8,0:0:0:0:
256,192,54238,1,0,0:0:0:0:
256,192,54333,1,8,0:0:0:0:
256,192,54523,1,0,0:0:0:0:
256,192,54617,1,0,0:0:0:0:
256,192,54712,1,8,0:0:0:0:
256,192,54807,1,8,0:0:0:0:
256,192,54902,1,0,0:0:0:0:
256,192,54997,1,8,0:0:0:0:
256,192,55092,1,0,0:0:0:0:
256,192,55282,1,12,0:0:0:0:
256,192,55472,1,0,0:0:0:0:
256,192,55662,1,0,0:0:0:0:
256,192,55757,1,8,0:0:0:0:
256,192,55852,1,8,0:0:0:0:
256,192,56042,1,0,0:0:0:0:
256,192,56231,1,8,0:0:0:0:
256,192,56326,1,8,0:0:0:0:
256,192,56421,1,0,0:0:0:0:
256,192,56516,1,0,0:0:0:0:
256,192,56611,1,8,0:0:0:0:
256,192,56801,1,8,0:0:0:0:
256,192,56896,1,0,0:0:0:0:
256,192,56991,1,0,0:0:0:0:
256,192,57181,1,8,0:0:0:0:
256,192,57276,1,8,0:0:0:0:
256,192,57371,1,0,0:0:0:0:
256,192,57561,1,8,0:0:0:0:
256,192,57655,1,0,0:0:0:0:
256,192,57750,1,0,0:0:0:0:
256,192,57845,1,8,0:0:0:0:
256,192,57940,1,8,0:0:0:0:
256,192,58035,1,0,0:0:0:0:
256,192,58130,1,8,0:0:0:0:
256,192,58320,1,12,0:0:0:0:
256,192,58510,1,0,0:0:0:0:
256,192,58700,1,8,0:0:0:0:
256,192,58795,1,0,0:0:0:0:
256,192,58890,1,8,0:0:0:0:
256,192,59080,1,0,0:0:0:0:
256,192,59174,1,8,0:0:0:0:
256,192,59269,1,8,0:0:0:0:
256,192,59459,1,0,0:0:0:0:
256,192,59554,1,0,0:0:0:0:
256,192,59649,1,8,0:0:0:0:
256,192,59744,1,0,0:0:0:0:
256,192,59839,1,8,0:0:0:0:
256,192,59934,1,8,0:0:0:0:
256,192,60029,1,0,0:0:0:0:
256,192,60124,1,8,0:0:0:0:
256,192,60219,1,0,0:0:0:0:
256,192,60314,1,0,0:0:0:0:
256,192,60409,1,8,0:0:0:0:
256,192,60504,1,0,0:0:0:0:
256,192,60599,1,8,0:0:0:0:
256,192,60693,1,8,0:0:0:0:
256,192,60788,1,8,0:0:0:0:
256,192,60883,1,0,0:0:0:0:
256,192,60978,1,8,0:0:0:0:
256,192,61168,1,0,0:0:0:0:
256,192,61263,1,0,0:0:0:0:
256,192,61358,1,12,0:0:0:0:
256,192,61548,1,0,0:0:0:0:
256,192,61738,1,8,0:0:0:0:
256,192,61833,1,8,0:0:0:0:
256,192,61928,1,0,0:0:0:0:
256,192,62118,1,0,0:0:0:0:
256,192,62307,1,0,0:0:0:0:
256,192,62402,1,8,0:0:0:0:
256,192,62497,1,8,0:0:0:0:
256,192,62592,1,8,0:0:0:0:
256,192,62687,1,0,0:0:0:0:
256,192,62877,1,8,0:0:0:0:
256,192,63067,1,8,0:0:0:0:
256,192,63257,1,0,0:0:0:0:
256,192,63352,1,8,0:0:0:0:
256,192,63447,1,8,0:0:0:0:
256,192,63637,1,0,0:0:0:0:
256,192,63826,1,8,0:0:0:0:
256,192,63921,1,0,0:0:0:0:
256,192,64016,1,8,0:0:0:0:
256,192,64111,1,0,0:0:0:0:
256,192,64206,1,8,0:0:0:0:
256,192,64396,1,12,0:0:0:0:
256,192,64586,1,0,0:0:0:0:
256,192,64776,1,0,0:0:0:0:
256,192,64871,1,8,0:0:0:0:
256,192,64966,1,8,0:0:0:0:
256,192,65155,1,0,0:0:0:0:
256,192,65345,1,8,0:0:0:0:
256,192,65440,1,8,0:0:0:0:
256,192,65535,1,0,0:0:0:0:
256,192,65630,1,0,0:0:0:0:
256,192,65725,1,8,0:0:0:0:
256,192,65915,1,12,0:0:0:0:
256,192,66105,1,8,0:0:0:0:
256,192,66200,1,0,0:0:0:0:
256,192,66295,1,8,0:0:0:0:
256,192,66485,1,8,0:0:0:0:
256,192,66580,1,0,0:0:0:0:
256,192,66674,1,8,0:0:0:0:
256,192,66769,1,8,0:0:0:0:
256,192,66864,1,8,0:0:0:0:
256,192,66959,1,0,0:0:0:0:
256,192,67054,1,8,0:0:0:0:
256,192,67149,1,8,0:0:0:0:
256,192,67244,1,0,0:0:0:0:
256,192,67624,1,12,0:0:0:0:
256,192,67814,1,8,0:0:0:0:
256,192,67909,1,8,0:0:0:0:
256,192,68004,1,0,0:0:0:0:
256,192,68194,1,0,0:0:0:0:
256,192,68383,1,8,0:0:0:0:
256,192,68478,1,0,0:0:0:0:
256,192,68573,1,0,0:0:0:0:
256,192,68668,1,0,0:0:0:0:
256,192,68763,1,8,0:0:0:0:
256,192,68953,1,0,0:0:0:0:
256,192,69143,1,8,0:0:0:0:
256,192,69333,1,0,0:0:0:0:
256,192,69428,1,8,0:0:0:0:
256,192,69523,1,8,0:0:0:0:
256,192,69712,1,0,0:0:0:0:
256,192,69902,1,0,0:0:0:0:
256,192,69997,1,8,0:0:0:0:
256,192,70092,1,8,0:0:0:0:
256,192,70187,1,0,0:0:0:0:
256,192,70282,1,8,0:0:0:0:
256,192,70472,1,12,0:0:0:0:
256,192,70662,1,0,0:0:0:0:
256,192,70852,1,8,0:0:0:0:
256,192,70947,1,0,0:0:0:0:
256,192,71042,1,8,0:0:0:0:
256,192,71232,1,12,0:0:0:0:
256,192,71421,1,0,0:0:0:0:
256,192,71516,1,8,0:0:0:0:
256,192,71611,1,8,0:0:0:0:
256,192,71706,1,8,0:0:0:0:
256,192,71801,1,0,0:0:0:0:
256,192,71991,1,12,0:0:0:0:
256,192,72181,1,12,0:0:0:0:
256,192,72371,1,12,0:0:0:0:
256,192,72561,1,0,0:0:0:0:
256,192,72655,1,8,0:0:0:0:
256,192,72750,1,0,0:0:0:0:
256,192,73130,1,8,0:0:0:0:
256,192,73193,1,0,0:0:0:0:
256,192,73257,1,0,0:0:0:0:
256,192,73320,1,0,0:0:0:0:
256,192,73383,1,0,0:0:0:0:
256,192,73447,1,0,0:0:0:0:
256,192,73510,1,12,0:0:0:0:
256,192,73700,1,0,0:0:0:0:
256,192,73890,1,8,0:0:0:0:
256,192,73985,1,0,0:0:0:0:
256,192,74080,1,8,0:0:0:0:
256,192,74175,1,8,0:0:0:0:
256,192,74270,1,0,0:0:0:0:
256,192,74365,1,0,0:0:0:0:
256,192,74460,1,8,0:0:0:0:
256,192,74554,1,0,0:0:0:0:
256,192,74650,1,8,0:0:0:0:
256,192,74745,1,0,0:0:0:0:
256,192,74839,1,8,0:0:0:0:
256,192,74934,1,8,0:0:0:0:
256,192,75029,1,8,0:0:0:0:
256,192,75124,1,0,0:0:0:0:
256,192,75219,1,8,0:0:0:0:
256,192,75313,1,0,0:0:0:0:
256,192,75409,1,8,0:0:0:0:
256,192,75504,1,8,0:0:0:0:
256,192,75599,1,0,0:0:0:0:
256,192,75693,1,0,0:0:0:0:
256,192,75789,1,8,0:0:0:0:
256,192,75884,1,8,0:0:0:0:
256,192,75979,1,8,0:0:0:0:
256,192,76073,1,0,0:0:0:0:
256,192,76169,1,8,0:0:0:0:
256,192,76264,1,0,0:0:0:0:
256,192,76359,1,8,0:0:0:0:
256,192,76453,1,0,0:0:0:0:
256,192,76548,1,8,0:0:0:0:
256,192,76738,1,0,0:0:0:0:
256,192,76928,1,8,0:0:0:0:
256,192,77023,1,8,0:0:0:0:
256,192,77118,1,0,0:0:0:0:
256,192,77212,1,0,0:0:0:0:
256,192,77308,1,8,0:0:0:0:
256,192,77403,1,0,0:0:0:0:
256,192,77498,1,8,0:0:0:0:
256,192,77592,1,0,0:0:0:0:
256,192,77688,1,8,0:0:0:0:
256,192,77783,1,8,0:0:0:0:
256,192,77877,1,0,0:0:0:0:
256,192,78067,1,8,0:0:0:0:
256,192,78194,1,8,0:0:0:0:
256,192,78257,1,8,0:0:0:0:
256,192,78321,1,0,0:0:0:0:
256,192,78447,1,0,0:0:0:0:
256,192,78574,1,0,0:0:0:0:
256,192,78637,1,8,0:0:0:0:
256,192,78700,1,8,0:0:0:0:
256,192,78827,1,0,0:0:0:0:
256,192,78954,1,0,0:0:0:0:
256,192,79017,1,8,0:0:0:0:
256,192,79081,1,0,0:0:0:0:
256,192,79207,1,0,0:0:0:0:
256,192,79334,1,8,0:0:0:0:
256,192,79396,1,0,0:0:0:0:
256,192,79459,1,8,0:0:0:0:
256,192,79586,1,12,0:0:0:0:
256,192,79776,1,0,0:0:0:0:
256,192,79966,1,8,0:0:0:0:
256,192,80061,1,0,0:0:0:0:
256,192,80155,1,8,0:0:0:0:
256,192,80251,1,8,0:0:0:0:
256,192,80345,1,0,0:0:0:0:
256,192,80535,1,8,0:0:0:0:
256,192,80631,1,8,0:0:0:0:
256,192,80726,1,0,0:0:0:0:
256,192,80821,1,0,0:0:0:0:
256,192,80915,1,8,0:0:0:0:
256,192,81105,1,8,0:0:0:0:
256,192,81295,1,8,0:0:0:0:
256,192,81485,1,8,0:0:0:0:
256,192,81580,1,0,0:0:0:0:
256,192,81675,1,0,0:0:0:0:
256,192,81770,1,0,0:0:0:0:
256,192,81864,1,8,0:0:0:0:
256,192,82054,1,8,0:0:0:0:
256,192,82149,1,0,0:0:0:0:
256,192,82244,1,8,0:0:0:0:
256,192,82339,1,8,0:0:0:0:
256,192,82434,1,8,0:0:0:0:
256,192,82529,1,0,0:0:0:0:
256,192,82624,1,8,0:0:0:0:
256,192,82814,1,0,0:0:0:0:
256,192,83004,1,8,0:0:0:0:
256,192,83099,1,8,0:0:0:0:
256,192,83194,1,8,0:0:0:0:
256,192,83384,1,0,0:0:0:0:
256,192,83574,1,0,0:0:0:0:
256,192,83764,1,8,0:0:0:0:
256,192,83859,1,0,0:0:0:0:
256,192,83953,1,0,0:0:0:0:
256,192,84048,1,0,0:0:0:0:
256,192,84143,1,8,0:0:0:0:
256,192,84238,1,8,0:0:0:0:
256,192,84333,1,8,0:0:0:0:
256,192,84428,1,0,0:0:0:0:
256,192,84523,1,8,0:0:0:0:
256,192,84618,1,0,0:0:0:0:
256,192,84713,1,8,0:0:0:0:
256,192,84808,1,8,0:0:0:0:
256,192,84903,1,8,0:0:0:0:
256,192,84998,1,0,0:0:0:0:
256,192,85093,1,8,0:0:0:0:
256,192,85188,1,0,0:0:0:0:
256,192,85283,1,8,0:0:0:0:
256,192,85377,1,8,0:0:0:0:
256,192,85472,1,0,0:0:0:0:
256,192,85567,1,8,0:0:0:0:
256,192,85662,1,0,0:0:0:0:
256,192,86042,1,0,0:0:0:0:
256,192,86231,1,0,0:0:0:0:
256,192,86421,1,8,0:0:0:0:
256,192,86801,1,0,0:0:0:0:
256,192,87181,1,8,0:0:0:0:
256,192,87561,1,0,0:0:0:0:
256,192,87940,1,8,0:0:0:0:
256,192,88130,1,0,0:0:0:0:
256,192,88700,1,0,0:0:0:0:
256,192,89080,1,0,0:0:0:0:
256,192,89269,1,0,0:0:0:0:
256,192,89459,1,8,0:0:0:0:
256,192,89839,1,0,0:0:0:0:
256,192,90219,1,0,0:0:0:0:
256,192,90599,1,8,0:0:0:0:
256,192,90978,1,0,0:0:0:0:
256,192,91168,1,0,0:0:0:0:
256,192,91738,1,0,0:0:0:0:
256,192,92117,1,0,0:0:0:0:
256,192,92307,1,0,0:0:0:0:
256,192,92497,1,8,0:0:0:0:
256,192,92877,1,0,0:0:0:0:
256,192,93257,1,0,0:0:0:0:
256,192,93636,1,8,0:0:0:0:
256,192,94016,1,0,0:0:0:0:
256,192,94206,1,0,0:0:0:0:
256,192,94776,1,8,0:0:0:0:
256,192,95155,1,0,0:0:0:0:
256,192,95535,1,8,0:0:0:0:
256,192,95915,1,0,0:0:0:0:
256,192,96295,1,8,0:0:0:0:
256,192,96959,1,0,0:0:0:0:
256,192,97054,1,0,0:0:0:0:
256,192,97434,1,8,0:0:0:0:
256,192,97814,1,8,0:0:0:0:
256,192,98194,1,0,0:0:0:0:
256,192,98384,1,8,0:0:0:0:
256,192,98479,1,8,0:0:0:0:
256,192,98574,1,8,0:0:0:0:
256,192,98953,1,0,0:0:0:0:
256,192,99143,1,8,0:0:0:0:
256,192,99238,1,0,0:0:0:0:
256,192,99333,1,8,0:0:0:0:
256,192,99713,1,0,0:0:0:0:
256,192,99903,1,0,0:0:0:0:
256,192,99998,1,8,0:0:0:0:
256,192,100093,1,8,0:0:0:0:
256,192,100472,1,0,0:0:0:0:
256,192,100662,1,8,0:0:0:0:
256,192,100757,1,8,0:0:0:0:
256,192,100852,1,0,0:0:0:0:
256,192,101232,1,0,0:0:0:0:
256,192,101422,1,0,0:0:0:0:
256,192,101517,1,8,0:0:0:0:
256,192,101612,1,0,0:0:0:0:
256,192,101991,1,0,0:0:0:0:
256,192,102181,1,8,0:0:0:0:
256,192,102276,1,8,0:0:0:0:
256,192,102371,1,8,0:0:0:0:
256,192,102751,1,0,0:0:0:0:
256,192,102941,1,0,0:0:0:0:
256,192,103036,1,0,0:0:0:0:
256,192,103131,1,8,0:0:0:0:
256,192,103321,1,0,0:0:0:0:
256,192,103510,1,0,0:0:0:0:
256,192,103700,1,8,0:0:0:0:
256,192,103795,1,8,0:0:0:0:
256,192,103890,1,0,0:0:0:0:
256,192,104270,1,0,0:0:0:0:
256,192,104460,1,0,0:0:0:0:
256,192,104555,1,8,0:0:0:0:
256,192,104650,1,8,0:0:0:0:
256,192,105029,1,0,0:0:0:0:
256,192,105219,1,8,0:0:0:0:
256,192,105314,1,0,0:0:0:0:
256,192,105409,1,8,0:0:0:0:
256,192,105789,1,0,0:0:0:0:
256,192,105979,1,8,0:0:0:0:
256,192,106074,1,8,0:0:0:0:
256,192,106169,1,0,0:0:0:0:
256,192,106548,1,0,0:0:0:0:
256,192,106928,1,12,0:0:0:0:
256,192,107308,1,12,0:0:0:0:
256,192,107688,1,12,0:0:0:0:
256,192,108067,1,12,0:0:0:0:
256,192,108447,1,8,0:0:0:0:
256,192,108542,1,8,0:0:0:0:
256,192,108637,1,0,0:0:0:0:
256,192,108732,1,0,0:0:0:0:
256,192,108827,1,8,0:0:0:0:
256,192,109207,1,0,0:0:0:0:
256,192,109396,1,0,0:0:0:0:
256,192,109491,1,8,0:0:0:0:
256,192,109681,1,8,0:0:0:0:
256,192,109776,1,0,0:0:0:0:
256,192,109966,1,12,0:0:0:0:
256,192,110155,1,8,0:0:0:0:
256,192,110251,1,0,0:0:0:0:
256,192,110345,1,8,0:0:0:0:
256,192,110441,1,8,0:0:0:0:
256,192,110535,1,0,0:0:0:0:
256,192,110726,1,8,0:0:0:0:
256,192,110915,1,8,0:0:0:0:
256,192,111010,1,0,0:0:0:0:
256,192,111105,1,8,0:0:0:0:
256,192,111200,1,0,0:0:0:0:
256,192,111295,1,8,0:0:0:0:
256,192,111485,1,0,0:0:0:0:
256,192,111675,1,0,0:0:0:0:
256,192,111865,1,8,0:0:0:0:
256,192,111960,1,8,0:0:0:0:
256,192,112055,1,8,0:0:0:0:
256,192,112245,1,0,0:0:0:0:
256,192,112434,1,8,0:0:0:0:
256,192,112529,1,0,0:0:0:0:
256,192,112624,1,8,0:0:0:0:
256,192,112719,1,8,0:0:0:0:
256,192,112814,1,0,0:0:0:0:
256,192,113004,1,12,0:0:0:0:
256,192,113194,1,8,0:0:0:0:
256,192,113383,1,0,0:0:0:0:
256,192,113479,1,0,0:0:0:0:
256,192,113574,1,8,0:0:0:0:
256,192,113764,1,0,0:0:0:0:
256,192,113953,1,8,0:0:0:0:
256,192,114048,1,8,0:0:0:0:
256,192,114143,1,8,0:0:0:0:
256,192,114238,1,0,0:0:0:0:
256,192,114333,1,0,0:0:0:0:
256,192,114523,1,8,0:0:0:0:
256,192,114713,1,0,0:0:0:0:
256,192,114902,1,8,0:0:0:0:
256,192,114997,1,8,0:0:0:0:
256,192,115093,1,0,0:0:0:0:
256,192,115283,1,8,0:0:0:0:
256,192,115377,1,8,0:0:0:0:
256,192,115472,1,8,0:0:0:0:
256,192,115567,1,0,0:0:0:0:
256,192,115662,1,8,0:0:0:0:
256,192,115757,1,0,0:0:0:0:
256,192,115852,1,8,0:0:0:0:
256,192,116042,1,12,0:0:0:0:
256,192,116232,1,0,0:0:0:0:
256,192,116421,1,8,0:0:0:0:
256,192,116517,1,8,0:0:0:0:
256,192,116612,1,0,0:0:0:0:
256,192,116802,1,0,0:0:0:0:
256,192,116991,1,0,0:0:0:0:
256,192,117086,1,8,0:0:0:0:
256,192,117181,1,8,0:0:0:0:
256,192,117276,1,8,0:0:0:0:
256,192,117371,1,0,0:0:0:0:
256,192,117561,1,8,0:0:0:0:
256,192,117656,1,0,0:0:0:0:
256,192,117751,1,8,0:0:0:0:
256,192,117941,1,0,0:0:0:0:
256,192,118036,1,8,0:0:0:0:
256,192,118131,1,8,0:0:0:0:
256,192,118320,1,8,0:0:0:0:
256,192,118415,1,8,0:0:0:0:
256,192,118510,1,8,0:0:0:0:
256,192,118605,1,0,0:0:0:0:
256,192,118700,1,8,0:0:0:0:
256,192,118795,1,8,0:0:0:0:
256,192,118890,1,0,0:0:0:0:
256,192,119080,1,12,0:0:0:0:
256,192,119270,1,8,0:0:0:0:
256,192,119460,1,0,0:0:0:0:
256,192,119555,1,8,0:0:0:0:
256,192,119650,1,8,0:0:0:0:
256,192,119840,1,8,0:0:0:0:
256,192,119934,1,0,0:0:0:0:
256,192,120029,1,0,0:0:0:0:
256,192,120219,1,0,0:0:0:0:
256,192,120314,1,0,0:0:0:0:
256,192,120409,1,8,0:0:0:0:
256,192,120504,1,0,0:0:0:0:
256,192,120599,1,8,0:0:0:0:
256,192,120694,1,8,0:0:0:0:
256,192,120789,1,0,0:0:0:0:
256,192,120884,1,8,0:0:0:0:
256,192,120979,1,0,0:0:0:0:
256,192,121074,1,0,0:0:0:0:
256,192,121169,1,8,0:0:0:0:
256,192,121264,1,0,0:0:0:0:
256,192,121359,1,8,0:0:0:0:
256,192,121453,1,8,0:0:0:0:
256,192,121548,1,8,0:0:0:0:
256,192,121643,1,0,0:0:0:0:
256,192,121738,1,8,0:0:0:0:
256,192,121928,1,8,0:0:0:0:
256,192,122023,1,0,0:0:0:0:
256,192,122117,1,12,0:0:0:0:
256,192,122308,1,0,0:0:0:0:
256,192,122498,1,8,0:0:0:0:
256,192,122593,1,8,0:0:0:0:
256,192,122688,1,8,0:0:0:0:
256,192,122878,1,0,0:0:0:0:
256,192,123067,1,0,0:0:0:0:
256,192,123162,1,8,0:0:0:0:
256,192,123257,1,8,0:0:0:0:
256,192,123352,1,8,0:0:0:0:
256,192,123447,1,0,0:0:0:0:
256,192,123637,1,8,0:0:0:0:
256,192,123827,1,8,0:0:0:0:
256,192,124017,1,0,0:0:0:0:
256,192,124112,1,8,0:0:0:0:
256,192,124207,1,8,0:0:0:0:
256,192,124397,1,0,0:0:0:0:
256,192,124586,1,8,0:0:0:0:
256,192,124681,1,8,0:0:0:0:
256,192,124776,1,0,0:0:0:0:
256,192,124871,1,8,0:0:0:0:
256,192,124966,1,0,0:0:0:0:
256,192,125155,1,12,0:0:0:0:
256,192,125346,1,0,0:0:0:0:
256,192,125536,1,0,0:0:0:0:
256,192,125631,1,8,0:0:0:0:
256,192,125726,1,0,0:0:0:0:
256,192,125915,1,0,0:0:0:0:
256,192,126105,1,8,0:0:0:0:
256,192,126200,1,0,0:0:0:0:
256,192,126295,1,8,0:0:0:0:
256,192,126390,1,0,0:0:0:0:
256,192,126485,1,8,0:0:0:0:
256,192,126675,1,4,0:0:0:0:
256,192,126865,1,8,0:0:0:0:
256,192,126960,1,8,0:0:0:0:
256,192,127055,1,8,0:0:0:0:
256,192,127245,1,8,0:0:0:0:
256,192,127340,1,8,0:0:0:0:
256,192,127434,1,0,0:0:0:0:
256,192,127529,1,0,0:0:0:0:
256,192,127624,1,8,0:0:0:0:
256,192,127719,1,8,0:0:0:0:
256,192,127814,1,0,0:0:0:0:
256,192,127909,1,8,0:0:0:0:
256,192,128004,1,0,0:0:0:0:
256,192,128383,1,12,0:0:0:0:
256,192,128574,1,0,0:0:0:0:
256,192,128668,1,8,0:0:0:0:
256,192,128764,1,0,0:0:0:0:
256,192,128954,1,0,0:0:0:0:
256,192,129143,1,8,0:0:0:0:
256,192,129238,1,0,0:0:0:0:
256,192,129333,1,8,0:0:0:0:
256,192,129428,1,0,0:0:0:0:
256,192,129523,1,8,0:0:0:0:
256,192,129713,1,0,0:0:0:0:
256,192,129903,1,0,0:0:0:0:
256,192,130093,1,8,0:0:0:0:
256,192,130188,1,8,0:0:0:0:
256,192,130283,1,0,0:0:0:0:
256,192,130472,1,0,0:0:0:0:
256,192,130662,1,0,0:0:0:0:
256,192,130757,1,8,0:0:0:0:
256,192,130852,1,8,0:0:0:0:
256,192,130947,1,0,0:0:0:0:
256,192,131042,1,8,0:0:0:0:
256,192,131232,1,12,0:0:0:0:
256,192,131422,1,8,0:0:0:0:
256,192,131611,1,8,0:0:0:0:
256,192,131706,1,8,0:0:0:0:
256,192,131802,1,0,0:0:0:0:
256,192,131992,1,4,0:0:0:0:
256,192,132181,1,0,0:0:0:0:
256,192,132276,1,0,0:0:0:0:
256,192,132371,1,8,0:0:0:0:
256,192,132466,1,8,0:0:0:0:
256,192,132561,1,0,0:0:0:0:
256,192,132751,1,12,0:0:0:0:
256,192,132941,1,12,0:0:0:0:
256,192,133131,1,12,0:0:0:0:
256,192,133320,1,0,0:0:0:0:
256,192,133415,1,0,0:0:0:0:
256,192,133510,1,8,0:0:0:0:
256,192,133890,1,8,0:0:0:0:
256,192,133953,1,0,0:0:0:0:
256,192,134017,1,0,0:0:0:0:
256,192,134080,1,0,0:0:0:0:
256,192,134143,1,0,0:0:0:0:
256,192,134207,1,0,0:0:0:0:
256,192,134269,1,12,0:0:0:0:
256,192,134459,1,0,0:0:0:0:
256,192,134649,1,8,0:0:0:0:
256,192,134744,1,8,0:0:0:0:
256,192,134839,1,8,0:0:0:0:
256,192,135029,1,0,0:0:0:0:
256,192,135219,1,0,0:0:0:0:
256,192,135314,1,8,0:0:0:0:
256,192,135504,1,8,0:0:0:0:
256,192,135599,1,0,0:0:0:0:
256,192,135788,1,8,0:0:0:0:
256,192,135978,1,0,0:0:0:0:
256,192,136168,1,8,0:0:0:0:
256,192,136263,1,0,0:0:0:0:
256,192,136358,1,8,0:0:0:0:
256,192,136548,1,0,0:0:0:0:
256,192,136738,1,8,0:0:0:0:
256,192,136833,1,0,0:0:0:0:
256,192,137023,1,0,0:0:0:0:
256,192,137117,1,8,0:0:0:0:
256,192,137307,1,12,0:0:0:0:
256,192,137497,1,8,0:0:0:0:
256,192,137687,1,0,0:0:0:0:
256,192,137782,1,8,0:0:0:0:
256,192,137877,1,8,0:0:0:0:
256,192,138067,1,0,0:0:0:0:
256,192,138257,1,8,0:0:0:0:
256,192,138352,1,8,0:0:0:0:
256,192,138542,1,0,0:0:0:0:
256,192,138636,1,0,0:0:0:0:
256,192,138826,1,8,0:0:0:0:
256,192,139016,1,0,0:0:0:0:
256,192,139206,1,8,0:0:0:0:
256,192,139301,1,8,0:0:0:0:
256,192,139396,1,0,0:0:0:0:
256,192,139586,1,8,0:0:0:0:
256,192,139776,1,0,0:0:0:0:
256,192,139871,1,8,0:0:0:0:
256,192,140061,1,8,0:0:0:0:
256,192,140155,1,0,0:0:0:0:
256,192,140345,1,12,0:0:0:0:
256,192,140535,1,0,0:0:0:0:
256,192,140630,1,8,0:0:0:0:
256,192,140725,1,8,0:0:0:0:
256,192,140820,1,0,0:0:0:0:
256,192,140915,1,8,0:0:0:0:
256,192,141105,1,8,0:0:0:0:
256,192,141200,1,8,0:0:0:0:
256,192,141295,1,0,0:0:0:0:
256,192,141390,1,8,0:0:0:0:
256,192,141485,1,0,0:0:0:0:
256,192,141580,1,0,0:0:0:0:
256,192,141674,1,8,0:0:0:0:
256,192,141864,1,8,0:0:0:0:
256,192,141959,1,8,0:0:0:0:
256,192,142054,1,0,0:0:0:0:
256,192,142149,1,0,0:0:0:0:
256,192,142244,1,8,0:0:0:0:
256,192,142339,1,0,0:0:0:0:
256,192,142434,1,8,0:0:0:0:
256,192,142529,1,8,0:0:0:0:
256,192,142624,1,8,0:0:0:0:
256,192,142719,1,0,0:0:0:0:
256,192,142814,1,0,0:0:0:0:
256,192,142909,1,0,0:0:0:0:
256,192,143004,1,8,0:0:0:0:
256,192,143099,1,0,0:0:0:0:
256,192,143193,1,8,0:0:0:0:
256,192,143288,1,0,0:0:0:0:
256,192,143383,1,12,0:0:0:0:
256,192,143573,1,8,0:0:0:0:
256,192,143763,1,0,0:0:0:0:
256,192,143858,1,8,0:0:0:0:
256,192,143953,1,0,0:0:0:0:
256,192,144143,1,8,0:0:0:0:
256,192,144333,1,8,0:0:0:0:
256,192,144523,1,0,0:0:0:0:
256,192,144617,1,8,0:0:0:0:
256,192,144712,1,8,0:0:0:0:
256,192,144807,1,8,0:0:0:0:
256,192,144902,1,0,0:0:0:0:
256,192,144997,1,8,0:0:0:0:
256,192,145091,1,0,0:0:0:0:
256,192,145186,1,8,0:0:0:0:
256,192,145281,1,0,0:0:0:0:
256,192,145376,1,8,0:0:0:0:
256,192,145472,1,0,0:0:0:0:
256,192,145566,1,8,0:0:0:0:
256,192,145661,1,8,0:0:0:0:
256,192,145756,1,8,0:0:0:0:
256,192,145851,1,0,0:0:0:0:
256,192,145947,1,8,0:0:0:0:
256,192,146042,1,0,0:0:0:0:
256,192,146137,1,8,0:0:0:0:
256,192,146231,1,0,0:0:0:0:
256,192,146326,1,0,0:0:0:0:
256,192,146421,1,12,0:0:0:0:
256,192,146611,1,0,0:0:0:0:
256,192,146801,1,8,0:0:0:0:
256,192,146896,1,0,0:0:0:0:
256,192,146991,1,8,0:0:0:0:
256,192,147086,1,8,0:0:0:0:
256,192,147181,1,8,0:0:0:0:
256,192,147276,1,0,0:0:0:0:
256,192,147371,1,8,0:0:0:0:
256,192,147466,1,0,0:0:0:0:
256,192,147561,1,8,0:0:0:0:
256,192,147656,1,8,0:0:0:0:
256,192,147751,1,0,0:0:0:0:
256,192,147845,1,0,0:0:0:0:
256,192,147940,1,8,0:0:0:0:
256,192,148035,1,0,0:0:0:0:
256,192,148130,1,8,0:0:0:0:
256,192,148224,1,0,0:0:0:0:
256,192,148320,1,8,0:0:0:0:
256,192,148415,1,8,0:0:0:0:
256,192,148510,1,8,0:0:0:0:
256,192,148604,1,0,0:0:0:0:
256,192,148700,1,8,0:0:0:0:
256,192,148795,1,0,0:0:0:0:
256,192,148890,1,0,0:0:0:0:
256,192,148984,1,8,0:0:0:0:
256,192,149080,1,0,0:0:0:0:
256,192,149175,1,0,0:0:0:0:
256,192,149270,1,8,0:0:0:0:
256,192,149364,1,0,0:0:0:0:
256,192,149459,1,8,0:0:0:0:
256,192,149649,1,0,0:0:0:0:
256,192,149839,1,8,0:0:0:0:
256,192,149934,1,0,0:0:0:0:
256,192,150029,1,0,0:0:0:0:
256,192,150123,1,8,0:0:0:0:
256,192,150219,1,0,0:0:0:0:
256,192,150314,1,8,0:0:0:0:
256,192,150409,1,0,0:0:0:0:
256,192,150503,1,8,0:0:0:0:
256,192,150599,1,8,0:0:0:0:
256,192,150694,1,0,0:0:0:0:
256,192,150788,1,8,0:0:0:0:
256,192,150978,1,8,0:0:0:0:
256,192,151073,1,0,0:0:0:0:
256,192,151168,1,0,0:0:0:0:
256,192,151263,1,0,0:0:0:0:
256,192,151358,1,8,0:0:0:0:
256,192,151453,1,0,0:0:0:0:
256,192,151548,1,8,0:0:0:0:
256,192,151643,1,0,0:0:0:0:
256,192,151738,1,8,0:0:0:0:
256,192,151833,1,8,0:0:0:0:
256,192,151928,1,8,0:0:0:0:
256,192,152023,1,0,0:0:0:0:
256,192,152117,1,8,0:0:0:0:
256,192,152212,1,0,0:0:0:0:
256,192,152307,1,0,0:0:0:0:
256,192,152402,1,0,0:0:0:0:
256,192,152497,1,12,0:0:0:0:
256,192,152687,1,0,0:0:0:0:
256,192,152877,1,8,0:0:0:0:
256,192,152972,1,8,0:0:0:0:
256,192,153067,1,8,0:0:0:0:
256,192,153162,1,0,0:0:0:0:
256,192,153257,1,8,0:0:0:0:
256,192,153352,1,0,0:0:0:0:
256,192,153447,1,8,0:0:0:0:
256,192,153542,1,0,0:0:0:0:
256,192,153636,1,8,0:0:0:0:
256,192,153731,1,8,0:0:0:0:
256,192,153826,1,0,0:0:0:0:
256,192,153921,1,0,0:0:0:0:
256,192,154016,1,8,0:0:0:0:
256,192,154111,1,0,0:0:0:0:
256,192,154206,1,8,0:0:0:0:
256,192,154301,1,0,0:0:0:0:
256,192,154396,1,8,0:0:0:0:
256,192,154491,1,0,0:0:0:0:
256,192,154586,1,0,0:0:0:0:
256,192,154681,1,8,0:0:0:0:
256,192,154776,1,0,0:0:0:0:
256,192,154871,1,0,0:0:0:0:
256,192,154966,1,8,0:0:0:0:
256,192,155061,1,8,0:0:0:0:
256,192,155155,1,0,0:0:0:0:
256,192,155250,1,8,0:0:0:0:
256,192,155345,1,0,0:0:0:0:
256,192,155440,1,8,0:0:0:0:
256,192,155535,1,8,0:0:0:0:
256,192,155725,1,0,0:0:0:0:
256,192,155915,1,8,0:0:0:0:
256,192,156010,1,0,0:0:0:0:
256,192,156105,1,0,0:0:0:0:
256,192,156200,1,0,0:0:0:0:
256,192,156295,1,8,0:0:0:0:
256,192,156390,1,0,0:0:0:0:
256,192,156485,1,8,0:0:0:0:
256,192,156580,1,8,0:0:0:0:
256,192,156674,1,8,0:0:0:0:
256,192,156769,1,0,0:0:0:0:
256,192,156864,1,8,0:0:0:0:
256,192,156959,1,0,0:0:0:0:
256,192,157054,1,8,0:0:0:0:
256,192,157149,1,8,0:0:0:0:
256,192,157244,1,0,0:0:0:0:
256,192,157339,1,0,0:0:0:0:
256,192,157434,1,8,0:0:0:0:
256,192,157529,1,8,0:0:0:0:
256,192,157624,1,0,0:0:0:0:
256,192,157719,1,0,0:0:0:0:
256,192,157814,1,8,0:0:0:0:
256,192,157909,1,8,0:0:0:0:
256,192,158004,1,0,0:0:0:0:
256,192,158099,1,8,0:0:0:0:
256,192,158193,1,0,0:0:0:0:
256,192,158288,1,8,0:0:0:0:
256,192,158383,1,0,0:0:0:0:
256,192,158478,1,8,0:0:0:0:
256,192,158573,1,0,0:0:0:0:
256,192,158953,1,0,0:0:0:0:
256,192,159143,1,8,0:0:0:0:
256,192,159238,1,8,0:0:0:0:
256,192,159333,1,8,0:0:0:0:
256,192,159712,1,0,0:0:0:0:
256,192,159902,1,8,0:0:0:0:
256,192,159997,1,0,0:0:0:0:
256,192,160092,1,8,0:0:0:0:
256,192,160472,1,0,0:0:0:0:
256,192,160662,1,0,0:0:0:0:
256,192,160757,1,8,0:0:0:0:
256,192,160852,1,8,0:0:0:0:
256,192,161231,1,0,0:0:0:0:
256,192,161421,1,8,0:0:0:0:
256,192,161516,1,8,0:0:0:0:
256,192,161611,1,0,0:0:0:0:
256,192,161991,1,0,0:0:0:0:
256,192,162181,1,0,0:0:0:0:
256,192,162276,1,8,0:0:0:0:
256,192,162371,1,0,0:0:0:0:
256,192,162750,1,0,0:0:0:0:
256,192,162940,1,8,0:0:0:0:
256,192,163035,1,8,0:0:0:0:
256,192,163130,1,8,0:0:0:0:
256,192,163510,1,0,0:0:0:0:
256,192,163700,1,0,0:0:0:0:
256,192,163795,1,0,0:0:0:0:
256,192,163890,1,8,0:0:0:0:
256,192,164269,1,8,0:0:0:0:
256,192,164364,1,0,0:0:0:0:
256,192,164459,1,0,0:0:0:0:
256,192,164554,1,0,0:0:0:0:
256,192,164649,1,8,0:0:0:0:
256,192,165029,1,0,0:0:0:0:
256,192,165219,1,0,0:0:0:0:
256,192,165314,1,8,0:0:0:0:
256,192,165409,1,8,0:0:0:0:
256,192,165788,1,0,0:0:0:0:
256,192,165978,1,8,0:0:0:0:
256,192,166073,1,0,0:0:0:0:
256,192,166168,1,8,0:0:0:0:
256,192,166548,1,0,0:0:0:0:
256,192,166738,1,8,0:0:0:0:
256,192,166833,1,8,0:0:0:0:
256,192,166928,1,0,0:0:0:0:
256,192,167307,1,0,0:0:0:0:
256,192,167687,1,12,0:0:0:0:
256,192,168067,1,12,0:0:0:0:
256,192,168447,1,12,0:0:0:0:
256,192,168826,1,12,0:0:0:0:
256,192,169206,1,8,0:0:0:0:
256,192,169301,1,8,0:0:0:0:
256,192,169396,1,0,0:0:0:0:
256,192,169491,1,0,0:0:0:0:
256,192,169586,1,8,0:0:0:0:
256,192,169966,1,0,0:0:0:0:
256,192,170155,1,8,0:0:0:0:
256,192,170250,1,0,0:0:0:0:
256,192,170440,1,0,0:0:0:0:
256,192,170535,1,8,0:0:0:0:
256,192,170725,1,12,0:0:0:0:
256,192,170915,1,8,0:0:0:0:
256,192,171010,1,0,0:0:0:0:
256,192,171105,1,8,0:0:0:0:
256,192,171200,1,8,0:0:0:0:
256,192,171295,1,0,0:0:0:0:
256,192,171485,1,0,0:0:0:0:
256,192,171674,1,8,0:0:0:0:
256,192,171769,1,0,0:0:0:0:
256,192,171864,1,8,0:0:0:0:
256,192,171959,1,8,0:0:0:0:
256,192,172054,1,0,0:0:0:0:
256,192,172244,1,8,0:0:0:0:
256,192,172434,1,8,0:0:0:0:
256,192,172624,1,0,0:0:0:0:
256,192,172719,1,8,0:0:0:0:
256,192,172814,1,8,0:0:0:0:
256,192,173004,1,0,0:0:0:0:
256,192,173193,1,8,0:0:0:0:
256,192,173288,1,0,0:0:0:0:
256,192,173383,1,8,0:0:0:0:
256,192,173478,1,0,0:0:0:0:
256,192,173573,1,8,0:0:0:0:
256,192,173763,1,12,0:0:0:0:
256,192,173953,1,0,0:0:0:0:
256,192,174143,1,0,0:0:0:0:
256,192,174238,1,8,0:0:0:0:
256,192,174333,1,0,0:0:0:0:
256,192,174523,1,0,0:0:0:0:
256,192,174712,1,8,0:0:0:0:
256,192,174807,1,8,0:0:0:0:
256,192,174902,1,0,0:0:0:0:
256,192,174997,1,8,0:0:0:0:
256,192,175092,1,8,0:0:0:0:
256,192,175282,1,0,0:0:0:0:
256,192,175472,1,0,0:0:0:0:
256,192,175662,1,8,0:0:0:0:
256,192,175757,1,0,0:0:0:0:
256,192,175852,1,8,0:0:0:0:
256,192,176042,1,0,0:0:0:0:
256,192,176136,1,8,0:0:0:0:
256,192,176231,1,8,0:0:0:0:
256,192,176326,1,0,0:0:0:0:
256,192,176421,1,8,0:0:0:0:
256,192,176516,1,0,0:0:0:0:
256,192,176611,1,8,0:0:0:0:
256,192,176801,1,12,0:0:0:0:
256,192,176991,1,0,0:0:0:0:
256,192,177181,1,8,0:0:0:0:
256,192,177276,1,8,0:0:0:0:
256,192,177371,1,0,0:0:0:0:
256,192,177561,1,0,0:0:0:0:
256,192,177750,1,0,0:0:0:0:
256,192,177845,1,0,0:0:0:0:
256,192,177940,1,8,0:0:0:0:
256,192,178035,1,8,0:0:0:0:
256,192,178130,1,8,0:0:0:0:
256,192,178320,1,8,0:0:0:0:
256,192,178415,1,0,0:0:0:0:
256,192,178510,1,8,0:0:0:0:
256,192,178700,1,8,0:0:0:0:
256,192,178795,1,8,0:0:0:0:
256,192,178890,1,0,0:0:0:0:
256,192,179080,1,0,0:0:0:0:
256,192,179174,1,8,0:0:0:0:
256,192,179269,1,0,0:0:0:0:
256,192,179364,1,8,0:0:0:0:
256,192,179459,1,8,0:0:0:0:
256,192,179554,1,0,0:0:0:0:
256,192,179649,1,0,0:0:0:0:
256,192,179839,1,12,0:0:0:0:
256,192,180029,1,8,0:0:0:0:
256,192,180219,1,0,0:0:0:0:
256,192,180314,1,8,0:0:0:0:
256,192,180409,1,8,0:0:0:0:
256,192,180599,1,8,0:0:0:0:
256,192,180693,1,0,0:0:0:0:
256,192,180788,1,8,0:0:0:0:
256,192,180978,1,0,0:0:0:0:
256,192,181073,1,8,0:0:0:0:
256,192,181168,1,8,0:0:0:0:
256,192,181263,1,0,0:0:0:0:
256,192,181358,1,8,0:0:0:0:
256,192,181453,1,8,0:0:0:0:
256,192,181548,1,8,0:0:0:0:
256,192,181643,1,0,0:0:0:0:
256,192,181738,1,0,0:0:0:0:
256,192,181833,1,0,0:0:0:0:
256,192,181928,1,8,0:0:0:0:
256,192,182023,1,0,0:0:0:0:
256,192,182118,1,8,0:0:0:0:
256,192,182212,1,8,0:0:0:0:
256,192,182307,1,8,0:0:0:0:
256,192,182402,1,0,0:0:0:0:
256,192,182497,1,8,0:0:0:0:
256,192,182687,1,8,0:0:0:0:
256,192,182782,1,0,0:0:0:0:
256,192,182877,1,12,0:0:0:0:
256,192,183067,1,0,0:0:0:0:
256,192,183257,1,0,0:0:0:0:
256,192,183352,1,8,0:0:0:0:
256,192,183447,1,8,0:0:0:0:
256,192,183637,1,0,0:0:0:0:
256,192,183826,1,0,0:0:0:0:
256,192,183921,1,8,0:0:0:0:
256,192,184016,1,8,0:0:0:0:
256,192,184111,1,8,0:0:0:0:
256,192,184206,1,0,0:0:0:0:
256,192,184396,1,8,0:0:0:0:
256,192,184586,1,8,0:0:0:0:
256,192,184776,1,0,0:0:0:0:
256,192,184871,1,0,0:0:0:0:
256,192,184966,1,8,0:0:0:0:
256,192,185156,1,0,0:0:0:0:
256,192,185345,1,8,0:0:0:0:
256,192,185440,1,8,0:0:0:0:
256,192,185535,1,8,0:0:0:0:
256,192,185630,1,0,0:0:0:0:
256,192,185725,1,0,0:0:0:0:
256,192,185915,1,12,0:0:0:0:
256,192,186105,1,8,0:0:0:0:
256,192,186295,1,0,0:0:0:0:
256,192,186390,1,8,0:0:0:0:
256,192,186485,1,0,0:0:0:0:
256,192,186674,1,0,0:0:0:0:
256,192,186864,1,8,0:0:0:0:
256,192,186959,1,8,0:0:0:0:
256,192,187054,1,0,0:0:0:0:
256,192,187149,1,0,0:0:0:0:
256,192,187244,1,8,0:0:0:0:
256,192,187434,1,4,0:0:0:0:
256,192,187624,1,8,0:0:0:0:
256,192,187719,1,0,0:0:0:0:
256,192,187814,1,12,0:0:0:0:
256,192,188004,1,8,0:0:0:0:
256,192,188099,1,0,0:0:0:0:
256,192,188193,1,8,0:0:0:0:
256,192,188288,1,8,0:0:0:0:
256,192,188383,1,8,0:0:0:0:
256,192,188478,1,0,0:0:0:0:
256,192,188573,1,8,0:0:0:0:
256,192,188668,1,8,0:0:0:0:
256,192,188763,1,0,0:0:0:0:
256,192,189143,1,12,0:0:0:0:
256,192,189333,1,0,0:0:0:0:
256,192,189428,1,8,0:0:0:0:
256,192,189523,1,8,0:0:0:0:
256,192,189713,1,0,0:0:0:0:
256,192,189902,1,8,0:0:0:0:
256,192,189997,1,8,0:0:0:0:
256,192,190092,1,0,0:0:0:0:
256,192,190187,1,0,0:0:0:0:
256,192,190282,1,8,0:0:0:0:
256,192,190472,1,0,0:0:0:0:
256,192,190662,1,0,0:0:0:0:
256,192,190852,1,0,0:0:0:0:
256,192,190947,1,8,0:0:0:0:
256,192,191042,1,0,0:0:0:0:
256,192,191231,1,8,0:0:0:0:
256,192,191421,1,8,0:0:0:0:
256,192,191516,1,0,0:0:0:0:
256,192,191611,1,8,0:0:0:0:
256,192,191706,1,8,0:0:0:0:
256,192,191801,1,0,0:0:0:0:
256,192,191991,1,12,0:0:0:0:
256,192,192181,1,8,0:0:0:0:
256,192,192371,1,0,0:0:0:0:
256,192,192466,1,8,0:0:0:0:
256,192,192561,1,8,0:0:0:0:
256,192,192751,1,4,0:0:0:0:
256,192,192940,1,0,0:0:0:0:
256,192,193035,1,8,0:0:0:0:
256,192,193130,1,8,0:0:0:0:
256,192,193225,1,8,0:0:0:0:
256,192,193320,1,0,0:0:0:0:
256,192,193510,1,12,0:0:0:0:
256,192,193700,1,12,0:0:0:0:
256,192,193890,1,12,0:0:0:0:
256,192,194080,1,0,0:0:0:0:
256,192,194174,1,8,0:0:0:0:
256,192,194269,1,0,0:0:0:0:
256,192,194649,1,8,0:0:0:0:
256,192,194712,1,0,0:0:0:0:
256,192,194776,1,0,0:0:0:0:
256,192,194839,1,0,0:0:0:0:
256,192,194902,1,0,0:0:0:0:
256,192,194966,1,0,0:0:0:0:
256,192,195029,1,12,0:0:0:0:
256,192,195219,1,8,0:0:0:0:
256,192,195314,1,8,0:0:0:0:
256,192,195409,1,0,0:0:0:0:
256,192,195599,1,8,0:0:0:0:
256,192,195788,1,0,0:0:0:0:
256,192,195978,1,8,0:0:0:0:
256,192,196168,1,8,0:0:0:0:
256,192,196358,1,0,0:0:0:0:
256,192,196548,1,8,0:0:0:0:
256,192,196738,1,0,0:0:0:0:
256,192,196833,1,8,0:0:0:0:
256,192,196928,1,8,0:0:0:0:
256,192,197117,1,0,0:0:0:0:
256,192,197307,1,0,0:0:0:0:
256,192,197497,1,8,0:0:0:0:
256,192,197592,1,8,0:0:0:0:
256,192,197687,1,8,0:0:0:0:
256,192,197877,1,0,0:0:0:0:
256,192,198067,1,12,0:0:0:0:
256,192,198257,1,8,0:0:0:0:
256,192,198352,1,8,0:0:0:0:
256,192,198447,1,0,0:0:0:0:
256,192,198637,1,0,0:0:0:0:
256,192,198826,1,8,0:0:0:0:
256,192,199016,1,8,0:0:0:0:
256,192,199111,1,0,0:0:0:0:
256,192,199206,1,0,0:0:0:0:
256,192,199396,1,0,0:0:0:0:
256,192,199586,1,12,0:0:0:0:
256,192,199776,1,0,0:0:0:0:
256,192,199871,1,8,0:0:0:0:
256,192,199966,1,8,0:0:0:0:
256,192,200155,1,0,0:0:0:0:
256,192,200345,1,0,0:0:0:0:
256,192,200535,1,8,0:0:0:0:
256,192,200630,1,8,0:0:0:0:
256,192,200725,1,8,0:0:0:0:
256,192,200915,1,0,0:0:0:0:
256,192,201105,1,12,0:0:0:0:
256,192,201295,1,0,0:0:0:0:
256,192,201390,1,8,0:0:0:0:
256,192,201485,1,8,0:0:0:0:
256,192,201674,1,0,0:0:0:0:
256,192,201864,1,8,0:0:0:0:
256,192,202054,1,0,0:0:0:0:
256,192,202149,1,8,0:0:0:0:
256,192,202244,1,0,0:0:0:0:
256,192,202434,1,8,0:0:0:0:
256,192,202624,1,0,0:0:0:0:
256,192,202814,1,8,0:0:0:0:
256,192,202909,1,8,0:0:0:0:
256,192,203004,1,0,0:0:0:0:
256,192,203193,1,0,0:0:0:0:
256,192,203288,1,8,0:0:0:0:
256,192,203383,1,8,0:0:0:0:
256,192,203573,1,0,0:0:0:0:
256,192,203763,1,0,0:0:0:0:
256,192,203953,1,8,0:0:0:0:
256,192,204048,1,0,0:0:0:0:
256,192,204143,1,12,0:0:0:0:
256,192,204333,1,0,0:0:0:0:
256,192,204428,1,8,0:0:0:0:
256,192,204523,1,0,0:0:0:0:
256,192,204712,1,8,0:0:0:0:
256,192,204807,1,0,0:0:0:0:
256,192,204902,1,8,0:0:0:0:
256,192,205092,1,0,0:0:0:0:
256,192,205282,1,8,0:0:0:0:
256,192,205472,1,0,0:0:0:0:
256,192,205662,1,8,0:0:0:0:
256,192,205757,1,0,0:0:0:0:
256,192,205852,1,0,0:0:0:0:
256,192,205947,1,0,0:0:0:0:
256,192,206042,1,8,0:0:0:0:
256,192,206231,1,8,0:0:0:0:
256,192,206326,1,0,0:0:0:0:
256,192,206421,1,8,0:0:0:0:
256,192,206611,1,0,0:0:0:0:
256,192,206706,1,8,0:0:0:0:
256,192,206801,1,0,0:0:0:0:
256,192,206991,1,0,0:0:0:0:
256,192,207181,1,12,0:0:0:0:
256,192,207371,1,0,0:0:0:0:
256,192,207466,1,8,0:0:0:0:
256,192,207561,1,8,0:0:0:0:
256,192,207750,1,0,0:0:0:0:
256,192,207940,1,8,0:0:0:0:
256,192,208130,1,8,0:0:0:0:
256,192,208320,1,0,0:0:0:0:
256,192,208510,1,0,0:0:0:0:
256,192,208700,1,8,0:0:0:0:
256,192,208795,1,0,0:0:0:0:
256,192,208890,1,8,0:0:0:0:
256,192,208985,1,8,0:0:0:0:
256,192,209080,1,0,0:0:0:0:
256,192,209269,1,0,0:0:0:0:
256,192,209459,1,8,0:0:0:0:
256,192,209649,1,8,0:0:0:0:
256,192,209744,1,8,0:0:0:0:
256,192,209839,1,0,0:0:0:0:
256,192,210029,1,0,0:0:0:0:
256,192,210219,1,12,0:0:0:0:
256,192,210409,1,0,0:0:0:0:
256,192,210504,1,8,0:0:0:0:
256,192,210599,1,8,0:0:0:0:
256,192,210693,1,0,0:0:0:0:
256,192,210788,1,0,0:0:0:0:
256,192,210978,1,8,0:0:0:0:
256,192,211168,1,0,0:0:0:0:
256,192,211358,1,8,0:0:0:0:
256,192,211453,1,0,0:0:0:0:
256,192,211548,1,0,0:0:0:0:
256,192,211738,1,0,0:0:0:0:
256,192,211833,1,8,0:0:0:0:
256,192,211928,1,8,0:0:0:0:
256,192,212023,1,8,0:0:0:0:
256,192,212118,1,0,0:0:0:0:
256,192,212307,1,0,0:0:0:0:
256,192,212497,1,8,0:0:0:0:
256,192,212592,1,0,0:0:0:0:
256,192,212687,1,8,0:0:0:0:
256,192,212877,1,0,0:0:0:0:
256,192,213067,1,0,0:0:0:0:
256,192,213162,1,0,0:0:0:0:
256,192,213257,1,12,0:0:0:0:
256,192,213447,1,8,0:0:0:0:
256,192,213542,1,8,0:0:0:0:
256,192,213637,1,0,0:0:0:0:
256,192,213826,1,0,0:0:0:0:
256,192,214016,1,8,0:0:0:0:
256,192,214206,1,8,0:0:0:0:
256,192,214396,1,0,0:0:0:0:
256,192,214491,1,8,0:0:0:0:
256,192,214586,1,0,0:0:0:0:
256,192,214776,1,12,0:0:0:0:
256,192,214966,1,0,0:0:0:0:
256,192,215061,1,0,0:0:0:0:
256,192,215156,1,8,0:0:0:0:
256,192,215345,1,0,0:0:0:0:
256,192,215535,1,0,0:0:0:0:
256,192,215725,1,8,0:0:0:0:
256,192,215915,1,8,0:0:0:0:
256,192,216105,1,0,0:0:0:0:
256,192,216295,1,8,0:0:0:0:
256,192,216390,1,8,0:0:0:0:
256,192,216485,1,8,0:0:0:0:
256,192,216580,1,8,0:0:0:0:
256,192,216675,1,0,0:0:0:0:
256,192,216769,1,0,0:0:0:0:
256,192,216864,1,0,0:0:0:0:
256,192,216959,1,0,0:0:0:0:
256,192,217054,1,8,0:0:0:0:
256,192,217149,1,0,0:0:0:0:
256,192,217244,1,8,0:0:0:0:
256,192,217339,1,0,0:0:0:0:
256,192,217434,1,8,0:0:0:0:
256,192,217624,1,0,0:0:0:0:
256,192,217814,1,8,0:0:0:0:
256,192,217909,1,0,0:0:0:0:
256,192,218004,1,0,0:0:0:0:
256,192,218099,1,0,0:0:0:0:
256,192,218193,1,8,0:0:0:0:
256,192,218288,1,0,0:0:0:0:
256,192,218383,1,0,0:0:0:0:
256,192,218478,1,0,0:0:0:0:
256,192,218573,1,8,0:0:0:0:
256,192,218668,1,8,0:0:0:0:
256,192,218763,1,8,0:0:0:0:
256,192,218858,1,0,0:0:0:0:
256,192,218953,1,8,0:0:0:0:
256,192,219143,1,0,0:0:0:0:
256,192,219333,1,12,0:0:0:0:
256,192,219523,1,0,0:0:0:0:
256,192,219713,1,0,0:0:0:0:
256,192,219808,1,8,0:0:0:0:
256,192,219903,1,8,0:0:0:0:
256,192,219998,1,8,0:0:0:0:
256,192,220093,1,0,0:0:0:0:
256,192,220188,1,8,0:0:0:0:
256,192,220283,1,0,0:0:0:0:
256,192,220378,1,8,0:0:0:0:
256,192,220473,1,8,0:0:0:0:
256,192,220568,1,8,0:0:0:0:
256,192,220662,1,0,0:0:0:0:
256,192,220757,1,0,0:0:0:0:
256,192,220852,1,8,0:0:0:0:
256,192,220947,1,0,0:0:0:0:
256,192,221042,1,8,0:0:0:0:
256,192,221136,1,0,0:0:0:0:
256,192,221232,1,8,0:0:0:0:
256,192,221326,1,8,0:0:0:0:
256,192,221422,1,0,0:0:0:0:
256,192,221516,1,0,0:0:0:0:
256,192,221612,1,8,0:0:0:0:
256,192,221707,1,0,0:0:0:0:
256,192,221802,1,8,0:0:0:0:
256,192,221896,1,8,0:0:0:0:
256,192,221992,1,0,0:0:0:0:
256,192,222087,1,0,0:0:0:0:
256,192,222182,1,8,0:0:0:0:
256,192,222276,1,0,0:0:0:0:
256,192,222371,1,8,0:0:0:0:
256,192,222561,1,0,0:0:0:0:
256,192,222750,1,8,0:0:0:0:
256,192,222845,1,0,0:0:0:0:
256,192,222940,1,0,0:0:0:0:
256,192,223034,1,8,0:0:0:0:
256,192,223130,1,0,0:0:0:0:
256,192,223225,1,8,0:0:0:0:
256,192,223320,1,0,0:0:0:0:
256,192,223414,1,8,0:0:0:0:
256,192,223510,1,8,0:0:0:0:
256,192,223605,1,0,0:0:0:0:
256,192,223699,1,8,0:0:0:0:
256,192,223890,1,8,0:0:0:0:
256,192,224017,1,8,0:0:0:0:
256,192,224080,1,8,0:0:0:0:
256,192,224144,1,0,0:0:0:0:
256,192,224270,1,0,0:0:0:0:
256,192,224397,1,0,0:0:0:0:
256,192,224460,1,8,0:0:0:0:
256,192,224523,1,8,0:0:0:0:
256,192,224650,1,0,0:0:0:0:
256,192,224777,1,0,0:0:0:0:
256,192,224840,1,8,0:0:0:0:
256,192,224902,1,0,0:0:0:0:
256,192,225030,1,0,0:0:0:0:
256,192,225155,1,8,0:0:0:0:
256,192,225219,1,0,0:0:0:0:
256,192,225282,1,8,0:0:0:0:
256,192,225409,1,12,0:0:0:0:
256,192,225599,1,0,0:0:0:0:
256,192,225788,1,8,0:0:0:0:
256,192,225884,1,8,0:0:0:0:
256,192,225979,1,0,0:0:0:0:
256,192,226074,1,0,0:0:0:0:
256,192,226169,1,8,0:0:0:0:
256,192,226359,1,8,0:0:0:0:
256,192,226454,1,0,0:0:0:0:
256,192,226548,1,8,0:0:0:0:
256,192,226644,1,0,0:0:0:0:
256,192,226738,1,8,0:0:0:0:
256,192,226928,1,8,0:0:0:0:
256,192,227118,1,8,0:0:0:0:
256,192,227307,1,8,0:0:0:0:
256,192,227403,1,0,0:0:0:0:
256,192,227497,1,8,0:0:0:0:
256,192,227593,1,8,0:0:0:0:
256,192,227688,1,0,0:0:0:0:
256,192,227878,1,0,0:0:0:0:
256,192,227972,1,8,0:0:0:0:
256,192,228068,1,8,0:0:0:0:
256,192,228163,1,0,0:0:0:0:
256,192,228257,1,8,0:0:0:0:
256,192,228352,1,0,0:0:0:0:
256,192,228447,1,8,0:0:0:0:
256,192,228637,1,0,0:0:0:0:
256,192,228827,1,8,0:0:0:0:
256,192,228922,1,8,0:0:0:0:
256,192,229017,1,8,0:0:0:0:
256,192,229207,1,0,0:0:0:0:
256,192,229397,1,8,0:0:0:0:
256,192,229587,1,0,0:0:0:0:
256,192,229682,1,0,0:0:0:0:
256,192,229776,1,0,0:0:0:0:
256,192,229871,1,0,0:0:0:0:
256,192,229966,1,8,0:0:0:0:
256,192,230061,1,8,0:0:0:0:
256,192,230156,1,8,0:0:0:0:
256,192,230251,1,0,0:0:0:0:
256,192,230346,1,8,0:0:0:0:
256,192,230440,1,8,0:0:0:0:
256,192,230535,1,0,0:0:0:0:
256,192,230630,1,0,0:0:0:0:
256,192,230725,1,8,0:0:0:0:
256,192,230820,1,0,0:0:0:0:
256,192,230915,1,8,0:0:0:0:
256,192,231010,1,0,0:0:0:0:
256,192,231105,1,8,0:0:0:0:
256,192,231200,1,0,0:0:0:0:
256,192,231295,1,0,0:0:0:0:
256,192,231390,1,0,0:0:0:0:
256,192,231485,1,12,0:0:0:0:
256,192,231675,1,0,0:0:0:0:
256,192,231864,1,8,0:0:0:0:
256,192,231959,1,0,0:0:0:0:
256,192,232054,1,8,0:0:0:0:
256,192,232149,1,8,0:0:0:0:
256,192,232244,1,8,0:0:0:0:
256,192,232339,1,0,0:0:0:0:
256,192,232434,1,8,0:0:0:0:
256,192,232529,1,0,0:0:0:0:
256,192,232624,1,8,0:0:0:0:
256,192,232719,1,8,0:0:0:0:
256,192,232814,1,0,0:0:0:0:
256,192,232908,1,0,0:0:0:0:
256,192,233003,1,8,0:0:0:0:
256,192,233098,1,0,0:0:0:0:
256,192,233193,1,8,0:0:0:0:
256,192,233287,1,0,0:0:0:0:
256,192,233383,1,8,0:0:0:0:
256,192,233478,1,8,0:0:0:0:
256,192,233573,1,8,0:0:0:0:
256,192,233667,1,0,0:0:0:0:
256,192,233763,1,8,0:0:0:0:
256,192,233858,1,0,0:0:0:0:
256,192,233953,1,0,0:0:0:0:
256,192,234047,1,8,0:0:0:0:
256,192,234143,1,0,0:0:0:0:
256,192,234238,1,0,0:0:0:0:
256,192,234333,1,8,0:0:0:0:
256,192,234427,1,0,0:0:0:0:
256,192,234522,1,8,0:0:0:0:
256,192,234712,1,0,0:0:0:0:
256,192,234902,1,8,0:0:0:0:
256,192,234997,1,0,0:0:0:0:
256,192,235092,1,0,0:0:0:0:
256,192,235186,1,8,0:0:0:0:
256,192,235282,1,0,0:0:0:0:
256,192,235377,1,8,0:0:0:0:
256,192,235472,1,0,0:0:0:0:
256,192,235566,1,8,0:0:0:0:
256,192,235662,1,8,0:0:0:0:
256,192,235757,1,0,0:0:0:0:
256,192,235851,1,8,0:0:0:0:
256,192,236042,1,8,0:0:0:0:
256,192,236169,1,8,0:0:0:0:
256,192,236232,1,8,0:0:0:0:
256,192,236296,1,0,0:0:0:0:
256,192,236422,1,0,0:0:0:0:
256,192,236549,1,0,0:0:0:0:
256,192,236612,1,8,0:0:0:0:
256,192,236675,1,8,0:0:0:0:
256,192,236802,1,0,0:0:0:0:
256,192,236929,1,0,0:0:0:0:
256,192,236992,1,8,0:0:0:0:
256,192,237054,1,0,0:0:0:0:
256,192,237182,1,0,0:0:0:0:
256,192,237307,1,8,0:0:0:0:
256,192,237371,1,0,0:0:0:0:
256,192,237434,1,8,0:0:0:0:
256,192,237561,1,12,0:0:0:0:
256,192,237751,1,0,0:0:0:0:
256,192,237941,1,0,0:0:0:0:
256,192,238036,1,8,0:0:0:0:
256,192,238131,1,8,0:0:0:0:
256,192,238226,1,8,0:0:0:0:
256,192,238321,1,0,0:0:0:0:
256,192,238511,1,8,0:0:0:0:
256,192,238606,1,0,0:0:0:0:
256,192,238701,1,0,0:0:0:0:
256,192,238796,1,8,0:0:0:0:
256,192,238890,1,8,0:0:0:0:
256,192,239080,1,0,0:0:0:0:
256,192,239270,1,0,0:0:0:0:
256,192,239460,1,8,0:0:0:0:
256,192,239555,1,8,0:0:0:0:
256,192,239650,1,0,0:0:0:0:
256,192,239744,1,8,0:0:0:0:
256,192,239840,1,8,0:0:0:0:
256,192,240030,1,0,0:0:0:0:
256,192,240125,1,0,0:0:0:0:
256,192,240219,1,8,0:0:0:0:
256,192,240315,1,8,0:0:0:0:
256,192,240409,1,0,0:0:0:0:
256,192,240504,1,0,0:0:0:0:
256,192,240599,1,8,0:0:0:0:
256,192,240789,1,0,0:0:0:0:
256,192,240979,1,0,0:0:0:0:
256,192,241074,1,8,0:0:0:0:
256,192,241168,1,0,0:0:0:0:
256,192,241358,1,8,0:0:0:0:
256,192,241549,1,8,0:0:0:0:
256,192,241739,1,8,0:0:0:0:
256,192,241834,1,0,0:0:0:0:
256,192,241928,1,0,0:0:0:0:
256,192,242023,1,0,0:0:0:0:
256,192,242118,1,8,0:0:0:0:
256,192,242213,1,8,0:0:0:0:
256,192,242308,1,8,0:0:0:0:
256,192,242403,1,0,0:0:0:0:
256,192,242498,1,8,0:0:0:0:
256,192,242593,1,0,0:0:0:0:
256,192,242688,1,8,0:0:0:0:
256,192,242783,1,8,0:0:0:0:
256,192,242878,1,8,0:0:0:0:
256,192,242973,1,0,0:0:0:0:
256,192,243068,1,8,0:0:0:0:
256,192,243163,1,0,0:0:0:0:
256,192,243258,1,12,0:0:0:0:
256,192,243447,1,12,0:0:0:0:
256,192,243636,1,0,0:0:0:0:
