osu file format v14

[General]
AudioFilename: audio.mp3
AudioLeadIn: 0
PreviewTime: 223698
Countdown: 0
SampleSet: Soft
StackLeniency: 0.4
Mode: 0
LetterboxInBreaks: 0
WidescreenStoryboard: 1

[Editor]
Bookmarks: 5869,22711,26921,39553,56395,90079,106921,123763,127974,140605,157448,207974,224816,232184,294290
DistanceSpacing: 1.15
BeatDivisor: 4
GridSize: 4
TimelineZoom: 2

[Metadata]
Title:Kimi no Na wo Hibikasete
TitleUnicode:キミの名を響かせて
Artist:Emiru no Aishita Tsukiyo ni Dai San Gensou Kyoku wo
ArtistUnicode:エミルの愛した月夜に第III幻想曲を
Creator:Livermorium
Version:The Clock of Fate Strikes Now
Source:
Tags:emille's moonlight serenade 荊-いばら- 終天の薔薇 emiru3 japanese doujin gothic metal gothic rock tsuiten tokyo featured artist fa
BeatmapID:3047709
BeatmapSetID:1486362

[Difficulty]
HPDrainRate:5
CircleSize:4.3
OverallDifficulty:9.5
ApproachRate:9.7
SliderMultiplier:1.9
SliderTickRate:1

[Events]
//Background and Video events
0,0,"bg.jpg",0,0
//Break Periods
2,225016,231689
//Storyboard Layer 0 (Background)
//Storyboard Layer 1 (Fail)
//Storyboard Layer 2 (Pass)
//Storyboard Layer 3 (Foreground)
//Storyboard Layer 4 (Overlay)
//Storyboard Sound Samples

[TimingPoints]
606,263.157894736842,4,2,1,60,1,0
1658,-161.290322580645,4,2,1,40,0,0
3698,-161.290322580645,4,2,1,5,0,0
3763,-133.333333333333,4,2,1,65,0,0
4421,-83.3333333333333,4,2,2,75,0,0
4619,-83.3333333333333,4,2,1,5,0,0
4684,-100,4,2,1,45,0,0
4882,-100,4,2,1,5,0,0
4948,-100,4,2,1,60,0,0
5079,-100,4,2,1,70,0,0
5211,-100,4,2,1,80,0,0
5342,-500,4,2,2,70,0,0
5869,-90.9090909090909,4,2,1,80,0,0
6066,-90.9090909090909,4,2,1,5,0,0
6132,-90.9090909090909,4,2,1,80,0,0
6921,-76.9230769230769,4,2,1,80,0,0
7119,-90.9090909090909,4,2,1,5,0,0
7184,-90.9090909090909,4,2,1,80,0,0
10277,-90.9090909090909,4,2,1,5,0,0
10342,-90.9090909090909,4,2,1,80,0,0
11329,-90.9090909090909,4,2,1,5,0,0
11395,-90.9090909090909,4,2,1,80,0,0
12448,-90.9090909090909,4,2,3,80,0,0
12842,-90.9090909090909,4,2,1,80,0,0
13105,-80,4,2,1,80,0,0
14290,-90.9090909090909,4,2,1,80,0,0
15342,-76.9230769230769,4,2,1,80,0,0
15540,-90.9090909090909,4,2,1,5,0,0
15605,-90.9090909090909,4,2,1,80,0,0
18698,-90.9090909090909,4,2,1,5,0,0
18763,-90.9090909090909,4,2,1,80,0,0
19750,-90.9090909090909,4,2,1,5,0,0
19816,-90.9090909090909,4,2,1,80,0,0
20605,-66.6666666666667,4,2,1,80,0,0
21527,-80,4,2,1,80,0,0
21790,-90.9090909090909,4,2,1,80,0,0
22711,-125,4,2,1,55,0,0
24816,-125,4,2,3,55,0,0
25079,-125,4,2,1,55,0,0
26658,-125,4,2,1,60,0,0
26921,-111.111111111111,4,2,1,70,0,0
27053,-111.111111111111,4,2,3,70,0,0
30277,-111.111111111111,4,2,3,5,0,0
30342,-111.111111111111,4,2,3,70,0,0
31132,-111.111111111111,4,2,1,70,0,0
31329,-111.111111111111,4,2,3,5,0,0
31395,-111.111111111111,4,2,3,70,0,0
33171,-111.111111111111,4,2,3,5,0,0
33237,-111.111111111111,4,2,3,70,0,0
35342,-111.111111111111,4,2,1,70,0,0
35474,-111.111111111111,4,2,3,70,0,0
36395,-111.111111111111,4,2,1,70,0,0
36527,-111.111111111111,4,2,3,70,0,0
37448,-100,4,2,1,70,0,0
37579,-100,4,2,2,70,0,0
38500,-80,4,2,2,70,0,0
38698,-80,4,2,2,5,0,0
38763,-105.263157894737,4,2,2,70,0,0
38961,-105.263157894737,4,2,2,5,0,0
39027,-105.263157894737,4,2,1,70,0,0
39553,-100,4,2,1,80,0,0
39684,-100,4,2,2,80,0,0
40803,-100,4,2,2,5,0,0
40869,-100,4,2,2,80,0,0
41855,-100,4,2,2,5,0,0
41921,-100,4,2,2,80,0,0
43763,-100,4,2,1,80,0,0
43895,-100,4,2,2,80,0,0
45869,-111.111111111111,4,2,1,80,0,0
46000,-111.111111111111,4,2,3,80,0,0
46921,-80,4,2,1,70,0,0
47119,-80,4,2,1,5,0,0
47184,-105.263157894737,4,2,1,70,0,0
47382,-105.263157894737,4,2,1,5,0,0
47448,-105.263157894737,4,2,1,70,0,0
47974,-100,4,2,1,80,0,0
48171,-100,4,2,1,5,0,0
48237,-100,4,2,2,80,0,0
49224,-100,4,2,2,5,0,0
49290,-100,4,2,2,80,0,0
52184,-86.9565217391304,4,2,1,80,0,0
52382,-86.9565217391304,4,2,1,5,0,0
52448,-86.9565217391304,4,2,1,80,0,0
52579,-153.846153846154,4,2,1,80,0,0
52974,-153.846153846154,4,2,2,80,0,0
53237,-80,4,2,1,80,0,0
53434,-80,4,2,1,5,0,0
53500,-80,4,2,1,80,0,0
53632,-153.846153846154,4,2,1,80,0,0
54290,-86.9565217391304,4,2,1,80,0,0
55869,-86.9565217391304,4,2,1,40,0,0
56000,-86.9565217391304,4,2,1,50,0,0
56132,-86.9565217391304,4,2,1,60,0,0
56263,-86.9565217391304,4,2,1,70,0,0
56395,-83.3333333333333,4,2,1,90,0,1
56592,-83.3333333333333,4,2,1,5,0,1
56658,-83.3333333333333,4,2,2,90,0,1
57382,-83.3333333333333,4,2,2,5,0,1
57448,-83.3333333333333,4,2,2,90,0,1
58698,-83.3333333333333,4,2,2,5,0,1
58763,-83.3333333333333,4,2,2,90,0,1
60605,-83.3333333333333,4,2,1,90,0,1
60803,-83.3333333333333,4,2,2,5,0,1
60869,-83.3333333333333,4,2,2,90,0,1
61855,-83.3333333333333,4,2,2,5,0,1
61921,-83.3333333333333,4,2,2,90,0,1
62711,-83.3333333333333,4,2,1,90,0,1
64290,-83.3333333333333,4,2,2,90,0,1
64816,-83.3333333333333,4,2,1,90,0,1
65079,-83.3333333333333,4,2,2,90,0,1
68171,-83.3333333333333,4,2,2,5,0,1
68237,-83.3333333333333,4,2,2,90,0,1
69027,-95.2380952380952,4,2,1,80,0,0
69290,-95.2380952380952,4,2,3,80,0,0
71132,-95.2380952380952,4,2,1,80,0,0
71395,-95.2380952380952,4,2,2,80,0,0
72053,-95.2380952380952,4,2,1,80,0,0
72711,-142.857142857143,4,2,1,50,0,0
72842,-142.857142857143,4,2,1,60,0,0
72974,-142.857142857143,4,2,1,70,0,0
73105,-142.857142857143,4,2,1,80,0,0
73237,-83.3333333333333,4,2,1,90,0,1
73500,-83.3333333333333,4,2,2,90,0,1
75540,-83.3333333333333,4,2,2,5,0,1
75605,-83.3333333333333,4,2,2,90,0,1
77448,-83.3333333333333,4,2,1,90,0,1
77645,-83.3333333333333,4,2,2,5,0,1
77711,-83.3333333333333,4,2,2,90,0,1
78500,-66.6666666666667,4,2,2,90,0,1
78698,-83.3333333333333,4,2,2,5,0,1
78763,-83.3333333333333,4,2,2,90,0,1
79553,-83.3333333333333,4,2,1,90,0,1
81132,-83.3333333333333,4,2,2,90,0,1
81658,-83.3333333333333,4,2,1,90,0,1
81921,-83.3333333333333,4,2,2,90,0,1
85013,-83.3333333333333,4,2,2,5,0,1
85079,-83.3333333333333,4,2,2,90,0,1
85605,-83.3333333333333,4,2,1,90,0,1
85803,-83.3333333333333,4,2,1,5,0,1
85869,-100,4,2,1,80,0,0
86132,-100,4,2,3,80,0,0
87974,-100,4,2,1,80,0,0
88237,-100,4,2,2,80,0,0
88895,-100,4,2,1,80,0,0
89487,-100,4,2,1,5,0,0
89553,-100,4,2,2,80,0,0
90079,-83.3333333333333,4,2,1,90,0,1
90277,-83.3333333333333,4,2,1,5,0,1
90342,-83.3333333333333,4,2,3,90,0,1
91921,-83.3333333333333,4,2,2,90,0,1
92184,-62.5,4,2,1,90,0,1
92842,-100,4,2,2,90,0,1
93105,-100,4,2,1,90,0,1
94290,-83.3333333333333,4,2,1,90,0,1
94553,-83.3333333333333,4,2,3,90,0,1
96395,-62.5,4,2,1,90,0,1
97053,-62.5,4,2,2,90,0,1
97316,-100,4,2,1,90,0,1
97711,-100,4,2,2,90,0,1
98500,-83.3333333333333,4,2,1,90,0,1
98698,-83.3333333333333,4,2,1,5,0,1
98763,-83.3333333333333,4,2,3,90,0,1
100342,-83.3333333333333,4,2,2,90,0,1
100605,-62.5,4,2,1,90,0,1
101263,-62.5,4,2,2,90,0,1
101527,-100,4,2,1,90,0,1
102711,-90.9090909090909,4,2,1,80,0,0
102908,-90.9090909090909,4,2,1,5,0,0
102974,-90.9090909090909,4,2,1,80,0,0
103237,-90.9090909090909,4,2,3,80,0,0
103698,-90.9090909090909,4,2,3,5,0,0
103763,-90.9090909090909,4,2,3,80,0,0
104553,-90.9090909090909,4,2,2,80,0,0
104750,-90.9090909090909,4,2,3,5,0,0
104816,-66.6666666666667,4,2,1,80,0,0
105474,-66.6666666666667,4,2,2,80,0,0
105737,-100,4,2,1,80,0,0
106132,-100,4,2,2,80,0,0
106921,-90.9090909090909,4,2,1,80,0,0
107974,-80,4,2,1,80,0,0
108171,-90.9090909090909,4,2,1,5,0,0
108237,-90.9090909090909,4,2,1,80,0,0
111329,-90.9090909090909,4,2,1,5,0,0
111395,-90.9090909090909,4,2,1,80,0,0
112382,-90.9090909090909,4,2,1,5,0,0
112448,-90.9090909090909,4,2,1,80,0,0
113500,-90.9090909090909,4,2,3,80,0,0
113895,-90.9090909090909,4,2,1,80,0,0
114158,-76.9230769230769,4,2,1,80,0,0
114421,-90.9090909090909,4,2,1,80,0,0
118698,-90.9090909090909,4,2,1,5,0,0
118763,-90.9090909090909,4,2,1,80,0,0
119750,-90.9090909090909,4,2,1,5,0,0
119816,-90.9090909090909,4,2,1,80,0,0
120803,-90.9090909090909,4,2,1,5,0,0
120869,-90.9090909090909,4,2,1,80,0,0
121658,-66.6666666666667,4,2,1,80,0,0
122579,-80,4,2,1,80,0,0
123763,-125,4,2,1,55,0,0
125869,-125,4,2,3,55,0,0
126132,-125,4,2,1,55,0,0
127711,-125,4,2,1,60,0,0
127974,-111.111111111111,4,2,1,70,0,0
128237,-111.111111111111,4,2,3,70,0,0
131329,-111.111111111111,4,2,3,5,0,0
131395,-111.111111111111,4,2,3,70,0,0
132184,-111.111111111111,4,2,1,70,0,0
132382,-111.111111111111,4,2,1,5,0,0
132448,-111.111111111111,4,2,3,70,0,0
134224,-111.111111111111,4,2,3,5,0,0
134290,-111.111111111111,4,2,3,70,0,0
136395,-111.111111111111,4,2,1,70,0,0
136658,-111.111111111111,4,2,3,70,0,0
137448,-111.111111111111,4,2,1,70,0,0
137711,-111.111111111111,4,2,3,70,0,0
138500,-100,4,2,1,70,0,0
138763,-100,4,2,2,70,0,0
139553,-80,4,2,2,70,0,0
139750,-80,4,2,2,5,0,0
139816,-105.263157894737,4,2,2,70,0,0
140013,-80,4,2,2,5,0,0
140079,-105.263157894737,4,2,1,70,0,0
140605,-100,4,2,1,80,0,0
140737,-100,4,2,2,80,0,0
141855,-100,4,2,2,5,0,0
141921,-100,4,2,2,80,0,0
144816,-100,4,2,1,80,0,0
144948,-100,4,2,2,80,0,0
146921,-100,4,2,1,80,0,0
147184,-100,4,2,3,80,0,0
147974,-80,4,2,1,80,0,0
148171,-80,4,2,1,5,0,0
148237,-105.263157894737,4,2,1,80,0,0
148434,-105.263157894737,4,2,1,5,0,0
148500,-105.263157894737,4,2,1,80,0,0
149027,-100,4,2,1,80,0,0
149224,-100,4,2,1,5,0,0
149290,-100,4,2,2,80,0,0
153237,-80,4,2,1,80,0,0
153434,-100,4,2,1,5,0,0
153500,-100,4,2,1,80,0,0
153632,-153.846153846154,4,2,1,80,0,0
154027,-153.846153846154,4,2,2,80,0,0
154290,-80,4,2,1,80,0,0
154487,-80,4,2,1,5,0,0
154553,-80,4,2,1,80,0,0
154684,-153.846153846154,4,2,1,80,0,0
155342,-66.6666666666667,4,2,1,80,0,0
156132,-83.3333333333333,4,2,1,80,0,0
156395,-100,4,2,1,80,0,0
156921,-100,4,2,1,40,0,0
157053,-100,4,2,1,50,0,0
157184,-100,4,2,1,60,0,0
157316,-100,4,2,1,70,0,0
157448,-83.3333333333333,4,2,1,90,0,1
157645,-83.3333333333333,4,2,1,5,0,1
157711,-83.3333333333333,4,2,2,90,0,1
158434,-83.3333333333333,4,2,2,5,0,1
158500,-83.3333333333333,4,2,2,90,0,1
159553,-74.0740740740741,4,2,2,90,0,1
159750,-83.3333333333333,4,2,2,5,0,1
159816,-83.3333333333333,4,2,2,90,0,1
161658,-83.3333333333333,4,2,1,90,0,1
161855,-83.3333333333333,4,2,1,5,0,1
161921,-83.3333333333333,4,2,2,90,0,1
163763,-83.3333333333333,4,2,1,90,0,1
165342,-83.3333333333333,4,2,2,90,0,1
165869,-83.3333333333333,4,2,1,90,0,1
166066,-83.3333333333333,4,2,1,5,0,1
166132,-83.3333333333333,4,2,2,90,0,1
169224,-83.3333333333333,4,2,2,5,0,1
169290,-83.3333333333333,4,2,2,90,0,1
170079,-95.2380952380952,4,2,1,80,0,0
170277,-95.2380952380952,4,2,1,5,0,0
170342,-95.2380952380952,4,2,3,80,0,0
172184,-95.2380952380952,4,2,1,80,0,0
172448,-95.2380952380952,4,2,2,80,0,0
173105,-95.2380952380952,4,2,1,80,0,0
173763,-95.2380952380952,4,2,1,50,0,0
173895,-95.2380952380952,4,2,1,60,0,0
174027,-95.2380952380952,4,2,1,70,0,0
174158,-95.2380952380952,4,2,1,80,0,0
174290,-83.3333333333333,4,2,1,90,0,1
174553,-83.3333333333333,4,2,2,90,0,1
175540,-83.3333333333333,4,2,2,5,0,1
175605,-83.3333333333333,4,2,2,90,0,1
176592,-83.3333333333333,4,2,2,5,0,1
176658,-83.3333333333333,4,2,2,90,0,1
177448,-74.0740740740741,4,2,2,90,0,1
177711,-83.3333333333333,4,2,2,90,0,1
178500,-83.3333333333333,4,2,1,90,0,1
178763,-83.3333333333333,4,2,2,90,0,1
180605,-83.3333333333333,4,2,1,90,0,1
182184,-83.3333333333333,4,2,2,90,0,1
182711,-83.3333333333333,4,2,1,90,0,1
182908,-83.3333333333333,4,2,1,5,0,1
182974,-83.3333333333333,4,2,2,90,0,1
183961,-83.3333333333333,4,2,2,5,0,1
184027,-83.3333333333333,4,2,2,90,0,1
186658,-83.3333333333333,4,2,1,90,0,1
186921,-95.2380952380952,4,2,1,80,0,0
187184,-95.2380952380952,4,2,3,80,0,0
189027,-95.2380952380952,4,2,1,80,0,0
189290,-95.2380952380952,4,2,2,80,0,0
189948,-95.2380952380952,4,2,1,80,0,0
190605,-95.2380952380952,4,2,2,80,0,0
191132,-80,4,2,1,90,0,1
191329,-80,4,2,1,5,0,1
191395,-80,4,2,3,90,0,1
192974,-80,4,2,2,90,0,1
193237,-62.5,4,2,1,90,0,1
193895,-62.5,4,2,2,90,0,1
194158,-95.2380952380952,4,2,1,90,0,1
195342,-80,4,2,1,90,0,1
195540,-80,4,2,1,5,0,1
195605,-80,4,2,3,90,0,1
197448,-62.5,4,2,1,90,0,1
198105,-62.5,4,2,2,90,0,1
198369,-95.2380952380952,4,2,1,90,0,1
198763,-95.2380952380952,4,2,2,90,0,1
199553,-80,4,2,1,90,0,1
199816,-80,4,2,3,90,0,1
201395,-80,4,2,2,90,0,1
201658,-62.5,4,2,1,80,0,1
202316,-62.5,4,2,2,80,0,1
202579,-100,4,2,1,80,0,1
203763,-95.2380952380952,4,2,1,80,0,0
203961,-95.2380952380952,4,2,1,5,0,0
204027,-95.2380952380952,4,2,1,80,0,0
204158,-95.2380952380952,4,2,3,80,0,0
205605,-95.2380952380952,4,2,2,80,0,0
205803,-95.2380952380952,4,2,3,5,0,0
205869,-66.6666666666667,4,2,1,80,0,0
206527,-66.6666666666667,4,2,2,80,0,0
206790,-100,4,2,1,80,0,0
207184,-100,4,2,2,80,0,0
207448,-100,4,2,1,68,0,0
207974,-95.2380952380952,4,2,1,70,0,0
210277,-95.2380952380952,4,2,1,5,0,0
210342,-95.2380952380952,4,2,1,70,0,0
213434,-95.2380952380952,4,2,1,5,0,0
213500,-95.2380952380952,4,2,1,70,0,0
221855,-95.2380952380952,4,2,1,5,0,0
221921,-95.2380952380952,4,2,1,70,0,0
222250,-95.2380952380952,4,2,1,5,0,0
222316,-95.2380952380952,4,2,1,70,0,0
222908,-95.2380952380952,4,2,1,5,0,0
222974,-95.2380952380952,4,2,1,70,0,0
232184,-166.666666666667,4,2,1,45,0,0
233237,-166.666666666667,4,2,1,55,0,0
233500,-166.666666666667,4,2,2,45,0,0
237448,-117.647058823529,4,2,2,35,0,0
237711,-117.647058823529,4,2,2,40,0,0
237974,-117.647058823529,4,2,2,45,0,0
238237,-117.647058823529,4,2,2,50,0,0
238500,-117.647058823529,4,2,2,55,0,0
238763,-117.647058823529,4,2,2,60,0,0
239027,-117.647058823529,4,2,2,40,0,0
239158,-117.647058823529,4,2,2,52,0,0
239290,-117.647058823529,4,2,2,64,0,0
239421,-117.647058823529,4,2,2,76,0,0
239553,-83.3333333333333,4,2,1,80,0,0
242842,-83.3333333333333,4,2,1,65,0,0
243237,-83.3333333333333,4,2,1,50,0,0
243369,-83.3333333333333,4,2,1,60,0,0
243500,-83.3333333333333,4,2,1,70,0,0
243632,-83.3333333333333,4,2,1,80,0,0
243763,-76.9230769230769,4,2,1,90,0,1
243960,-76.9230769230769,4,2,1,5,0,1
243961,-76.9230769230769,4,2,1,5,0,1
244026,-76.9230769230769,4,2,2,90,0,1
244027,-76.9230769230769,4,2,2,90,0,1
244816,-66.6666666666667,4,2,2,90,0,1
245013,-76.9230769230769,4,2,2,5,0,1
245079,-76.9230769230769,4,2,2,90,0,1
246066,-76.9230769230769,4,2,2,5,0,1
246131,-76.9230769230769,4,2,2,90,0,1
247973,-76.9230769230769,4,2,1,90,0,1
248171,-76.9230769230769,4,2,2,5,0,1
248237,-76.9230769230769,4,2,2,90,0,1
250079,-76.9230769230769,4,2,1,90,0,1
251658,-76.9230769230769,4,2,2,90,0,1
252184,-76.9230769230769,4,2,1,90,0,1
252447,-76.9230769230769,4,2,2,90,0,1
254224,-76.9230769230769,4,2,2,5,0,1
254290,-76.9230769230769,4,2,2,90,0,1
255539,-76.9230769230769,4,2,2,5,0,1
255605,-76.9230769230769,4,2,2,90,0,1
256395,-95.2380952380952,4,2,1,80,0,0
256658,-95.2380952380952,4,2,3,80,0,0
258500,-95.2380952380952,4,2,1,80,0,0
258763,-95.2380952380952,4,2,2,80,0,0
259421,-95.2380952380952,4,2,1,80,0,0
260079,-142.857142857143,4,2,1,50,0,0
260210,-142.857142857143,4,2,1,60,0,0
260342,-142.857142857143,4,2,1,70,0,0
260473,-142.857142857143,4,2,1,80,0,0
260605,-76.9230769230769,4,2,1,90,0,1
260803,-76.9230769230769,4,2,1,5,0,1
260868,-76.9230769230769,4,2,2,90,0,1
262908,-76.9230769230769,4,2,2,5,0,1
262973,-76.9230769230769,4,2,2,90,0,1
264816,-76.9230769230769,4,2,1,90,0,1
265013,-76.9230769230769,4,2,2,5,0,1
265079,-76.9230769230769,4,2,2,90,0,1
265868,-76.9230769230769,4,2,2,90,0,1
266921,-76.9230769230769,4,2,1,90,0,1
268500,-76.9230769230769,4,2,2,90,0,1
269026,-76.9230769230769,4,2,1,90,0,1
269289,-76.9230769230769,4,2,2,90,0,1
270277,-76.9230769230769,4,2,2,5,0,1
270342,-76.9230769230769,4,2,2,90,0,1
272381,-76.9230769230769,4,2,2,5,0,1
272447,-76.9230769230769,4,2,2,90,0,1
272973,-76.9230769230769,4,2,1,90,0,1
273237,-100,4,2,1,80,0,0
273500,-100,4,2,3,80,0,0
275342,-100,4,2,1,80,0,0
275605,-100,4,2,2,80,0,0
276263,-100,4,2,1,80,0,0
276921,-100,4,2,2,80,0,0
277448,-76.9230769230769,4,2,1,90,0,1
277645,-76.9230769230769,4,2,1,5,0,1
277711,-76.9230769230769,4,2,3,90,0,1
279290,-76.9230769230769,4,2,2,90,0,1
279553,-60.6060606060606,4,2,1,90,0,1
280211,-76.9230769230769,4,2,2,90,0,1
280474,-76.9230769230769,4,2,1,90,0,1
281659,-76.9230769230769,4,2,1,90,0,1
281922,-76.9230769230769,4,2,3,90,0,1
283763,-60.6060606060606,4,2,1,90,0,1
284422,-76.9230769230769,4,2,2,90,0,1
284684,-86.9565217391304,4,2,1,90,0,1
285079,-76.9230769230769,4,2,2,90,0,1
285869,-76.9230769230769,4,2,1,90,0,1
286133,-76.9230769230769,4,2,3,90,0,1
287711,-76.9230769230769,4,2,2,90,0,1
287974,-60.6060606060606,4,2,1,90,0,1
288632,-76.9230769230769,4,2,2,90,0,1
288895,-90.9090909090909,4,2,1,90,0,1
290079,-90.9090909090909,4,2,1,80,0,0
290276,-90.9090909090909,4,2,1,5,0,0
290342,-90.9090909090909,4,2,1,80,0,0
290605,-90.9090909090909,4,2,3,80,0,0
291131,-90.9090909090909,4,2,3,80,0,0
291921,-90.9090909090909,4,2,2,80,0,0
292118,-90.9090909090909,4,2,3,5,0,0
292184,-68.9655172413793,4,2,1,80,0,0
292842,-66.6666666666667,4,2,2,80,0,0
293105,-86.9565217391304,4,2,1,80,0,0
293500,-100,4,2,2,80,0,0
293763,-100,4,2,1,80,0,0
294290,-86.9565217391304,4,2,1,80,0,0
294487,-86.9565217391304,4,2,1,5,0,0
294553,-86.9565217391304,4,2,1,80,0,0
295342,-86.9565217391304,4,2,1,80,0,0
295540,-86.9565217391304,4,2,1,5,0,0
295605,-86.9565217391304,4,2,1,80,0,0
298698,-86.9565217391304,4,2,1,5,0,0
298763,-86.9565217391304,4,2,1,80,0,0
299750,-86.9565217391304,4,2,1,5,0,0
299816,-86.9565217391304,4,2,1,80,0,0
300869,-86.9565217391304,4,2,3,80,0,0
301263,-86.9565217391304,4,2,1,80,0,0
301526,-80,4,2,1,80,0,0
302711,-80,4,2,1,80,0,0
302974,-86.9565217391304,4,2,1,80,0,0
303961,-86.9565217391304,4,2,1,5,0,0
304026,-86.9565217391304,4,2,1,80,0,0
307119,-86.9565217391304,4,2,1,5,0,0
307184,-86.9565217391304,4,2,1,80,0,0
308171,-86.9565217391304,4,2,1,5,0,0
308237,-86.9565217391304,4,2,1,80,0,0
309026,-66.6666666666667,4,2,1,80,0,0
309948,-74.0740740740741,4,2,1,80,0,0
310211,-86.9565217391304,4,2,1,80,0,0
311132,-86.9565217391304,4,2,1,80,0,0
311329,-86.9565217391304,4,2,1,5,0,0
311395,-86.9565217391304,4,2,1,80,0,0
315540,-86.9565217391304,4,2,1,5,0,0
315605,-86.9565217391304,4,2,1,80,0,0
316592,-86.9565217391304,4,2,1,5,0,0
316658,-86.9565217391304,4,2,1,80,0,0
317711,-86.9565217391304,4,2,3,80,0,0
318105,-86.9565217391304,4,2,1,80,0,0
318368,-86.9565217391304,4,2,1,80,0,0
319553,-86.9565217391304,4,2,1,80,0,0
320605,-74.0740740740741,4,2,1,80,0,0
320803,-86.9565217391304,4,2,1,5,0,0
320868,-86.9565217391304,4,2,1,80,0,0
322908,-86.9565217391304,4,2,1,5,0,0
322974,-86.9565217391304,4,2,1,80,0,0
323961,-86.9565217391304,4,2,1,5,0,0
324026,-86.9565217391304,4,2,1,80,0,0
325013,-86.9565217391304,4,2,1,5,0,0
325079,-86.9565217391304,4,2,1,80,0,0
325868,-66.6666666666667,4,2,1,80,0,0
326790,-80,4,2,1,80,0,0
327053,-86.9565217391304,4,2,1,80,0,0
327316,-86.9565217391304,4,2,1,65,0,0
327448,-86.9565217391304,4,2,1,50,0,0
329027,-86.9565217391304,4,2,1,70,0,0
331132,-86.9565217391304,4,2,1,90,0,0
333237,-86.9565217391304,4,2,1,65,0,0

[Colours]
Combo1 : 163,92,177
Combo2 : 198,113,125
Combo3 : 182,150,90
Combo4 : 83,131,166

[HitObjects]
13,312,1658,6,0,P|72:308|134:307,1,117.799995326538,4|0,0:2|0:0,0:0:0:0:
219,377,2053,2,0,P|215:328|233:263,1,117.799995326538,0|0,0:0|0:0,0:0:0:0:
292,198,2448,1,0,0:0:0:0:
389,346,2711,6,0,P|436:337|503:355,1,117.799995326538,0|0,0:0|0:0,0:0:0:0:
463,238,3105,2,0,P|461:178|461:110,1,117.799995326538,0|0,0:0|0:0,0:0:0:0:
391,33,3500,2,0,P|377:65|378:33,1,88.3499964949037,0|0,0:0|0:0,0:0:0:0:
385,50,3763,5,4,3:3:0:0:
152,101,4027,1,4,3:3:0:0:
348,275,4290,5,8,0:2:0:0:
230,328,4421,2,0,B|200:329|200:329|231:290|275:305|275:305|290:342|331:349,1,170.999994781494,2|0,3:3|0:0,0:0:0:0:
348,275,4684,6,0,P|345:223|413:155,1,142.5,4|0,3:2|0:0,0:0:0:0:
478,148,4948,1,0,3:0:0:0:
308,63,5079,1,8,0:2:0:0:
445,251,5211,1,8,0:2:0:0:
229,177,5342,6,0,L|190:174,1,38,2|0,3:3|0:0,0:0:0:0:
229,177,5869,6,0,B|198:204|211:254|221:242|234:288|200:322,1,156.750004783631,6|0,3:1|0:0,0:0:0:0:
136,368,6132,1,10,0:2:0:0:
5,147,6263,2,0,L|119:138,1,104.500003189087,2|0,0:2|0:2,0:0:0:0:
303,216,6527,1,2,3:2:0:0:
191,38,6658,1,10,0:2:0:0:
87,247,6790,1,2,0:2:0:0:
319,203,6921,6,0,B|350:135|285:130|319:58|319:58|319:82|324:91,1,185.249991519928,2|0,3:2|0:2,0:0:0:0:
396,120,7184,1,10,0:2:0:0:
496,363,7316,2,0,P|448:336|400:336,1,104.500003189087,2|0,0:2|0:2,0:0:0:0:
204,170,7579,1,2,3:2:0:0:
204,170,7645,1,2,3:2:0:0:
204,170,7711,1,10,0:0:0:0:
264,368,7842,1,2,0:2:0:0:
416,234,7974,5,2,3:2:0:0:
335,281,8105,1,2,0:2:0:0:
204,170,8237,5,10,0:2:0:0:
285,123,8369,1,2,0:2:0:0:
77,143,8500,5,2,0:2:0:0:
212,286,8632,1,2,3:2:0:0:
103,376,8763,1,10,0:2:0:0:
2,323,8895,1,2,0:2:0:0:
43,239,9027,6,0,P|90:234|151:228,1,104.500003189087,0|0,3:2|0:2,0:0:0:0:
370,369,9290,2,0,P|323:364|262:358,1,104.500003189087,8|0,0:2|0:2,0:0:0:0:
449,306,9553,5,2,0:2:0:0:
323,167,9684,1,2,3:2:0:0:
505,206,9816,1,10,0:2:0:0:
335,281,9948,1,2,0:2:0:0:
429,121,10079,6,0,B|461:81|461:81|353:92,1,156.750004783631,6|0,3:2|0:2,0:0:0:0:
275,100,10342,2,0,P|287:50|328:16,1,104.500003189087,8|0,0:2|0:2,0:0:0:0:
67,119,10605,5,2,0:2:0:0:
219,285,10737,1,2,3:2:0:0:
0,237,10869,1,10,0:2:0:0:
203,147,11000,1,2,0:2:0:0:
91,340,11132,6,0,B|103:308|103:308|84:286|84:286|117:243|93:188,1,156.750004783631,2|0,3:2|0:2,0:0:0:0:
67,119,11395,2,0,P|71:65|77:3,1,104.500003189087,8|0,0:2|0:2,0:0:0:0:
317,271,11658,5,2,0:2:0:0:
423,155,11790,1,2,3:2:0:0:
270,189,11921,1,10,0:2:0:0:
412,252,12053,1,2,0:2:0:0:
334,113,12184,6,0,P|286:100|227:91,1,104.500003189087,4|0,3:2|0:0,0:0:0:0:
484,78,12448,1,10,0:0:0:0:
509,183,12579,1,2,0:0:0:0:
484,78,12711,1,2,3:2:0:0:
412,252,12842,5,0,3:0:0:0:
270,189,12974,1,8,0:0:0:0:
7,362,13105,6,0,B|-34:315|9:251|64:277|64:277|89:322|141:318,1,237.5,4|0,3:3|3:0,0:0:0:0:
359,193,13500,1,8,0:0:0:0:
69,62,13632,1,8,0:0:0:0:
69,62,13698,1,8,0:0:0:0:
69,62,13763,5,8,0:0:0:0:
135,242,13895,1,8,3:2:0:0:
270,189,14027,1,8,3:1:0:0:
214,101,14158,1,0,3:0:0:0:
473,63,14290,6,0,B|418:97|366:62|388:51|330:11|277:48,1,209.000006378174,6|10,3:2|0:2,0:0:0:0:
414,303,14684,2,0,P|457:276|517:272,1,104.500003189087,2|0,0:2|0:2,0:0:0:0:
300,283,14948,1,2,3:2:0:0:
482,181,15079,1,10,0:2:0:0:
318,111,15211,1,2,0:2:0:0:
146,311,15342,6,0,B|103:247|38:245|38:245|70:262|75:284,1,185.249991519928,2|0,3:2|0:2,0:0:0:0:
39,354,15605,1,10,0:2:0:0:
237,207,15737,2,0,P|228:152|203:112,1,104.500003189087,2|0,0:2|0:2,0:0:0:0:
15,70,16000,1,2,3:2:0:0:
15,70,16066,1,2,3:2:0:0:
15,70,16132,1,10,0:2:0:0:
143,188,16263,1,2,0:2:0:0:
278,36,16395,5,2,3:2:0:0:
190,0,16527,1,2,0:2:0:0:
364,172,16658,5,10,0:2:0:0:
444,121,16790,1,2,0:2:0:0:
237,207,16921,5,2,0:2:0:0:
324,370,17053,1,2,3:2:0:0:
438,263,17184,1,10,0:2:0:0:
364,172,17316,1,2,0:2:0:0:
310,281,17448,6,0,P|260:309|209:309,1,104.500003189087,0|0,3:2|0:2,0:0:0:0:
291,99,17711,2,0,P|341:71|392:71,1,104.500003189087,8|0,0:2|0:2,0:0:0:0:
171,165,17974,5,2,0:2:0:0:
10,34,18105,1,2,3:2:0:0:
158,177,18237,1,10,0:2:0:0:
23,21,18369,1,2,0:2:0:0:
143,188,18500,6,0,B|91:226|25:194|25:194|61:173,1,156.750004783631,6|0,3:2|0:0,0:0:0:0:
107,113,18763,2,0,P|108:57|112:-5,1,104.500003189087,8|0,0:0|0:0,0:0:0:0:
193,288,19027,5,2,0:2:0:0:
422,190,19158,1,2,3:2:0:0:
204,306,19290,1,10,0:2:0:0:
411,170,19421,1,2,0:2:0:0:
217,323,19553,6,0,B|253:307|292:334|292:334|317:297|358:300,1,156.750004783631,2|0,3:2|0:0,0:0:0:0:
433,362,19816,2,0,P|445:299|461:247,1,104.500003189087,8|0,0:0|0:0,0:0:0:0:
451,9,20079,5,2,0:2:0:0:
332,96,20211,1,2,3:2:0:0:
465,22,20342,1,10,0:2:0:0:
343,111,20474,1,2,0:2:0:0:
473,36,20605,6,0,B|494:70|477:102|477:102|444:126|449:167,1,142.500005435944,6|0,3:3|0:0,0:0:0:0:
187,271,20869,2,0,B|208:237|194:205|194:205|165:182|166:140,1,142.500005435944,10|0,0:0|0:0,0:0:0:0:
326,371,21132,5,10,0:0:0:0:
66,261,21263,1,2,3:0:0:0:
291,191,21395,1,10,0:0:0:0:
15,70,21527,6,0,B|-13:41|-13:41|36:27|76:57|76:57|85:47|85:47|124:78|176:61,1,237.5,4|0,3:2|3:0,0:0:0:0:
399,268,21921,1,8,0:2:0:0:
321,57,22053,1,8,3:3:0:0:
329,38,22119,1,8,3:3:0:0:
337,19,22184,5,8,3:3:0:0:
465,120,22316,1,8,3:1:0:0:
350,195,22448,1,0,3:0:0:0:
261,132,22579,1,0,3:0:0:0:
133,327,22711,6,0,P|186:326|285:338,2,152,4|0|0,3:3|3:0|3:0,0:0:0:0:
62,233,23369,2,0,P|105:227|143:219,1,76,8|0,3:1|3:0,0:0:0:0:
16,301,23632,1,0,0:0:0:0:
21,158,23763,6,0,P|20:97|11:2,1,152,0|0,3:0|3:0,0:0:0:0:
127,115,24158,2,0,P|129:74|136:36,1,76,8|0,3:1|3:0,0:0:0:0:
179,223,24421,1,8,3:1:0:0:
239,168,24553,2,0,P|237:127|230:89,1,76,0|0,3:0|3:0,0:0:0:0:
333,43,24816,6,0,P|409:49|486:30,2,152,4|0|0,3:2|3:0|3:0,0:0:0:0:
421,162,25474,2,0,P|378:154|338:152,1,76,8|0,3:1|3:0,0:0:0:0:
292,313,25737,6,0,P|284:275|276:238,1,76,0|0,0:0|3:0,0:0:0:0:
410,292,26000,2,0,P|402:328|394:366,2,76,0|0|8,0:0|3:0|3:1,0:0:0:0:
292,313,26395,1,0,3:0:0:0:
209,294,26527,1,8,3:1:0:0:
128,143,26658,5,8,0:0:0:0:
70,378,26790,1,8,0:0:0:0:
216,186,26921,6,0,P|219:138|224:97,1,85.4999973907472,4|0,3:2|0:0,0:0:0:0:
27,52,27184,2,0,P|31:94|34:137,1,85.4999973907472,10|0,0:0|0:0,0:0:0:0:
224,198,27448,2,0,P|227:150|232:109,1,85.4999973907472,2|0,0:0|3:0,0:0:0:0:
125,255,27711,1,10,0:0:0:0:
344,204,27842,6,0,P|388:198|503:244,1,170.999994781494,0|0,0:0|0:0,0:0:0:0:
414,105,28237,2,0,P|385:63|375:24,1,85.4999973907472,10|0,0:0|0:0,0:0:0:0:
305,278,28500,2,0,P|331:244|344:204,1,85.4999973907472,2|0,0:0|3:0,0:0:0:0:
396,350,28763,1,10,0:0:0:0:
159,369,28895,6,0,P|174:286|139:210,1,170.999994781494,0|0,0:0|0:0,0:0:0:0:
0,314,29290,2,0,P|43:304|99:296,1,85.4999973907472,10|0,0:0|0:0,0:0:0:0:
230,134,29553,2,0,P|187:124|131:116,1,85.4999973907472,2|0,0:0|3:0,0:0:0:0:
10,47,29816,1,10,0:0:0:0:
139,210,29948,1,0,0:0:0:0:
295,7,30079,6,0,P|310:76|355:113,1,128.249996086121,2|0,3:2|0:0,0:0:0:0:
421,164,30342,2,0,P|430:119|459:80,1,85.4999973907472,10|0,0:0|0:0,0:0:0:0:
305,302,30605,2,0,P|297:260|274:224,1,85.4999973907472,2|0,0:0|3:0,0:0:0:0:
415,349,30869,1,10,0:0:0:0:
215,292,31000,1,0,0:0:0:0:
503,253,31132,6,0,B|472:234|436:242|444:250|407:258|376:233,1,128.249996086121,4|0,3:2|0:0,0:0:0:0:
329,173,31395,2,0,P|290:151|248:154,1,85.4999973907472,10|0,0:0|0:0,0:0:0:0:
38,230,31658,1,2,0:0:0:0:
45,62,31790,2,0,P|42:109|41:150,1,85.4999973907472,0|10,3:0|0:0,0:0:0:0:
171,375,32053,6,0,P|222:309|305:302,1,170.999994781494,0|0,0:0|0:0,0:0:0:0:
117,266,32448,2,0,P|120:220|109:169,1,85.4999973907472,10|0,0:0|0:0,0:0:0:0:
254,68,32711,2,0,P|246:110|250:152,1,85.4999973907472,2|0,0:0|3:0,0:0:0:0:
196,12,32974,2,0,P|247:36|318:24,1,128.249996086121,10|0,0:0|0:0,0:0:0:0:
376,82,33237,6,0,P|429:65|464:63,1,85.4999973907472,2|0,3:2|0:0,0:0:0:0:
225,227,33500,2,0,P|278:244|313:246,1,85.4999973907472,8|0,0:0|0:0,0:0:0:0:
164,126,33763,1,2,0:0:0:0:
4,194,33895,1,0,3:0:0:0:
60,318,34027,1,10,0:0:0:0:
93,229,34158,6,0,P|82:158|7:92,1,170.999994781494,0|0,0:0|0:0,0:0:0:0:
221,310,34553,2,0,P|215:268|225:227,1,85.4999973907472,10|0,0:0|0:0,0:0:0:0:
380,143,34816,2,0,P|389:184|383:226,1,85.4999973907472,2|0,0:0|3:0,0:0:0:0:
241,32,35079,1,10,0:0:0:0:
298,185,35211,1,0,0:0:0:0:
225,227,35342,5,4,3:3:0:0:
439,293,35474,1,0,0:0:0:0:
278,360,35605,2,0,P|213:352|183:350,1,85.4999973907472,10|0,0:0|0:0,0:0:0:0:
25,191,35869,5,2,0:0:0:0:
146,110,36000,1,0,3:0:0:0:
225,227,36132,5,10,0:0:0:0:
344,286,36263,1,0,0:0:0:0:
141,286,36395,6,0,P|136:240|130:197,1,85.4999973907472,4|0,3:2|0:0,0:0:0:0:
309,100,36658,2,0,P|303:142|298:185,1,85.4999973907472,10|0,0:0|0:0,0:0:0:0:
241,32,36921,1,2,0:0:0:0:
477,210,37053,2,0,P|395:220|344:286,1,170.999994781494,0|0,3:0|0:0,0:0:0:0:
75,93,37448,6,0,P|122:87|171:76,1,95,4|0,3:3|0:0,0:0:0:0:
157,373,37711,2,0,P|151:326|140:277,1,95,10|0,0:2|0:0,0:0:0:0:
437,291,37974,2,0,P|390:297|341:308,1,95,2|0,0:2|3:0,0:0:0:0:
355,11,38237,2,0,P|361:58|372:107,1,95,10|0,0:2|0:0,0:0:0:0:
122,173,38500,6,0,P|178:153|267:220,1,178.125,2|0,3:3|0:0,0:0:0:0:
336,262,38763,2,0,P|286:242|217:277,1,135.374996385098,2|0,3:3|0:0,0:0:0:0:
157,373,39027,2,0,P|187:370|216:377,2,45.1249987950325,8|8|8,3:1|3:1|3:1,0:0:0:0:
70,248,39290,1,8,3:1:0:0:
284,321,39421,1,0,3:0:0:0:
351,382,39553,6,0,P|355:335|365:289,1,95,4|0,3:2|0:0,0:0:0:0:
285,187,39816,1,10,0:2:0:0:
459,101,39948,2,0,P|468:147|472:194,1,95,0|10,0:2|0:2,0:0:0:0:
365,289,40211,1,0,3:2:0:0:
183,182,40342,5,10,0:2:0:0:
327,72,40474,1,0,3:2:0:0:
147,257,40605,6,0,P|148:191|123:115,1,142.5,10|0,0:2|0:2,0:0:0:0:
71,59,40869,1,10,0:2:0:0:
244,109,41000,2,0,P|244:57|260:12,1,95,0|10,0:2|0:2,0:0:0:0:
384,153,41263,1,0,3:2:0:0:
271,284,41395,5,10,0:2:0:0:
441,336,41527,1,0,3:2:0:0:
489,260,41658,6,0,P|420:248|365:289,1,142.5,10|0,0:2|0:2,0:0:0:0:
315,364,41921,2,0,P|284:329|271:284,1,95,10|0,0:2|0:2,0:0:0:0:
60,200,42184,1,10,0:2:0:0:
170,115,42316,2,0,P|194:74|196:20,1,95,0|10,3:2|0:2,0:0:0:0:
60,200,42579,1,0,3:2:0:0:
176,307,42711,5,10,0:2:0:0:
7,352,42842,1,0,0:2:0:0:
215,232,42974,5,10,0:2:0:0:
60,200,43105,1,0,0:2:0:0:
277,178,43237,5,10,0:2:0:0:
170,115,43369,1,0,3:2:0:0:
320,67,43500,5,10,0:2:0:0:
292,258,43632,1,0,3:2:0:0:
281,339,43763,6,0,P|335:342|376:348,1,95,12|0,0:2|0:2,0:0:0:0:
215,380,44027,1,10,0:0:0:0:
29,254,44158,2,0,P|120:229|215:232,1,190,0|0,0:0|3:0,0:0:0:0:
399,154,44553,5,10,0:0:0:0:
239,67,44684,1,0,3:0:0:0:
450,238,44816,6,0,P|396:234|345:240,1,95,10|0,0:0|0:0,0:0:0:0:
512,186,45079,1,10,0:0:0:0:
335,33,45211,2,0,P|204:31|135:15,1,190,0|0,0:0|3:0,0:0:0:0:
29,254,45605,5,10,0:0:0:0:
162,128,45737,1,0,3:0:0:0:
227,304,45869,6,0,P|187:288|146:279,1,85.4999973907472,12|0,0:2|0:0,0:0:0:0:
318,180,46132,2,0,P|357:163|399:154,1,85.4999973907472,10|0,0:0|0:0,0:0:0:0:
404,294,46395,1,10,0:0:0:0:
233,182,46527,2,0,P|240:134|243:85,1,85.4999973907472,0|10,3:0|0:0,0:0:0:0:
90,191,46790,1,0,0:0:0:0:
305,357,46921,6,0,P|309:268|318:180,1,178.125,12|0,0:0|0:0,0:0:0:0:
390,118,47184,2,0,P|395:195|402:264,1,135.374996385098,12|0,0:0|0:0,0:0:0:0:
475,327,47448,2,0,P|476:299|479:274,2,45.1249987950325,8|8|8,3:1|3:1|3:1,0:0:0:0:
305,357,47711,1,8,3:1:0:0:
148,256,47842,1,0,3:0:0:0:
58,282,47974,6,0,P|58:236|42:141,1,142.5,4|0,3:3|0:0,0:0:0:0:
64,66,48237,2,0,P|112:63|174:57,1,95,10|0,0:0|0:0,0:0:0:0:
263,288,48500,1,10,0:0:0:0:
157,157,48632,1,0,3:2:0:0:
352,271,48763,5,10,0:2:0:0:
112,377,48895,1,0,3:2:0:0:
189,321,49027,6,0,P|243:328|334:351,1,142.5,10|0,0:2|0:2,0:0:0:0:
403,377,49290,1,10,0:2:0:0:
506,181,49421,2,0,P|452:177|412:184,1,95,0|10,0:2|0:2,0:0:0:0:
251,84,49684,1,0,3:2:0:0:
433,60,49816,5,10,0:2:0:0:
297,219,49948,1,0,3:2:0:0:
175,8,50079,6,0,P|173:50|159:102,1,95,10|0,0:2|0:2,0:0:0:0:
352,271,50342,2,0,P|339:225|336:178,1,95,10|0,0:2|0:2,0:0:0:0:
258,333,50605,1,10,0:2:0:0:
122,221,50737,2,0,P|70:206|23:198,1,95,0|10,3:2|0:2,0:0:0:0:
221,161,51000,1,0,3:2:0:0:
383,348,51132,5,10,0:2:0:0:
226,246,51263,1,0,0:0:0:0:
380,186,51395,5,10,0:2:0:0:
221,161,51527,1,0,0:0:0:0:
288,61,51658,5,10,0:2:0:0:
171,92,51790,1,0,3:0:0:0:
102,46,51921,5,10,0:2:0:0:
304,144,52053,1,0,3:0:0:0:
96,247,52184,6,0,B|61:265|61:265|63:196|127:166,1,163.875003125668,4|0,3:3|0:0,0:0:0:0:
171,92,52448,1,8,0:0:0:0:
277,355,52579,2,0,P|233:330|157:328,1,123.499994346619,4|0,3:2|3:0,0:0:0:0:
358,285,52974,5,10,0:0:0:0:
440,267,53105,1,0,0:0:0:0:
311,38,53237,6,0,B|285:98|341:103|308:177|308:177|310:157|304:144,1,178.125,4|0,3:3|0:0,0:0:0:0:
225,155,53500,1,8,0:0:0:0:
440,267,53632,2,0,P|462:207|511:172,1,123.499994346619,4|0,3:2|3:0,0:0:0:0:
249,234,54027,5,8,0:0:0:0:
115,203,54158,1,8,0:0:0:0:
429,55,54290,6,0,B|381:38|344:67|344:67|312:38|312:38|269:64|230:44,1,218.500004167557,4|8,3:2|0:0,0:0:0:0:
85,326,54684,2,0,B|133:309|170:338|170:338|202:309|202:309|245:335|284:315,1,218.500004167557,4|8,3:3|0:0,0:0:0:0:
441,42,55079,2,0,P|387:30|335:49,1,109.250002083778,4|0,3:2|0:0,0:0:0:0:
70,337,55342,5,12,0:2:0:0:
129,102,55474,1,0,3:0:0:0:
110,89,55540,1,0,3:0:0:0:
92,76,55605,1,0,3:1:0:0:
256,192,55737,1,8,3:1:0:0:
420,308,55869,5,2,3:0:0:0:
405,278,56000,5,2,0:0:0:0:
443,211,56132,5,2,0:0:0:0:
375,125,56263,5,2,0:0:0:0:
475,46,56395,6,0,P|419:85|326:54,1,170.999994781494,4|0,3:1|0:0,0:0:0:0:
246,53,56658,1,10,0:0:0:0:
128,241,56790,2,0,P|71:221|16:220,1,113.999996520996,0|0,0:0|0:0,0:0:0:0:
190,150,57053,1,0,3:0:0:0:
266,337,57184,2,0,B|315:307|354:331|341:336|384:360|429:333,1,170.999994781494,10|0,0:0|0:0,0:0:0:0:
389,266,57448,6,0,P|354:317|352:373,1,113.999996520996,0|0,3:0|0:0,0:0:0:0:
501,292,57711,1,10,0:0:0:0:
334,168,57842,2,0,P|331:111|327:55,1,113.999996520996,0|0,3:0|0:0,0:0:0:0:
98,128,58105,1,0,3:0:0:0:
260,252,58237,1,10,0:0:0:0:
40,318,58369,1,0,0:0:0:0:
126,233,58500,6,0,P|135:168|143:54,1,170.999994781494,0|0,3:0|0:0,0:0:0:0:
91,5,58763,1,10,0:0:0:0:
251,62,58895,1,0,0:0:0:0:
413,121,59027,2,0,P|417:62|422:1,1,113.999996520996,0|0,0:0|3:0,0:0:0:0:
320,213,59290,2,0,P|324:269|328:326,1,113.999996520996,10|0,0:0|0:0,0:0:0:0:
118,355,59553,6,0,B|54:333|63:259|126:229|182:279|207:315,1,227.999993041992,0|10,3:0|0:0,0:0:0:0:
204,310,59948,1,0,0:0:0:0:
346,33,60079,5,0,3:0:0:0:
320,213,60211,1,0,3:0:0:0:
139,188,60342,1,10,0:0:0:0:
165,7,60474,1,0,0:0:0:0:
243,111,60605,6,0,B|297:103|297:103|351:120|351:120|413:111,1,170.999994781494,4|0,3:3|0:0,0:0:0:0:
471,164,60869,1,10,0:0:0:0:
413,361,61000,2,0,P|351:340|299:330,1,113.999996520996,0|0,0:0|0:0,0:0:0:0:
320,213,61263,1,0,3:0:0:0:
146,294,61395,1,10,0:0:0:0:
57,95,61527,1,8,0:0:0:0:
57,95,61592,1,8,0:0:0:0:
57,95,61658,6,0,P|59:177|42:278,1,170.999994781494,0|0,3:0|0:0,0:0:0:0:
0,329,61921,1,10,0:0:0:0:
222,222,62053,2,0,P|228:166|243:111,1,113.999996520996,0|0,3:0|0:0,0:0:0:0:
303,330,62316,1,0,3:0:0:0:
130,197,62448,1,10,0:0:0:0:
397,95,62579,1,8,0:0:0:0:
397,95,62645,1,8,0:0:0:0:
397,95,62711,5,2,3:0:0:0:
477,165,62842,1,2,0:0:0:0:
376,199,62974,1,10,0:0:0:0:
457,271,63105,1,2,0:0:0:0:
457,271,63369,5,2,3:2:0:0:
397,95,63500,1,10,0:2:0:0:
275,235,63632,1,2,0:2:0:0:
376,199,63763,5,2,3:2:0:0:
194,163,63895,1,2,0:2:0:0:
158,345,64027,1,10,0:2:0:0:
340,381,64158,1,2,0:2:0:0:
275,235,64290,5,0,3:2:0:0:
93,199,64421,1,0,3:2:0:0:
215,59,64553,1,10,0:2:0:0:
194,163,64684,1,0,0:0:0:0:
17,48,64816,6,0,B|48:12|92:26|114:44|114:44|115:52|115:52|132:74|179:91|215:59,1,227.999993041992,4|10,3:3|0:0,0:0:0:0:
489,253,65211,2,0,P|489:192|505:135,1,113.999996520996,0|0,0:0|0:0,0:0:0:0:
292,148,65474,1,0,3:0:0:0:
384,314,65605,1,10,0:0:0:0:
182,253,65737,1,0,0:0:0:0:
385,187,65869,6,0,P|389:127|359:72,1,113.999996520996,0|0,3:0|0:0,0:0:0:0:
184,346,66132,2,0,P|244:336|310:326,1,113.999996520996,10|0,0:0|3:0,0:0:0:0:
112,143,66395,2,0,P|52:133|-14:123,1,113.999996520996,0|0,0:0|3:0,0:0:0:0:
196,358,66658,2,0,P|256:348|322:338,1,113.999996520996,10|0,0:0|0:0,0:0:0:0:
214,93,66921,5,0,3:0:0:0:
45,305,67053,1,0,0:0:0:0:
278,258,67184,1,10,0:0:0:0:
145,217,67316,2,0,P|139:160|130:95,1,113.999996520996,0|0,0:0|0:0,0:0:0:0:
286,269,67579,1,0,3:0:0:0:
434,162,67711,1,10,0:0:0:0:
265,32,67842,1,0,0:0:0:0:
490,81,67974,6,0,P|464:144|512:232,1,170.999994781494,0|0,3:0|0:0,0:0:0:0:
491,319,68237,2,0,P|433:294|383:300,1,113.999996520996,10|0,0:0|0:0,0:0:0:0:
145,217,68500,1,0,3:0:0:0:
311,174,68632,1,0,3:0:0:0:
198,319,68763,5,10,0:0:0:0:
30,96,68895,1,8,0:0:0:0:
30,96,68961,1,8,0:0:0:0:
30,96,69027,6,0,B|42:145|101:146|101:146|157:119|207:160,1,199.499993911743,4|10,3:2|0:0,0:0:0:0:
85,362,69421,2,0,P|45:324|34:281,1,99.7499969558717,0|2,0:0|0:0,0:0:0:0:
291,331,69684,2,0,P|243:338|198:319,1,99.7499969558717,0|10,3:0|0:0,0:0:0:0:
400,152,69948,6,0,P|381:228|463:303,1,199.499993911743,0|0,0:0|0:0,0:0:0:0:
471,78,70342,2,0,P|425:53|378:52,1,99.7499969558717,10|0,0:0|3:0,0:0:0:0:
429,251,70605,2,0,P|473:223|498:183,1,99.7499969558717,2|0,0:0|3:0,0:0:0:0:
300,128,70869,2,0,P|301:180|323:221,1,99.7499969558717,10|0,0:0|0:0,0:0:0:0:
38,215,71132,6,0,P|102:197|151:76,1,199.499993911743,4|10,3:2|0:0,0:0:0:0:
221,225,71527,1,0,0:0:0:0:
51,113,71658,1,2,3:2:0:0:
124,330,71790,1,0,3:0:0:0:
323,221,71921,1,10,0:0:0:0:
387,346,72053,6,0,B|346:359|346:359|298:329|293:270|323:221,1,199.499993911743,4|0,3:3|3:0,0:0:0:0:
491,243,72448,2,0,P|481:187|485:141,1,99.7499969558717,12|0,0:0|0:0,0:0:0:0:
226,29,72711,5,2,3:2:0:0:
275,99,72842,5,10,0:0:0:0:
246,201,72974,5,10,0:0:0:0:
132,259,73105,5,10,0:0:0:0:
50,121,73237,6,0,B|122:99|160:163|137:158|177:221|246:201,1,227.999993041992,4|10,3:1|0:0,0:0:0:0:
29,319,73632,2,0,P|3:273|9:214,1,113.999996520996,0|0,0:0|0:0,0:0:0:0:
200,367,73895,1,0,3:0:0:0:
360,257,74027,2,0,P|414:239|473:238,1,113.999996520996,10|0,0:0|0:0,0:0:0:0:
246,201,74290,5,0,3:0:0:0:
427,320,74421,1,0,0:0:0:0:
200,367,74553,1,10,0:0:0:0:
352,152,74684,2,0,P|356:88|364:29,1,113.999996520996,0|0,3:0|0:0,0:0:0:0:
95,30,74948,1,0,3:0:0:0:
2,240,75079,1,10,0:0:0:0:
174,152,75211,1,0,0:0:0:0:
349,331,75342,6,0,P|306:276|208:258,1,170.999994781494,0|0,3:0|0:0,0:0:0:0:
140,294,75605,1,10,0:0:0:0:
174,152,75737,1,0,0:0:0:0:
207,9,75869,2,0,P|149:22|87:32,1,113.999996520996,0|0,0:0|3:0,0:0:0:0:
352,152,76132,2,0,P|407:164|463:173,1,113.999996520996,10|0,0:0|0:0,0:0:0:0:
317,18,76395,6,0,B|352:63|352:63|280:63|241:126|271:187,1,227.999993041992,0|10,3:0|0:0,0:0:0:0:
267,178,76790,1,0,0:0:0:0:
159,379,76921,5,0,3:0:0:0:
142,169,77053,1,0,3:0:0:0:
352,152,77184,1,10,0:0:0:0:
369,362,77316,1,0,0:0:0:0:
467,301,77448,6,0,P|403:326|313:287,1,170.999994781494,4|0,3:3|0:0,0:0:0:0:
234,301,77711,1,10,0:0:0:0:
57,209,77842,2,0,P|54:154|50:95,1,113.999996520996,0|0,0:0|0:0,0:0:0:0:
51,96,78105,1,0,3:0:0:0:
271,182,78237,1,10,0:0:0:0:
0,305,78369,1,0,0:0:0:0:
173,52,78500,6,0,B|229:-5|295:34|295:34|300:75|265:102,1,213.750008153916,0|0,3:0|0:0,0:0:0:0:
197,145,78763,1,10,0:0:0:0:
432,190,78895,2,0,P|435:127|440:71,1,113.999996520996,0|0,3:0|0:0,0:0:0:0:
337,319,79158,1,0,3:0:0:0:
265,102,79290,1,10,0:0:0:0:
110,345,79421,1,8,0:0:0:0:
110,345,79487,1,8,0:0:0:0:
110,345,79553,5,2,3:2:0:0:
121,257,79684,1,2,0:2:0:0:
208,270,79816,1,10,0:2:0:0:
196,356,79948,1,2,0:2:0:0:
196,356,80211,5,2,3:2:0:0:
220,184,80342,1,10,0:0:0:0:
244,12,80474,1,2,0:2:0:0:
151,130,80605,5,2,3:2:0:0:
312,65,80737,1,2,0:2:0:0:
163,44,80869,1,10,0:0:0:0:
300,151,81000,1,2,0:2:0:0:
71,162,81132,5,0,3:2:0:0:
232,98,81263,1,0,3:2:0:0:
368,204,81395,1,10,0:2:0:0:
208,270,81527,1,0,0:2:0:0:
127,328,81658,6,0,P|59:339|8:350,1,113.999996520996,4|0,3:3|0:0,0:0:0:0:
261,367,81921,1,10,0:0:0:0:
379,292,82053,2,0,P|435:283|501:275,1,113.999996520996,0|0,0:0|0:0,0:0:0:0:
411,122,82316,1,0,3:0:0:0:
451,357,82448,1,10,0:0:0:0:
288,236,82579,1,0,0:0:0:0:
127,328,82711,6,0,P|107:275|120:219,1,113.999996520996,0|0,3:0|0:0,0:0:0:0:
267,37,82974,2,0,P|210:35|151:32,1,113.999996520996,10|0,0:0|0:0,0:0:0:0:
288,236,83237,2,0,P|345:234|404:231,1,113.999996520996,0|0,0:0|3:0,0:0:0:0:
257,25,83500,2,0,P|200:23|141:20,1,113.999996520996,10|0,0:0|0:0,0:0:0:0:
486,155,83763,6,0,B|548:87|479:5|479:5|481:38|462:62,1,227.999993041992,0|10,3:0|0:0,0:0:0:0:
218,114,84158,2,0,P|274:118|327:97,1,113.999996520996,0|0,0:0|0:0,0:0:0:0:
121,212,84421,1,0,3:0:0:0:
363,319,84553,1,10,0:0:0:0:
150,379,84684,1,0,0:0:0:0:
232,290,84816,6,0,P|160:292|48:311,1,170.999994781494,0|0,3:0|0:0,0:0:0:0:
4,365,85079,2,0,P|22:292|16:255,1,113.999996520996,10|0,0:0|0:0,0:0:0:0:
218,114,85342,1,0,3:0:0:0:
76,72,85474,1,0,3:0:0:0:
313,239,85605,2,0,P|351:192|459:177,1,170.999994781494,12|0,0:2|0:0,0:0:0:0:
455,254,85869,6,0,P|397:229|416:108,1,190,4|10,3:3|0:0,0:0:0:0:
253,18,86263,2,0,P|303:11|358:2,1,95,0|2,0:0|0:0,0:0:0:0:
151,162,86527,2,0,P|201:169|256:178,1,95,0|10,3:0|0:0,0:0:0:0:
369,380,86790,6,0,P|321:335|198:332,1,190,0|0,0:0|0:0,0:0:0:0:
30,258,87184,2,0,P|26:308|20:363,1,95,10|0,0:0|0:0,0:0:0:0:
151,162,87448,2,0,P|155:212|161:267,1,95,2|0,3:2|3:0,0:0:0:0:
8,42,87711,2,0,P|4:92|-2:147,1,95,10|0,0:0|0:0,0:0:0:0:
206,9,87974,6,0,P|232:96|320:119,1,190,4|10,3:3|0:0,0:0:0:0:
404,44,88369,1,0,0:0:0:0:
406,200,88500,2,0,P|413:249|422:300,1,95,2|0,0:0|3:0,0:0:0:0:
320,119,88763,1,10,0:0:0:0:
293,384,88895,6,0,P|276:290|263:196,1,190,4|0,3:2|3:0,0:0:0:0:
113,135,89290,2,0,P|120:184|136:283,1,142.5,8|0,0:0|0:0,0:0:0:0:
166,351,89553,5,2,3:3:0:0:
17,249,89684,1,8,0:0:0:0:
17,249,89750,1,8,0:0:0:0:
17,249,89816,1,8,0:0:0:0:
217,90,89948,1,8,0:0:0:0:
263,196,90079,6,0,B|319:187|319:187|371:209|371:209|428:203,1,170.999994781494,4|0,3:2|0:0,0:0:0:0:
498,253,90342,2,0,B|512:196|512:196|488:142,1,113.999996520996,8|0,0:0|0:0,0:0:0:0:
345,40,90605,5,10,0:2:0:0:
263,196,90737,1,0,3:0:0:0:
135,108,90869,5,10,0:2:0:0:
265,301,91000,1,0,3:0:0:0:
28,353,91132,5,10,0:2:0:0:
169,206,91263,1,0,3:0:0:0:
317,381,91395,5,10,0:2:0:0:
125,290,91527,1,0,3:0:0:0:
372,208,91658,5,10,0:2:0:0:
201,373,91790,1,0,3:0:0:0:
56,180,91921,5,10,0:2:0:0:
142,117,92053,1,0,3:0:0:0:
5,52,92184,6,0,B|35:72|73:59|73:59|101:25|145:29,1,152,4|0,3:2|0:0,0:0:0:0:
490,216,92448,2,0,B|460:196|422:209|422:209|394:243|350:239,1,152,4|0,3:3|0:0,0:0:0:0:
40,348,92711,5,8,0:0:0:0:
365,83,92842,1,2,3:3:0:0:
258,124,93105,6,0,B|219:173|252:224|264:210|295:257|265:301,1,190,12|0,0:0|3:0,0:0:0:0:
465,350,93500,1,8,0:0:0:0:
465,350,93566,1,8,0:0:0:0:
465,350,93632,1,8,0:0:0:0:
265,301,93763,1,8,3:3:0:0:
146,201,93895,1,8,3:1:0:0:
58,253,94027,1,0,3:0:0:0:
95,320,94158,1,0,3:0:0:0:
67,139,94290,6,0,P|64:73|61:22,1,113.999996520996,4|0,3:2|0:0,0:0:0:0:
259,187,94553,2,0,P|262:244|265:301,1,113.999996520996,10|0,0:0|0:0,0:0:0:0:
370,90,94816,5,8,0:0:0:0:
191,51,94948,1,0,3:0:0:0:
259,187,95079,5,10,0:0:0:0:
437,22,95211,1,0,3:0:0:0:
425,242,95342,5,10,0:0:0:0:
277,95,95474,1,0,3:0:0:0:
512,128,95605,5,10,0:0:0:0:
332,240,95737,1,0,3:0:0:0:
512,351,95869,5,10,0:0:0:0:
377,163,96000,1,0,3:0:0:0:
172,256,96132,5,10,0:0:0:0:
88,231,96263,1,0,3:0:0:0:
175,340,96395,6,0,B|212:349|242:312|242:312|268:349|306:343,1,152,4|0,3:2|0:0,0:0:0:0:
454,38,96658,2,0,B|417:29|387:66|387:66|361:29|321:36,1,152,4|0,3:3|0:0,0:0:0:0:
7,116,96921,5,8,0:0:0:0:
306,343,97053,1,2,3:3:0:0:
218,236,97316,6,0,P|254:167|291:236,1,190,12|0,0:0|3:0,0:0:0:0:
89,323,97711,2,0,P|79:277|88:231,1,95,10|0,0:0|0:0,0:0:0:0:
191,70,97974,5,2,3:2:0:0:
106,36,98105,1,0,3:0:0:0:
205,152,98237,1,10,0:0:0:0:
348,82,98369,1,0,0:0:0:0:
469,280,98500,6,0,P|392:253|376:173,1,170.999994781494,4|0,3:2|0:0,0:0:0:0:
449,133,98763,2,0,P|466:81|457:19,1,113.999996520996,10|0,0:0|0:0,0:0:0:0:
261,33,99027,5,10,0:0:0:0:
109,218,99158,1,0,3:0:0:0:
269,188,99290,5,10,0:0:0:0:
46,105,99421,1,0,3:0:0:0:
252,321,99553,5,10,0:0:0:0:
185,115,99684,1,0,3:0:0:0:
80,343,99816,5,10,0:0:0:0:
269,188,99948,1,0,3:0:0:0:
434,336,100079,5,10,0:0:0:0:
197,246,100211,1,0,3:0:0:0:
419,137,100342,5,10,0:0:0:0:
353,65,100474,1,0,3:0:0:0:
502,28,100605,6,0,B|473:63|492:104|500:96|519:136|494:174,1,152,4|0,3:2|0:0,0:0:0:0:
116,353,100869,2,0,B|145:318|126:277|118:285|99:245|124:207,1,152,4|0,3:2|0:0,0:0:0:0:
353,65,101132,5,8,0:0:0:0:
7,23,101263,1,2,3:3:0:0:
62,117,101527,6,0,B|110:94|116:38|116:38|143:84|197:79,1,190,12|0,0:0|3:0,0:0:0:0:
319,140,101921,1,8,0:0:0:0:
319,140,101987,1,8,0:0:0:0:
319,140,102053,1,8,0:0:0:0:
166,291,102184,1,8,3:3:0:0:
326,251,102316,1,8,3:1:0:0:
435,318,102448,1,0,3:0:0:0:
506,298,102579,1,0,3:0:0:0:
308,349,102711,6,0,P|299:279|264:197,1,156.750004783631,4|12,3:3|0:2,0:0:0:0:
319,140,102974,1,12,0:0:0:0:
503,47,103105,2,0,P|502:102|509:156,1,104.500003189087,0|2,0:0|0:0,0:0:0:0:
431,220,103369,1,0,3:0:0:0:
306,21,103500,2,0,P|254:51|164:30,1,156.750004783631,10|0,0:0|0:0,0:0:0:0:
103,88,103763,6,0,P|136:132|148:179,1,104.500003189087,2|0,3:2|0:0,0:0:0:0:
17,261,104027,1,10,0:0:0:0:
246,176,104158,2,0,P|228:228|197:265,1,104.500003189087,0|2,3:2|0:0,0:0:0:0:
5,262,104421,1,0,3:0:0:0:
224,366,104553,2,0,P|284:336|371:358,1,156.750004783631,10|0,0:0|0:0,0:0:0:0:
451,341,104816,6,0,B|424:300|454:242|454:242|458:262|470:280,1,142.500005435944,4|0,3:0|0:0,0:0:0:0:
301,14,105079,2,0,B|328:55|298:113|298:113|294:93|282:75,1,142.500005435944,12|0,0:0|0:0,0:0:0:0:
485,150,105342,5,8,0:0:0:0:
197,265,105474,1,2,3:3:0:0:
286,222,105737,6,0,P|236:178|120:205,1,190,12|0,0:0|3:0,0:0:0:0:
16,35,106132,2,0,P|66:63|106:64,1,95,10|0,0:0|0:0,0:0:0:0:
31,199,106395,1,8,0:0:0:0:
31,199,106461,1,8,0:0:0:0:
31,199,106527,1,8,0:0:0:0:
187,358,106658,1,8,0:0:0:0:
374,170,106790,1,8,0:0:0:0:
286,222,106921,6,0,P|282:162|275:102,1,104.500003189087,6|0,3:2|0:0,0:0:0:0:
350,312,107184,1,10,0:2:0:0:
489,155,107316,2,0,P|483:206|480:259,1,104.500003189087,2|0,0:2|0:2,0:0:0:0:
270,354,107579,1,2,3:2:0:0:
374,170,107711,1,10,0:2:0:0:
163,261,107842,1,2,0:2:0:0:
416,100,107974,6,0,B|373:70|324:93|335:106|290:131|245:91,1,178.125,2|0,3:2|0:2,0:0:0:0:
184,47,108237,1,10,0:2:0:0:
59,272,108369,2,0,P|111:266|163:261,1,104.500003189087,2|0,0:2|0:2,0:0:0:0:
7,142,108632,1,2,3:2:0:0:
7,142,108698,1,2,3:2:0:0:
7,142,108763,1,10,0:2:0:0:
241,212,108895,1,2,0:2:0:0:
122,344,109027,5,2,3:2:0:0:
106,185,109158,1,2,0:2:0:0:
280,134,109290,5,10,0:2:0:0:
264,293,109421,1,2,0:2:0:0:
409,358,109553,5,2,0:2:0:0:
241,212,109684,1,2,3:2:0:0:
392,131,109816,1,10,0:2:0:0:
450,228,109948,1,2,0:2:0:0:
366,272,110079,6,0,P|314:279|264:293,1,104.500003189087,0|0,3:2|0:2,0:0:0:0:
480,138,110342,2,0,P|483:86|489:31,1,104.500003189087,8|0,0:2|0:2,0:0:0:0:
242,77,110605,5,2,0:2:0:0:
241,212,110737,1,2,3:2:0:0:
32,145,110869,1,10,0:2:0:0:
112,254,111000,1,2,0:2:0:0:
112,35,111132,6,0,B|164:28|164:28|211:50|211:50|264:44,1,156.750004783631,6|0,3:2|0:2,0:0:0:0:
337,5,111395,2,0,B|346:57|346:57|321:105,1,104.500003189087,8|0,0:2|0:2,0:0:0:0:
166,315,111658,5,2,0:2:0:0:
167,153,111790,1,2,3:2:0:0:
418,233,111921,1,10,0:2:0:0:
322,102,112053,1,2,0:2:0:0:
322,365,112184,6,0,P|327:289|337:205,1,156.750004783631,2|0,3:2|0:2,0:0:0:0:
253,174,112448,2,0,P|248:242|244:289,1,104.500003189087,8|0,0:2|0:2,0:0:0:0:
18,351,112711,5,2,0:2:0:0:
120,366,112842,1,2,3:2:0:0:
93,202,112974,1,10,0:2:0:0:
166,274,113105,1,2,0:2:0:0:
3,250,113237,6,0,P|4:184|5:122,1,104.500003189087,4|0,3:2|0:0,0:0:0:0:
153,29,113500,1,10,0:0:0:0:
177,138,113632,1,2,0:0:0:0:
153,29,113763,1,2,3:2:0:0:
287,206,113895,5,0,3:0:0:0:
390,72,114027,1,8,0:0:0:0:
426,304,114158,6,0,B|410:325|404:352|404:352|348:318|358:273|358:273|397:237|380:179,1,246.999988693238,4|0,3:3|3:0,0:0:0:0:
247,69,114553,1,8,0:0:0:0:
152,331,114684,1,8,0:0:0:0:
152,331,114750,1,8,0:0:0:0:
152,331,114816,5,8,0:0:0:0:
287,206,114948,1,8,3:2:0:0:
206,144,115079,1,8,3:1:0:0:
247,69,115211,1,0,3:0:0:0:
35,179,115342,6,0,P|29:237|21:285,1,104.500003189087,6|0,3:2|0:0,0:0:0:0:
152,331,115605,1,10,0:2:0:0:
103,90,115737,2,0,P|51:98|0:103,1,104.500003189087,2|0,0:2|0:2,0:0:0:0:
191,241,116000,1,2,3:2:0:0:
356,115,116132,1,10,0:2:0:0:
177,16,116263,1,2,0:2:0:0:
435,73,116395,6,0,B|459:122|430:169|430:169|440:167|440:167|412:216|440:259,1,209.000006378174,2|10,3:2|0:2,0:0:0:0:
279,363,116790,2,0,P|276:311|273:259,1,104.500003189087,2|0,0:2|0:2,0:0:0:0:
119,199,117053,1,2,3:2:0:0:
119,199,117119,1,2,3:2:0:0:
119,199,117184,1,10,0:2:0:0:
257,109,117316,1,2,0:2:0:0:
384,302,117448,5,2,3:2:0:0:
273,259,117579,1,2,0:2:0:0:
59,356,117711,5,10,0:2:0:0:
168,334,117842,1,2,0:2:0:0:
39,176,117974,5,2,0:2:0:0:
196,263,118105,1,2,3:2:0:0:
257,109,118237,1,10,0:2:0:0:
160,68,118369,1,2,0:2:0:0:
343,50,118500,6,0,P|339:141|336:210,1,156.750004783631,0|0,3:2|0:0,0:0:0:0:
385,281,118763,2,0,P|442:284|503:294,1,104.500003189087,8|0,0:2|0:2,0:0:0:0:
188,186,119027,5,2,0:2:0:0:
168,334,119158,1,2,3:2:0:0:
336,206,119290,1,10,0:2:0:0:
315,354,119421,1,2,0:2:0:0:
252,270,119553,6,0,P|171:259|94:255,1,156.750004783631,6|0,3:2|0:0,0:0:0:0:
19,218,119816,2,0,P|35:183|44:108,1,104.500003189087,8|0,0:0|0:0,0:0:0:0:
308,6,120079,5,2,0:2:0:0:
336,206,120211,1,2,3:2:0:0:
109,34,120342,1,10,0:2:0:0:
137,233,120474,1,2,0:2:0:0:
222,120,120605,6,0,B|272:93|316:126|316:126|376:113,1,156.750004783631,2|0,3:2|0:0,0:0:0:0:
438,65,120869,2,0,P|452:122|435:167,1,104.500003189087,8|0,0:0|0:0,0:0:0:0:
292,380,121132,5,2,0:2:0:0:
410,368,121263,1,2,3:2:0:0:
280,261,121395,1,10,0:2:0:0:
400,250,121527,1,2,0:2:0:0:
191,333,121658,6,0,B|157:349|157:349|127:340|127:340|87:358|53:340,1,142.500005435944,6|0,3:3|0:0,0:0:0:0:
0,80,121921,2,0,B|34:64|34:64|64:73|64:73|104:55|138:73,1,142.500005435944,10|0,0:2|0:0,0:0:0:0:
343,316,122184,5,10,0:2:0:0:
105,160,122316,1,2,3:2:0:0:
339,69,122448,1,10,0:2:0:0:
191,333,122579,6,0,B|168:286|168:286|221:267|268:296|248:307|294:336|343:316,1,237.5,6|0,3:3|3:0,0:0:0:0:
487,166,122974,1,12,0:0:0:0:
248,89,123105,1,8,0:0:0:0:
248,89,123171,1,8,0:0:0:0:
248,89,123237,5,8,0:0:0:0:
71,261,123369,1,8,3:1:0:0:
190,212,123500,1,0,3:0:0:0:
113,161,123632,1,0,3:0:0:0:
336,23,123763,6,0,P|384:33|491:27,2,152,4|0|0,3:2|3:2|3:2,0:0:0:0:
248,89,124421,2,0,P|251:126|261:163,1,76,8|0,3:1|3:2,0:0:0:0:
195,31,124684,1,0,0:2:0:0:
84,109,124816,6,0,P|81:185|71:261,1,152,0|0,3:2|3:2,0:0:0:0:
179,349,125211,2,0,P|134:343|97:340,1,76,8|0,3:1|3:2,0:0:0:0:
188,234,125474,1,8,3:1:0:0:
256,281,125605,2,0,P|301:275|338:272,1,76,0|0,3:2|0:2,0:0:0:0:
418,171,125869,6,0,P|362:173|266:151,2,152,4|0|0,3:2|3:2|3:2,0:0:0:0:
495,288,126527,2,0,P|498:243|512:199,1,76,8|0,3:1|3:2,0:0:0:0:
381,306,126790,6,0,P|390:342|392:380,1,76,0|0,0:2|3:2,0:0:0:0:
284,247,127053,2,0,P|284:197|286:158,2,76,0|0|8,0:2|3:2|3:1,0:0:0:0:
395,202,127448,1,8,3:1:0:0:
364,123,127579,1,0,3:0:0:0:
212,92,127711,5,8,0:0:0:0:
438,27,127842,1,8,0:0:0:0:
160,168,127974,6,0,P|121:125|117:87,1,85.4999973907472,4|0,3:2|0:0,0:0:0:0:
240,315,128237,2,0,P|271:287|284:247,1,85.4999973907472,10|0,0:0|0:0,0:0:0:0:
41,288,128500,2,0,P|80:331|84:369,1,85.4999973907472,2|0,0:0|3:0,0:0:0:0:
47,195,128763,1,10,0:0:0:0:
212,92,128895,6,0,P|267:97|384:77,1,170.999994781494,0|0,0:0|0:0,0:0:0:0:
496,207,129290,2,0,P|448:200|399:194,1,85.4999973907472,10|0,0:0|0:0,0:0:0:0:
240,315,129553,2,0,P|288:308|337:302,1,85.4999973907472,2|0,0:0|3:0,0:0:0:0:
178,253,129816,1,10,0:0:0:0:
404,366,129948,6,0,P|403:310|413:185,1,170.999994781494,0|0,0:0|0:0,0:0:0:0:
242,106,130342,2,0,P|240:49|234:10,1,85.4999973907472,10|0,0:0|0:0,0:0:0:0:
149,160,130605,1,2,0:0:0:0:
11,202,130737,1,0,3:0:0:0:
66,42,130869,2,0,P|60:84|60:127,1,85.4999973907472,10|0,0:0|0:0,0:0:0:0:
178,253,131132,6,0,P|116:255|68:299,1,128.249996086121,2|0,3:2|0:0,0:0:0:0:
112,366,131395,2,0,P|167:357|202:353,1,85.4999973907472,10|0,0:0|0:0,0:0:0:0:
348,219,131658,2,0,P|293:210|258:206,1,85.4999973907472,2|0,0:0|3:0,0:0:0:0:
178,253,131921,1,10,0:0:0:0:
60,127,132053,1,0,0:0:0:0:
240,53,132184,6,0,B|274:62|305:39|291:35|321:15|360:22,1,128.249996086121,4|0,3:2|0:0,0:0:0:0:
435,53,132448,1,10,0:0:0:0:
390,149,132579,1,0,0:0:0:0:
512,274,132711,1,2,0:0:0:0:
475,202,132842,2,0,P|488:150|481:107,1,85.4999973907472,0|10,3:0|0:0,0:0:0:0:
411,358,133105,6,0,P|377:314|262:290,1,170.999994781494,0|0,0:0|0:0,0:0:0:0:
125,361,133500,2,0,P|109:322|111:280,1,85.4999973907472,10|0,0:0|0:0,0:0:0:0:
241,128,133763,2,0,P|258:175|253:218,1,85.4999973907472,2|0,0:0|3:0,0:0:0:0:
37,220,134027,2,0,P|84:188|168:205,1,128.249996086121,10|0,0:0|0:0,0:0:0:0:
195,265,134290,6,0,P|156:269|108:282,1,85.4999973907472,2|0,3:2|0:0,0:0:0:0:
35,117,134553,2,0,P|48:76|45:34,1,85.4999973907472,10|0,0:0|0:0,0:0:0:0:
242,26,134816,1,2,0:0:0:0:
152,194,134948,2,0,P|138:153|141:111,1,85.4999973907472,0|10,3:0|0:0,0:0:0:0:
333,209,135211,6,0,P|357:142|461:123,1,170.999994781494,0|0,0:0|0:0,0:0:0:0:
327,30,135605,2,0,P|284:27|242:26,1,85.4999973907472,10|0,0:0|0:0,0:0:0:0:
421,203,135869,2,0,P|416:246|415:289,1,85.4999973907472,2|0,0:0|3:0,0:0:0:0:
187,174,136132,5,10,0:0:0:0:
251,359,136263,1,0,0:0:0:0:
314,302,136395,5,4,3:3:0:0:
203,268,136527,1,0,0:0:0:0:
382,370,136658,1,10,0:2:0:0:
493,336,136790,1,0,0:0:0:0:
339,157,136921,5,2,0:0:0:0:
415,289,137053,1,0,3:0:0:0:
432,112,137184,5,10,0:0:0:0:
314,302,137316,1,0,0:0:0:0:
203,268,137448,6,0,P|159:271|117:276,1,85.4999973907472,4|0,3:2|0:0,0:0:0:0:
6,122,137711,2,0,P|50:125|92:130,1,85.4999973907472,10|0,0:2|0:0,0:0:0:0:
34,253,137974,1,2,0:0:0:0:
181,102,138105,2,0,P|185:49|189:5,1,85.4999973907472,0|10,3:0|0:0,0:0:0:0:
242,185,138369,1,0,0:0:0:0:
437,93,138500,6,0,P|390:87|341:76,1,95,4|0,3:3|0:0,0:0:0:0:
355,373,138763,2,0,P|361:326|372:277,1,95,10|0,0:2|0:0,0:0:0:0:
75,291,139027,2,0,P|122:297|171:308,1,95,2|0,0:2|3:0,0:0:0:0:
157,11,139290,2,0,P|151:58|140:107,1,95,10|0,0:2|0:0,0:0:0:0:
469,186,139553,6,0,P|393:196|339:114,1,178.125,2|0,3:3|0:0,0:0:0:0:
251,151,139816,2,0,P|185:152|141:104,1,135.374996385098,2|0,3:3|0:0,0:0:0:0:
57,132,140079,2,0,P|31:133|3:120,2,45.1249987950325,8|8|8,3:1|3:1|3:1,0:0:0:0:
218,82,140342,1,8,3:1:0:0:
75,291,140474,1,0,3:0:0:0:
164,253,140605,6,0,P|214:243|262:237,1,95,4|0,3:3|0:0,0:0:0:0:
357,346,140869,1,10,0:0:0:0:
371,166,141000,2,0,P|378:118|385:71,1,95,0|10,0:0|0:0,0:0:0:0:
444,248,141263,1,0,3:0:0:0:
218,164,141395,5,10,0:0:0:0:
385,72,141527,1,0,3:0:0:0:
303,279,141658,6,0,P|234:259|164:253,1,142.5,10|0,0:0|0:0,0:0:0:0:
100,303,141921,1,10,0:0:0:0:
10,137,142053,2,0,P|4:198|-1:239,1,95,0|10,0:0|0:0,0:0:0:0:
137,73,142316,1,0,3:0:0:0:
11,9,142448,5,10,0:0:0:0:
100,201,142579,1,0,3:0:0:0:
245,57,142711,6,0,P|291:36|340:34,1,95,10|0,0:0|0:0,0:0:0:0:
499,199,142974,2,0,P|453:178|404:180,1,95,10|0,0:0|0:0,0:0:0:0:
266,353,143237,1,10,0:0:0:0:
435,263,143369,2,0,P|431:318|431:368,1,95,0|10,3:0|0:0,0:0:0:0:
327,201,143632,1,0,3:0:0:0:
235,260,143763,5,10,0:0:0:0:
100,201,143895,1,0,0:0:0:0:
327,201,144027,5,10,0:0:0:0:
423,149,144158,1,0,0:0:0:0:
260,117,144290,5,10,0:0:0:0:
174,75,144421,1,0,3:0:0:0:
15,226,144553,5,10,0:0:0:0:
185,160,144684,1,0,3:0:0:0:
172,359,144816,6,0,P|129:349|72:343,1,95,12|0,0:0|0:0,0:0:0:0:
78,343,145079,1,10,0:0:0:0:
320,281,145211,2,0,P|379:270|511:274,1,190,0|0,0:0|3:0,0:0:0:0:
281,357,145605,1,10,0:0:0:0:
172,253,145737,1,0,3:0:0:0:
374,152,145869,6,0,P|417:142|474:136,1,95,10|0,0:0|0:0,0:0:0:0:
468,136,146132,1,10,0:0:0:0:
226,74,146263,2,0,P|167:63|35:67,1,190,0|0,0:0|3:0,0:0:0:0:
265,150,146658,1,10,0:0:0:0:
374,46,146790,1,0,3:0:0:0:
160,158,146921,6,0,P|155:210|150:261,1,95,12|0,0:0|0:0,0:0:0:0:
272,246,147184,2,0,P|267:293|262:340,1,95,10|0,0:0|0:0,0:0:0:0:
167,356,147448,1,10,0:0:0:0:
362,323,147579,2,0,P|371:228|381:134,1,190,0|0,3:0|3:0,0:0:0:0:
99,30,147974,6,0,P|169:35|278:44,1,178.125,12|0,0:0|0:0,0:0:0:0:
222,127,148237,2,0,P|143:132|86:139,1,135.374996385098,12|0,0:0|0:0,0:0:0:0:
128,225,148500,2,0,P|159:227|182:230,2,45.1249987950325,8|8|8,3:1|3:1|3:1,0:0:0:0:
27,341,148763,1,8,3:1:0:0:
246,297,148895,1,0,3:0:0:0:
167,356,149027,6,0,P|219:343|314:334,1,142.5,4|0,3:3|0:0,0:0:0:0:
382,364,149290,2,0,P|436:370|481:370,1,95,10|0,0:0|0:0,0:0:0:0:
304,209,149553,1,10,0:0:0:0:
435,281,149684,1,0,3:0:0:0:
424,109,149816,5,10,0:0:0:0:
246,297,149948,1,0,3:0:0:0:
389,210,150079,6,0,P|444:201|485:211,1,95,10|0,0:0|0:0,0:0:0:0:
277,65,150342,1,10,0:0:0:0:
169,222,150474,2,0,P|167:135|157:27,1,190,0|0,0:0|3:0,0:0:0:0:
2,167,150869,5,10,0:0:0:0:
122,324,151000,1,0,3:0:0:0:
20,370,151132,6,0,P|22:299|21:259,1,95,10|0,0:0|0:0,0:0:0:0:
169,222,151395,2,0,P|214:236|261:241,1,95,10|0,0:0|0:0,0:0:0:0:
319,144,151658,1,10,0:0:0:0:
425,342,151790,2,0,P|379:327|332:322,1,95,0|10,3:0|0:0,0:0:0:0:
231,361,152053,1,0,3:0:0:0:
88,240,152184,5,10,0:0:0:0:
134,99,152316,1,0,0:0:0:0:
280,33,152448,5,10,0:0:0:0:
319,144,152579,1,0,0:0:0:0:
430,212,152711,5,10,0:0:0:0:
469,130,152842,1,0,3:0:0:0:
290,252,152974,5,10,0:0:0:0:
425,342,153105,1,0,3:0:0:0:
193,296,153237,6,0,P|180:232|78:195,1,178.125,4|0,3:3|0:0,0:0:0:0:
26,135,153500,1,8,0:0:0:0:
18,354,153632,2,0,P|41:311|112:279,1,123.499994346619,4|0,3:2|3:0,0:0:0:0:
269,109,154027,5,10,0:0:0:0:
363,80,154158,1,0,0:0:0:0:
170,19,154290,6,0,B|122:5|122:5|165:128,1,178.125,4|0,3:3|0:0,0:0:0:0:
113,191,154553,1,8,0:0:0:0:
396,330,154684,2,0,B|336:313|336:313|274:335,1,123.499994346619,4|0,3:2|3:0,0:0:0:0:
113,191,155079,5,8,0:0:0:0:
226,204,155211,1,8,0:0:0:0:
500,28,155342,6,0,B|492:84|432:102|432:102|496:114|501:191|430:217|401:183,1,285.000010871888,4|8,3:2|0:0,0:0:0:0:
13,350,155737,2,0,B|22:292|81:273|81:273|18:262|12:185|83:159|117:195,1,285.000010871888,4|8,3:3|0:0,0:0:0:0:
319,21,156132,2,0,P|328:85|306:130,1,113.999996520996,4|0,3:2|0:0,0:0:0:0:
80,273,156395,5,8,0:0:0:0:
329,298,156527,1,0,3:0:0:0:
350,305,156592,1,0,3:0:0:0:
371,312,156658,1,0,3:3:0:0:
245,66,156790,1,0,3:0:0:0:
80,273,156921,5,10,0:2:0:0:
120,253,157053,5,2,3:2:0:0:
43,183,157184,5,2,3:2:0:0:
150,97,157316,5,2,3:2:0:0:
2,59,157448,6,0,B|42:31|83:54|83:54|109:106|169:96,1,170.999994781494,4|0,3:1|0:0,0:0:0:0:
201,159,157711,1,10,0:0:0:0:
90,367,157842,2,0,P|147:360|217:354,1,113.999996520996,0|0,0:0|0:0,0:0:0:0:
43,183,158105,1,0,3:0:0:0:
273,255,158237,2,0,P|283:172|299:74,1,170.999994781494,10|0,0:0|0:0,0:0:0:0:
356,32,158500,6,0,P|298:62|249:59,1,113.999996520996,0|0,3:0|0:0,0:0:0:0:
393,246,158763,1,10,0:0:0:0:
512,130,158895,2,0,P|509:70|502:12,1,113.999996520996,0|0,3:0|0:0,0:0:0:0:
385,258,159158,1,0,3:0:0:0:
201,159,159290,1,10,0:0:0:0:
421,101,159421,1,0,0:0:0:0:
275,335,159553,6,0,B|209:376|151:314|151:314|209:295,1,192.375000733852,0|0,3:0|0:0,0:0:0:0:
273,255,159816,1,10,0:0:0:0:
201,159,159948,1,0,0:0:0:0:
129,63,160079,2,0,P|184:54|243:48,1,113.999996520996,0|0,0:0|3:0,0:0:0:0:
114,233,160342,2,0,P|59:224|0:218,1,113.999996520996,10|0,0:0|0:0,0:0:0:0:
275,335,160605,6,0,B|295:242|385:250|385:250|346:263|335:301,1,227.999993041992,0|10,3:0|0:0,0:0:0:0:
336,299,161000,1,0,0:0:0:0:
497,158,161132,5,0,3:0:0:0:
281,65,161263,1,0,3:0:0:0:
487,176,161395,1,10,0:0:0:0:
290,46,161527,1,0,0:0:0:0:
61,291,161658,6,0,B|28:259|37:216|37:216|17:189|31:155|31:155|50:177,1,170.999994781494,4|0,3:3|0:0,0:0:0:0:
114,233,161921,1,10,0:0:0:0:
167,49,162053,2,0,P|108:36|54:26,1,113.999996520996,0|0,0:0|0:0,0:0:0:0:
251,183,162316,1,0,3:0:0:0:
61,291,162448,1,10,0:0:0:0:
287,370,162579,1,8,0:0:0:0:
287,370,162645,1,8,0:0:0:0:
287,370,162711,6,0,P|322:322|336:270,1,113.999996520996,0|0,3:2|0:0,0:0:0:0:
179,132,162974,1,10,0:0:0:0:
442,274,163105,2,0,P|422:217|388:177,1,113.999996520996,0|0,3:2|0:0,0:0:0:0:
167,131,163369,1,0,3:0:0:0:
379,75,163500,1,10,0:0:0:0:
235,278,163632,1,0,0:0:0:0:
242,26,163763,5,2,3:0:0:0:
291,105,163895,1,2,0:0:0:0:
379,75,164027,1,10,0:0:0:0:
428,154,164158,1,2,0:0:0:0:
428,154,164421,5,2,3:0:0:0:
256,192,164553,1,10,0:0:0:0:
84,230,164684,1,2,0:0:0:0:
110,310,164816,5,2,3:0:0:0:
15,179,164948,1,2,0:0:0:0:
167,230,165079,1,10,0:0:0:0:
15,279,165211,1,2,0:0:0:0:
110,149,165342,5,0,3:0:0:0:
213,337,165474,1,0,3:0:0:0:
401,234,165605,1,10,0:0:0:0:
298,46,165737,1,0,0:0:0:0:
256,192,165869,6,0,P|326:162|430:158,1,170.999994781494,4|0,3:3|0:0,0:0:0:0:
480,211,166132,1,10,0:0:0:0:
327,379,166263,2,0,P|327:337|321:262,1,113.999996520996,0|0,0:0|0:0,0:0:0:0:
110,149,166527,2,0,P|110:191|104:266,1,113.999996520996,0|10,3:0|0:0,0:0:0:0:
256,192,166790,1,0,0:0:0:0:
53,80,166921,6,0,P|115:67|165:79,1,113.999996520996,0|0,3:0|0:0,0:0:0:0:
38,351,167184,2,0,P|32:284|9:231,1,113.999996520996,10|0,0:0|3:0,0:0:0:0:
279,82,167448,2,0,P|259:135|256:192,1,113.999996520996,0|0,0:0|3:0,0:0:0:0:
25,359,167711,2,0,P|19:292|-4:239,1,113.999996520996,10|0,0:0|0:0,0:0:0:0:
204,357,167974,5,0,3:0:0:0:
353,155,168105,1,0,0:0:0:0:
112,208,168237,1,10,0:0:0:0:
238,272,168369,2,0,P|322:264|471:290,1,227.999993041992,0|0,0:0|3:0,0:0:0:0:
101,215,168763,1,10,0:0:0:0:
279,82,168895,1,0,0:0:0:0:
47,10,169027,6,0,P|112:31|218:24,1,170.999994781494,0|0,3:0|0:0,0:0:0:0:
279,82,169290,2,0,P|243:126|226:180,1,113.999996520996,10|0,0:0|0:0,0:0:0:0:
0,226,169553,1,0,3:0:0:0:
235,349,169684,1,0,3:0:0:0:
113,110,169816,1,10,0:0:0:0:
87,375,169948,1,0,0:0:0:0:
328,365,170079,6,0,P|305:290|243:256,1,149.624995433808,4|0,3:2|0:0,0:0:0:0:
167,283,170342,1,10,0:0:0:0:
335,163,170474,2,0,P|396:145|441:153,1,99.7499969558717,0|2,0:0|0:0,0:0:0:0:
234,168,170737,2,0,P|247:120|279:82,1,99.7499969558717,0|10,3:0|0:0,0:0:0:0:
491,269,171000,6,0,P|456:197|476:81,1,199.499993911743,0|0,0:0|0:0,0:0:0:0:
232,26,171395,2,0,P|288:46|336:51,1,99.7499969558717,10|0,0:0|3:0,0:0:0:0:
150,173,171658,2,0,P|94:193|46:198,1,99.7499969558717,2|0,0:0|3:0,0:0:0:0:
294,282,171921,2,0,P|350:302|398:307,1,99.7499969558717,10|0,0:0|0:0,0:0:0:0:
112,356,172184,6,0,B|161:315|138:250|128:278|107:219|150:173,1,199.499993911743,4|10,3:2|0:0,0:0:0:0:
53,297,172579,1,0,0:0:0:0:
211,231,172711,1,2,3:2:0:0:
5,138,172842,1,0,3:0:0:0:
232,26,172974,1,10,0:0:0:0:
360,124,173105,6,0,B|293:113|293:113|235:129|235:129|164:117,1,199.499993911743,4|0,3:3|0:0,0:0:0:0:
276,333,173500,2,0,P|322:302|376:294,1,99.7499969558717,12|0,0:0|0:0,0:0:0:0:
111,355,173763,5,2,3:0:0:0:
99,276,173895,5,10,0:0:0:0:
83,168,174027,5,10,0:0:0:0:
64,37,174158,5,10,0:0:0:0:
169,216,174290,6,0,P|224:219|286:227,1,113.999996520996,4|0,3:1|0:0,0:0:0:0:
502,159,174553,1,10,0:0:0:0:
367,6,174684,2,0,P|346:58|354:114,1,113.999996520996,0|0,0:0|0:0,0:0:0:0:
509,169,174948,1,0,3:0:0:0:
256,139,175079,2,0,P|287:185|337:211,1,113.999996520996,10|0,0:0|0:0,0:0:0:0:
446,365,175342,6,0,B|478:330|478:330|355:342,1,170.999994781494,0|0,3:0|0:0,0:0:0:0:
282,380,175605,1,10,0:0:0:0:
90,224,175737,2,0,P|84:152|72:106,1,113.999996520996,0|0,3:0|0:0,0:0:0:0:
211,29,176000,1,0,3:0:0:0:
7,180,176132,1,10,0:0:0:0:
241,287,176263,1,0,0:0:0:0:
159,346,176395,6,0,P|161:272|179:174,1,170.999994781494,0|0,3:0|0:0,0:0:0:0:
241,127,176658,1,10,0:0:0:0:
370,173,176790,1,0,0:0:0:0:
498,218,176921,1,0,0:0:0:0:
431,94,177053,1,0,3:0:0:0:
387,262,177184,2,0,P|394:322|404:375,1,113.999996520996,10|0,0:0|0:0,0:0:0:0:
301,66,177448,6,0,B|228:144|140:110|129:58|147:17|186:-1,1,256.50000097847,0|10,3:0|0:0,0:0:0:0:
181,1,177842,1,0,0:0:0:0:
14,130,177974,5,0,3:0:0:0:
236,281,178105,1,0,3:0:0:0:
1,146,178237,1,10,0:0:0:0:
249,265,178369,1,0,0:0:0:0:
62,326,178500,6,0,B|46:287|46:287|145:316|145:316|163:355|205:368,1,227.999993041992,4|10,3:3|0:0,0:0:0:0:
430,210,178895,2,0,P|372:210|309:214,1,113.999996520996,0|0,0:0|0:0,0:0:0:0:
317,213,179158,1,0,3:0:0:0:
205,102,179290,1,10,0:0:0:0:
403,36,179421,1,0,0:0:0:0:
115,156,179553,6,0,P|110:100|123:40,1,113.999996520996,0|0,3:0|0:0,0:0:0:0:
331,125,179816,1,10,0:0:0:0:
99,260,179948,2,0,P|50:231|8:186,1,113.999996520996,0|0,3:0|0:0,0:0:0:0:
205,102,180211,1,0,3:0:0:0:
365,321,180342,1,10,0:0:0:0:
210,271,180474,1,0,0:0:0:0:
453,142,180605,5,2,3:2:0:0:
420,232,180737,1,2,0:2:0:0:
325,251,180869,1,10,0:2:0:0:
262,178,181000,1,2,0:2:0:0:
262,178,181263,5,2,3:2:0:0:
298,368,181395,1,10,0:2:0:0:
489,332,181527,1,2,0:2:0:0:
453,142,181658,5,2,3:2:0:0:
325,251,181790,1,2,0:2:0:0:
167,197,181921,1,10,0:2:0:0:
295,88,182053,1,2,0:2:0:0:
262,178,182184,5,0,3:0:0:0:
104,124,182316,1,0,3:0:0:0:
50,282,182448,1,10,0:0:0:0:
208,336,182579,1,0,0:0:0:0:
50,282,182711,6,0,P|41:209|22:107,1,170.999994781494,4|0,3:3|0:0,0:0:0:0:
31,34,182974,1,10,0:0:0:0:
295,88,183105,2,0,P|286:144|278:200,1,113.999996520996,0|0,0:0|0:0,0:0:0:0:
201,4,183369,1,0,3:0:0:0:
380,157,183500,1,10,0:0:0:0:
490,75,183632,1,0,0:0:0:0:
286,296,183763,6,0,B|330:269|377:304|358:311|402:343|449:314,1,170.999994781494,0|0,3:0|0:0,0:0:0:0:
481,245,184027,2,0,P|417:242|370:286,1,113.999996520996,10|0,0:0|3:0,0:0:0:0:
183,110,184290,2,0,P|239:101|295:88,1,113.999996520996,0|0,0:0|3:0,0:0:0:0:
38,294,184553,2,0,P|94:303|149:316,1,113.999996520996,10|0,0:0|0:0,0:0:0:0:
258,190,184816,5,0,3:0:0:0:
314,378,184948,1,0,0:0:0:0:
481,245,185079,1,10,0:0:0:0:
355,270,185211,2,0,P|346:147|333:37,1,227.999993041992,0|0,0:0|3:0,0:0:0:0:
485,24,185605,1,10,0:0:0:0:
258,190,185737,1,0,0:0:0:0:
165,94,185869,6,0,P|159:151|156:208,1,113.999996520996,0|0,3:0|0:0,0:0:0:0:
355,270,186132,2,0,P|298:274|250:303,1,113.999996520996,10|0,0:0|0:0,0:0:0:0:
141,377,186395,1,0,3:0:0:0:
22,248,186527,1,0,3:0:0:0:
123,281,186658,1,12,0:0:0:0:
68,48,186790,1,0,0:0:0:0:
258,190,186921,6,0,B|313:138|388:160|388:160|358:171|341:193,1,199.499993911743,4|10,3:3|0:0,0:0:0:0:
217,264,187316,2,0,P|180:225|170:173,1,99.7499969558717,0|2,0:0|0:0,0:0:0:0:
321,368,187579,2,0,P|377:336|427:333,1,99.7499969558717,0|10,3:0|0:0,0:0:0:0:
505,215,187842,6,0,P|457:206|454:76,1,199.499993911743,0|0,0:0|0:0,0:0:0:0:
252,9,188237,2,0,P|248:63|245:117,1,99.7499969558717,10|0,0:0|0:0,0:0:0:0:
135,180,188500,2,0,P|131:230|128:280,1,99.7499969558717,2|0,0:0|3:0,0:0:0:0:
327,268,188763,2,0,P|323:318|321:368,1,99.7499969558717,10|0,0:0|0:0,0:0:0:0:
229,192,189027,6,0,P|204:119|91:97,1,199.499993911743,4|10,3:3|0:0,0:0:0:0:
135,180,189421,1,0,0:0:0:0:
307,65,189553,1,2,3:2:0:0:
437,190,189684,1,0,3:0:0:0:
500,137,189816,1,10,0:0:0:0:
424,350,189948,6,0,P|363:360|414:285,1,199.499993911743,4|0,3:2|3:0,0:0:0:0:
238,291,190342,2,0,P|234:241|229:192,1,99.7499969558717,8|0,0:0|0:0,0:0:0:0:
348,149,190605,1,2,3:3:0:0:
178,81,190737,1,8,0:0:0:0:
178,81,190803,1,8,0:0:0:0:
178,81,190869,1,8,0:0:0:0:
398,15,191000,1,8,0:0:0:0:
153,197,191132,6,0,P|108:150|-1:136,1,178.125,4|0,3:2|0:0,0:0:0:0:
8,217,191395,2,0,P|18:286|24:339,1,118.75,8|0,0:0|0:0,0:0:0:0:
293,361,191658,5,10,0:0:0:0:
97,275,191790,1,0,3:0:0:0:
348,149,191921,5,10,0:0:0:0:
192,344,192053,1,0,3:0:0:0:
254,71,192184,5,10,0:0:0:0:
387,292,192316,1,0,3:0:0:0:
507,123,192448,5,10,0:0:0:0:
259,228,192579,1,0,3:0:0:0:
512,357,192711,5,10,0:0:0:0:
348,149,192842,1,0,3:0:0:0:
156,239,192974,5,10,0:0:0:0:
49,196,193105,1,0,3:0:0:0:
131,13,193237,6,0,B|127:67|127:67|134:88|134:88|126:108|126:108|123:162,1,152,4|0,3:2|0:0,0:0:0:0:
384,368,193500,2,0,B|380:314|380:314|387:293|387:293|379:273|379:273|376:219,1,152,4|0,3:3|0:0,0:0:0:0:
120,0,193763,5,8,0:0:0:0:
495,128,193895,1,2,3:3:0:0:
414,30,194158,6,0,B|363:61|360:136|360:136|345:98|303:79,1,199.499993911743,12|0,0:0|3:0,0:0:0:0:
175,149,194553,1,8,0:0:0:0:
175,149,194619,1,8,0:0:0:0:
175,149,194684,1,8,0:0:0:0:
283,319,194816,1,8,3:3:0:0:
111,227,194948,1,8,3:1:0:0:
24,355,195079,1,0,3:0:0:0:
109,325,195211,1,0,3:0:0:0:
262,225,195342,6,0,P|329:235|383:334,1,178.125,4|0,3:2|0:0,0:0:0:0:
307,361,195605,2,0,P|226:365|189:373,1,118.75,10|0,0:0|0:0,0:0:0:0:
64,103,195869,5,10,0:0:0:0:
109,325,196000,1,0,3:0:0:0:
1,219,196132,5,10,0:0:0:0:
199,286,196263,1,0,3:0:0:0:
251,82,196395,5,10,0:0:0:0:
111,227,196527,1,0,3:0:0:0:
168,4,196658,5,10,0:0:0:0:
262,225,196790,1,0,3:0:0:0:
396,133,196921,5,10,0:0:0:0:
307,361,197053,1,0,3:0:0:0:
480,90,197184,5,10,0:0:0:0:
512,186,197316,1,0,3:0:0:0:
299,21,197448,6,0,B|337:5|371:27|371:27|369:17|369:17|402:35|435:25,1,152,4|0,3:2|0:0,0:0:0:0:
220,360,197711,2,0,B|182:376|147:353|147:353|149:363|149:363|117:346|84:356,1,152,4|0,3:3|0:0,0:0:0:0:
325,94,197974,5,8,0:0:0:0:
6,210,198105,1,2,3:3:0:0:
57,112,198369,6,0,P|114:175|89:281,1,199.499993911743,12|0,0:2|3:0,0:0:0:0:
204,93,198763,2,0,P|199:142|219:191,1,99.7499969558717,10|0,0:0|0:0,0:0:0:0:
399,352,199027,5,2,3:2:0:0:
429,239,199158,1,0,3:0:0:0:
314,321,199290,1,10,0:2:0:0:
217,188,199421,1,0,0:0:0:0:
459,121,199553,6,0,P|463:57|470:-3,1,118.75,4|0,3:2|0:0,0:0:0:0:
281,246,199816,2,0,P|287:304|291:364,1,118.75,10|0,0:0|0:0,0:0:0:0:
331,23,200079,5,10,0:2:0:0:
429,239,200211,1,0,3:0:0:0:
156,278,200342,5,10,0:2:0:0:
331,159,200474,1,0,3:0:0:0:
35,175,200605,5,10,0:2:0:0:
281,246,200737,1,0,3:0:0:0:
173,78,200869,5,10,0:2:0:0:
256,355,201000,1,0,3:0:0:0:
429,239,201132,5,10,0:0:0:0:
103,353,201263,1,0,3:0:0:0:
371,329,201395,5,10,0:2:0:0:
471,371,201527,1,0,3:0:0:0:
473,162,201658,6,0,B|431:140|388:159|388:159|363:145|363:145|331:159,1,152,4|0,3:2|0:0,0:0:0:0:
5,249,201921,2,0,B|47:271|90:252|90:252|115:266|115:266|147:252,1,152,4|0,3:3|0:0,0:0:0:0:
371,39,202184,5,8,0:0:0:0:
256,355,202316,1,2,3:3:0:0:
256,248,202579,6,0,B|286:205|257:157|245:171|213:119|254:71,1,190,12|0,0:0|3:0,0:0:0:0:
388,192,202974,1,8,0:0:0:0:
388,192,203040,1,8,0:0:0:0:
388,192,203105,1,8,0:0:0:0:
186,213,203237,1,8,3:3:0:0:
318,121,203369,1,0,3:1:0:0:
124,141,203500,1,0,3:0:0:0:
46,91,203632,1,0,3:0:0:0:
147,288,203763,6,0,P|138:214|124:141,1,149.624995433808,4|0,3:3|0:0,0:0:0:0:
177,67,204027,1,14,0:0:0:0:
13,196,204158,2,0,P|5:252|-1:298,1,99.7499969558717,0|2,0:0|0:0,0:0:0:0:
80,377,204421,1,0,3:0:0:0:
252,359,204553,2,0,P|258:309|265:260,1,99.7499969558717,10|0,0:0|0:0,0:0:0:0:
314,82,204816,6,0,P|348:122|390:144,1,99.7499969558717,2|0,3:2|0:0,0:0:0:0:
496,38,205079,1,10,0:0:0:0:
365,236,205211,2,0,P|418:230|459:209,1,99.7499969558717,0|2,3:2|0:0,0:0:0:0:
499,27,205474,1,0,3:0:0:0:
239,19,205605,2,0,P|226:67|133:112,1,149.624995433808,10|0,0:0|0:0,0:0:0:0:
69,84,205869,6,0,B|52:134|89:172|89:172|70:197|39:198,1,142.500005435944,4|0,3:3|0:0,0:0:0:0:
347,346,206132,2,0,B|363:298|326:260|326:260|338:235|365:236,1,142.500005435944,4|0,3:2|0:0,0:0:0:0:
144,113,206395,1,8,0:0:0:0:
272,319,206527,1,2,3:3:0:0:
197,348,206790,6,0,B|180:299|217:261|217:261|193:210|140:211,1,190,12|0,0:2|3:0,0:0:0:0:
283,58,207184,2,0,P|290:105|296:157,1,95,10|0,0:0|0:0,0:0:0:0:
394,317,207448,5,10,3:3:0:0:
511,199,207579,1,8,3:1:0:0:
410,136,207711,1,0,3:0:0:0:
365,206,207842,1,0,3:0:0:0:
205,26,207974,6,0,B|271:17|271:17|332:37|332:37|399:29,2,199.499993911743,6|8|0,3:2|0:0|0:0,0:0:0:0:
266,148,208632,1,0,3:0:0:0:
126,185,208763,2,0,B|76:179|76:179|70:182|70:182|20:176,1,99.7499969558717,8|0,0:0|0:0,0:0:0:0:
249,264,209027,5,0,3:2:0:0:
159,297,209158,1,2,0:2:0:0:
266,148,209290,5,10,0:2:0:0:
126,185,209421,1,2,3:2:0:0:
301,36,209553,5,2,0:2:0:0:
43,81,209684,1,2,3:2:0:0:
162,0,209816,5,10,0:0:0:0:
183,99,209948,1,2,0:0:0:0:
159,297,210079,6,0,B|99:287|99:287|85:294|85:294|9:282,1,149.624995433808,2|0,3:2|0:2,0:0:0:0:
9,365,210342,2,0,P|73:371|118:379,1,99.7499969558717,10|0,0:2|0:2,0:0:0:0:
249,264,210605,1,2,0:2:0:0:
415,320,210737,2,0,P|351:326|306:334,1,99.7499969558717,2|8,3:2|0:2,0:0:0:0:
316,331,211000,1,2,0:2:0:0:
468,199,211132,6,0,P|475:144|483:91,1,99.7499969558717,2|0,3:2|0:2,0:0:0:0:
288,1,211395,1,10,0:2:0:0:
310,177,211527,1,2,3:2:0:0:
310,177,211592,1,2,3:2:0:0:
310,177,211658,1,2,3:2:0:0:
403,59,211790,1,2,3:2:0:0:
201,76,211921,2,0,P|151:69|99:63,1,99.7499969558717,8|0,0:2|0:2,0:0:0:0:
7,258,212184,5,6,3:3:0:0:
28,377,212316,1,2,0:2:0:0:
147,356,212448,1,10,0:2:0:0:
126,237,212579,2,0,P|216:242|331:265,1,199.499993911743,2|0,0:2|3:2,0:0:0:0:
470,364,212974,2,0,P|457:312|469:261,1,99.7499969558717,8|0,0:2|0:2,0:0:0:0:
380,65,213237,6,0,B|375:115|375:115|390:162|390:162|387:213,1,149.624995433808,2|0,3:2|0:2,0:0:0:0:
323,262,213500,1,10,0:2:0:0:
229,115,213632,2,0,B|195:126|178:155|178:155|140:119|139:68|152:32,1,199.499993911743,2|0,3:2|3:2,0:0:0:0:
121,214,214027,2,0,P|173:235|222:226,1,99.7499969558717,8|0,0:2|0:2,0:0:0:0:
23,356,214290,6,0,P|20:264|11:152,2,199.499993911743,2|10|2,3:2|0:2|0:2,0:0:0:0:
121,214,214948,1,2,3:2:0:0:
228,341,215079,1,10,0:2:0:0:
115,110,215211,1,2,0:2:0:0:
242,351,215342,6,0,P|249:296|256:248,1,99.7499969558717,2|0,3:2|0:2,0:0:0:0:
400,142,215605,2,0,P|407:191|413:240,1,99.7499969558717,8|0,0:2|0:2,0:0:0:0:
228,149,215869,1,0,3:2:0:0:
275,62,216000,1,0,3:2:0:0:
115,110,216132,2,0,P|64:114|11:117,1,99.7499969558717,8|0,0:2|0:2,0:0:0:0:
195,14,216395,6,0,P|281:22|397:39,2,199.499993911743,6|8|0,3:3|0:0|0:0,0:0:0:0:
228,149,217053,1,0,3:0:0:0:
119,217,217184,2,0,P|111:268|105:321,1,99.7499969558717,8|0,0:0|0:0,0:0:0:0:
273,365,217448,6,0,P|268:287|363:227,1,199.499993911743,2|8,3:2|0:0,0:0:0:0:
449,341,217842,2,0,P|397:326|348:317,1,99.7499969558717,0|0,3:0|0:0,0:0:0:0:
511,234,218105,1,0,3:0:0:0:
321,133,218237,2,0,P|373:118|422:109,1,99.7499969558717,10|0,0:0|0:0,0:0:0:0:
155,55,218500,5,2,3:2:0:0:
192,213,218632,1,2,0:2:0:0:
321,133,218763,5,10,0:2:0:0:
291,273,218895,1,2,0:2:0:0:
181,204,219027,5,2,0:2:0:0:
208,324,219158,1,2,3:2:0:0:
302,263,219290,5,10,0:2:0:0:
277,367,219421,1,2,0:2:0:0:
100,355,219553,6,0,B|134:312|100:251|93:272|60:217|90:168,1,199.499993911743,2|10,3:2|0:0,0:0:0:0:
263,72,219948,2,0,P|245:119|245:174,1,99.7499969558717,2|0,0:0|3:0,0:0:0:0:
149,4,220211,1,0,3:0:0:0:
321,133,220342,1,10,0:0:0:0:
404,103,220474,1,2,0:0:0:0:
303,263,220605,6,0,P|383:255|502:288,1,199.499993911743,4|8,3:3|0:0,0:0:0:0:
291,373,221000,2,0,P|291:323|182:232,1,199.499993911743,2|0,0:0|3:0,0:0:0:0:
383,200,221395,2,0,P|392:151|404:103,1,99.7499969558717,10|0,0:0|0:0,0:0:0:0:
251,12,221658,6,0,P|177:17|93:29,1,149.624995433808,2|0,3:2|0:0,0:0:0:0:
44,84,221921,1,10,0:0:0:0:
242,163,222053,2,0,P|168:158|84:146,1,149.624995433808,2|0,3:2|0:0,0:0:0:0:
35,91,222316,1,2,3:0:0:0:
103,279,222448,1,10,0:0:0:0:
0,233,222579,1,2,0:0:0:0:
179,365,222711,6,0,P|208:307|290:284,1,149.624995433808,6|0,3:2|0:0,0:0:0:0:
331,348,222974,2,0,P|389:353|440:361,1,99.7499969558717,10|0,0:0|0:0,0:0:0:0:
242,163,223237,1,2,0:2:0:0:
389,237,223369,2,0,P|395:176|403:130,1,99.7499969558717,2|8,3:2|0:0,0:0:0:0:
285,283,223632,1,2,0:0:0:0:
479,200,223763,5,6,3:2:0:0:
310,30,224027,5,8,3:3:0:0:
222,51,224158,1,8,3:1:0:0:
285,283,224421,5,8,3:1:0:0:
1,323,224684,5,8,3:3:0:0:
134,379,224816,1,4,3:3:0:0:
270,30,232184,5,0,0:0:0:0:
205,146,232448,5,0,0:0:0:0:
262,235,232711,5,0,0:0:0:0:
206,303,232974,5,0,0:0:0:0:
363,355,233237,5,4,3:3:0:0:
379,351,233763,1,2,3:2:0:0:
396,347,234290,1,2,3:2:0:0:
412,343,234816,1,2,3:2:0:0:
349,197,235342,5,2,3:2:0:0:
332,193,235869,1,2,3:2:0:0:
316,189,236395,1,2,3:2:0:0:
300,185,236921,1,2,3:2:0:0:
300,185,237184,1,2,3:2:0:0:
139,199,237448,6,0,P|138:157|132:111,1,80.750001540184,2|0,3:2|0:0,0:0:0:0:
263,309,237711,2,0,P|221:310|175:316,1,80.750001540184,2|0,3:2|0:0,0:0:0:0:
373,185,237974,2,0,P|374:227|380:273,1,80.750001540184,2|0,3:2|0:0,0:0:0:0:
249,75,238237,2,0,P|291:74|337:68,1,80.750001540184,2|0,3:2|0:0,0:0:0:0:
131,207,238500,6,0,P|130:165|124:119,1,80.750001540184,2|0,3:2|0:0,0:0:0:0:
381,177,238763,2,0,P|382:219|388:265,1,80.750001540184,2|0,3:2|0:0,0:0:0:0:
206,164,239027,5,8,0:0:0:0:
306,220,239158,1,8,0:0:0:0:
131,207,239290,1,8,0:0:0:0:
381,177,239421,1,8,0:0:0:0:
58,344,239553,6,0,B|43:306|63:264|63:264|35:239|35:239|66:189|48:134,1,227.999993041992,4|8,3:3|0:0,0:0:0:0:
454,40,239948,2,0,B|469:78|449:120|449:120|477:145|477:145|446:195|464:250,1,227.999993041992,4|8,3:3|0:0,0:0:0:0:
46,363,240342,2,0,P|32:316|51:253,1,113.999996520996,8|0,0:0|0:0,0:0:0:0:
305,136,240605,5,12,0:0:0:0:
65,67,240737,1,0,3:0:0:0:
43,58,240803,1,0,3:0:0:0:
21,49,240869,1,0,3:0:0:0:
131,207,241000,1,0,3:0:0:0:
316,12,241132,5,8,0:0:0:0:
305,136,241263,1,8,3:3:0:0:
180,125,241395,1,8,3:1:0:0:
191,1,241527,1,0,3:0:0:0:
406,189,241658,5,12,0:0:0:0:
416,199,241921,1,0,3:0:0:0:
248,68,242053,5,12,0:0:0:0:
238,60,242316,1,0,3:0:0:0:
306,298,242448,5,12,0:0:0:0:
330,374,242711,5,12,0:0:0:0:
240,344,242842,1,8,3:3:0:0:
240,250,242974,1,8,3:1:0:0:
330,221,243105,1,0,3:0:0:0:
385,298,243237,5,2,0:0:0:0:
240,250,243369,5,2,0:1:0:0:
353,148,243500,5,2,0:1:0:0:
306,298,243632,5,2,0:0:0:0:
102,111,243763,6,0,B|157:78|197:119|184:122|224:162|274:134,1,185.249991519928,4|0,3:1|0:0,0:0:0:0:
320,70,244027,1,10,0:0:0:0:
124,233,244158,2,0,P|118:294|114:363,1,123.499994346619,0|0,0:0|0:0,0:0:0:0:
22,165,244421,1,0,3:0:0:0:
240,250,244553,1,10,0:0:0:0:
30,363,244684,1,0,0:0:0:0:
205,126,244816,6,0,B|246:63|212:0|212:0|159:7|144:37,1,213.750008153916,0|0,3:0|0:0,0:0:0:0:
102,111,245079,1,10,0:0:0:0:
340,236,245211,2,0,P|406:245|469:257,1,123.499994346619,0|0,3:0|0:0,0:0:0:0:
454,101,245474,1,0,3:0:0:0:
240,250,245605,1,10,0:0:0:0:
403,338,245737,1,0,0:0:0:0:
283,134,245869,6,0,B|266:57|327:25|327:25|322:54|334:83,1,185.249991519928,0|0,3:0|0:0,0:0:0:0:
384,145,246132,1,10,0:0:0:0:
155,204,246263,1,0,0:0:0:0:
292,325,246395,1,0,0:0:0:0:
340,236,246527,1,0,3:0:0:0:
144,334,246658,2,0,P|76:340|22:350,1,123.499994346619,10|0,0:0|0:0,0:0:0:0:
77,78,246921,6,0,B|14:51|14:51|29:119|29:119|25:141|25:141|38:158|38:158|54:223,1,246.999988693238,0|10,3:0|0:0,0:0:0:0:
54,222,247316,1,0,0:0:0:0:
175,112,247448,5,0,3:0:0:0:
144,334,247579,1,0,3:0:0:0:
368,366,247711,1,10,0:0:0:0:
399,142,247842,1,0,0:0:0:0:
152,244,247974,6,0,B|201:243|227:289|227:289|271:317|316:291,1,185.249991519928,4|0,3:3|0:0,0:0:0:0:
395,283,248237,1,10,0:0:0:0:
242,35,248369,2,0,P|254:95|262:157,1,123.499994346619,0|0,0:0|0:0,0:0:0:0:
152,244,248632,1,0,3:0:0:0:
345,71,248763,1,10,0:0:0:0:
483,328,248895,1,8,0:0:0:0:
483,328,248961,1,8,0:0:0:0:
483,328,249027,6,0,P|489:260|503:196,1,123.499994346619,0|0,3:2|0:0,0:0:0:0:
345,71,249290,1,10,0:0:0:0:
162,366,249421,2,0,P|163:304|152:244,1,123.499994346619,0|0,3:2|0:0,0:0:0:0:
262,157,249684,1,0,3:0:0:0:
58,312,249816,1,10,0:0:0:0:
141,78,249948,1,0,0:0:0:0:
252,317,250079,5,2,3:0:0:0:
328,247,250211,1,2,0:0:0:0:
426,277,250342,1,10,0:0:0:0:
502,207,250474,1,2,0:0:0:0:
502,207,250737,5,2,3:0:0:0:
350,347,250869,1,10,0:0:0:0:
154,287,251000,1,2,0:0:0:0:
306,147,251132,5,2,3:0:0:0:
328,247,251263,1,2,0:0:0:0:
284,47,251395,1,10,0:0:0:0:
350,347,251527,1,2,0:0:0:0:
230,217,251658,5,0,3:0:0:0:
426,277,251790,1,0,3:0:0:0:
154,287,251921,1,10,0:0:0:0:
502,207,252053,1,0,0:0:0:0:
350,347,252184,6,0,P|279:358|215:373,1,123.499994346619,4|0,3:3|0:0,0:0:0:0:
14,278,252448,1,10,0:0:0:0:
186,129,252579,2,0,P|118:122|58:116,1,123.499994346619,0|0,0:0|0:0,0:0:0:0:
154,287,252842,1,0,3:0:0:0:
314,176,252974,1,10,0:0:0:0:
111,27,253105,1,0,0:0:0:0:
394,98,253237,6,0,P|399:163|423:221,1,123.499994346619,0|0,3:0|0:0,0:0:0:0:
120,359,253500,2,0,P|115:294|91:236,1,123.499994346619,10|0,0:0|3:0,0:0:0:0:
296,51,253763,1,0,0:0:0:0:
205,213,253895,1,0,3:0:0:0:
500,255,254027,2,0,P|434:237|334:290,1,185.249991519928,10|0,0:0|0:0,0:0:0:0:
259,328,254290,6,0,P|331:333|391:349,1,123.499994346619,0|0,3:0|0:0,0:0:0:0:
512,139,254553,1,10,0:0:0:0:
296,51,254684,2,0,B|255:23|255:23|230:68|263:113|272:97|306:147|283:207,1,246.999988693238,0|0,0:0|3:0,0:0:0:0:
106,259,255079,1,10,0:0:0:0:
379,124,255211,1,0,0:0:0:0:
145,364,255342,6,0,P|142:274|134:175,1,185.249991519928,0|0,3:0|0:0,0:0:0:0:
66,137,255605,2,0,P|76:76|87:10,1,123.499994346619,10|0,0:0|0:0,0:0:0:0:
229,221,255869,1,0,3:0:0:0:
26,328,256000,1,0,3:0:0:0:
181,113,256132,1,10,0:0:0:0:
346,324,256263,1,0,0:0:0:0:
422,241,256395,6,0,P|381:213|331:211,1,99.7499969558717,4|0,3:2|0:0,0:0:0:0:
265,365,256658,1,10,0:0:0:0:
493,324,256790,2,0,P|502:265|512:208,1,99.7499969558717,0|2,0:0|0:0,0:0:0:0:
390,37,257053,2,0,P|398:86|405:135,1,99.7499969558717,0|10,3:0|0:0,0:0:0:0:
229,221,257316,6,0,P|190:151|77:136,1,199.499993911743,0|0,0:0|0:0,0:0:0:0:
183,52,257711,2,0,P|232:40|285:38,1,99.7499969558717,10|0,0:0|3:0,0:0:0:0:
126,232,257974,2,0,P|77:220|24:218,1,99.7499969558717,2|0,0:0|3:0,0:0:0:0:
208,318,258237,2,0,P|216:269|229:221,1,99.7499969558717,10|0,0:0|0:0,0:0:0:0:
126,363,258500,6,0,P|212:353|331:349,1,199.499993911743,4|10,3:2|0:0,0:0:0:0:
324,348,258895,1,0,0:0:0:0:
229,221,259027,1,2,3:2:0:0:
429,275,259158,1,0,3:0:0:0:
469,78,259290,1,10,0:0:0:0:
350,204,259421,6,0,P|320:155|409:168,1,199.499993911743,4|0,3:3|0:0,0:0:0:0:
229,221,259816,2,0,P|165:211|126:203,1,99.7499969558717,12|0,0:0|0:0,0:0:0:0:
19,353,260079,5,2,3:0:0:0:
91,307,260211,5,10,0:0:0:0:
194,365,260342,5,10,0:0:0:0:
331,287,260474,5,10,0:0:0:0:
125,101,260605,6,0,B|162:119|170:159|170:159|127:203|158:266,1,185.249991519928,4|0,3:1|0:0,0:0:0:0:
91,307,260869,1,10,0:0:0:0:
283,155,261000,2,0,P|290:91|317:34,1,123.499994346619,0|0,0:0|0:0,0:0:0:0:
155,259,261263,1,0,3:0:0:0:
406,329,261395,2,0,P|341:329|286:358,1,123.499994346619,10|0,0:0|0:0,0:0:0:0:
23,184,261658,5,0,3:0:0:0:
283,155,261790,1,0,0:0:0:0:
155,259,261921,1,10,0:0:0:0:
58,23,262053,2,0,B|116:13|116:13|126:17|126:17|187:6,1,123.499994346619,0|0,3:0|0:0,0:0:0:0:
404,170,262316,2,0,B|346:160|346:160|336:164|336:164|283:155,1,123.499994346619,0|10,3:0|0:0,0:0:0:0:
512,23,262579,1,0,0:0:0:0:
430,270,262711,6,0,B|404:232|404:232|408:183|408:183|403:170|403:170|410:158|410:158|418:93,1,185.249991519928,0|0,3:0|0:0,0:0:0:0:
368,32,262974,1,10,0:0:0:0:
265,251,263105,1,0,0:0:0:0:
161,116,263237,1,0,0:0:0:0:
403,170,263369,1,0,3:0:0:0:
305,342,263500,2,0,P|241:346|189:320,1,123.499994346619,10|0,0:0|0:0,0:0:0:0:
88,45,263763,6,0,B|21:93|54:162|69:146|104:212|34:269,1,246.999988693238,0|10,3:0|0:0,0:0:0:0:
38,266,264158,1,0,0:0:0:0:
399,75,264290,5,0,3:0:0:0:
433,296,264421,1,0,3:0:0:0:
210,332,264553,1,10,0:0:0:0:
175,108,264684,1,0,0:0:0:0:
319,378,264816,6,0,P|324:311|298:256,1,123.499994346619,4|0,3:3|0:0,0:0:0:0:
134,242,265079,1,10,0:0:0:0:
402,200,265211,2,0,P|349:157|290:147,1,123.499994346619,0|0,0:0|0:0,0:0:0:0:
119,248,265474,1,0,3:0:0:0:
227,26,265605,2,0,P|291:31|351:14,1,123.499994346619,10|0,0:0|0:0,0:0:0:0:
7,115,265869,5,0,3:0:0:0:
245,281,266000,1,0,0:0:0:0:
43,353,266132,1,10,0:0:0:0:
119,248,266263,2,0,P|109:164|96:115,1,123.499994346619,0|0,3:0|0:0,0:0:0:0:
283,356,266527,2,0,P|293:272|306:223,1,123.499994346619,0|10,3:0|0:0,0:0:0:0:
218,116,266790,1,0,0:0:0:0:
493,252,266921,5,2,3:2:0:0:
475,154,267053,1,2,0:2:0:0:
377,171,267184,1,10,0:2:0:0:
395,268,267316,1,2,0:2:0:0:
395,268,267579,5,2,3:2:0:0:
256,192,267711,1,10,0:2:0:0:
117,116,267842,1,2,0:2:0:0:
148,213,267974,5,2,3:2:0:0:
32,53,268105,1,2,0:2:0:0:
218,116,268237,1,10,0:2:0:0:
32,176,268369,1,2,0:2:0:0:
148,17,268500,5,0,3:0:0:0:
69,258,268632,1,0,3:0:0:0:
389,96,268763,1,10,0:0:0:0:
310,337,268895,1,0,0:0:0:0:
231,263,269027,6,0,P|296:234|355:240,1,123.499994346619,4|0,3:3|0:0,0:0:0:0:
148,213,269290,1,10,0:0:0:0:
5,345,269421,2,0,P|74:362|131:346,1,123.499994346619,0|0,0:0|0:0,0:0:0:0:
148,213,269684,1,0,3:0:0:0:
310,337,269816,1,10,0:0:0:0:
389,96,269948,1,0,0:0:0:0:
231,263,270079,6,0,P|228:187|219:74,1,185.249991519928,0|0,3:0|0:0,0:0:0:0:
304,68,270342,2,0,P|353:17|416:5,1,123.499994346619,10|0,0:0|3:0,0:0:0:0:
111,128,270605,2,0,P|50:164|-13:159,1,123.499994346619,0|0,0:0|3:0,0:0:0:0:
373,193,270869,2,0,P|440:173|501:194,1,123.499994346619,10|0,0:0|0:0,0:0:0:0:
183,339,271132,5,0,3:0:0:0:
304,68,271263,1,0,0:0:0:0:
436,335,271395,1,10,0:0:0:0:
242,249,271527,2,0,P|174:252|112:264,1,123.499994346619,0|0,0:0|0:0,0:0:0:0:
119,262,271790,1,0,3:0:0:0:
26,82,271921,1,10,0:0:0:0:
301,312,272053,1,0,0:0:0:0:
19,71,272184,6,0,B|69:56|102:108|84:109|112:162|173:142,1,185.249991519928,0|0,3:0|0:0,0:0:0:0:
251,129,272448,2,0,P|194:65|156:64,1,123.499994346619,10|0,0:0|0:0,0:0:0:0:
35,356,272711,1,0,3:0:0:0:
242,249,272842,1,0,3:0:0:0:
0,160,272974,1,12,0:0:0:0:
217,378,273105,1,8,0:0:0:0:
217,378,273171,1,8,0:0:0:0:
217,378,273237,6,0,P|171:352|129:338,1,95,4|0,3:3|0:0,0:0:0:0:
301,312,273500,1,10,0:0:0:0:
120,229,273632,2,0,P|72:251|36:278,1,95,0|2,0:0|0:0,0:0:0:0:
214,162,273895,2,0,P|168:136|125:122,1,95,0|10,3:0|0:0,0:0:0:0:
299,20,274158,6,0,P|319:74|452:95,1,190,0|0,0:0|0:0,0:0:0:0:
406,341,274553,2,0,P|448:315|475:274,1,95,10|0,0:0|0:0,0:0:0:0:
277,218,274816,2,0,P|278:268|301:312,1,95,2|0,0:0|3:0,0:0:0:0:
448,168,275079,2,0,P|405:143|355:142,1,95,10|0,0:0|0:0,0:0:0:0:
198,269,275342,6,0,P|133:263|1:251,1,190,4|10,3:3|0:0,0:0:0:0:
8,251,275737,1,0,0:0:0:0:
121,99,275869,1,2,3:2:0:0:
277,218,276000,1,0,3:0:0:0:
189,186,276132,1,10,0:0:0:0:
346,56,276263,6,0,B|385:26|385:26|364:166,1,190,4|0,3:2|3:0,0:0:0:0:
277,348,276658,2,0,B|325:336|325:336|374:349,1,95,8|0,0:0|0:0,0:0:0:0:
189,186,276921,1,2,3:3:0:0:
78,321,277053,1,8,0:0:0:0:
78,321,277119,1,8,0:0:0:0:
78,321,277184,1,8,0:0:0:0:
184,72,277316,1,8,0:0:0:0:
384,260,277448,6,0,P|382:193|463:112,1,185.249991519928,4|0,3:2|0:0,0:0:0:0:
510,179,277711,2,0,P|503:245|506:310,1,123.499994346619,8|0,0:0|0:0,0:0:0:0:
175,352,277974,5,10,0:0:0:0:
384,260,278105,1,0,3:0:0:0:
252,166,278237,5,10,0:0:0:0:
505,301,278369,1,0,3:0:0:0:
374,63,278500,5,10,0:0:0:0:
283,305,278632,1,0,3:0:0:0:
126,122,278763,5,10,0:0:0:0:
351,364,278895,1,0,3:0:0:0:
21,347,279027,5,10,0:0:0:0:
252,166,279158,1,0,3:0:0:0:
125,356,279290,5,10,0:0:0:0:
78,263,279421,1,0,3:0:0:0:
243,43,279553,6,0,B|211:28|211:28|178:49|178:49|134:21|94:38,1,156.750001494885,4|0,3:2|0:0,0:0:0:0:
268,340,279816,2,0,B|300:355|300:355|333:334|333:334|377:362|417:345,1,156.750001494885,4|0,3:3|0:0,0:0:0:0:
126,122,280079,5,8,0:0:0:0:
384,260,280211,1,2,3:3:0:0:
281,230,280474,6,0,B|329:182|276:110|276:110|295:170|244:194|271:224,1,246.999988693238,12|0,0:0|3:0,0:0:0:0:
169,296,280869,1,8,0:0:0:0:
169,296,280934,1,8,0:0:0:0:
169,296,281000,1,8,0:0:0:0:
45,350,281132,1,8,3:3:0:0:
127,199,281263,1,8,3:1:0:0:
27,100,281395,1,0,3:0:0:0:
66,19,281527,1,0,3:0:0:0:
279,103,281658,6,0,P|340:92|405:88,1,123.499994346619,4|0,3:2|0:0,0:0:0:0:
127,199,281921,1,10,0:0:0:0:
313,358,282053,1,0,3:0:0:0:
21,246,282184,5,10,0:0:0:0:
279,103,282316,1,0,3:0:0:0:
169,296,282448,5,10,0:0:0:0:
47,60,282579,1,0,3:0:0:0:
49,355,282711,5,10,0:0:0:0:
333,216,282842,1,0,3:0:0:0:
172,90,282974,5,10,0:0:0:0:
471,239,283105,1,0,3:0:0:0:
232,187,283237,5,10,0:0:0:0:
512,61,283369,1,0,3:0:0:0:
313,358,283500,5,10,0:0:0:0:
412,378,283632,1,0,3:0:0:0:
169,296,283763,6,0,B|115:261|56:284|56:284|80:287|97:303,1,156.750001494885,4|0,3:2|0:0,0:0:0:0:
400,74,284027,2,0,B|453:39|512:62|512:62|488:65|471:81,1,156.750001494885,4|0,3:3|0:0,0:0:0:0:
163,384,284290,5,8,0:0:0:0:
349,0,284421,1,2,3:3:0:0:
251,77,284684,6,0,B|216:113|259:180|259:180|332:154|329:106,1,218.500004167557,12|0,0:2|3:0,0:0:0:0:
135,134,285079,2,0,P|130:72|109:13,1,123.499994346619,10|0,0:0|0:0,0:0:0:0:
169,296,285342,5,2,3:2:0:0:
67,354,285474,1,0,3:0:0:0:
0,233,285605,1,10,0:2:0:0:
135,134,285737,1,0,0:0:0:0:
101,242,285869,6,0,P|161:253|227:266,1,123.499994346619,4|0,3:2|0:0,0:0:0:0:
368,377,286132,5,10,0:0:0:0:
512,98,286263,1,0,0:0:0:0:
218,126,286395,5,10,0:2:0:0:
461,299,286527,1,0,3:0:0:0:
67,354,286658,5,10,0:2:0:0:
320,243,286790,1,0,3:0:0:0:
37,140,286921,5,10,0:2:0:0:
203,384,287053,1,0,3:0:0:0:
327,52,287184,5,10,0:2:0:0:
169,296,287316,1,0,3:0:0:0:
411,199,287448,5,10,0:0:0:0:
67,354,287579,1,0,3:0:0:0:
132,190,287711,5,10,0:2:0:0:
37,140,287842,1,0,3:0:0:0:
411,199,287974,6,0,B|444:181|436:139|436:139|400:110|424:61,1,156.750001494885,4|0,3:2|0:0,0:0:0:0:
159,324,288237,2,0,B|123:310|127:268|127:268|159:236|132:190,1,156.750001494885,4|0,3:3|0:0,0:0:0:0:
466,367,288500,5,8,0:0:0:0:
46,17,288632,1,2,3:3:0:0:
131,97,288895,6,0,B|182:91|209:139|209:139|205:150|205:150|235:196|296:191,1,209.000006378174,12|0,0:0|3:0,0:0:0:0:
284,49,289290,1,8,0:0:0:0:
284,49,289355,1,8,0:0:0:0:
284,49,289421,1,8,0:0:0:0:
496,118,289553,1,8,3:3:0:0:
364,278,289684,1,0,3:1:0:0:
332,131,289816,1,0,3:0:0:0:
411,199,289948,1,0,3:0:0:0:
182,169,290079,6,0,P|172:246|159:324,1,156.750004783631,4|0,3:3|0:0,0:0:0:0:
87,359,290342,1,12,0:0:0:0:
289,355,290474,2,0,P|283:290|272:241,1,104.500003189087,0|2,0:0|0:0,0:0:0:0:
89,188,290737,1,0,3:0:0:0:
194,31,290869,1,10,0:0:0:0:
14,74,291000,1,0,0:0:0:0:
182,169,291132,6,0,P|234:163|286:157,1,104.500003189087,2|0,3:2|0:0,0:0:0:0:
110,90,291395,1,10,0:0:0:0:
236,253,291527,2,0,P|287:246|339:240,1,104.500003189087,0|2,3:2|0:0,0:0:0:0:
87,359,291790,1,0,3:0:0:0:
147,245,291921,2,0,P|162:304|258:334,1,156.750004783631,10|0,0:0|0:0,0:0:0:0:
333,373,292184,6,0,P|370:361|348:377,1,137.750004203797,4|0,3:3|0:0,0:0:0:0:
30,197,292448,2,0,P|67:209|45:193,1,137.750004203797,4|0,3:2|0:0,0:0:0:0:
87,359,292711,5,8,0:0:0:0:
386,162,292842,1,2,3:3:0:0:
292,204,293105,6,0,B|256:132|317:128|282:40|282:40|283:73|265:97,1,218.500004167557,12|0,0:2|3:0,0:0:0:0:
495,354,293500,1,10,0:0:0:0:
495,354,293763,5,8,0:2:0:0:
381,282,293895,1,8,0:2:0:0:
222,345,294027,1,8,0:2:0:0:
101,149,294158,1,8,0:2:0:0:
195,113,294290,6,0,P|200:174|177:220,1,109.250002083778,6|0,3:1|0:0,0:0:0:0:
8,181,294553,1,10,0:2:0:0:
219,7,294684,2,0,P|271:37|296:83,1,109.250002083778,2|0,0:2|0:2,0:0:0:0:
101,149,294948,1,2,3:2:0:0:
260,280,295079,1,10,0:2:0:0:
436,195,295211,1,2,0:2:0:0:
354,357,295342,6,0,P|347:285|355:188,1,163.875003125668,2|0,3:2|0:2,0:0:0:0:
394,124,295605,1,10,0:2:0:0:
260,280,295737,2,0,P|200:266|145:259,1,109.250002083778,2|0,0:2|0:2,0:0:0:0:
9,334,296000,1,2,3:2:0:0:
9,334,296066,1,2,3:2:0:0:
9,334,296132,1,10,0:0:0:0:
183,178,296263,1,2,0:2:0:0:
135,356,296395,5,2,3:2:0:0:
44,242,296527,1,2,0:2:0:0:
86,169,296658,5,10,0:2:0:0:
53,66,296790,1,2,0:2:0:0:
153,260,296921,5,2,0:2:0:0:
265,111,297053,1,2,3:2:0:0:
362,230,297184,1,10,0:2:0:0:
277,197,297316,1,2,0:2:0:0:
411,144,297448,6,0,P|473:139|524:136,1,109.250002083778,0|0,3:2|0:2,0:0:0:0:
265,111,297711,2,0,P|258:49|245:-3,1,109.250002083778,8|0,0:2|0:2,0:0:0:0:
335,348,297974,5,2,0:2:0:0:
362,230,298105,1,2,3:2:0:0:
479,257,298237,1,10,0:2:0:0:
452,375,298369,1,2,0:2:0:0:
232,302,298500,6,0,P|217:239|137:184,1,163.875003125668,6|0,3:2|0:0,0:0:0:0:
88,248,298763,2,0,P|106:310|113:362,1,109.250002083778,8|0,0:2|0:2,0:0:0:0:
41,53,299027,5,2,0:2:0:0:
88,248,299158,1,2,3:2:0:0:
283,199,299290,1,10,0:2:0:0:
234,3,299421,1,2,0:2:0:0:
382,139,299553,6,0,P|364:200|416:282,1,163.875003125668,2|0,3:2|0:2,0:0:0:0:
484,240,299816,2,0,P|493:169|509:129,1,109.250002083778,8|0,0:2|0:2,0:0:0:0:
300,93,300079,5,2,0:2:0:0:
283,199,300211,1,2,3:2:0:0:
179,182,300342,1,10,0:2:0:0:
197,79,300474,1,2,0:2:0:0:
37,241,300605,6,0,P|94:249|150:270,1,109.250002083778,4|0,3:2|0:0,0:0:0:0:
258,371,300869,1,10,0:0:0:0:
361,325,301000,1,2,0:0:0:0:
258,371,301132,1,2,3:2:0:0:
457,335,301263,5,0,3:0:0:0:
283,199,301395,1,8,0:0:0:0:
434,70,301527,6,0,B|474:44|519:85|519:85|487:167|401:146,1,237.5,4|0,3:3|3:0,0:0:0:0:
266,14,301921,1,8,0:0:0:0:
383,251,302053,1,8,0:0:0:0:
383,251,302119,1,8,0:0:0:0:
383,251,302184,5,8,0:0:0:0:
212,299,302316,1,8,3:2:0:0:
283,199,302448,1,8,3:1:0:0:
179,182,302579,1,0,3:0:0:0:
46,24,302711,6,0,B|92:5|128:54|110:103|53:107|53:107|58:153|28:177,1,237.5,6|10,3:2|0:2,0:0:0:0:
146,360,303105,2,0,P|123:307|137:247,1,109.250002083778,2|0,0:2|0:2,0:0:0:0:
247,116,303369,1,2,3:2:0:0:
212,299,303500,1,10,0:2:0:0:
28,177,303632,1,2,0:2:0:0:
224,310,303763,6,0,P|289:286|388:290,1,163.875003125668,2|0,3:2|0:2,0:0:0:0:
428,355,304027,1,10,0:2:0:0:
355,174,304158,2,0,P|344:115|329:57,1,109.250002083778,2|0,0:2|0:2,0:0:0:0:
468,212,304421,1,2,3:2:0:0:
468,212,304487,1,2,3:2:0:0:
468,212,304553,1,10,0:2:0:0:
247,116,304684,1,2,0:2:0:0:
506,44,304816,5,2,3:2:0:0:
417,93,304948,1,2,0:2:0:0:
273,212,305079,5,10,0:2:0:0:
362,261,305211,1,2,0:2:0:0:
177,255,305342,5,2,0:2:0:0:
355,174,305474,1,2,3:2:0:0:
368,368,305605,1,10,0:2:0:0:
289,288,305737,1,2,0:2:0:0:
450,319,305869,6,0,P|457:254|472:199,1,109.250002083778,0|0,3:2|0:2,0:0:0:0:
337,66,306132,2,0,P|349:119|355:174,1,109.250002083778,8|0,0:2|0:2,0:0:0:0:
177,255,306395,5,2,0:2:0:0:
3,306,306527,1,2,3:2:0:0:
155,344,306658,1,10,0:2:0:0:
25,217,306790,1,2,0:2:0:0:
222,177,306921,6,0,P|264:244|234:330,1,163.875003125668,6|0,3:2|0:0,0:0:0:0:
155,344,307184,2,0,P|92:359|43:373,1,109.250002083778,8|0,0:0|0:0,0:0:0:0:
192,53,307448,5,2,0:2:0:0:
434,123,307579,1,2,3:2:0:0:
222,177,307711,1,10,0:2:0:0:
403,0,307842,1,2,0:2:0:0:
408,210,307974,6,0,P|353:165|353:69,1,163.875003125668,2|0,3:2|0:0,0:0:0:0:
403,0,308237,2,0,P|457:8|511:14,1,109.250002083778,8|0,0:0|0:0,0:0:0:0:
192,53,308500,5,2,0:2:0:0:
297,171,308632,1,2,3:2:0:0:
165,129,308763,1,10,0:2:0:0:
325,95,308895,1,2,0:2:0:0:
90,179,309027,6,0,B|65:145|77:106|77:106|61:74|61:74|76:36,1,142.500005435944,6|0,3:3|0:0,0:0:0:0:
279,303,309290,2,0,B|303:270|291:231|291:231|308:198|308:198|297:171,1,142.500005435944,10|0,0:0|0:0,0:0:0:0:
15,355,309553,5,10,0:0:0:0:
165,129,309684,1,2,3:0:0:0:
279,303,309816,1,10,0:0:0:0:
82,261,309948,6,0,B|85:331|168:345|168:345|205:275|164:230,1,256.50000097847,4|0,3:2|3:0,0:0:0:0:
15,355,310342,1,8,0:2:0:0:
0,154,310474,1,8,3:3:0:0:
0,154,310540,1,8,3:3:0:0:
0,154,310605,5,8,3:3:0:0:
164,230,310737,1,8,3:1:0:0:
279,303,310869,1,0,3:0:0:0:
361,262,311000,1,0,3:0:0:0:
302,85,311132,6,0,P|346:130|446:127,1,163.875003125668,6|0,3:2|0:0,0:0:0:0:
495,68,311395,1,10,0:2:0:0:
248,7,311527,2,0,P|212:54|206:107,1,109.250002083778,2|0,0:2|0:2,0:0:0:0:
390,63,311790,1,2,3:2:0:0:
272,200,311921,1,10,0:2:0:0:
470,311,312053,1,2,0:2:0:0:
258,193,312184,6,0,B|197:182|163:244|181:251|145:306|79:290,1,218.500004167557,2|10,3:2|0:2,0:0:0:0:
299,344,312579,2,0,P|336:304|388:289,1,109.250002083778,2|0,0:2|0:2,0:0:0:0:
96,211,312842,1,2,3:2:0:0:
96,211,312908,1,2,3:2:0:0:
96,211,312974,1,10,0:0:0:0:
251,274,313105,1,2,0:2:0:0:
191,149,313237,5,2,3:2:0:0:
226,67,313369,1,2,0:2:0:0:
387,289,313500,5,10,0:2:0:0:
355,202,313632,1,2,0:2:0:0:
160,318,313763,5,2,0:2:0:0:
299,344,313895,1,2,3:2:0:0:
387,289,314027,1,10,0:2:0:0:
466,313,314158,1,2,0:2:0:0:
332,86,314290,6,0,P|278:81|226:66,1,109.250002083778,0|0,3:2|0:2,0:0:0:0:
484,205,314553,2,0,P|479:260|466:313,1,109.250002083778,8|0,0:2|0:2,0:0:0:0:
279,197,314816,5,2,0:2:0:0:
438,103,314948,1,2,3:2:0:0:
265,201,315079,1,10,0:2:0:0:
484,205,315211,1,2,0:2:0:0:
251,205,315342,6,0,B|263:256|219:307|219:307|231:339|264:351,1,163.875003125668,6|0,3:2|0:0,0:0:0:0:
336,340,315605,2,0,P|391:331|450:324,1,109.250002083778,8|0,0:2|0:0,0:0:0:0:
242,74,315869,5,2,0:2:0:0:
117,283,316000,1,2,3:2:0:0:
247,54,316132,1,10,0:2:0:0:
252,345,316263,1,2,0:2:0:0:
252,36,316395,6,0,B|201:48|150:4|150:4|118:16|106:49,1,163.875003125668,2|0,3:2|0:2,0:0:0:0:
39,88,316658,2,0,P|94:122|145:121,1,109.250002083778,8|0,0:2|0:2,0:0:0:0:
280,255,316921,5,2,0:2:0:0:
142,197,317053,1,2,3:2:0:0:
291,256,317184,1,10,0:2:0:0:
117,283,317316,1,2,0:2:0:0:
302,257,317448,6,0,P|308:199|319:145,1,109.250002083778,4|0,3:2|0:0,0:0:0:0:
441,46,317711,1,10,0:0:0:0:
480,151,317842,1,2,0:0:0:0:
441,46,317974,1,2,3:2:0:0:
234,143,318105,5,0,3:0:0:0:
413,234,318237,1,8,0:0:0:0:
168,351,318369,6,0,B|232:334|232:334|297:357|297:357|381:339,1,218.500004167557,4|0,3:3|3:0,0:0:0:0:
510,232,318763,1,8,0:0:0:0:
343,59,318895,1,8,0:0:0:0:
343,59,318961,1,8,0:0:0:0:
343,59,319027,5,8,0:0:0:0:
285,218,319158,1,8,3:2:0:0:
156,152,319290,1,8,3:1:0:0:
208,67,319421,1,0,3:0:0:0:
142,241,319553,6,0,P|89:229|35:222,1,109.250002083778,6|0,3:2|0:0,0:0:0:0:
17,112,319816,1,10,0:2:0:0:
56,337,319948,2,0,P|110:344|163:356,1,109.250002083778,2|0,0:2|0:2,0:0:0:0:
35,222,320211,1,2,3:2:0:0:
234,143,320342,1,10,0:2:0:0:
163,356,320474,1,2,0:2:0:0:
360,248,320605,6,0,B|328:187|374:117|374:117|370:155|383:177,1,192.375000733852,2|0,3:2|0:0,0:0:0:0:
452,202,320869,1,10,0:2:0:0:
291,309,321000,2,0,P|352:336|400:332,1,109.250002083778,2|0,0:2|0:0,0:0:0:0:
148,168,321263,1,2,3:2:0:0:
148,168,321329,1,2,3:2:0:0:
148,168,321395,1,10,0:2:0:0:
56,337,321527,1,2,0:2:0:0:
233,233,321658,5,2,3:2:0:0:
291,309,321790,1,2,0:2:0:0:
95,253,321921,5,10,0:2:0:0:
37,177,322053,1,2,0:2:0:0:
190,3,322184,5,2,0:2:0:0:
148,168,322316,1,2,3:2:0:0:
296,140,322448,1,10,0:2:0:0:
212,95,322579,1,2,0:2:0:0:
173,283,322711,6,0,B|228:289|228:289|281:275|281:275|335:283,1,163.875003125668,0|0,3:2|0:0,0:0:0:0:
393,339,322974,2,0,B|417:288|417:288|401:238,1,109.250002083778,8|0,0:2|0:2,0:0:0:0:
281,45,323237,5,2,0:2:0:0:
401,238,323369,1,2,3:2:0:0:
437,80,323500,1,10,0:2:0:0:
244,201,323632,1,2,0:2:0:0:
480,151,323763,6,0,P|392:149|352:83,1,163.875003125668,6|0,3:2|0:0,0:0:0:0:
281,45,324027,2,0,P|227:63|172:66,1,109.250002083778,8|0,0:0|0:0,0:0:0:0:
126,296,324290,5,2,0:2:0:0:
281,45,324421,1,2,3:2:0:0:
328,250,324553,1,10,0:2:0:0:
77,93,324684,1,2,0:2:0:0:
241,344,324816,6,0,P|172:330|80:342,1,163.875003125668,2|0,3:2|0:0,0:0:0:0:
12,286,325079,2,0,P|23:229|43:166,1,109.250002083778,8|0,0:0|0:0,0:0:0:0:
211,111,325342,5,2,0:2:0:0:
328,250,325474,1,2,3:2:0:0:
198,240,325605,1,10,0:2:0:0:
339,124,325737,1,2,0:2:0:0:
388,333,325869,6,0,B|405:262|475:273|475:273|446:298,1,142.500005435944,6|0,3:3|0:0,0:0:0:0:
131,167,326132,2,0,B|114:96|44:107|44:107|73:132,1,142.500005435944,10|0,0:0|0:0,0:0:0:0:
281,42,326395,5,10,0:0:0:0:
113,274,326527,1,2,3:0:0:0:
388,196,326658,1,10,0:0:0:0:
512,384,326790,5,4,3:2:0:0:
256,192,327316,5,4,0:3:0:0:
256,192,327448,12,2,329027,0:0:0:0:
256,192,329092,12,2,331132,0:0:0:0:
256,192,331198,12,2,333237,0:0:0:0:
