osu file format v14

[General]
AudioFilename: audio.mp3
AudioLeadIn: 0
PreviewTime: 63557
Countdown: 0
SampleSet: Soft
StackLeniency: 0.8
Mode: 0
LetterboxInBreaks: 0
WidescreenStoryboard: 1

[Editor]
Bookmarks: 1662,12211,22760,33310,43859,54409,64958,75508,86057,96607,101881,107156,117705,128255,138804,149354,160562,171111,181661,192210
DistanceSpacing: 1
BeatDivisor: 4
GridSize: 32
TimelineZoom: 1.9

[Metadata]
Title:Eternal Bliss
TitleUnicode:Eternal Bliss
Artist:Emiru no Aishita Tsukiyo ni Dai San Gensou Kyoku wo
ArtistUnicode:エミルの愛した月夜に第III幻想曲を
Creator:Hinsvar
Version:Normal
Source:
Tags:Emiru3 Emille's Moonlight Serenade EMS Japanese Rock J-Rock JRock gothic symphonic Pop J-Pop JPop Fallen サラ SALA SARA いばら IBARA Featured Artist FA Mappers' Guild MG MPG
BeatmapID:4537943
BeatmapSetID:2153172

[Difficulty]
HPDrainRate:3
CircleSize:2.7
OverallDifficulty:4.5
ApproachRate:5.4
SliderMultiplier:1.12
SliderTickRate:1

[Events]
//Background and Video events
0,0,"BG.jpg",0,0
//Break Periods
2,96807,100742
//Storyboard Layer 0 (Background)
//Storyboard Layer 1 (Fail)
//Storyboard Layer 2 (Pass)
//Storyboard Layer 3 (Foreground)
//Storyboard Layer 4 (Overlay)
//Storyboard Sound Samples

[TimingPoints]
1662,329.67032967033,4,2,1,70,1,0
6936,-125,4,2,1,60,0,0
8255,-100,4,2,1,65,0,0
11387,-125,4,2,1,60,0,0
12211,-100,4,2,1,70,0,0
33310,-111.111111111111,4,2,1,60,0,0
43859,-100,4,2,1,70,0,0
64958,-90.9090909090909,4,2,1,80,0,1
74848,-90.9090909090909,4,2,1,80,0,0
75508,-90.9090909090909,4,2,1,80,0,1
86057,-100,4,2,1,70,0,0
96607,-111.111111111111,4,2,1,60,0,0
107156,-100,4,2,1,70,0,0
148035,-125,4,2,1,65,0,0
149354,-125,4,2,1,60,0,0
150013,329.67032967033,4,2,1,60,1,8
150177,-100,4,2,1,70,0,8
152650,-90.9090909090909,4,2,1,80,0,9
159903,-90.9090909090909,4,2,1,80,0,8
160562,-90.9090909090909,4,2,1,80,0,9
171111,-100,4,2,1,70,0,8

[Colours]
Combo1 : 176,230,123
Combo2 : 235,245,109
Combo3 : 139,253,111
Combo4 : 231,220,120

[HitObjects]
256,192,1662,5,4,3:2:0:0:
256,192,4299,1,4,3:2:0:0:
256,192,5618,5,4,3:2:0:0:
399,363,6277,2,0,P|439:367|489:318,1,112,2|2,3:2|3:2,0:0:0:0:
468,209,6936,6,0,B|438:159|472:122|475:124|507:87|467:34,1,179.2,6|2,3:2|3:2,0:0:0:0:
365,78,7925,1,2,3:2:0:0:
259,39,8255,6,0,P|203:23|141:24,1,112,4|0,3:2|3:0,0:0:0:0:
94,33,8749,1,4,3:2:0:0:
90,145,9079,2,0,P|62:144|35:136,2,56,2|8|8,3:2|0:0|0:0,0:0:0:0:
145,135,9574,1,8,0:0:0:0:
227,210,9903,6,0,P|255:247|266:325,1,112,10|0,0:0|3:0,0:0:0:0:
162,349,10563,2,0,P|148:330|142:291,1,56,2|0,3:2|3:0,0:0:0:0:
122,248,10892,1,4,3:2:0:0:
368,139,11881,1,8,0:0:0:0:
336,30,12211,6,0,P|396:16|496:64,1,168,6|2,3:2|0:0,0:0:0:0:
506,110,12870,2,0,P|510:129|494:163,1,56,0|0,3:0|3:0,0:0:0:0:
468,210,13200,1,10,0:0:0:0:
366,167,13530,1,0,3:0:0:0:
274,231,13859,1,10,0:0:0:0:
283,342,14189,2,0,L|344:352,2,56,0|0|10,3:0|3:0|0:0,0:0:0:0:
172,351,14848,6,0,L|160:240,1,112,0|10,3:0|0:0,0:0:0:0:
61,184,15508,2,0,L|9:161,2,56,0|0|10,3:0|3:0|0:0,0:0:0:0:
157,125,16167,2,0,L|248:60,2,112,0|10|0,3:0|0:0|3:0,0:0:0:0:
135,80,16991,1,0,3:0:0:0:
135,80,17156,1,12,0:0:0:0:
27,49,17486,5,4,3:2:0:0:
9,161,17815,2,0,P|11:213|25:274,1,112,10|0,0:0|3:0,0:0:0:0:
53,326,18310,1,0,3:0:0:0:
53,326,18475,2,0,P|105:324|166:310,1,112,10|0,0:0|3:0,0:0:0:0:
231,223,19133,2,0,P|229:171|215:110,1,112,10|0,0:0|3:0,0:0:0:0:
203,62,19629,1,0,3:0:0:0:
203,62,19793,1,10,0:0:0:0:
303,12,20123,5,4,3:2:0:0:
414,18,20453,1,10,0:0:0:0:
507,78,20782,2,0,L|512:139,2,56,0|0|10,3:0|3:0|0:0,0:0:0:0:
407,129,21442,1,6,3:2:0:0:
296,135,21772,1,10,0:0:0:0:
203,195,22101,2,0,L|198:256,1,56,8|8,0:0|0:0,0:0:0:0:
234,293,22431,2,0,L|295:298,1,56,10|8,0:0|0:0,0:0:0:0:
332,262,22760,6,0,P|369:292|394:352,1,112,4|10,3:2|0:0,0:0:0:0:
501,317,23420,2,0,P|492:294|496:262,1,56,0|0,3:0|3:0,0:0:0:0:
510,209,23749,1,10,0:0:0:0:
512,99,24079,1,0,3:0:0:0:
400,110,24409,1,10,0:0:0:0:
313,38,24738,2,0,P|289:40|259:28,2,56,0|0|10,3:0|3:0|0:0,0:0:0:0:
295,149,25398,6,0,P|247:144|187:168,1,112,0|10,3:0|0:0,0:0:0:0:
195,279,26057,2,0,P|192:302|204:332,2,56,0|0|10,3:0|3:0|0:0,0:0:0:0:
82,278,26716,2,0,P|86:230|62:170,2,112,0|10|0,3:0|0:0|3:0,0:0:0:0:
79,338,27541,1,0,3:0:0:0:
79,338,27705,1,12,0:0:0:0:
188,314,28035,5,4,3:2:0:0:
299,323,28365,2,0,L|307:204,1,112,10|0,0:0|3:0,0:0:0:0:
314,159,28859,1,0,3:0:0:0:
314,159,29024,2,0,L|235:69,1,112,10|0,0:0|3:0,0:0:0:0:
133,48,29684,2,0,L|125:167,1,112,10|0,0:0|3:0,0:0:0:0:
123,219,30178,1,0,3:0:0:0:
123,219,30343,1,10,0:0:0:0:
229,252,30672,5,4,3:2:0:0:
280,349,31002,1,10,0:0:0:0:
386,382,31332,2,0,P|412:377|442:366,2,56,0|0|10,3:0|3:0|0:0,0:0:0:0:
365,271,31991,1,4,3:2:0:0:
462,220,32321,1,10,0:0:0:0:
495,114,32651,2,0,P|490:88|479:58,1,56,8|8,0:0|0:0,0:0:0:0:
436,24,32980,2,0,P|410:29|380:40,1,56,10|8,0:0|0:0,0:0:0:0:
346,83,33310,5,4,3:2:0:0:
251,140,33640,2,0,L|190:131,1,50.3999984619141,0|2,3:0|0:0,0:0:0:0:
156,166,33969,2,0,L|34:148,1,100.799996923828,0|0,3:0|3:0,0:0:0:0:
10,184,34464,1,2,0:0:0:0:
0,295,34793,1,2,0:0:0:0:
81,369,35123,2,0,P|133:369|173:340,1,100.799996923828,2|0,0:0|0:0,0:0:0:0:
258,271,35782,5,0,0:0:0:0:
258,271,35947,2,0,P|258:199|252:118,1,151.199995385742,4|0,3:2|0:0,0:0:0:0:
285,75,36607,2,0,P|332:75|386:71,1,100.799996923828,2|0,3:2|3:0,0:0:0:0:
430,103,37101,2,0,P|430:126|432:153,2,50.3999984619141,2|0|2,0:0|3:0|0:0,0:0:0:0:
358,269,37925,1,0,3:0:0:0:
249,246,38255,2,0,P|249:269|247:296,1,50.3999984619141,2|0,3:2|0:0,0:0:0:0:
191,301,38585,6,0,P|160:262|152:200,2,100.799996923828,4|0|0,3:2|3:0|3:0,0:0:0:0:
108,375,39574,1,2,3:2:0:0:
1,345,39903,2,0,P|-6:295|17:238,1,100.799996923828,0|0,3:0|3:0,0:0:0:0:
36,199,40398,1,2,0:0:0:0:
25,18,40892,2,0,P|49:14|78:26,1,50.3999984619141,2|0,3:2|0:0,0:0:0:0:
104,68,41222,6,0,P|153:72|212:60,1,100.799996923828,0|0,3:0|3:0,0:0:0:0:
258,56,41716,1,2,0:0:0:0:
344,125,42046,1,2,0:0:0:0:
280,215,42376,2,0,B|332:215|345:254|339:255|352:291|415:294,1,151.199995385742,2|0,0:0|3:0,0:0:0:0:
500,243,43200,1,0,3:0:0:0:
508,133,43530,2,0,P|509:106|500:78,1,50.3999984619141,8|8,0:0|0:0,0:0:0:0:
496,28,43859,5,4,3:2:0:0:
395,77,44189,2,0,L|334:85,1,56,8|0,0:0|0:0,0:0:0:0:
290,55,44519,2,0,L|168:71,1,112,2|8,3:2|0:0,0:0:0:0:
129,40,45013,1,2,3:2:0:0:
17,32,45343,2,0,L|13:89,1,56,0|8,3:0|0:0,0:0:0:0:
9,144,45672,1,2,3:2:0:0:
121,152,46002,2,0,L|124:207,2,56,0|8|0,3:0|0:0|0:0,0:0:0:0:
171,126,46497,6,0,P|229:128|315:208,1,168,6|0,3:2|0:0,0:0:0:0:
330,254,47156,1,2,3:2:0:0:
330,254,47321,2,0,P|349:273|376:277,2,56,0|8|2,3:0|0:0|3:2,0:0:0:0:
230,305,47980,2,0,L|169:310,1,56,0|8,3:0|0:0,0:0:0:0:
134,349,48310,1,0,3:0:0:0:
66,259,48640,2,0,L|10:263,2,56,0|8|0,3:0|0:0|0:0,0:0:0:0:
103,223,49134,5,6,3:2:0:0:
211,195,49464,1,8,0:0:0:0:
217,83,49793,2,0,P|216:53|208:26,2,56,2|0|8,3:2|3:0|0:0,0:0:0:0:
268,105,50288,2,0,P|321:90|377:88,1,112,0|0,3:0|3:0,0:0:0:0:
432,114,50782,1,8,0:0:0:0:
432,114,50947,1,2,3:2:0:0:
499,286,51442,1,8,0:0:0:0:
426,371,51771,6,0,P|372:362|350:312,1,112,6|8,3:2|0:0,0:0:0:0:
356,257,52266,1,0,0:0:0:0:
315,152,52596,2,0,P|303:127|276:123,1,56,2|8,3:2|0:0,0:0:0:0:
229,92,52925,2,0,P|173:96|119:108,1,112,6|0,3:2|3:0,0:0:0:0:
87,155,53420,1,12,0:0:0:0:
103,265,53749,1,8,0:0:0:0:
208,226,54079,2,0,P|214:253|216:281,1,56,0|0,3:0|3:0,0:0:0:0:
217,337,54409,6,0,L|274:346,2,56,10|10|10,0:0|0:0|0:0,0:0:0:0:
112,377,55068,2,0,L|1:359,1,112,0|0,3:0|3:0,0:0:0:0:
4,303,55563,1,10,0:0:0:0:
114,273,55892,1,8,0:0:0:0:
114,273,56057,1,10,0:0:0:0:
381,69,57046,6,0,P|382:37|374:12,2,56,10|10|10,0:0|0:0|0:0,0:0:0:0:
270,49,57705,2,0,P|268:113|284:163,1,112,8|8,0:0|0:0,0:0:0:0:
334,178,58200,1,6,3:2:0:0:
445,163,58530,1,6,3:2:0:0:
445,163,58694,2,0,P|491:190|503:247,1,112,6|0,0:0|3:0,0:0:0:0:
498,356,59354,2,0,P|474:369|447:360,1,56,2|0,3:2|3:0,0:0:0:0:
412,317,59683,5,6,3:2:0:0:
318,378,60013,1,8,0:0:0:0:
218,327,60343,2,0,L|163:311,2,56,2|0|8,3:2|3:0|0:0,0:0:0:0:
312,266,61002,1,2,3:2:0:0:
306,154,61332,2,0,P|303:99|291:39,1,112,12|0,0:0|3:0,0:0:0:0:
240,22,61826,2,0,P|185:24|125:37,1,112,2|8,0:0|0:0,0:0:0:0:
108,88,62321,5,6,3:2:0:0:
75,195,62651,2,0,L|21:206,1,56,8|2,0:0|3:2,0:0:0:0:
2,259,62980,2,0,L|13:313,2,56,8|0|10,0:0|3:0|0:0,0:0:0:0:
109,291,63640,6,0,B|145:281|162:303|163:307|182:328|229:309,1,112,10|2,0:0|3:2,0:0:0:0:
260,281,64134,1,10,0:0:0:0:
260,281,64299,1,2,0:0:0:0:
496,349,64958,6,0,P|511:293|496:229,1,123.200003759766,6|0,3:2|3:0,0:0:0:0:
477,108,65618,2,0,B|417:132|388:90|396:85|368:41|303:57,1,184.800005639649,0|0,3:0|0:0,0:0:0:0:
266,96,66277,2,0,P|208:80|190:20,1,123.200003759766,2|0,3:2|3:0,0:0:0:0:
127,21,66771,2,0,P|111:79|51:97,1,123.200003759766,2|0,0:0|0:0,0:0:0:0:
52,160,67266,2,0,P|81:168|90:198,1,61.6000018798829,2|0,3:2|0:0,0:0:0:0:
101,256,67596,5,2,3:2:0:0:
134,381,67925,1,0,3:0:0:0:
134,381,68090,2,0,L|235:312,1,123.200003759766,2|0,0:0|0:0,0:0:0:0:
242,251,68585,2,0,L|207:200,1,61.6000018798829,0|2,3:0|0:0,0:0:0:0:
172,149,68914,1,0,3:0:0:0:
164,26,69244,1,2,3:2:0:0:
287,17,69574,1,0,3:0:0:0:
410,8,69903,1,2,3:2:0:0:
419,131,70233,6,0,P|480:147|512:258,1,184.800005639649,6|2,3:2|0:0,0:0:0:0:
495,312,70892,2,0,P|465:341|390:323,1,123.200003759766,0|0,3:0|3:0,0:0:0:0:
350,279,71387,1,2,0:0:0:0:
254,201,71716,2,0,B|226:157|255:111|254:117|279:68|241:21,1,184.800005639649,2|0,0:0|3:0,0:0:0:0:
184,44,72376,2,0,P|147:46|122:36,1,61.6000018798829,2|8,0:0|0:0,0:0:0:0:
70,22,72705,1,2,0:0:0:0:
70,22,72870,1,4,3:2:0:0:
20,134,73200,6,0,P|86:167|119:209,1,123.200003759766,2|0,3:2|3:0,0:0:0:0:
233,164,73859,1,14,0:0:0:0:
355,148,74189,2,0,P|357:185|347:209,1,61.6000018798829,10|0,0:0|3:0,0:0:0:0:
360,268,74519,2,0,P|328:288|302:292,1,61.6000018798829,14|2,0:0|3:2,0:0:0:0:
258,332,74848,2,0,P|208:306|183:275,2,92.4000028198243,10|2|0,0:0|3:2|3:0,0:0:0:0:
295,381,75508,6,0,P|350:379|420:366,1,123.200003759766,6|0,3:2|3:0,0:0:0:0:
470,255,76167,2,0,B|438:189|467:157|471:162|500:130|474:71,1,184.800005639649,0|0,3:0|0:0,0:0:0:0:
451,22,76826,2,0,P|405:12|354:66,1,123.200003759766,2|0,3:2|3:0,0:0:0:0:
295,42,77321,2,0,P|263:76|284:148,1,123.200003759766,2|0,0:0|0:0,0:0:0:0:
234,187,77815,2,0,P|240:209|277:218,1,61.6000018798829,2|0,3:2|0:0,0:0:0:0:
318,262,78145,5,2,3:2:0:0:
216,329,78475,1,0,3:0:0:0:
216,329,78640,2,0,P|156:324|95:297,1,123.200003759766,2|0,0:0|0:0,0:0:0:0:
56,255,79134,2,0,P|44:227|44:194,1,61.6000018798829,0|2,3:0|0:0,0:0:0:0:
66,139,79464,1,0,3:0:0:0:
160,217,79793,1,2,3:2:0:0:
274,174,80123,1,0,3:0:0:0:
388,131,80453,1,2,3:2:0:0:
482,209,80782,6,0,P|506:276|433:364,1,184.800005639649,6|2,3:2|0:0,0:0:0:0:
384,380,81442,2,0,P|337:371|310:300,1,123.200003759766,0|0,3:0|3:0,0:0:0:0:
322,245,81936,1,2,0:0:0:0:
231,160,82266,2,0,B|173:141|149:182|149:186|118:232|48:208,1,184.800005639649,2|0,0:0|3:0,0:0:0:0:
23,258,82925,2,0,P|20:291|30:324,1,61.6000018798829,2|8,0:0|0:0,0:0:0:0:
79,361,83255,1,0,3:0:0:0:
79,361,83420,1,6,3:2:0:0:
188,304,83749,5,14,0:0:0:0:
311,312,84079,2,0,L|310:378,2,61.6000018798829,0|2|8,3:0|0:0|0:0,0:0:0:0:
347,261,84574,2,0,L|348:137,1,123.200003759766,8|2,0:0|0:0,0:0:0:0:
296,118,85068,1,12,0:0:0:0:
296,118,85233,1,8,0:0:0:0:
191,181,85563,2,0,L|189:304,1,123.200003759766,10|8,0:0|0:0,0:0:0:0:
140,332,86057,6,0,P|70:345|5:282,1,168,6|2,3:2|0:0,0:0:0:0:
0,226,86716,2,0,P|23:230|44:209,1,56,0|0,3:0|3:0,0:0:0:0:
94,180,87046,1,10,0:0:0:0:
76,69,87376,1,0,3:0:0:0:
187,51,87705,1,10,0:0:0:0:
205,162,88035,2,0,L|265:164,2,56,0|0|10,3:0|3:0|0:0,0:0:0:0:
170,268,88694,6,0,P|222:292|258:346,1,112,0|10,3:0|0:0,0:0:0:0:
334,257,89354,2,0,P|346:231|373:213,2,56,0|0|10,3:0|3:0|0:0,0:0:0:0:
438,298,90013,2,0,P|414:350|360:386,2,112,0|10|0,3:0|0:0|3:0,0:0:0:0:
497,293,90837,1,0,3:0:0:0:
497,293,91002,1,12,0:0:0:0:
490,181,91332,5,4,3:2:0:0:
477,69,91662,2,0,L|348:79,1,112,10|0,0:0|3:0,0:0:0:0:
313,79,92156,1,0,3:0:0:0:
313,79,92321,2,0,L|206:152,1,112,10|0,0:0|3:0,0:0:0:0:
228,254,92980,2,0,L|357:244,1,112,10|0,0:0|3:0,0:0:0:0:
399,242,93475,1,0,3:0:0:0:
399,242,93640,1,10,0:0:0:0:
378,351,93969,5,4,3:2:0:0:
266,359,94298,1,10,0:0:0:0:
154,367,94629,2,0,P|119:369|96:348,2,56,0|0|10,3:0|3:0|0:0,0:0:0:0:
146,254,95288,1,4,3:2:0:0:
257,245,95617,1,10,0:0:0:0:
370,238,95948,2,0,P|405:236|428:257,1,56,8|8,0:0|0:0,0:0:0:0:
467,215,96277,2,0,P|465:180|486:157,1,56,10|8,0:0|0:0,0:0:0:0:
444,118,96607,5,4,3:2:0:0:
135,283,101881,6,0,P|97:310|64:365,2,100.799996923828,6|0|0,3:2|3:0|3:0,0:0:0:0:
224,348,102870,1,2,3:2:0:0:
331,321,103200,2,0,P|320:272|327:222,1,100.799996923828,0|0,3:0|3:0,0:0:0:0:
349,174,103694,1,2,0:0:0:0:
217,49,104189,2,0,P|192:54|167:50,1,50.3999984619141,2|0,3:2|0:0,0:0:0:0:
112,36,104519,6,0,P|60:30|25:77,1,100.799996923828,0|0,3:0|3:0,0:0:0:0:
31,118,105013,1,2,0:0:0:0:
91,210,105343,1,2,0:0:0:0:
183,150,105672,1,2,0:0:0:0:
183,150,105837,1,4,3:2:0:0:
183,150,107156,5,4,3:2:0:0:
192,261,107486,2,0,L|198:322,1,56,8|0,0:0|0:0,0:0:0:0:
205,372,107815,2,0,L|327:360,1,112,2|8,3:2|0:0,0:0:0:0:
336,308,108310,1,2,3:2:0:0:
438,355,108640,2,0,L|443:299,1,56,0|8,3:0|0:0,0:0:0:0:
448,243,108969,1,2,3:2:0:0:
426,133,109299,2,0,L|481:138,2,56,0|8|0,3:0|0:0|0:0,0:0:0:0:
370,128,109793,6,0,P|291:103|259:23,1,168,2|0,3:2|0:0,0:0:0:0:
211,56,110453,1,2,3:2:0:0:
211,56,110618,2,0,P|202:82|176:92,2,56,0|8|2,3:0|0:0|3:2,0:0:0:0:
105,18,111277,2,0,L|48:25,1,56,0|8,3:0|0:0,0:0:0:0:
19,72,111607,1,0,3:0:0:0:
43,181,111936,2,0,L|98:174,2,56,0|8|0,3:0|0:0|0:0,0:0:0:0:
13,228,112431,5,6,3:2:0:0:
116,268,112760,1,8,0:0:0:0:
219,308,113090,2,0,P|223:332|225:366,2,56,2|0|8,3:2|3:0|0:0,0:0:0:0:
226,252,113585,2,0,P|218:204|214:136,1,112,0|0,3:0|3:0,0:0:0:0:
230,90,114079,1,8,0:0:0:0:
230,90,114244,1,2,3:2:0:0:
404,29,114738,1,8,0:0:0:0:
498,88,115068,6,0,P|503:138|448:166,1,112,6|8,3:2|0:0,0:0:0:0:
398,168,115563,1,2,0:0:0:0:
409,279,115892,2,0,P|435:277|448:300,1,56,0|8,3:0|0:0,0:0:0:0:
449,357,116222,2,0,P|395:371|335:368,1,112,6|0,3:2|0:0,0:0:0:0:
283,371,116716,1,12,0:0:0:0:
266,260,117046,1,8,0:0:0:0:
250,148,117376,2,0,P|243:121|244:91,1,56,0|0,3:0|3:0,0:0:0:0:
259,39,117705,6,0,L|310:14,2,56,10|10|10,0:0|0:0|0:0,0:0:0:0:
146,35,118365,2,0,L|45:84,1,112,0|0,3:0|3:0,0:0:0:0:
38,139,118859,1,10,0:0:0:0:
142,194,119189,1,8,0:0:0:0:
142,194,119354,1,10,0:0:0:0:
436,354,120343,6,0,P|462:364|497:361,2,56,10|10|10,0:0|0:0|0:0,0:0:0:0:
323,357,121002,2,0,P|321:301|341:249,1,112,8|8,0:0|0:0,0:0:0:0:
377,198,121497,1,6,3:2:0:0:
287,122,121826,1,6,3:2:0:0:
287,122,121991,2,0,P|245:161|186:153,1,112,2|0,0:0|3:0,0:0:0:0:
85,124,122651,2,0,P|57:122|38:141,1,56,2|0,3:2|3:0,0:0:0:0:
1,184,122980,5,6,3:2:0:0:
5,296,123310,1,8,0:0:0:0:
103,348,123640,2,0,L|113:289,2,56,2|0|8,3:2|3:0|0:0,0:0:0:0:
214,338,124299,1,2,3:2:0:0:
322,367,124629,2,0,P|320:314|303:249,1,112,14|0,0:0|3:0,0:0:0:0:
258,227,125123,2,0,P|244:172|242:116,1,112,2|8,0:0|0:0,0:0:0:0:
242,60,125618,5,6,3:2:0:0:
341,8,125947,2,0,L|402:15,1,56,8|2,0:0|3:2,0:0:0:0:
444,44,126277,2,0,L|505:51,2,56,8|0|10,0:0|3:0|0:0,0:0:0:0:
372,130,126936,2,0,P|373:161|401:177,1,56,0|10,3:0|0:0,0:0:0:0:
447,169,127266,2,0,P|474:169|492:149,2,56,0|0|0,3:0|3:0|3:0,0:0:0:0:
462,280,127925,1,2,3:2:0:0:
352,301,128255,6,0,P|294:315|237:316,1,112,6|8,3:2|0:0,0:0:0:0:
198,280,128749,2,0,P|184:222|183:165,1,112,2|0,0:0|3:0,0:0:0:0:
219,126,129244,1,8,0:0:0:0:
219,126,129409,1,0,3:0:0:0:
199,15,129738,2,0,P|141:29|84:30,1,112,2|0,0:0|0:0,0:0:0:0:
32,32,130233,2,0,P|16:57|-3:77,2,56,0|0|10,3:0|3:0|0:0,0:0:0:0:
88,129,130892,6,0,L|109:186,1,56,0|0,3:0|0:0,0:0:0:0:
165,203,131222,1,8,0:0:0:0:
165,203,131387,2,0,L|123:317,1,112,2|0,0:0|0:0,0:0:0:0:
159,353,131881,1,8,0:0:0:0:
270,346,132211,2,0,B|306:335|323:358|322:359|341:378|376:373,2,112,2|8|2,3:2|0:0|3:2,0:0:0:0:
268,294,133035,1,0,3:0:0:0:
268,294,133200,1,12,0:0:0:0:
282,182,133530,6,0,P|334:162|383:209,1,112,4|8,3:2|0:0,0:0:0:0:
379,247,134024,2,0,P|417:284|470:273,1,112,2|0,0:0|3:0,3:0:0:0:
510,234,134518,1,10,0:0:0:0:
494,125,134848,2,0,P|498:66|507:10,2,112,0|10|0,3:0|0:0|3:0,0:0:0:0:
442,126,135672,1,0,3:0:0:0:
442,126,135837,1,10,0:0:0:0:
338,83,136167,6,0,P|309:34|241:26,1,112,6|8,3:2|0:0,0:0:0:0:
146,13,136826,2,0,P|118:5|91:26,1,56,0|0,3:0|3:0,0:0:0:0:
50,52,137156,2,0,P|42:79|63:106,1,56,8|2,0:0|0:0,0:0:0:0:
89,148,137486,1,8,0:0:0:0:
5,222,137815,1,14,0:0:0:0:
13,333,138145,2,0,P|84:372|162:347,1,168,10|0,0:0|3:0,0:0:0:0:
156,291,138804,6,0,L|143:179,1,112,6|8,3:2|0:0,0:0:0:0:
255,163,139464,2,0,L|267:273,1,112,0|10,3:0|0:0,0:0:0:0:
361,334,140123,1,0,3:0:0:0:
467,298,140453,1,10,0:0:0:0:
431,192,140782,2,0,L|486:183,2,56,0|0|10,3:0|3:0|0:0,0:0:0:0:
325,228,141442,6,0,P|271:226|227:183,1,112,0|10,3:0|0:0,0:0:0:0:
131,243,142101,2,0,P|103:250|89:274,2,56,0|0|10,3:0|3:0|0:0,0:0:0:0:
131,130,142760,2,0,P|143:76|119:28,2,112,0|10|0,3:0|0:0|3:0,0:0:0:0:
81,145,143585,1,0,3:0:0:0:
81,145,143749,1,12,0:0:0:0:
1,224,144079,5,4,3:2:0:0:
3,336,144409,2,0,L|118:336,1,112,10|0,0:0|3:0,0:0:0:0:
227,336,145068,1,10,0:0:0:0:
315,267,145398,1,0,3:0:0:0:
317,155,145728,2,0,L|432:155,1,112,10|0,0:0|3:0,0:0:0:0:
486,154,146222,1,0,3:0:0:0:
486,154,146387,1,10,0:0:0:0:
454,46,146716,6,0,P|404:30|342:50,1,112,14|0,0:0|3:0,0:0:0:0:
291,53,147211,2,0,P|285:27|261:5,2,56,8|2|0,0:0|0:0|3:0,0:0:0:0:
250,91,147705,1,10,0:0:0:0:
155,35,148035,6,0,P|41:130|63:241,1,268.8,6|2,3:2|0:0,0:0:0:0:
144,309,149354,2,0,P|152:345|157:385,2,67.2,2|2|2,0:0|0:0|0:0,0:0:0:0:
186,272,150013,1,2,0:0:0:0:
201,161,150342,5,12,0:0:0:0:
290,93,150672,2,0,P|332:68|396:57,1,112,10|8,0:0|0:0,0:0:0:0:
436,160,151331,2,0,P|471:169|511:197,2,84,6|2|2,3:2|3:2|3:2,0:0:0:0:
334,201,152155,1,2,3:2:0:0:
334,201,152320,1,0,3:0:0:0:
423,286,152650,6,0,P|414:336|345:361,1,123.200003759766,6|0,3:2|3:0,0:0:0:0:
294,341,153144,2,0,P|246:358|190:310,1,123.200003759766,2|0,0:0|0:0,0:0:0:0:
181,256,153639,2,0,P|161:239|168:203,1,61.6000018798829,0|2,3:0|0:0,0:0:0:0:
192,150,153969,1,0,3:0:0:0:
297,213,154298,1,2,3:2:0:0:
389,132,154628,1,0,3:0:0:0:
341,20,154958,1,2,3:2:0:0:
219,30,155287,6,0,B|173:66|135:40|132:34|94:10|38:43,1,184.800005639649,6|2,3:2|0:0,0:0:0:0:
3,87,155947,2,0,B|26:117|9:142|5:144|-10:170|11:207,1,123.200003759766,0|0,3:0|3:0,0:0:0:0:
11,265,156441,1,2,0:0:0:0:
93,357,156771,2,0,P|165:340|206:240,1,184.800005639649,2|0,0:0|3:0,0:0:0:0:
232,189,157430,2,0,P|226:165|193:151,1,61.6000018798829,2|0,0:0|3:0,0:0:0:0:
138,125,157760,1,2,0:0:0:0:
138,125,157925,1,4,3:2:0:0:
213,28,158254,5,2,3:2:0:0:
308,96,158584,2,0,P|371:95|432:85,1,123.200003759766,4|10,3:2|0:0,0:0:0:0:
407,206,159243,2,0,P|375:206|345:211,1,61.6000018798829,10|0,0:0|3:0,0:0:0:0:
284,218,159573,2,0,P|284:249|289:280,1,61.6000018798829,14|2,0:0|3:2,0:0:0:0:
296,341,159903,2,0,P|343:340|389:332,2,92.4000028198243,10|2|0,0:0|3:2|3:0,0:0:0:0:
243,373,160562,6,0,P|182:366|136:317,1,123.200003759766,6|0,3:2|3:0,0:0:0:0:
179,207,161221,2,0,B|203:152|180:115|171:116|136:78|163:21,1,184.800005639649,0|0,3:0|0:0,0:0:0:0:
96,21,161881,2,0,P|72:66|1:83,1,123.200003759766,2|0,3:2|3:0,0:0:0:0:
10,145,162375,2,0,P|36:188|16:258,1,123.200003759766,2|0,0:0|0:0,0:0:0:0:
74,281,162870,2,0,P|99:280|124:306,1,61.6000018798829,2|0,3:2|0:0,0:0:0:0:
174,338,163199,5,2,3:2:0:0:
284,281,163529,1,0,3:0:0:0:
284,281,163694,2,0,P|268:221|265:155,1,123.200003759766,2|0,0:0|0:0,0:0:0:0:
263,97,164188,2,0,P|293:95|323:87,1,61.6000018798829,0|2,3:0|0:0,0:0:0:0:
384,77,164518,1,0,3:0:0:0:
502,111,164848,1,2,3:2:0:0:
468,228,165177,1,0,3:0:0:0:
351,194,165507,1,2,3:2:0:0:
317,311,165837,6,0,B|268:281|240:335|233:334|204:380|139:360,1,184.800005639649,6|2,3:2|0:0,0:0:0:0:
122,309,166496,2,0,B|89:328|70:293|66:293|46:263|3:276,1,123.200003759766,0|0,3:0|3:0,0:0:0:0:
3,212,166991,1,2,0:0:0:0:
125,199,167320,2,0,P|178:159|213:44,1,184.800005639649,2|0,0:0|3:0,0:0:0:0:
152,38,167980,2,0,P|131:29|92:38,1,61.6000018798829,2|8,0:0|0:0,0:0:0:0:
36,44,168309,1,2,0:0:0:0:
36,44,168474,1,6,3:2:0:0:
8,164,168804,5,14,0:0:0:0:
97,248,169133,2,0,P|76:271|45:286,2,61.6000018798829,0|2|8,3:0|0:0|0:0,0:0:0:0:
125,193,169628,2,0,P|167:147|229:117,1,123.200003759766,8|0,0:0|0:0,0:0:0:0:
283,105,170122,1,8,0:0:0:0:
283,105,170287,1,10,0:0:0:0:
379,28,170617,2,0,P|425:70|455:132,1,123.200003759766,10|8,0:0|0:0,0:0:0:0:
459,179,171111,6,0,B|430:213|461:257|464:251|493:289|466:340,1,168,6|2,3:2|0:0,0:0:0:0:
420,368,171771,2,0,B|415:353|397:355|398:357|382:359|372:343,1,56,0|0,3:0|3:0,0:0:0:0:
322,319,172100,1,10,0:0:0:0:
329,207,172430,1,0,3:0:0:0:
235,148,172760,1,10,0:0:0:0:
137,201,173089,2,0,P|109:212|74:206,2,56,0|0|10,3:0|3:0|0:0,0:0:0:0:
102,94,173749,6,0,L|190:11,1,112,0|10,3:0|0:0,0:0:0:0:
289,52,174408,2,0,L|349:53,2,56,0|0|10,3:0|3:0|0:0,0:0:0:0:
232,147,175067,2,0,L|315:235,2,112,0|10|0,3:0|0:0|3:0,0:0:0:0:
189,182,175892,1,0,3:0:0:0:
189,182,176056,1,12,0:0:0:0:
84,142,176386,5,4,3:2:0:0:
63,252,176716,2,0,P|62:310|89:369,1,112,10|0,0:0|3:0,0:0:0:0:
142,359,177210,1,0,3:0:0:0:
142,359,177375,2,0,P|200:360|259:333,1,112,10|0,0:0|3:0,0:0:0:0:
279,231,178035,2,0,P|280:173|253:114,1,112,10|0,0:0|3:0,0:0:0:0:
213,104,178529,1,0,3:0:0:0:
213,104,178694,1,10,0:0:0:0:
296,30,179023,5,4,3:2:0:0:
407,14,179353,1,10,0:0:0:0:
476,102,179683,2,0,L|471:172,2,56,0|0|10,3:0|3:0|0:0,0:0:0:0:
371,141,180342,1,4,3:2:0:0:
260,125,180672,1,10,0:0:0:0:
191,213,181002,2,0,L|196:283,1,56,8|8,0:0|0:0,0:0:0:0:
154,307,181331,2,0,L|90:276,1,56,10|8,0:0|0:0,0:0:0:0:
91,227,181661,6,0,P|41:213|14:155,1,112,6|8,3:2|0:0,0:0:0:0:
12,111,182155,1,2,0:0:0:0:
12,111,182320,2,0,P|30:92|62:95,1,56,0|0,3:0|3:0,0:0:0:0:
114,105,182650,1,10,0:0:0:0:
199,177,182980,1,0,3:0:0:0:
310,165,183309,1,10,0:0:0:0:
378,77,183639,2,0,P|384:49|391:22,2,56,0|0|10,3:0|3:0|0:0,0:0:0:0:
269,49,184298,6,0,L|149:33,1,112,0|10,3:0|0:0,0:0:0:0:
53,76,184958,2,0,L|31:24,2,56,0|0|10,3:0|3:0|0:0,0:0:0:0:
141,146,185617,2,0,L|73:235,2,112,0|10|0,3:0|0:0|3:0,0:0:0:0:
194,178,186441,1,0,3:0:0:0:
194,178,186606,1,12,0:0:0:0:
270,95,186936,5,4,3:2:0:0:
381,100,187265,2,0,P|432:94|480:143,1,112,10|0,0:0|3:0,0:0:0:0:
482,191,187760,1,0,3:0:0:0:
482,191,187925,2,0,P|488:242|439:290,1,112,10|0,0:0|3:0,0:0:0:0:
368,361,188583,2,0,P|317:367|269:318,1,112,10|0,0:0|3:0,0:0:0:0:
265,273,189078,1,0,3:0:0:0:
265,273,189243,1,10,0:0:0:0:
166,325,189573,1,0,3:0:0:0:
71,265,189903,5,14,0:0:0:0:
170,213,190232,2,0,P|178:187|182:151,2,56,0|0|10,3:0|3:0|0:0,0:0:0:0:
75,153,190892,1,8,0:0:0:0:
79,41,191221,1,14,0:0:0:0:
191,41,191551,2,0,P|219:45|245:53,1,56,0|0,3:0|3:0,0:0:0:0:
300,65,191881,2,0,P|328:61|354:53,1,56,10|8,0:0|0:0,0:0:0:0:
409,41,192210,5,6,3:2:0:0:
