osu file format v14

[General]
AudioFilename: audio.mp3
AudioLeadIn: 0
PreviewTime: 63557
Countdown: 0
SampleSet: Soft
StackLeniency: 0.8
Mode: 0
LetterboxInBreaks: 0
WidescreenStoryboard: 0

[Editor]
Bookmarks: 1662,12211,22760,33310,43859,54409,64958,75508,86057,96607,101881,107156,117705,128255,138804,149354,160562,171111,181661,192210
DistanceSpacing: 1
BeatDivisor: 4
GridSize: 4
TimelineZoom: 2.5

[Metadata]
Title:Eternal Bliss
TitleUnicode:Eternal Bliss
Artist:Emiru no Aishita Tsukiyo ni Dai San Gensou Kyoku wo
ArtistUnicode:エミルの愛した月夜に第III幻想曲を
Creator:Hinsvar
Version:Insane
Source:
Tags:Emiru3 Emille's Moonlight Serenade EMS Japanese Rock J-Rock JRock gothic symphonic Pop J-Pop JPop Fallen サラ SALA SARA いばら IBARA Featured Artist FA Mappers' Guild MG MPG
BeatmapID:4536876
BeatmapSetID:2153172

[Difficulty]
HPDrainRate:5
CircleSize:3
OverallDifficulty:8
ApproachRate:9
SliderMultiplier:1.6
SliderTickRate:1

[Events]
//Background and Video events
0,0,"BG.jpg",0,0
//Break Periods
2,96807,101281
//Storyboard Layer 0 (Background)
//Storyboard Layer 1 (Fail)
//Storyboard Layer 2 (Pass)
//Storyboard Layer 3 (Foreground)
//Storyboard Layer 4 (Overlay)
//Storyboard Sound Samples

[TimingPoints]
1662,329.67032967033,4,2,1,70,1,0
6936,-200,4,2,1,60,0,0
8255,-100,4,2,1,65,0,0
11387,-200,4,2,1,60,0,0
12211,-100,4,2,1,70,0,0
33310,-133.333333333333,4,2,1,60,0,0
43859,-100,4,2,1,70,0,0
64958,-80,4,2,1,80,0,1
74848,-80,4,2,1,80,0,0
75508,-80,4,2,1,80,0,1
86057,-100,4,2,1,70,0,0
96607,-133.333333333333,4,2,1,60,0,0
107156,-100,4,2,1,70,0,0
148035,-200,4,2,1,65,0,0
149354,-200,4,2,1,60,0,0
150013,329.67032967033,4,2,1,60,1,8
150177,-100,4,2,1,70,0,8
152650,-80,4,2,1,80,0,9
159903,-80,4,2,1,80,0,8
160562,-80,4,2,1,80,0,9
171111,-100,4,2,1,70,0,8

[Colours]
Combo1 : 176,230,123
Combo2 : 235,245,109
Combo3 : 139,253,111
Combo4 : 231,220,120

[HitObjects]
256,192,1662,5,4,3:2:0:0:
256,192,4299,1,4,3:2:0:0:
256,192,5618,1,4,3:2:0:0:
497,367,6112,6,0,L|489:318,1,40,0|0,3:0|3:0,0:0:0:0:
426,279,6277,2,0,L|434:230,3,40,2|0|0|0,3:2|3:0|3:0|3:0,0:0:0:0:
444,160,6606,1,2,3:2:0:0:
446,150,6689,1,0,3:0:0:0:
447,140,6771,1,0,3:0:0:0:
449,130,6853,1,0,3:0:0:0:
450,121,6936,6,0,P|460:84|483:48,2,80,6|0|2,3:2|3:0|3:2,0:0:0:0:
248,52,7925,2,0,P|258:35|264:16,1,40,2|0,3:2|0:0,0:0:0:0:
158,26,8255,6,0,L|8:82,1,160,4|0,3:2|3:0,0:0:0:0:
125,294,8749,2,0,L|101:371,1,80,4|0,3:2|3:0,0:0:0:0:
2,303,9079,1,2,3:2:0:0:
107,159,9244,2,0,L|134:188,2,40,8|8|8,0:0|0:0|0:0,0:0:0:0:
321,173,9574,5,8,0:0:0:0:
335,73,9738,1,8,0:0:0:0:
434,90,9903,1,10,0:0:0:0:
416,186,10068,2,0,L|457:192,2,40,0|0|0,3:0|3:0|3:0,0:0:0:0:
259,331,10398,6,0,L|253:372,1,40,8|8,0:0|0:0,0:0:0:0:
163,378,10563,1,2,3:2:0:0:
165,358,10645,1,0,3:0:0:0:
167,338,10727,1,0,3:0:0:0:
171,318,10810,1,0,3:0:0:0:
173,298,10892,1,4,3:2:0:0:
253,53,11387,6,0,L|256:32,2,20,2|0|0,0:0|0:0|0:0,0:0:0:0:
253,53,11881,2,0,P|273:54|290:40,1,40,8|0,0:0|0:0,0:0:0:0:
490,32,12211,6,0,P|419:30|382:117,1,160,6|8,3:2|0:0,0:0:0:0:
411,277,12705,1,2,0:0:0:0:
490,209,12870,1,0,3:0:0:0:
490,209,13035,1,0,3:0:0:0:
312,243,13200,6,0,L|230:231,1,80,10|0,0:0|0:0,0:0:0:0:
142,365,13530,2,0,L|154:282,1,80,0|0,3:0|0:0,0:0:0:0:
20,194,13859,2,0,L|102:206,1,80,10|0,0:0|0:0,0:0:0:0:
291,74,14189,1,0,3:0:0:0:
291,74,14354,1,0,3:0:0:0:
194,46,14519,2,0,P|162:95|179:151,1,120,10|0,0:0|0:0,0:0:0:0:
178,150,14848,6,0,P|160:115|122:106,1,80,0|0,3:0|0:0,0:0:0:0:
270,246,15178,2,0,P|291:213|280:176,1,80,10|0,0:0|0:0,0:0:0:0:
144,326,15508,1,0,3:0:0:0:
144,326,15672,1,0,3:0:0:0:
232,373,15837,2,0,P|271:374|297:346,1,80,10|0,0:0|0:0,0:0:0:0:
424,213,16167,6,0,P|430:296|450:381,2,160,0|10|0,3:0|0:0|3:0,0:0:0:0:
405,14,16991,1,0,3:0:0:0:
477,130,17156,2,0,L|349:98,1,120,12|0,0:0|0:0,0:0:0:0:
360,101,17486,6,0,P|288:108|260:30,1,160,4|10,3:2|0:0,0:0:0:0:
163,16,17980,1,0,3:0:0:0:
107,176,18145,1,0,3:0:0:0:
13,198,18310,1,0,3:0:0:0:
79,269,18475,2,0,P|79:313|72:354,1,80,10|0,0:0|0:0,0:0:0:0:
282,368,18804,6,0,P|236:319|214:223,1,160,0|10,3:0|0:0,0:0:0:0:
294,32,19299,1,0,3:0:0:0:
192,64,19464,2,0,L|110:48,1,80,0|0,3:0|3:0,0:0:0:0:
343,120,19793,2,0,L|263:147,1,80,10|0,0:0|0:0,0:0:0:0:
482,31,20123,6,0,B|502:79|473:110|469:106|434:132|455:195,1,160,4|10,3:2|0:0,0:0:0:0:
320,234,20618,1,0,3:0:0:0:
465,384,20782,1,0,3:0:0:0:
499,291,20947,1,0,3:0:0:0:
410,317,21112,2,0,P|376:330|337:349,1,80,10|0,0:0|0:0,0:0:0:0:
336,349,21359,1,0,3:0:0:0:
336,349,21442,6,0,L|173:365,1,160,6|10,3:2|0:0,0:0:0:0:
175,34,22101,1,8,0:0:0:0:
175,34,22183,1,8,0:0:0:0:
175,34,22266,1,8,0:0:0:0:
266,141,22431,1,10,0:0:0:0:
334,19,22596,2,0,P|353:27|368:56,1,40,8|8,0:0|0:0,0:0:0:0:
501,15,22760,6,0,P|499:69|409:115,1,160,4|10,3:2|0:0,0:0:0:0:
283,241,23255,1,0,3:0:0:0:
300,344,23420,1,0,3:0:0:0:
300,344,23585,1,0,3:0:0:0:
180,258,23749,6,0,L|101:243,1,80,10|0,0:0|0:0,0:0:0:0:
206,80,24079,2,0,L|192:159,1,80,0|0,3:0|0:0,0:0:0:0:
29,54,24409,2,0,L|107:68,1,80,10|0,0:0|0:0,0:0:0:0:
184,262,24738,1,0,3:0:0:0:
184,262,24903,1,0,3:0:0:0:
6,270,25068,2,0,P|-2:211|20:156,1,120,10|0,0:0|0:0,0:0:0:0:
20,156,25398,6,0,P|62:155|80:191,1,80,0|0,3:0|0:0,0:0:0:0:
214,270,25727,2,0,P|256:271|274:235,1,80,10|0,0:0|0:0,0:0:0:0:
365,65,26057,1,0,3:0:0:0:
365,65,26222,1,0,3:0:0:0:
410,156,26387,2,0,P|452:155|470:191,1,80,10|0,0:0|0:0,0:0:0:0:
428,380,26716,6,0,B|380:339|396:307|399:309|410:274|365:231,2,160,0|10|0,3:0|0:0|3:0,0:0:0:0:
493,275,27541,1,0,3:0:0:0:
306,342,27705,2,0,L|186:359,1,120,12|0,0:0|0:0,0:0:0:0:
187,358,28035,6,0,P|169:279|95:259,1,160,4|10,3:2|0:0,0:0:0:0:
5,275,28530,1,0,3:0:0:0:
0,95,28694,1,0,3:0:0:0:
96,113,28858,1,0,3:0:0:0:
64,21,29024,2,0,P|104:18|142:8,1,80,10|0,0:0|0:0,0:0:0:0:
323,94,29354,6,0,P|288:166|272:259,1,160,0|10,3:0|0:0,0:0:0:0:
158,183,29848,1,0,3:0:0:0:
40,293,30013,2,0,L|127:278,1,80,0|0,3:0|3:0,0:0:0:0:
297,369,30343,2,0,L|210:354,1,80,10|0,0:0|0:0,0:0:0:0:
398,272,30672,6,0,P|437:272|490:374,1,160,4|10,3:2|0:0,0:0:0:0:
292,268,31167,1,0,3:0:0:0:
472,183,31332,1,0,3:0:0:0:
393,121,31497,1,0,3:0:0:0:
494,91,31662,2,0,P|492:50|506:13,1,80,10|0,0:0|0:0,0:0:0:0:
505,14,31908,1,0,3:0:0:0:
505,14,31991,6,0,L|346:31,1,160,4|10,3:2|0:0,0:0:0:0:
5,183,32651,1,8,0:0:0:0:
5,183,32733,1,8,0:0:0:0:
5,183,32815,1,8,0:0:0:0:
99,66,32980,1,10,0:0:0:0:
164,199,33145,2,0,P|185:199|199:173,1,40,8|8,0:0|0:0,0:0:0:0:
293,140,33310,6,0,P|280:197|275:267,1,120.000004577637,4|0,3:2|3:0,0:0:0:0:
269,348,33804,1,2,0:0:0:0:
417,376,33969,2,0,P|430:319|435:249,1,120.000004577637,0|0,3:0|3:0,0:0:0:0:
403,142,34464,6,0,L|460:121,1,60.0000022888184,2|0,0:0|3:0,0:0:0:0:
315,17,34793,2,0,L|305:77,1,60.0000022888184,2|0,0:0|3:0,0:0:0:0:
198,127,35123,2,0,L|106:51,1,120.000004577637,2|0,0:0|0:0,0:0:0:0:
159,254,35618,2,0,L|188:244,3,30.0000011444092,2|0|0|0,3:2|0:0|0:0|0:0,0:0:0:0:
265,275,35947,6,0,P|248:347|141:362,1,180.000006866455,4|0,3:2|0:0,0:0:0:0:
12,192,36607,2,0,P|45:156|112:183,1,120.000004577637,2|0,3:2|3:0,0:0:0:0:
107,174,37019,1,0,3:0:0:0:
107,174,37101,2,0,L|98:114,1,60.0000022888184,2|0,0:0|3:0,0:0:0:0:
213,19,37431,2,0,L|203:78,1,60.0000022888184,2|0,0:0|3:0,0:0:0:0:
203,78,37925,6,0,L|274:88,1,60.0000022888184,0|0,3:0|0:0,0:0:0:0:
447,19,38255,2,0,L|411:24,3,30.0000011444092,2|0|0|0,3:2|0:0|0:0|0:0,0:0:0:0:
377,97,38585,6,0,P|388:155|415:226,2,120.000004577637,4|0|0,3:2|3:0|3:0,0:0:0:0:
243,277,39574,2,0,P|253:305|258:334,1,60.0000022888184,2|0,3:2|0:0,0:0:0:0:
125,375,39903,6,0,P|78:336|7:334,1,120.000004577637,0|0,3:0|3:0,0:0:0:0:
8,225,40398,1,2,0:0:0:0:
152,176,40563,1,0,3:0:0:0:
152,176,40892,2,0,P|163:185|181:186,3,30.0000011444092,2|0|0|0,3:2|0:0|0:0|0:0,0:0:0:0:
256,147,41222,6,0,P|263:101|262:15,1,120.000004577637,0|0,3:0|3:0,0:0:0:0:
128,22,41716,2,0,P|105:18|62:19,1,60.0000022888184,2|0,0:0|3:0,0:0:0:0:
62,153,42046,2,0,P|58:176|59:219,1,60.0000022888184,2|0,0:0|3:0,0:0:0:0:
58,212,42293,1,0,3:0:0:0:
58,212,42376,1,2,0:0:0:0:
31,366,42541,6,0,P|95:355|118:304,1,120.000004577637,0|0,3:0|3:0,0:0:0:0:
182,236,43035,1,0,0:0:0:0:
263,309,43200,5,0,3:0:0:0:
263,309,43282,1,8,0:0:0:0:
263,309,43365,1,8,0:0:0:0:
440,338,43530,1,8,0:0:0:0:
475,165,43694,5,8,0:0:0:0:
475,165,43776,1,8,0:0:0:0:
475,165,43859,2,0,P|486:99|495:37,1,120,4|0,3:2|0:0,0:0:0:0:
493,46,44189,2,0,P|452:35|410:29,1,80,8|0,0:0|0:0,0:0:0:0:
293,131,44519,1,2,3:2:0:0:
194,59,44683,1,0,3:0:0:0:
82,108,44848,1,8,0:0:0:0:
181,180,45013,6,0,L|34:242,1,160,2|0,3:2|3:0,0:0:0:0:
222,312,45508,1,8,0:0:0:0:
320,379,45672,2,0,L|339:220,1,160,2|0,3:2|3:0,0:0:0:0:
295,24,46167,2,0,L|285:103,1,80,8|0,0:0|0:0,0:0:0:0:
510,204,46497,6,0,B|516:160|499:146|496:147|475:132|481:89,1,120,6|0,3:2|0:0,0:0:0:0:
480,91,46826,2,0,B|462:67|447:68|446:70|429:73|412:50,1,80,8|0,0:0|0:0,0:0:0:0:
266,190,47156,1,2,3:2:0:0:
387,174,47321,1,0,3:0:0:0:
403,295,47486,1,8,0:0:0:0:
282,311,47651,6,0,P|202:329|122:365,1,160,2|0,3:2|3:0,0:0:0:0:
27,224,48145,1,8,0:0:0:0:
19,105,48310,2,0,P|99:87|179:51,1,160,0|0,3:0|3:0,0:0:0:0:
273,191,48804,2,0,P|285:151|289:108,1,80,8|0,0:0|0:0,0:0:0:0:
505,20,49134,6,0,P|440:36|417:95,1,120,6|0,3:2|0:0,0:0:0:0:
417,79,49464,2,0,P|447:111|489:104,1,80,8|0,0:0|0:0,0:0:0:0:
507,312,49793,1,2,3:2:0:0:
350,225,49958,1,0,3:0:0:0:
496,209,50123,1,8,0:0:0:0:
360,327,50288,6,0,P|315:335|282:353,2,80,0|2|0,3:0|0:0|3:0,0:0:0:0:
221,246,50782,1,8,0:0:0:0:
122,123,50947,2,0,P|91:208|88:282,1,160,2|0,3:2|3:0,0:0:0:0:
242,117,51442,2,0,P|239:77|225:39,1,80,8|0,0:0|0:0,0:0:0:0:
344,205,51771,6,0,L|467:225,1,120,6|0,3:2|0:0,0:0:0:0:
462,224,52101,2,0,L|475:142,1,80,8|0,0:0|0:0,0:0:0:0:
290,24,52431,1,0,3:0:0:0:
380,101,52596,1,2,3:2:0:0:
232,218,52760,1,8,0:0:0:0:
142,141,52925,6,0,P|131:62|60:29,1,160,6|0,3:2|3:0,0:0:0:0:
133,265,53420,2,0,P|141:324|194:349,1,120,12|0,0:0|0:0,0:0:0:0:
190,348,53749,2,0,L|247:338,2,40,8|8|8,0:0|0:0|0:0,0:0:0:0:
19,237,54079,1,0,3:0:0:0:
15,217,54161,1,0,3:0:0:0:
12,197,54243,1,0,3:0:0:0:
8,177,54326,1,0,3:0:0:0:
5,158,54408,5,10,0:0:0:0:
130,27,54574,1,10,0:0:0:0:
261,152,54738,1,10,0:0:0:0:
261,152,55068,5,0,3:0:0:0:
261,142,55150,1,0,3:0:0:0:
262,132,55232,1,0,3:0:0:0:
263,122,55315,1,0,3:0:0:0:
264,112,55397,1,0,3:0:0:0:
461,28,55563,6,0,P|446:78|382:109,1,120,10|0,0:0|0:0,0:0:0:0:
389,108,55892,2,0,P|405:112|415:134,1,40,8|0,0:0|0:0,0:0:0:0:
431,212,56057,1,10,0:0:0:0:
431,212,56716,2,0,P|428:252|418:302,1,80,2|0,0:0|0:0,0:0:0:0:
311,363,57046,5,10,0:0:0:0:
131,344,57211,1,10,0:0:0:0:
150,164,57376,1,10,0:0:0:0:
150,164,57705,5,8,0:0:0:0:
150,144,57787,1,8,0:0:0:0:
147,124,57869,1,8,0:0:0:0:
139,106,57952,1,8,0:0:0:0:
127,89,58034,1,8,0:0:0:0:
341,21,58200,6,0,P|286:16|216:64,1,120,6|0,3:2|0:0,0:0:0:0:
230,45,58530,2,0,P|228:63|244:86,1,40,6|0,3:2|0:0,0:0:0:0:
371,127,58694,6,0,L|323:112,3,40,6|2|10|2,0:0|0:0|0:0|0:0,0:0:0:0:
275,173,59024,1,0,3:0:0:0:
277,182,59107,1,0,3:0:0:0:
279,192,59189,1,0,3:0:0:0:
281,202,59271,1,0,3:0:0:0:
283,212,59354,1,2,3:2:0:0:
285,221,59436,1,0,3:0:0:0:
288,231,59519,1,0,3:0:0:0:
290,241,59601,1,0,3:0:0:0:
292,251,59683,6,0,B|242:264|236:297|240:298|232:332|167:350,2,160,6|8|2,3:2|0:0|3:2,0:0:0:0:
151,243,60508,1,0,3:0:0:0:
95,92,60672,2,0,B|57:82|53:57|56:56|50:31|1:17,1,120,8|0,0:0|0:0,0:0:0:0:
5,18,61002,6,0,P|10:56|1:102,1,80,2|0,3:2|0:0,0:0:0:0:
224,176,61332,2,0,P|214:101|232:9,1,160,12|0,0:0|3:0,0:0:0:0:
115,100,61826,1,2,0:0:0:0:
324,75,61991,1,8,0:0:0:0:
432,181,62156,5,8,0:0:0:0:
432,181,62238,1,8,0:0:0:0:
432,181,62321,2,0,L|511:199,2,80,6|0|8,3:2|3:0|0:0,0:0:0:0:
282,350,62815,5,2,3:2:0:0:
175,201,62980,1,8,0:0:0:0:
345,256,63145,1,0,3:0:0:0:
175,312,63310,1,10,0:0:0:0:
282,166,63475,1,0,3:0:0:0:
192,56,63640,5,10,0:0:0:0:
231,64,63722,1,0,3:0:0:0:
265,45,63804,1,2,0:0:0:0:
299,25,63887,1,8,0:0:0:0:
338,34,63969,2,0,L|386:51,1,40,2|0,3:2|0:0,0:0:0:0:
505,129,64134,5,10,0:0:0:0:
505,129,64216,1,0,3:0:0:0:
505,129,64299,1,2,0:0:0:0:
505,129,64958,6,0,B|445:115|421:160|423:166|396:208|321:189,1,200,6|0,3:2|3:0,0:0:0:0:
375,47,65453,1,2,0:0:0:0:
178,17,65618,2,0,P|204:129|227:319,1,300,0|0,3:0|0:0,0:0:0:0:
32,266,66277,6,0,P|20:172|115:137,1,200,2|0,3:2|3:0,0:0:0:0:
289,51,66771,2,0,P|383:39|418:134,1,200,2|0,0:0|0:0,0:0:0:0:
511,304,67266,2,0,P|517:351|469:368,1,100,2|0,3:2|0:0,0:0:0:0:
260,372,67596,6,0,B|289:337|257:275|254:281|225:228|249:176,1,200,2|0,3:2|3:0,0:0:0:0:
143,24,68090,2,0,B|172:59|140:121|137:115|108:168|132:220,1,200,2|0,0:0|0:0,0:0:0:0:
356,223,68585,1,0,3:0:0:0:
280,54,68749,1,2,0:0:0:0:
374,117,68914,6,0,P|378:68|390:16,1,100,0|0,3:0|0:0,0:0:0:0:
181,74,69244,2,0,P|132:70|80:58,1,100,2|0,3:2|0:0,0:0:0:0:
138,267,69574,2,0,P|134:316|122:368,1,100,0|0,3:0|0:0,0:0:0:0:
331,310,69904,2,0,P|380:314|432:326,1,100,2|0,3:2|0:0,0:0:0:0:
154,171,70233,6,0,B|226:189|251:143|248:139|270:96|345:108,1,200,6|0,3:2|3:0,0:0:0:0:
270,243,70727,1,2,0:0:0:0:
43,257,70892,2,0,B|115:239|140:285|137:289|159:332|234:320,1,200,0|0,3:0|3:0,0:0:0:0:
441,370,71387,6,0,P|440:321|431:268,1,100,2|0,0:0|3:0,0:0:0:0:
304,71,71716,2,0,P|306:169|324:275,1,200,2|0,0:0|0:0,0:0:0:0:
419,154,72211,1,0,3:0:0:0:
209,205,72376,5,2,0:0:0:0:
70,66,72541,1,8,0:0:0:0:
114,230,72705,1,2,0:0:0:0:
168,44,72870,1,4,3:2:0:0:
168,44,73200,6,0,P|213:13|258:16,1,100,2|0,3:2|0:0,0:0:0:0:
349,166,73530,2,0,P|430:159|486:197,1,150,0|0,3:0|0:0,0:0:0:0:
484,195,73859,2,0,L|490:79,1,100,14|0,0:0|0:0,0:0:0:0:
359,21,74189,5,10,0:0:0:0:
253,221,74354,1,0,3:0:0:0:
253,221,74436,1,0,3:0:0:0:
253,221,74519,1,14,0:0:0:0:
53,115,74683,1,2,3:2:0:0:
249,88,74848,6,0,P|227:43|137:29,2,150,10|2|0,0:0|3:2|3:0,0:0:0:0:
255,97,75425,1,0,3:0:0:0:
255,97,75508,6,0,B|316:85|354:126|347:131|385:170|444:143,1,200,6|0,3:2|3:0,0:0:0:0:
340,260,76002,1,2,0:0:0:0:
83,360,76167,2,0,P|66:242|211:234,1,300,0|0,3:0|0:0,0:0:0:0:
416,377,76826,6,0,P|443:318|448:165,1,200,2|0,3:2|3:0,0:0:0:0:
263,62,77321,2,0,P|204:35|51:30,1,200,2|0,0:0|0:0,0:0:0:0:
19,181,77815,2,0,P|48:194|125:197,1,100,2|0,3:2|0:0,0:0:0:0:
234,161,78145,6,0,B|251:212|212:253|209:249|169:282|198:354,1,200,2|0,3:2|3:0,0:0:0:0:
443,225,78640,2,0,B|469:159|429:126|426:130|387:89|404:38,1,200,2|0,0:0|0:0,0:0:0:0:
255,18,79134,1,0,3:0:0:0:
140,180,79299,1,2,0:0:0:0:
178,85,79464,6,0,P|128:80|78:50,1,100,0|0,3:0|0:0,0:0:0:0:
334,299,79793,2,0,P|384:304|434:334,1,100,2|0,3:2|0:0,0:0:0:0:
149,270,80123,2,0,P|144:320|114:370,1,100,0|0,3:0|0:0,0:0:0:0:
363,114,80452,2,0,P|368:64|398:14,1,100,2|0,3:2|0:0,0:0:0:0:
252,238,80782,6,0,P|250:141|198:49,1,200,6|0,3:2|3:0,0:0:0:0:
107,170,81277,1,2,0:0:0:0:
35,375,81442,2,0,P|132:373|224:321,1,200,0|0,3:0|3:0,0:0:0:0:
384,261,81936,6,0,L|396:364,1,100,2|0,0:0|3:0,0:0:0:0:
266,173,82266,2,0,L|472:149,1,200,2|0,0:0|0:0,0:0:0:0:
485,246,82760,1,0,3:0:0:0:
367,68,82925,5,2,0:0:0:0:
451,14,83090,1,8,0:0:0:0:
279,12,83255,1,0,3:0:0:0:
364,163,83420,1,6,3:2:0:0:
61,370,83749,6,0,P|99:349|117:289,1,100,14|0,0:0|0:0,0:0:0:0:
270,307,84079,1,0,3:0:0:0:
375,373,84244,2,0,P|387:331|357:276,1,100,2|8,0:0|0:0,0:0:0:0:
232,110,84574,5,8,0:0:0:0:
232,110,84656,1,8,0:0:0:0:
232,110,84738,1,8,0:0:0:0:
108,27,84903,1,2,0:0:0:0:
193,212,85068,2,0,P|242:207|297:190,1,100,12|8,0:0|0:0,0:0:0:0:
290,192,85315,1,8,0:0:0:0:
290,192,85398,5,8,0:0:0:0:
330,3,85563,1,10,0:0:0:0:
498,108,85727,1,8,0:0:0:0:
458,297,85892,5,8,0:0:0:0:
458,297,85975,1,8,0:0:0:0:
458,297,86057,2,0,B|406:291|388:324|393:327|373:363|311:357,1,160,6|8,3:2|0:0,0:0:0:0:
133,280,86552,1,2,0:0:0:0:
178,374,86716,1,0,3:0:0:0:
178,374,86881,1,0,3:0:0:0:
312,253,87046,6,0,L|315:168,1,80,10|0,0:0|0:0,0:0:0:0:
199,10,87376,2,0,L|196:95,1,80,0|0,3:0|0:0,0:0:0:0:
377,75,87705,2,0,L|292:72,1,80,10|0,0:0|0:0,0:0:0:0:
83,99,88035,1,0,3:0:0:0:
83,99,88200,1,0,3:0:0:0:
112,221,88365,2,0,P|170:229|217:194,1,120,10|0,0:0|0:0,0:0:0:0:
217,194,88694,6,0,P|220:238|233:289,1,80,0|0,3:0|0:0,0:0:0:0:
386,304,89024,2,0,P|356:335|330:381,1,80,10|0,0:0|0:0,0:0:0:0:
502,371,89354,1,0,3:0:0:0:
502,371,89519,1,0,3:0:0:0:
411,195,89683,2,0,P|367:197|316:210,1,80,10|0,0:0|0:0,0:0:0:0:
301,5,90013,6,0,P|325:71|407:80,2,160,0|10|0,3:0|0:0|3:0,0:0:0:0:
131,82,90837,1,0,3:0:0:0:
19,34,91002,2,0,L|39:161,1,120,12|0,0:0|0:0,0:0:0:0:
37,152,91332,6,0,P|105:213|104:277,1,160,4|10,3:2|0:0,0:0:0:0:
47,360,91826,1,0,3:0:0:0:
289,378,91991,1,0,3:0:0:0:
206,322,92156,1,0,3:0:0:0:
295,278,92321,2,0,P|323:261|356:225,1,80,10|0,0:0|0:0,0:0:0:0:
218,166,92651,6,0,P|229:86|233:6,1,160,0|10,3:0|0:0,0:0:0:0:
130,68,93145,1,0,3:0:0:0:
331,127,93310,2,0,P|336:87|338:47,1,80,0|0,3:0|3:0,0:0:0:0:
509,154,93640,2,0,P|503:193|501:233,1,80,10|0,0:0|0:0,0:0:0:0:
308,371,93969,6,0,P|267:292|201:266,1,160,4|10,3:2|0:0,0:0:0:0:
66,383,94464,1,0,3:0:0:0:
6,214,94629,1,0,3:0:0:0:
91,265,94793,1,0,3:0:0:0:
101,174,94958,2,0,P|95:132|83:97,1,80,10|0,0:0|0:0,0:0:0:0:
82,96,95205,1,0,3:0:0:0:
82,96,95288,6,0,L|222:16,1,160,4|10,3:2|0:0,0:0:0:0:
429,287,95947,1,8,0:0:0:0:
429,287,96030,1,8,0:0:0:0:
429,287,96112,1,8,0:0:0:0:
231,262,96277,1,10,0:0:0:0:
290,367,96442,2,0,P|304:353|314:334,1,40,8|8,0:0|0:0,0:0:0:0:
370,182,96607,5,4,3:2:0:0:
370,182,101881,6,0,P|362:117|397:58,2,120.000004577637,6|0|0,3:2|3:0|3:0,0:0:0:0:
173,19,102870,2,0,P|185:45|180:75,1,60.0000022888184,2|0,3:2|0:0,0:0:0:0:
264,211,103200,6,0,P|214:233|134:241,1,120.000004577637,0|0,3:0|3:0,0:0:0:0:
3,137,103694,1,2,0:0:0:0:
131,148,103859,1,0,3:0:0:0:
131,148,104189,2,0,L|125:107,3,30.0000011444092,2|0|0|0,3:2|0:0|0:0|0:0,0:0:0:0:
213,119,104519,6,0,P|233:64|294:34,1,120.000004577637,0|0,3:0|3:0,0:0:0:0:
60,66,105013,2,0,P|31:70|3:51,1,60.0000022888184,2|0,0:0|3:0,0:0:0:0:
90,225,105343,2,0,P|108:247|106:281,1,60.0000022888184,2|0,0:0|3:0,0:0:0:0:
107,277,105590,1,0,3:0:0:0:
107,277,105672,1,2,0:0:0:0:
256,357,105837,5,4,3:2:0:0:
256,357,106497,2,0,P|255:342|264:330,3,30.0000011444092,2|0|0|0,0:0|0:0|0:0|0:0,0:0:0:0:
315,266,106826,1,2,0:0:0:0:
315,266,107156,6,0,P|378:272|425:244,1,120,4|0,3:2|0:0,0:0:0:0:
425,243,107486,2,0,P|457:216|466:180,1,80,8|0,0:0|0:0,0:0:0:0:
324,17,107815,1,2,3:2:0:0:
350,175,107980,1,0,3:0:0:0:
416,83,108145,1,8,0:0:0:0:
258,109,108310,6,0,B|205:122|182:91|187:86|164:53|111:64,1,160,2|0,3:2|3:0,0:0:0:0:
18,194,108804,1,8,0:0:0:0:
267,212,108969,2,0,B|219:238|188:214|192:208|161:182|113:206,1,160,2|0,3:2|3:0,0:0:0:0:
55,354,109464,2,0,B|74:337|93:345|92:348|109:356|129:337,1,80,8|0,0:0|0:0,0:0:0:0:
340,378,109793,6,0,P|395:349|406:292,1,120,2|0,3:2|0:0,0:0:0:0:
407,297,110123,2,0,P|371:280|361:243,1,80,8|0,0:0|0:0,0:0:0:0:
365,81,110453,1,2,3:2:0:0:
452,182,110618,1,0,3:0:0:0:
457,20,110783,1,8,0:0:0:0:
267,32,110947,6,0,P|181:34|102:16,1,160,2|0,3:2|3:0,0:0:0:0:
183,130,111442,1,8,0:0:0:0:
3,214,111607,2,0,P|89:212|168:230,1,160,0|0,3:0|3:0,0:0:0:0:
328,284,112101,2,0,P|329:327|320:366,1,80,8|0,0:0|0:0,0:0:0:0:
145,374,112431,6,0,P|80:359|91:313,1,120,6|0,3:2|0:0,0:0:0:0:
84,318,112760,2,0,P|60:280|87:263,1,80,8|0,0:0|0:0,0:0:0:0:
227,308,113090,1,2,3:2:0:0:
197,149,113255,1,0,3:0:0:0:
319,43,113420,1,8,0:0:0:0:
471,95,113585,6,0,P|499:70|502:23,2,80,0|2|0,3:0|0:0|3:0,0:0:0:0:
307,146,114079,1,8,0:0:0:0:
257,233,114244,2,0,P|331:237|402:175,1,160,2|0,3:2|3:0,0:0:0:0:
228,43,114738,2,0,P|190:40|155:71,1,80,8|0,0:0|0:0,0:0:0:0:
42,243,115068,6,0,L|168:258,1,120,6|0,3:2|0:0,0:0:0:0:
161,257,115398,2,0,L|151:340,1,80,8|0,0:0|0:0,0:0:0:0:
352,316,115727,1,2,3:2:0:0:
267,370,115892,1,0,3:0:0:0:
329,138,116057,1,8,0:0:0:0:
282,227,116222,6,0,P|230:175|197:95,1,160,6|0,3:2|0:0,0:0:0:0:
429,130,116716,2,0,P|443:76|482:25,1,120,12|0,0:0|0:0,0:0:0:0:
482,26,117046,2,0,L|491:79,2,40,8|8|8,0:0|0:0|0:0,0:0:0:0:
302,15,117376,1,0,3:0:0:0:
305,35,117458,1,0,3:0:0:0:
309,55,117540,1,0,3:0:0:0:
312,75,117623,1,0,3:0:0:0:
316,94,117705,5,10,0:0:0:0:
148,29,117870,1,10,0:0:0:0:
7,141,118035,1,10,0:0:0:0:
7,141,118365,5,0,3:0:0:0:
16,144,118447,1,0,3:0:0:0:
25,147,118529,1,0,3:0:0:0:
35,151,118612,1,0,3:0:0:0:
44,154,118694,1,0,3:0:0:0:
243,259,118859,6,0,P|265:308|269:381,1,120,10|0,0:0|0:0,0:0:0:0:
269,373,119189,2,0,P|279:358|299:345,1,40,8|0,0:0|0:0,0:0:0:0:
375,324,119354,1,10,0:0:0:0:
375,324,120013,2,0,P|412:331|452:370,1,80,2|0,0:0|0:0,0:0:0:0:
176,338,120343,5,10,0:0:0:0:
17,253,120508,1,10,0:0:0:0:
170,157,120672,1,10,0:0:0:0:
170,157,121002,5,8,0:0:0:0:
161,138,121084,1,8,0:0:0:0:
157,119,121166,1,8,0:0:0:0:
158,99,121249,1,8,0:0:0:0:
164,80,121331,1,8,0:0:0:0:
12,40,121497,6,0,P|65:56|61:111,1,120,6|0,3:2|0:0,0:0:0:0:
60,111,121826,2,0,P|54:128|36:127,1,40,6|0,3:2|0:0,0:0:0:0:
17,253,121991,6,0,L|28:206,3,40,2|2|10|2,0:0|0:0|0:0|0:0,0:0:0:0:
106,195,122321,1,0,3:0:0:0:
115,197,122403,1,0,3:0:0:0:
125,199,122485,1,0,3:0:0:0:
135,201,122568,1,0,3:0:0:0:
144,204,122650,1,2,3:2:0:0:
154,206,122733,1,0,3:0:0:0:
164,208,122815,1,0,3:0:0:0:
174,210,122897,1,0,3:0:0:0:
183,213,122980,6,0,B|234:229|261:192|257:192|281:151|337:166,2,160,6|8|2,3:2|0:0|3:2,0:0:0:0:
336,263,123804,1,0,3:0:0:0:
394,73,123969,2,0,B|432:85|452:57|449:57|467:26|509:37,1,120,8|0,0:0|0:0,0:0:0:0:
501,35,124299,6,0,P|500:72|511:112,1,80,2|0,3:2|0:0,0:0:0:0:
464,352,124629,2,0,P|442:275|442:195,1,160,14|0,0:0|3:0,0:0:0:0:
326,163,125123,1,2,0:0:0:0:
186,20,125288,1,8,0:0:0:0:
70,52,125453,5,8,0:0:0:0:
70,52,125535,1,8,0:0:0:0:
70,52,125618,2,0,P|39:75|47:120,2,80,6|0|8,3:2|3:0|0:0,0:0:0:0:
139,124,126112,5,2,3:2:0:0:
234,256,126277,1,8,0:0:0:0:
83,207,126442,1,0,3:0:0:0:
234,157,126607,1,10,0:0:0:0:
139,287,126772,1,0,3:0:0:0:
302,365,126936,5,0,3:0:0:0:
307,345,127018,1,0,3:0:0:0:
316,328,127100,1,10,0:0:0:0:
329,312,127183,1,0,3:0:0:0:
344,299,127265,1,0,3:0:0:0:
361,289,127348,1,0,3:0:0:0:
380,283,127430,1,2,3:2:0:0:
400,280,127512,1,0,3:0:0:0:
420,281,127596,2,0,P|405:272|399:251,3,40,0|0|0|0,3:0|3:0|3:0|3:0,0:0:0:0:
400,172,127925,1,2,3:2:0:0:
400,172,128255,6,0,P|392:92|394:9,1,160,6|8,3:2|0:0,0:0:0:0:
490,127,128749,2,0,P|486:87|487:45,1,80,2|0,0:0|3:0,0:0:0:0:
299,22,129079,1,0,3:0:0:0:
200,135,129244,1,8,0:0:0:0:
87,36,129409,1,0,3:0:0:0:
87,36,129738,6,0,P|23:46|7:142,1,160,2|0,0:0|0:0,0:0:0:0:
102,258,130233,1,0,3:0:0:0:
102,258,130398,1,0,3:0:0:0:
202,230,130563,2,0,L|215:371,1,120,10|0,0:0|0:0,0:0:0:0:
213,349,130892,6,0,P|177:349|134:361,1,80,0|0,3:0|0:0,0:0:0:0:
301,285,131222,1,8,0:0:0:0:
279,116,131387,2,0,P|207:101|130:136,1,160,2|0,0:0|0:0,0:0:0:0:
3,263,131881,2,0,P|39:270|77:253,1,80,8|0,0:0|0:0,0:0:0:0:
243,213,132211,6,0,B|300:202|322:237|323:233|349:271|409:250,2,160,2|8|2,3:2|0:0|3:2,0:0:0:0:
300,330,133035,1,0,3:0:0:0:
389,162,133200,2,0,L|406:31,1,120,12|0,0:0|0:0,0:0:0:0:
404,42,133530,6,0,P|335:63|259:21,1,160,4|8,3:2|0:0,0:0:0:0:
83,42,134024,2,0,P|117:31|155:52,1,80,2|0,0:0|3:0,0:0:0:0:
273,152,134354,1,0,3:0:0:0:
241,247,134519,2,0,L|267:373,1,120,10|0,0:0|0:0,0:0:0:0:
265,364,134848,6,0,P|293:289|343:226,2,160,0|10|0,3:0|0:0|3:0,0:0:0:0:
365,367,135672,1,0,3:0:0:0:
169,379,135837,2,0,L|50:330,1,120,10|0,0:0|0:0,0:0:0:0:
58,333,136167,6,0,P|115:281|108:203,1,160,6|8,3:2|0:0,0:0:0:0:
9,221,136662,1,2,0:0:0:0:
33,23,136826,1,0,3:0:0:0:
129,95,136991,1,0,3:0:0:0:
247,77,137156,2,0,L|295:1,1,80,8|2,0:0|0:0,0:0:0:0:
491,33,137486,6,0,L|451:41,3,40,10|0|0|0,0:0|3:0|3:0|3:0,0:0:0:0:
373,56,137815,1,14,0:0:0:0:
491,132,137980,1,0,3:0:0:0:
366,196,138145,5,10,0:0:0:0:
372,214,138227,1,8,0:0:0:0:
374,234,138309,1,8,0:0:0:0:
367,253,138392,1,8,0:0:0:0:
360,271,138474,1,0,3:0:0:0:
360,291,138557,1,0,3:0:0:0:
365,311,138639,1,0,3:0:0:0:
147,311,138804,6,0,P|90:252|16:236,1,160,6|8,3:2|0:0,0:0:0:0:
103,134,139299,1,2,0:0:0:0:
2,47,139464,1,0,3:0:0:0:
2,47,139629,1,0,3:0:0:0:
190,33,139793,6,0,L|271:46,1,80,10|0,0:0|0:0,0:0:0:0:
412,249,140123,2,0,L|333:236,1,80,0|0,3:0|0:0,0:0:0:0:
409,30,140453,2,0,L|396:108,1,80,10|0,0:0|0:0,0:0:0:0:
310,349,140782,1,0,3:0:0:0:
310,349,140947,1,0,3:0:0:0:
215,283,141112,2,0,P|188:231|209:177,1,120,10|0,0:0|0:0,0:0:0:0:
208,177,141442,6,0,P|174:197|129:195,1,80,0|0,3:0|0:0,0:0:0:0:
305,88,141771,2,0,P|266:77|235:44,1,80,10|0,0:0|0:0,0:0:0:0:
102,67,142101,1,0,3:0:0:0:
102,67,142266,1,0,3:0:0:0:
47,260,142431,2,0,P|27:225|29:180,1,80,10|0,0:0|0:0,0:0:0:0:
269,207,142760,6,0,B|281:257|256:285|251:283|226:311|239:362,2,160,0|10|0,3:0|0:0|3:0,0:0:0:0:
131,325,143585,1,0,3:0:0:0:
157,137,143749,2,0,L|132:19,1,120,12|0,0:0|0:0,0:0:0:0:
132,19,144079,6,0,B|171:2|202:40|199:43|230:81|285:53,1,160,4|10,3:2|0:0,0:0:0:0:
336,137,144574,1,0,3:0:0:0:
406,282,144738,1,0,3:0:0:0:
487,222,144902,1,0,3:0:0:0:
497,321,145068,2,0,P|477:354|440:377,1,80,10|0,0:0|0:0,0:0:0:0:
228,320,145398,6,0,B|206:272|229:244|234:246|260:213|241:163,1,160,0|10,3:0|0:0,0:0:0:0:
127,245,145892,1,0,3:0:0:0:
31,213,146057,2,0,L|7:136,1,80,0|0,3:0|0:0,0:0:0:0:
158,6,146387,2,0,L|140:84,1,80,10|0,0:0|0:0,0:0:0:0:
360,102,146716,6,0,B|411:95|433:131|430:137|451:172|524:155,1,160,14|0,0:0|3:0,0:0:0:0:
359,328,147211,1,8,0:0:0:0:
358,209,147376,2,0,B|332:205|321:223|323:226|312:244|276:235,1,80,2|0,0:0|3:0,0:0:0:0:
97,173,147705,2,0,P|32:186|9:240,1,120,10|0,0:0|0:0,0:0:0:0:
9,230,148035,6,0,P|125:232|195:325,1,240,6|2,3:2|0:0,0:0:0:0:
195,324,149354,6,0,P|207:288|210:265,2,60,2|2|2,0:0|0:0|0:0,0:0:0:0:
116,270,150013,1,2,0:0:0:0:
321,374,150177,5,0,3:0:0:0:
321,374,150260,1,0,3:0:0:0:
321,374,150342,2,0,P|324:329|305:300,1,80,12|0,0:0|0:0,0:0:0:0:
119,187,150672,2,0,P|96:185|82:194,3,40,10|8|8|8,0:0|0:0|0:0|0:0,0:0:0:0:
116,270,151002,1,8,0:0:0:0:
357,22,151331,6,0,L|406:83,1,80,6|0,3:2|0:0,0:0:0:0:
395,205,151578,2,0,L|423:131,1,80,2|0,3:2|0:0,0:0:0:0:
495,84,151826,2,0,L|455:90,1,40,2|0,3:2|0:0,0:0:0:0:
329,125,151991,1,0,3:0:0:0:
134,80,152155,5,2,3:2:0:0:
126,61,152237,1,0,3:0:0:0:
127,41,152319,1,0,3:0:0:0:
137,24,152402,1,0,3:0:0:0:
154,13,152484,1,0,3:0:0:0:
173,11,152567,1,0,3:0:0:0:
192,17,152650,6,0,B|250:62|231:109|229:105|203:156|249:202,1,200,6|0,3:2|3:0,0:0:0:0:
508,174,153144,2,0,B|450:219|469:266|471:262|497:313|451:359,1,200,2|0,0:0|0:0,0:0:0:0:
259,305,153639,1,0,3:0:0:0:
368,274,153804,1,2,0:0:0:0:
395,123,153969,6,0,P|377:77|390:21,1,100,0|0,3:0|0:0,0:0:0:0:
187,53,154298,2,0,P|141:71|85:58,1,100,2|0,3:2|0:0,0:0:0:0:
117,261,154628,2,0,P|135:307|122:363,1,100,0|0,3:0|0:0,0:0:0:0:
325,331,154957,2,0,P|371:313|427:326,1,100,2|0,3:2|0:0,0:0:0:0:
278,97,155287,6,0,B|299:158|256:191|254:189|215:220|235:291,1,200,6|0,3:2|3:0,0:0:0:0:
153,157,155782,1,2,0:0:0:0:
4,27,155947,2,0,B|-16:88|26:120|28:118|67:150|47:220,1,200,0|0,3:0|3:0,0:0:0:0:
84,371,156441,6,0,P|93:325|148:291,1,100,2|0,0:0|3:0,0:0:0:0:
380,350,156771,2,0,P|292:332|228:228,1,200,2|0,0:0|0:0,0:0:0:0:
179,52,157265,1,0,3:0:0:0:
418,125,157430,5,2,0:0:0:0:
340,253,157595,1,0,3:0:0:0:
307,104,157760,1,2,0:0:0:0:
456,277,157925,1,4,3:2:0:0:
456,277,158254,6,0,P|440:324|430:380,1,100,2|0,3:2|0:0,0:0:0:0:
234,287,158584,2,0,P|201:220|152:150,1,150,4|0,3:2|0:0,0:0:0:0:
158,157,158914,2,0,L|63:187,1,100,10|0,0:0|0:0,0:0:0:0:
159,361,159243,5,10,0:0:0:0:
345,233,159408,1,0,3:0:0:0:
345,233,159491,1,0,3:0:0:0:
345,233,159573,1,14,0:0:0:0:
217,47,159738,1,2,3:2:0:0:
200,272,159903,6,0,B|210:223|183:200|181:201|155:175|167:128,2,150,10|2|0,0:0|3:2|3:0,0:0:0:0:
208,280,160480,1,0,3:0:0:0:
208,280,160562,6,0,P|266:343|390:341,1,200,6|0,3:2|3:0,0:0:0:0:
498,330,161056,1,2,0:0:0:0:
327,252,161221,2,0,B|315:133|385:128|388:135|458:131|448:1,1,300,0|0,3:0|0:0,0:0:0:0:
204,176,161881,6,0,P|167:88|100:8,1,200,2|0,3:2|3:0,0:0:0:0:
291,243,162375,2,0,P|348:166|384:68,1,200,2|0,0:0|0:0,0:0:0:0:
276,351,162870,2,0,P|323:356|374:347,1,100,2|0,3:2|0:0,0:0:0:0:
183,288,163199,6,0,B|129:266|92:322|97:324|59:379|8:364,1,200,2|0,3:2|3:0,0:0:0:0:
11,100,163694,2,0,B|58:86|96:141|91:143|128:199|182:177,1,200,2|0,0:0|0:0,0:0:0:0:
313,26,164188,1,0,3:0:0:0:
174,79,164353,1,2,0:0:0:0:
405,115,164518,6,0,L|306:124,1,100,0|0,3:0|0:0,0:0:0:0:
106,268,164848,2,0,L|206:260,1,100,2|0,3:2|0:0,0:0:0:0:
179,42,165177,2,0,L|188:142,1,100,0|0,3:0|0:0,0:0:0:0:
332,341,165507,2,0,L|324:242,1,100,2|0,3:2|0:0,0:0:0:0:
84,170,165837,6,0,P|33:136|59:14,1,200,6|0,3:2|3:0,0:0:0:0:
284,13,166331,1,2,0:0:0:0:
293,147,166496,2,0,P|327:96|449:122,1,200,0|0,3:0|3:0,0:0:0:0:
476,271,166991,6,0,P|453:318|410:357,1,100,2|0,0:0|3:0,0:0:0:0:
196,282,167320,2,0,P|196:182|163:88,1,200,2|0,0:0|0:0,0:0:0:0:
328,244,167815,1,0,3:0:0:0:
467,21,167980,5,2,0:0:0:0:
305,143,168144,1,8,0:0:0:0:
479,121,168309,1,2,0:0:0:0:
292,42,168473,1,6,3:2:0:0:
45,363,168804,6,0,P|79:331|95:274,1,100,14|0,0:0|0:0,0:0:0:0:
164,88,169133,1,0,3:0:0:0:
36,13,169298,2,0,P|33:59|63:111,1,100,2|8,0:0|0:0,0:0:0:0:
256,192,169628,5,8,0:0:0:0:
256,192,169710,1,8,0:0:0:0:
256,192,169793,2,0,L|357:206,1,100,8|0,0:0|0:0,0:0:0:0:
205,296,170122,1,8,0:0:0:0:
437,276,170287,1,10,0:0:0:0:
413,90,170452,5,8,0:0:0:0:
413,90,170534,1,8,0:0:0:0:
413,90,170617,2,0,P|415:59|425:34,1,50,10|8,0:0|0:0,0:0:0:0:
296,15,170782,1,8,0:0:0:0:
181,110,170947,5,8,0:0:0:0:
181,110,171029,1,8,0:0:0:0:
181,110,171111,2,0,P|111:102|59:20,1,160,6|8,3:2|0:0,0:0:0:0:
71,196,171606,1,2,0:0:0:0:
193,356,171771,1,0,3:0:0:0:
193,356,171936,1,0,3:0:0:0:
249,271,172100,6,0,L|242:174,1,80,10|0,0:0|0:0,0:0:0:0:
349,21,172430,2,0,L|354:100,1,80,0|0,3:0|0:0,0:0:0:0:
174,96,172760,2,0,L|271:89,1,80,10|0,0:0|0:0,0:0:0:0:
472,129,173089,1,0,3:0:0:0:
472,129,173254,1,0,3:0:0:0:
451,240,173419,2,0,P|403:205|344:201,1,120,10|0,0:0|0:0,0:0:0:0:
344,201,173749,6,0,P|363:178|372:130,1,80,0|0,3:0|0:0,0:0:0:0:
236,262,174078,2,0,P|240:232|224:185,1,80,10|0,0:0|0:0,0:0:0:0:
53,230,174408,1,0,3:0:0:0:
53,230,174573,1,0,3:0:0:0:
172,368,174738,2,0,P|160:339|123:308,1,80,10|0,0:0|0:0,0:0:0:0:
50,121,175067,6,0,B|108:122|129:90|128:87|142:58|201:68,2,160,0|10|0,3:0|0:0|3:0,0:0:0:0:
56,21,175892,1,0,3:0:0:0:
199,160,176056,2,0,L|225:284,1,120,12|0,0:0|0:0,0:0:0:0:
223,277,176386,6,0,P|292:279|336:363,1,160,4|10,3:2|0:0,0:0:0:0:
429,312,176881,1,0,3:0:0:0:
497,127,177045,1,0,3:0:0:0:
404,166,177209,1,0,3:0:0:0:
416,65,177375,2,0,P|378:54|349:20,1,80,10|0,0:0|0:0,0:0:0:0:
206,182,177705,6,0,P|212:99|234:19,1,160,0|10,3:0|0:0,0:0:0:0:
116,90,178199,1,0,3:0:0:0:
30,153,178364,2,0,L|2:72,1,80,0|0,3:0|3:0,0:0:0:0:
72,287,178694,2,0,L|109:209,1,80,10|0,0:0|0:0,0:0:0:0:
131,374,179023,6,0,B|184:389|211:354|209:348|231:316|278:325,1,160,4|10,3:2|0:0,0:0:0:0:
250,226,179518,1,0,3:0:0:0:
488,263,179683,1,0,3:0:0:0:
464,361,179848,1,0,3:0:0:0:
399,299,180013,2,0,P|386:266|392:215,1,80,10|0,0:0|0:0,0:0:0:0:
389,222,180260,1,0,3:0:0:0:
389,222,180342,6,0,L|430:63,1,160,4|10,3:2|0:0,0:0:0:0:
27,27,181002,1,8,0:0:0:0:
27,27,181084,1,8,0:0:0:0:
27,27,181166,1,8,0:0:0:0:
191,144,181331,1,10,0:0:0:0:
66,182,181496,2,0,P|93:182|117:197,1,40,8|8,0:0|0:0,0:0:0:0:
230,299,181661,6,0,P|202:358|103:366,1,160,6|8,3:2|0:0,0:0:0:0:
0,306,182155,1,2,0:0:0:0:
135,279,182320,1,0,3:0:0:0:
135,279,182485,1,0,3:0:0:0:
99,102,182650,6,0,L|104:16,1,80,10|0,0:0|0:0,0:0:0:0:
280,64,182980,2,0,L|366:69,1,80,0|0,3:0|0:0,0:0:0:0:
318,245,183309,2,0,L|313:331,1,80,10|0,0:0|0:0,0:0:0:0:
77,204,183639,1,0,3:0:0:0:
77,204,183804,1,0,3:0:0:0:
137,283,183969,2,0,P|87:312|23:287,1,120,10|0,0:0|0:0,0:0:0:0:
30,294,184298,6,0,P|60:320|60:360,1,80,0|0,3:0|0:0,0:0:0:0:
227,289,184628,2,0,P|229:327|201:355,1,80,10|0,0:0|0:0,0:0:0:0:
335,261,184958,1,0,3:0:0:0:
335,261,185122,1,0,3:0:0:0:
155,149,185287,2,0,P|129:178|89:178,1,80,10|0,0:0|0:0,0:0:0:0:
304,150,185617,6,0,P|259:103|232:13,2,160,0|10|0,3:0|0:0|3:0,0:0:0:0:
437,63,186441,1,0,3:0:0:0:
490,264,186606,2,0,L|506:137,1,120,12|0,0:0|0:0,0:0:0:0:
504,144,186936,6,0,B|457:136|444:173|451:173|434:212|369:213,1,160,4|10,3:2|0:0,0:0:0:0:
283,262,187430,1,0,3:0:0:0:
193,60,187595,1,0,3:0:0:0:
279,110,187760,1,0,3:0:0:0:
192,159,187925,2,0,P|155:153|122:125,1,80,10|0,0:0|0:0,0:0:0:0:
25,216,188254,6,0,P|14:139|12:56,1,160,0|10,3:0|0:0,0:0:0:0:
101,10,188749,1,0,3:0:0:0:
314,32,188914,2,0,L|271:101,1,80,0|0,3:0|3:0,0:0:0:0:
450,131,189243,2,0,L|411:59,1,80,10|0,0:0|0:0,0:0:0:0:
296,199,189573,5,0,3:0:0:0:
296,199,189903,2,0,P|368:197|413:269,1,160,14|0,0:0|3:0,0:0:0:0:
239,367,190397,1,0,3:0:0:0:
140,350,190562,2,0,P|139:314|175:291,1,80,10|0,0:0|0:0,0:0:0:0:
241,86,190892,5,8,0:0:0:0:
241,86,190974,1,8,0:0:0:0:
241,86,191056,1,8,0:0:0:0:
84,164,191221,2,0,L|-9:176,1,80,14|0,0:0|0:0,0:0:0:0:
4,174,191469,1,0,3:0:0:0:
4,174,191551,6,0,L|22:130,1,40,0|0,3:0|0:0,0:0:0:0:
178,169,191716,2,0,L|222:187,1,40,0|0,3:0|0:0,0:0:0:0:
183,343,191881,2,0,L|165:387,1,40,10|0,0:0|0:0,0:0:0:0:
9,348,192045,5,8,0:0:0:0:
9,348,192128,1,8,0:0:0:0:
9,348,192210,1,6,3:2:0:0:
