osu file format v14

[General]
AudioFilename: audio.mp3
AudioLeadIn: 0
PreviewTime: 63557
Countdown: 0
SampleSet: Soft
StackLeniency: 0.8
Mode: 0
LetterboxInBreaks: 0
WidescreenStoryboard: 1

[Editor]
Bookmarks: 1662,12211,22760,33310,43859,54409,64958,75508,86057,96607,101881,107156,117705,128255,138804,149354,160562,171111,181661,192210
DistanceSpacing: 1.25
BeatDivisor: 4
GridSize: 4
TimelineZoom: 1.4

[Metadata]
Title:Eternal Bliss
TitleUnicode:Eternal Bliss
Artist:Emiru no Aishita Tsukiyo ni Dai San Gensou Kyoku wo
ArtistUnicode:エミルの愛した月夜に第III幻想曲を
Creator:Hinsvar
Version:Hard
Source:
Tags:Emiru3 Emille's Moonlight Serenade EMS Japanese Rock J-Rock JRock gothic symphonic Pop J-Pop JPop Fallen サラ SALA SARA いばら IBARA Featured Artist FA Mappers' Guild MG MPG
BeatmapID:4537040
BeatmapSetID:2153172

[Difficulty]
HPDrainRate:4
CircleSize:3.5
OverallDifficulty:6
ApproachRate:8
SliderMultiplier:1.36
SliderTickRate:1

[Events]
//Background and Video events
0,0,"BG.jpg",0,0
//Break Periods
2,96807,101056
//Storyboard Layer 0 (Background)
//Storyboard Layer 1 (Fail)
//Storyboard Layer 2 (Pass)
//Storyboard Layer 3 (Foreground)
//Storyboard Layer 4 (Overlay)
//Storyboard Sound Samples

[TimingPoints]
1662,329.67032967033,4,2,1,70,1,0
6936,-125,4,2,1,60,0,0
8255,-100,4,2,1,65,0,0
11387,-125,4,2,1,60,0,0
12211,-100,4,2,1,70,0,0
33310,-111.111111111111,4,2,1,60,0,0
43859,-100,4,2,1,70,0,0
64958,-90.9090909090909,4,2,1,80,0,1
74848,-90.9090909090909,4,2,1,80,0,0
75508,-90.9090909090909,4,2,1,80,0,1
86057,-100,4,2,1,70,0,0
96607,-111.111111111111,4,2,1,60,0,0
107156,-100,4,2,1,70,0,0
148035,-125,4,2,1,65,0,0
149354,-125,4,2,1,60,0,0
150013,329.67032967033,4,2,1,60,1,8
150177,-100,4,2,1,70,0,8
152650,-90.9090909090909,4,2,1,80,0,9
159903,-90.9090909090909,4,2,1,80,0,8
160562,-90.9090909090909,4,2,1,80,0,9
171111,-100,4,2,1,70,0,8

[Colours]
Combo1 : 176,230,123
Combo2 : 235,245,109
Combo3 : 139,253,111
Combo4 : 231,220,120

[HitObjects]
256,192,1662,5,4,3:2:0:0:
256,192,4299,1,4,3:2:0:0:
256,192,5618,1,4,3:2:0:0:
34,31,6112,5,0,3:0:0:0:
21,115,6277,2,0,L|27:155,3,34,2|0|0|0,3:2|3:0|3:0|3:0,0:0:0:0:
40,179,6607,2,0,L|34:219,3,34,2|0|0|0,3:2|3:0|3:0|3:0,0:0:0:0:
29,246,6936,6,0,P|30:298|36:357,2,108.8,6|0|2,3:2|3:0|3:2,0:0:0:0:
178,327,7925,2,0,P|177:301|174:271,1,54.4,2|0,3:2|0:0,0:0:0:0:
166,187,8255,6,0,P|206:148|208:64,1,136,4|0,3:2|3:0,0:0:0:0:
275,15,8749,2,0,P|294:35|336:36,1,68,4|0,3:2|3:0,0:0:0:0:
414,9,9079,1,2,3:2:0:0:
454,83,9244,2,0,L|491:77,2,34,8|8|8,0:0|0:0|0:0,0:0:0:0:
374,115,9574,5,8,0:0:0:0:
336,190,9738,2,0,L|405:223,1,68,8|10,0:0|0:0,0:0:0:0:
407,304,10068,2,0,L|390:338,2,34,0|0|0,3:0|3:0|3:0,0:0:0:0:
322,281,10398,1,8,0:0:0:0:
240,305,10563,2,0,L|203:317,3,34,2|0|0|0,3:2|3:0|3:0|3:0,0:0:0:0:
176,328,10892,1,4,3:2:0:0:
47,108,11387,6,0,P|40:89|28:73,2,27.2,2|0|0,0:0|0:0|0:0,0:0:0:0:
209,57,11881,2,0,P|210:84|205:110,1,54.4,8|0,0:0|0:0,0:0:0:0:
130,152,12211,6,0,B|145:205|114:216|112:216|82:229|100:287,1,136,6|8,3:2|0:0,0:0:0:0:
107,359,12705,1,2,0:0:0:0:
195,352,12870,1,0,3:0:0:0:
195,352,13035,1,0,3:0:0:0:
188,264,13200,6,0,L|261:259,1,68,10|0,0:0|0:0,0:0:0:0:
334,226,13530,2,0,L|329:153,1,68,0|0,3:0|0:0,0:0:0:0:
298,80,13859,2,0,L|225:85,1,68,10|0,0:0|0:0,0:0:0:0:
151,117,14189,1,0,3:0:0:0:
151,117,14354,1,0,3:0:0:0:
165,33,14519,1,10,0:0:0:0:
2,42,14848,6,0,P|1:75|9:112,1,68,0|0,3:0|0:0,0:0:0:0:
16,194,15178,2,0,P|38:218|70:238,1,68,10|0,0:0|0:0,0:0:0:0:
149,207,15508,1,0,3:0:0:0:
149,207,15672,1,0,3:0:0:0:
133,291,15837,2,0,P|166:292|203:284,1,68,10|0,0:0|0:0,0:0:0:0:
283,265,16167,6,0,B|337:264|341:295|342:291|348:320|421:318,2,136,0|10|0,3:0|0:0|3:0,0:0:0:0:
272,180,16991,1,0,3:0:0:0:
361,173,17156,2,0,L|462:160,1,102,12|0,0:0|0:0,0:0:0:0:
462,159,17486,6,0,P|511:210|509:277,1,136,4|10,3:2|0:0,0:0:0:0:
481,352,17980,1,0,3:0:0:0:
402,317,18145,1,0,3:0:0:0:
402,317,18310,1,0,3:0:0:0:
320,341,18475,2,0,L|244:353,1,68,10|0,0:0|0:0,0:0:0:0:
200,284,18804,6,0,B|181:239|208:220|206:216|228:200|210:142,1,136,0|10,3:0|0:0,0:0:0:0:
205,68,19299,1,0,3:0:0:0:
122,50,19464,2,0,L|59:76,1,68,0|0,3:0|3:0,0:0:0:0:
16,148,19793,2,0,L|21:215,1,68,10|0,0:0|0:0,0:0:0:0:
28,301,20123,6,0,P|89:308|139:371,1,136,4|10,3:2|0:0,0:0:0:0:
221,351,20618,1,0,3:0:0:0:
211,266,20782,1,0,3:0:0:0:
211,266,20947,1,0,3:0:0:0:
304,264,21112,2,0,P|334:260|359:228,1,68,10|0,0:0|0:0,0:0:0:0:
352,217,21359,1,0,3:0:0:0:
341,203,21442,6,0,L|329:67,1,136,6|10,3:2|0:0,0:0:0:0:
493,8,22101,5,8,0:0:0:0:
493,8,22183,1,8,0:0:0:0:
493,8,22266,1,8,0:0:0:0:
501,93,22432,1,10,0:0:0:0:
508,178,22596,1,8,0:0:0:0:
437,226,22760,6,0,B|423:270|442:294|445:292|466:314|454:357,1,136,4|10,3:2|0:0,0:0:0:0:
370,338,23255,1,0,3:0:0:0:
299,384,23420,1,0,3:0:0:0:
299,384,23585,1,0,3:0:0:0:
294,299,23749,6,0,P|288:262|274:234,1,68,10|0,0:0|0:0,0:0:0:0:
284,149,24079,2,0,P|247:155|219:169,1,68,0|0,3:0|0:0,0:0:0:0:
134,159,24409,2,0,P|140:196|154:224,1,68,10|0,0:0|0:0,0:0:0:0:
144,309,24738,1,0,3:0:0:0:
144,309,24903,1,0,3:0:0:0:
72,253,25068,1,10,0:0:0:0:
1,98,25398,6,0,L|39:36,1,68,0|0,3:0|0:0,0:0:0:0:
115,9,25727,2,0,L|187:10,1,68,10|0,0:0|0:0,0:0:0:0:
172,99,26057,1,0,3:0:0:0:
172,99,26222,1,0,3:0:0:0:
249,63,26386,2,0,L|283:126,1,68,10|0,0:0|0:0,0:0:0:0:
292,207,26716,6,0,B|304:255|282:270|284:274|259:289|272:346,2,136,0|10|0,3:0|0:0|3:0,0:0:0:0:
361,157,27541,1,0,3:0:0:0:
433,210,27705,2,0,L|496:130,1,102,12|0,0:0|0:0,0:0:0:0:
496,130,28035,6,0,P|505:61|447:21,1,136,4|10,3:2|0:0,0:0:0:0:
393,77,28530,1,0,3:0:0:0:
313,48,28694,1,0,3:0:0:0:
313,48,28859,1,0,3:0:0:0:
261,115,29024,2,0,L|253:191,1,68,10|0,0:0|0:0,0:0:0:0:
180,226,29354,6,0,B|135:214|112:241|115:242|94:269|44:254,1,136,0|10,3:0|0:0,0:0:0:0:
0,322,29848,1,0,3:0:0:0:
82,344,30013,2,0,P|112:360|143:381,1,68,0|0,3:0|3:0,0:0:0:0:
219,346,30343,2,0,P|235:316|256:285,1,68,10|0,0:0|0:0,0:0:0:0:
321,236,30672,6,0,B|361:215|387:236|383:240|411:258|456:239,1,136,4|10,3:2|0:0,0:0:0:0:
508,177,31167,1,0,3:0:0:0:
423,158,31332,1,0,3:0:0:0:
423,158,31497,1,0,3:0:0:0:
481,96,31662,2,0,P|485:62|476:29,1,68,10|0,0:0|0:0,0:0:0:0:
462,19,31909,1,0,3:0:0:0:
445,16,31991,6,0,L|307:40,1,136,4|10,3:2|0:0,0:0:0:0:
194,164,32651,5,8,0:0:0:0:
194,164,32733,1,8,0:0:0:0:
194,164,32815,1,8,0:0:0:0:
103,141,32980,1,10,0:0:0:0:
19,126,33145,1,8,0:0:0:0:
34,42,33310,6,0,P|90:16|147:30,1,122.399996264649,4|0,3:2|3:0,0:0:0:0:
224,65,33804,1,2,0:0:0:0:
302,29,33969,2,0,P|328:85|314:142,1,122.399996264649,0|0,3:0|3:0,0:0:0:0:
233,172,34464,6,0,L|223:241,1,61.1999981323243,2|0,0:0|3:0,0:0:0:0:
267,306,34793,2,0,L|277:375,1,61.1999981323243,2|0,0:0|3:0,0:0:0:0:
362,369,35123,2,0,B|404:375|423:352|421:348|435:327|483:335,1,122.399996264649,2|0,0:0|0:0,0:0:0:0:
509,254,35618,2,0,L|504:223,3,30.5999990661621,2|0|0|0,3:2|0:0|0:0|0:0,0:0:0:0:
503,193,35947,6,0,P|433:146|405:45,1,183.599994396973,4|0,3:2|0:0,0:0:0:0:
326,16,36607,2,0,P|294:62|227:81,1,122.399996264649,2|0,3:2|3:0,0:0:0:0:
163,131,37101,2,0,P|148:98|148:66,1,61.1999981323243,2|0,0:0|3:0,0:0:0:0:
61,64,37431,2,0,P|39:93|12:109,1,61.1999981323243,2|0,0:0|3:0,0:0:0:0:
18,277,37925,2,0,P|43:295|61:320,1,61.1999981323243,0|0,3:0|0:0,0:0:0:0:
146,310,38255,2,0,P|147:295|154:281,3,30.5999990661621,2|0|0|0,3:2|0:0|0:0|0:0,0:0:0:0:
173,257,38585,6,0,P|124:226|73:185,2,122.399996264649,4|0|0,3:2|3:0|3:0,0:0:0:0:
203,88,39574,2,0,P|219:62|238:38,1,61.1999981323243,2|0,3:2|0:0,0:0:0:0:
319,12,39903,2,0,B|362:-3|382:19|379:19|395:37|435:15,1,122.399996264649,0|0,3:0|3:0,0:0:0:0:
510,56,40398,1,2,0:0:0:0:
440,106,40563,1,0,3:0:0:0:
440,278,40892,2,0,P|445:294|463:313,3,30.5999990661621,2|0|0|0,3:2|0:0|0:0|0:0,0:0:0:0:
474,326,41222,6,0,P|512:276|506:215,1,122.399996264649,0|0,3:0|3:0,0:0:0:0:
425,195,41716,2,0,P|393:191|368:208,1,61.1999981323243,2|0,0:0|3:0,0:0:0:0:
295,249,42046,2,0,P|263:252|238:235,2,61.1999981323243,2|0|2,0:0|3:0|0:0,0:0:0:0:
297,162,42541,2,0,P|278:105|267:40,1,122.399996264649,0|0,3:0|3:0,0:0:0:0:
96,24,43200,5,0,3:0:0:0:
96,24,43282,1,8,0:0:0:0:
96,24,43365,1,8,0:0:0:0:
5,39,43530,1,8,0:0:0:0:
20,130,43694,5,8,0:0:0:0:
20,130,43777,1,8,0:0:0:0:
20,130,43859,2,0,B|60:110|85:140|80:143|107:172|154:149,1,136,4|8,3:2|0:0,0:0:0:0:
238,295,44519,2,0,P|231:329|211:358,1,68,2|0,3:2|3:0,0:0:0:0:
132,382,44848,1,8,0:0:0:0:
78,315,45013,6,0,P|59:280|85:182,1,136,2|0,3:2|3:0,0:0:0:0:
156,223,45508,1,8,0:0:0:0:
234,192,45672,2,0,P|253:157|227:59,1,136,2|0,3:2|3:0,0:0:0:0:
156,100,46167,2,0,P|145:83|96:69,1,68,8|0,0:0|0:0,0:0:0:0:
20,41,46497,6,0,B|1:79|18:105|21:105|40:129|22:177,1,136,6|8,3:2|0:0,0:0:0:0:
28,341,47156,2,0,P|52:321|93:316,1,68,2|0,3:2|3:0,0:0:0:0:
167,350,47486,1,8,0:0:0:0:
243,312,47651,6,0,P|298:306|369:357,1,136,2|0,3:2|3:0,0:0:0:0:
434,300,48145,1,8,0:0:0:0:
418,216,48310,2,0,P|363:222|292:171,1,136,0|0,3:0|3:0,0:0:0:0:
227,228,48804,2,0,P|210:205|214:162,1,68,8|0,0:0|0:0,0:0:0:0:
265,99,49134,6,0,B|307:77|332:94|331:98|354:116|396:91,1,136,6|8,3:2|0:0,0:0:0:0:
477,240,49793,2,0,P|444:245|407:259,1,68,2|0,3:2|3:0,0:0:0:0:
333,290,50123,1,8,0:0:0:0:
295,367,50288,6,0,P|266:353|250:317,2,68,0|2|0,3:0|0:0|3:0,0:0:0:0:
380,365,50782,1,8,0:0:0:0:
448,313,50947,2,0,P|443:248|489:185,1,136,2|0,3:2|3:0,0:0:0:0:
470,105,51442,2,0,P|437:107|406:84,1,68,8|0,0:0|0:0,0:0:0:0:
349,26,51771,6,0,P|281:26|250:80,1,136,6|8,3:2|0:0,0:0:0:0:
184,236,52431,2,0,P|157:248|115:248,1,68,0|2,3:0|3:2,0:0:0:0:
41,217,52760,1,8,0:0:0:0:
9,139,52925,6,0,L|75:15,1,136,6|0,3:2|3:0,0:0:0:0:
158,18,53420,1,12,0:0:0:0:
249,160,53749,2,0,L|264:190,2,34,8|8|8,0:0|0:0|0:0,0:0:0:0:
331,138,54079,2,0,L|361:122,3,34,0|0|0|0,3:0|3:0|3:0|3:0,0:0:0:0:
384,96,54409,5,10,0:0:0:0:
468,103,54574,1,10,0:0:0:0:
461,188,54738,1,10,0:0:0:0:
402,347,55068,2,0,L|371:331,3,34,0|0|0|0,3:0|3:0|3:0|3:0,0:0:0:0:
341,315,55398,1,0,3:0:0:0:
256,307,55563,6,0,B|211:303|196:332|199:332|183:361|131:357,1,136,10|8,0:0|0:0,0:0:0:0:
52,337,56057,1,10,0:0:0:0:
52,337,56716,2,0,P|27:312|24:273,1,68,2|0,0:0|0:0,0:0:0:0:
90,229,57046,5,10,0:0:0:0:
169,263,57211,1,10,0:0:0:0:
237,211,57376,1,10,0:0:0:0:
220,42,57705,1,8,0:0:0:0:
220,42,57788,1,8,0:0:0:0:
220,42,57870,2,0,P|229:18|256:13,2,34,8|8|8,0:0|0:0|0:0,0:0:0:0:
140,72,58200,6,0,P|98:43|50:55,1,102,6|0,3:2|0:0,0:0:0:0:
51,55,58530,2,0,P|32:82|40:114,1,68,6|6,3:2|0:0,0:0:0:0:
88,184,58859,1,10,0:0:0:0:
172,175,59024,2,0,L|184:215,3,34,0|0|0|0,3:0|3:0|3:0|3:0,0:0:0:0:
206,231,59354,2,0,L|194:271,3,34,2|0|0|0,3:2|3:0|3:0|3:0,0:0:0:0:
189,296,59683,6,0,B|146:293|126:317|128:321|110:346|54:342,2,136,6|8|2,3:2|0:0|3:2,0:0:0:0:
231,370,60508,1,0,3:0:0:0:
315,353,60672,1,8,0:0:0:0:
461,266,61002,6,0,L|447:193,1,68,2|0,3:2|0:0,0:0:0:0:
365,218,61332,2,0,P|313:187|288:119,1,136,12|0,0:0|3:0,0:0:0:0:
292,33,61826,1,2,0:0:0:0:
375,18,61991,1,8,0:0:0:0:
434,94,62156,5,8,0:0:0:0:
434,94,62238,1,8,0:0:0:0:
434,94,62321,2,0,L|501:106,2,68,6|0|8,3:2|3:0|0:0,0:0:0:0:
438,179,62815,2,0,L|505:191,1,68,2|8,3:2|0:0,0:0:0:0:
498,277,63145,1,0,3:0:0:0:
416,298,63310,2,0,L|404:364,1,68,10|0,0:0|3:0,0:0:0:0:
317,341,63640,5,10,0:0:0:0:
317,341,63722,1,0,3:0:0:0:
317,341,63804,2,0,L|311:308,2,34,2|8|2,0:0|0:0|3:2,0:0:0:0:
224,350,64134,1,10,0:0:0:0:
224,350,64216,1,0,3:0:0:0:
224,350,64299,1,2,0:0:0:0:
224,350,64958,6,0,P|162:355|101:294,1,149.60000456543,6|0,3:2|3:0,0:0:0:0:
183,250,65453,1,2,0:0:0:0:
275,265,65618,2,0,B|317:206|286:164|289:161|255:116|287:49,1,224.400006848145,0|0,3:0|0:0,0:0:0:0:
197,20,66277,2,0,P|135:47|43:49,1,149.60000456543,2|0,3:2|3:0,0:0:0:0:
16,136,66771,2,0,P|43:198|45:290,1,149.60000456543,2|0,0:0|0:0,0:0:0:0:
132,317,67266,2,0,P|163:303|209:302,1,74.8000022827149,2|0,3:2|0:0,0:0:0:0:
257,378,67596,6,0,P|311:357|344:268,1,149.60000456543,2|0,3:2|3:0,0:0:0:0:
266,225,68090,2,0,P|212:204|179:115,1,149.60000456543,2|0,0:0|0:0,0:0:0:0:
91,161,68585,1,0,3:0:0:0:
16,106,68749,1,2,0:0:0:0:
26,13,68914,6,0,P|60:23|107:26,1,74.8000022827149,0|0,3:0|0:0,0:0:0:0:
192,33,69244,2,0,P|226:23|273:20,1,74.8000022827149,2|0,3:2|0:0,0:0:0:0:
341,74,69574,2,0,P|331:108|328:155,1,74.8000022827149,0|0,3:0|0:0,0:0:0:0:
321,240,69904,2,0,P|331:274|334:321,1,74.8000022827149,2|0,3:2|0:0,0:0:0:0:
412,364,70233,6,0,P|480:357|504:275,1,149.60000456543,6|0,3:2|3:0,0:0:0:0:
483,197,70727,1,2,0:0:0:0:
505,106,70892,2,0,P|437:99|413:17,1,149.60000456543,0|0,3:0|3:0,0:0:0:0:
315,33,71387,6,0,L|239:49,1,74.8000022827149,2|0,0:0|3:0,0:0:0:0:
257,140,71716,2,0,L|289:292,1,149.60000456543,2|0,0:0|0:0,0:0:0:0:
228,359,72211,1,0,3:0:0:0:
141,326,72376,5,2,0:0:0:0:
50,348,72541,1,8,0:0:0:0:
28,257,72705,1,2,0:0:0:0:
119,235,72870,1,4,3:2:0:0:
45,62,73200,6,0,P|68:26|103:23,1,74.8000022827149,2|0,3:2|0:0,0:0:0:0:
195,23,73530,2,0,P|248:57|253:110,1,112.200003424072,0|0,3:0|0:0,0:0:0:0:
256,103,73859,2,0,L|269:189,1,74.8000022827149,14|0,0:0|0:0,0:0:0:0:
195,237,74189,5,10,0:0:0:0:
235,333,74354,1,0,3:0:0:0:
235,333,74436,1,0,3:0:0:0:
235,333,74519,1,14,0:0:0:0:
325,317,74683,1,2,3:2:0:0:
346,225,74848,2,0,B|383:215|398:239|395:239|411:259|462:247,2,112.200003424072,10|2|0,0:0|3:2|3:0,0:0:0:0:
353,131,75508,6,0,P|420:127|472:67,1,149.60000456543,6|0,3:2|3:0,0:0:0:0:
383,37,76002,1,2,0:0:0:0:
290,53,76167,2,0,B|233:93|180:50|186:47|133:5|67:43,1,224.400006848145,0|0,3:0|0:0,0:0:0:0:
25,115,76826,2,0,P|1:185|44:246,1,149.60000456543,2|0,3:2|3:0,0:0:0:0:
31,337,77321,2,0,P|101:361|162:318,1,149.60000456543,2|0,0:0|0:0,0:0:0:0:
253,331,77815,2,0,P|265:296|243:265,1,74.8000022827149,2|0,3:2|0:0,0:0:0:0:
160,226,78145,6,0,B|179:184|152:151|147:153|121:125|140:80,1,149.60000456543,2|0,3:2|3:0,0:0:0:0:
197,12,78640,2,0,B|223:49|265:42|266:37|303:28|333:67,1,149.60000456543,2|0,0:0|0:0,0:0:0:0:
363,151,79134,1,0,3:0:0:0:
275,184,79299,1,2,0:0:0:0:
308,272,79464,6,0,P|314:305|313:349,1,74.8000022827149,0|0,3:0|0:0,0:0:0:0:
400,379,79793,2,0,P|433:373|477:374,1,74.8000022827149,2|0,3:2|0:0,0:0:0:0:
507,287,80123,2,0,P|501:254|502:210,1,74.8000022827149,0|0,3:0|0:0,0:0:0:0:
415,180,80453,2,0,P|382:186|338:185,1,74.8000022827149,2|0,3:2|0:0,0:0:0:0:
247,185,80782,6,0,P|175:159|158:89,1,149.60000456543,6|0,3:2|3:0,0:0:0:0:
251,93,81277,1,2,0:0:0:0:
344,93,81442,2,0,P|370:21|440:4,1,149.60000456543,0|0,3:0|3:0,0:0:0:0:
496,73,81936,6,0,L|464:150,1,74.8000022827149,2|0,0:0|3:0,0:0:0:0:
382,182,82266,2,0,L|446:336,1,149.60000456543,2|0,0:0|0:0,0:0:0:0:
356,362,82760,1,0,3:0:0:0:
306,282,82925,5,2,0:0:0:0:
223,240,83090,1,8,0:0:0:0:
181,323,83255,1,0,3:0:0:0:
264,365,83420,1,6,3:2:0:0:
398,235,83749,6,0,P|414:201|421:163,1,74.8000022827149,14|0,0:0|0:0,0:0:0:0:
365,88,84079,2,0,P|352:52|330:20,2,74.8000022827149,0|2|8,3:0|0:0|0:0,0:0:0:0:
322,175,84574,5,8,0:0:0:0:
322,175,84656,1,8,0:0:0:0:
322,175,84738,2,0,L|244:165,1,74.8000022827149,8|2,0:0|0:0,0:0:0:0:
207,250,85068,2,0,L|129:240,1,74.8000022827149,12|8,0:0|0:0,0:0:0:0:
110,149,85398,5,8,0:0:0:0:
17,162,85563,1,10,0:0:0:0:
4,69,85727,1,8,0:0:0:0:
105,56,85892,5,8,0:0:0:0:
105,56,85975,1,8,0:0:0:0:
105,56,86057,2,0,P|165:63|223:2,1,136,6|8,3:2|0:0,0:0:0:0:
304,19,86552,1,2,0:0:0:0:
304,109,86716,1,0,3:0:0:0:
304,109,86880,1,0,3:0:0:0:
394,109,87046,6,0,P|429:113|460:130,1,68,10|0,0:0|0:0,0:0:0:0:
509,196,87376,2,0,P|505:231|488:262,1,68,0|0,3:0|0:0,0:0:0:0:
422,311,87705,2,0,P|387:307|356:290,1,68,10|0,0:0|0:0,0:0:0:0:
277,305,88035,1,0,3:0:0:0:
277,305,88200,1,0,3:0:0:0:
307,224,88365,1,10,0:0:0:0:
304,54,88694,6,0,P|278:26|245:14,1,68,0|0,3:0|0:0,0:0:0:0:
175,54,89024,2,0,P|137:62|110:85,1,68,10|0,0:0|0:0,0:0:0:0:
39,118,89354,1,0,3:0:0:0:
39,118,89519,1,0,3:0:0:0:
110,165,89683,2,0,P|98:201|104:236,1,68,10|0,0:0|0:0,0:0:0:0:
178,270,90013,6,0,B|227:248|221:213|216:214|208:181|257:152,2,136,0|10|0,3:0|0:0|3:0,0:0:0:0:
106,315,90837,1,0,3:0:0:0:
25,323,91002,2,0,L|18:222,1,102,12|0,0:0|0:0,0:0:0:0:
17,221,91332,6,0,P|83:216|141:174,1,136,4|10,3:2|0:0,0:0:0:0:
71,124,91826,1,0,3:0:0:0:
99,44,91991,1,0,3:0:0:0:
99,44,92156,1,0,3:0:0:0:
183,45,92321,2,0,P|194:73|199:114,1,68,10|0,0:0|0:0,0:0:0:0:
240,186,92651,6,0,B|277:219|262:249|260:250|243:279|275:309,1,136,0|10,3:0|0:0,0:0:0:0:
348,266,93145,1,0,3:0:0:0:
424,229,93310,2,0,P|459:230|500:239,1,68,0|0,3:0|3:0,0:0:0:0:
488,321,93640,2,0,P|453:320|412:311,1,68,10|0,0:0|0:0,0:0:0:0:
347,356,93969,6,0,B|303:336|284:360|281:358|261:381|211:363,1,136,4|10,3:2|0:0,0:0:0:0:
149,311,94464,1,0,3:0:0:0:
70,343,94629,1,0,3:0:0:0:
70,343,94793,1,0,3:0:0:0:
81,258,94958,2,0,P|55:235|45:198,1,68,10|0,0:0|0:0,0:0:0:0:
39,188,95205,1,0,3:0:0:0:
42,171,95288,6,0,L|179:183,1,136,4|10,3:2|0:0,0:0:0:0:
301,66,95947,5,8,0:0:0:0:
301,66,96030,1,8,0:0:0:0:
301,66,96112,1,8,0:0:0:0:
385,58,96277,1,10,0:0:0:0:
470,51,96442,1,8,0:0:0:0:
436,129,96607,5,4,3:2:0:0:
76,255,101881,6,0,P|34:256|10:187,2,122.399996264649,6|0|0,3:2|3:0|3:0,0:0:0:0:
174,114,102870,2,0,P|195:113|207:148,1,61.1999981323243,2|0,3:2|0:0,0:0:0:0:
214,232,103200,2,0,B|254:255|253:278|251:280|249:305|297:329,1,122.399996264649,0|0,3:0|3:0,0:0:0:0:
355,377,103694,1,2,0:0:0:0:
368,292,103859,1,0,3:0:0:0:
447,140,104189,2,0,L|486:138,3,30.5999990661621,2|0|0|0,3:2|0:0|0:0|0:0,0:0:0:0:
501,118,104519,6,0,P|495:58|446:22,1,122.399996264649,0|0,3:0|3:0,0:0:0:0:
362,24,105013,2,0,P|332:27|314:51,1,61.1999981323243,2|0,0:0|3:0,0:0:0:0:
229,65,105343,2,0,P|232:95|256:113,2,61.1999981323243,2|0|2,0:0|3:0|0:0,0:0:0:0:
155,20,105837,1,4,3:2:0:0:
155,20,106497,6,0,L|118:25,3,30.5999990661621,2|0|0|0,0:0|0:0|0:0|0:0,0:0:0:0:
93,28,106826,1,2,0:0:0:0:
21,182,107156,6,0,B|65:172|85:196|83:200|104:224|165:208,1,136,4|8,3:2|0:0,0:0:0:0:
270,91,107815,2,0,P|284:60|315:41,1,68,2|0,3:2|3:0,0:0:0:0:
399,40,108145,1,8,0:0:0:0:
460,99,108310,6,0,P|488:148|484:233,1,136,2|0,3:2|3:0,0:0:0:0:
402,239,108804,1,8,0:0:0:0:
325,202,108969,2,0,P|297:251|301:336,1,136,2|0,3:2|3:0,0:0:0:0:
383,342,109464,2,0,P|407:356|450:354,1,68,8|0,0:0|0:0,0:0:0:0:
459,270,109793,6,0,B|458:223|482:207|484:209|505:191|503:142,1,136,2|8,3:2|0:0,0:0:0:0:
369,38,110453,2,0,P|358:68|327:92,1,68,2|0,3:2|3:0,0:0:0:0:
251,121,110782,1,8,0:0:0:0:
178,76,110947,6,0,P|132:43|40:24,1,136,2|0,3:2|3:0,0:0:0:0:
14,98,111442,1,8,0:0:0:0:
64,166,111607,2,0,P|31:211|12:304,1,136,0|0,3:0|3:0,0:0:0:0:
86,330,112101,2,0,P|102:307|112:261,1,68,8|0,0:0|0:0,0:0:0:0:
155,195,112431,6,0,P|216:189|258:130,1,136,6|8,3:2|0:0,0:0:0:0:
400,39,113090,2,0,P|385:67|398:104,1,68,2|0,3:2|3:0,0:0:0:0:
430,178,113419,1,8,0:0:0:0:
506,215,113585,6,0,P|512:248|514:291,2,68,0|2|0,3:0|0:0|3:0,0:0:0:0:
501,130,114079,1,8,0:0:0:0:
508,45,114244,2,0,P|452:9|386:28,1,136,2|0,3:2|3:0,0:0:0:0:
315,69,114738,2,0,P|287:87|254:77,1,68,8|0,0:0|0:0,0:0:0:0:
174,50,115068,6,0,B|124:65|109:40|109:39|92:11|38:26,1,136,6|8,3:2|0:0,0:0:0:0:
30,193,115727,2,0,P|69:192|104:203,1,68,2|0,3:2|3:0,0:0:0:0:
170,243,116057,1,8,0:0:0:0:
206,318,116222,6,0,L|62:361,1,136,6|0,3:2|0:0,0:0:0:0:
22,290,116716,1,12,0:0:0:0:
53,122,117046,2,0,L|42:86,2,34,8|8|8,0:0|0:0|0:0,0:0:0:0:
130,86,117376,2,0,L|140:50,3,34,0|0|0|0,3:0|3:0|3:0|3:0,0:0:0:0:
149,21,117705,5,10,0:0:0:0:
227,54,117870,1,10,0:0:0:0:
294,2,118035,1,10,0:0:0:0:
462,21,118365,2,0,P|477:31|489:51,3,34,0|0|0|0,3:0|3:0|3:0|3:0,0:0:0:0:
501,73,118694,1,0,3:0:0:0:
418,92,118859,6,0,B|433:144|412:162|408:159|383:172|400:227,1,136,10|8,0:0|0:0,0:0:0:0:
409,304,119354,1,10,0:0:0:0:
409,304,120013,2,0,P|381:325|348:323,1,68,2|0,0:0|0:0,0:0:0:0:
311,246,120343,5,10,0:0:0:0:
227,229,120508,1,10,0:0:0:0:
199,147,120672,1,10,0:0:0:0:
44,103,121002,1,8,0:0:0:0:
44,103,121085,1,8,0:0:0:0:
44,103,121167,2,0,P|35:117|16:127,2,34,8|8|8,0:0|0:0|0:0,0:0:0:0:
125,70,121497,6,0,P|174:66|227:37,1,102,6|0,3:2|0:0,0:0:0:0:
220,42,121826,2,0,P|244:63|283:74,1,68,6|2,3:2|0:0,0:0:0:0:
342,18,122156,1,10,0:0:0:0:
427,14,122321,2,0,P|443:18|455:29,3,34,0|0|0|0,3:0|3:0|3:0|3:0,0:0:0:0:
473,59,122651,2,0,P|468:75|457:87,3,34,2|0|0|0,3:2|3:0|3:0|3:0,0:0:0:0:
428,105,122980,6,0,B|418:146|437:176|439:173|456:197|441:241,2,136,6|8|2,3:2|0:0|3:2,0:0:0:0:
350,69,123804,1,0,3:0:0:0:
292,132,123969,1,8,0:0:0:0:
134,196,124299,6,0,L|65:183,1,68,2|0,3:2|0:0,0:0:0:0:
16,250,124629,2,0,P|19:313|91:322,1,136,14|0,0:0|3:0,0:0:0:0:
152,281,125123,1,2,0:0:0:0:
235,299,125288,1,8,0:0:0:0:
314,246,125453,5,8,0:0:0:0:
314,246,125535,1,8,0:0:0:0:
314,246,125618,2,0,L|383:233,2,68,6|0|8,3:2|3:0|0:0,0:0:0:0:
295,156,126112,2,0,L|282:89,1,68,2|8,3:2|0:0,0:0:0:0:
312,8,126442,1,0,3:0:0:0:
372,70,126607,2,0,L|438:57,1,68,10|0,0:0|3:0,0:0:0:0:
499,115,126936,6,0,P|486:130|459:133,3,34,0|0|10|0,3:0|3:0|0:0|3:0,0:0:0:0:
443,142,127266,2,0,P|449:160|438:185,3,34,0|0|2|0,3:0|3:0|3:2|3:0,0:0:0:0:
438,203,127596,2,0,P|457:206|473:228,3,34,0|0|0|0,3:0|3:0|3:0|3:0,0:0:0:0:
488,237,127925,1,2,3:2:0:0:
370,360,128255,6,0,P|323:349|293:271,1,136,6|8,3:2|0:0,0:0:0:0:
300,188,128749,2,0,P|291:156|261:144,1,68,2|0,0:0|3:0,0:0:0:0:
214,72,129079,1,0,3:0:0:0:
129,77,129244,1,8,0:0:0:0:
90,153,129409,1,0,3:0:0:0:
17,306,129738,6,0,B|69:297|84:320|81:324|94:350|144:338,1,136,2|0,0:0|0:0,0:0:0:0:
224,376,130233,1,0,3:0:0:0:
224,376,130398,1,0,3:0:0:0:
213,291,130563,1,10,0:0:0:0:
208,121,130892,6,0,P|212:81|225:45,1,68,0|0,3:0|0:0,0:0:0:0:
298,19,131222,1,8,0:0:0:0:
381,33,131387,2,0,P|373:103|350:168,1,136,2|0,0:0|0:0,0:0:0:0:
363,248,131881,2,0,P|328:244|295:232,1,68,8|0,0:0|0:0,0:0:0:0:
213,215,132211,6,0,B|166:203|153:231|147:229|126:259|79:245,2,136,2|8|2,3:2|0:0|3:2,0:0:0:0:
204,299,133035,1,0,3:0:0:0:
286,338,133200,2,0,L|395:352,1,102,12|0,0:0|0:0,0:0:0:0:
387,350,133530,6,0,B|434:362|447:334|453:336|474:306|521:320,1,136,4|8,3:2|0:0,0:0:0:0:
504,233,134024,2,0,P|495:199|492:158,1,68,2|0,0:0|3:0,0:0:0:0:
407,182,134354,1,0,3:0:0:0:
369,105,134519,1,10,0:0:0:0:
225,14,134848,6,0,P|151:26|117:81,2,136,0|10|0,3:0|0:0|3:0,0:0:0:0:
205,96,135672,1,0,3:0:0:0:
287,74,135837,1,10,0:0:0:0:
387,211,136167,6,0,B|341:227|323:213|325:209|304:186|254:201,1,136,6|8,3:2|0:0,0:0:0:0:
267,285,136662,1,2,0:0:0:0:
182,296,136826,1,0,3:0:0:0:
182,296,136990,1,0,3:0:0:0:
171,211,137156,2,0,P|169:174|164:140,1,68,8|2,0:0|0:0,0:0:0:0:
89,101,137486,6,0,P|70:102|53:104,3,34,10|0|0|0,0:0|3:0|3:0|3:0,0:0:0:0:
29,126,137815,2,0,P|31:163|36:197,1,68,14|0,0:0|3:0,0:0:0:0:
60,275,138145,2,0,P|82:277|96:278,3,34,10|8|8|8,0:0|0:0|0:0|0:0,0:0:0:0:
120,300,138474,2,0,P|118:337|113:371,1,68,0|0,3:0|3:0,0:0:0:0:
198,381,138804,6,0,P|262:358|347:351,1,136,6|8,3:2|0:0,0:0:0:0:
364,272,139299,1,2,0:0:0:0:
282,276,139464,1,0,3:0:0:0:
282,276,139629,1,0,3:0:0:0:
321,201,139793,6,0,P|309:169|306:126,1,68,10|0,0:0|0:0,0:0:0:0:
261,61,140123,2,0,P|293:49|335:46,1,68,0|0,3:0|0:0,0:0:0:0:
401,1,140453,2,0,P|412:33|416:75,1,68,10|0,0:0|0:0,0:0:0:0:
505,67,140782,1,0,3:0:0:0:
505,67,140947,1,0,3:0:0:0:
461,141,141112,1,10,0:0:0:0:
509,303,141442,6,0,P|515:331|481:357,1,68,0|0,3:0|0:0,0:0:0:0:
404,369,141771,2,0,P|376:375|350:341,1,68,10|0,0:0|0:0,0:0:0:0:
275,319,142101,1,0,3:0:0:0:
275,319,142266,1,0,3:0:0:0:
338,264,142430,2,0,P|332:236|366:210,1,68,10|0,0:0|0:0,0:0:0:0:
379,127,142760,6,0,B|408:93|379:65|377:68|352:40|373:0,2,136,0|10|0,3:0|0:0|3:0,0:0:0:0:
297,101,143585,1,0,3:0:0:0:
214,120,143749,2,0,L|220:15,1,102,12|0,0:0|0:0,0:0:0:0:
219,18,144079,6,0,P|161:41|82:34,1,136,4|10,3:2|0:0,0:0:0:0:
4,51,144574,1,0,3:0:0:0:
23,140,144738,1,0,3:0:0:0:
23,140,144902,1,0,3:0:0:0:
108,125,145068,2,0,P|119:154|115:193,1,68,10|0,0:0|0:0,0:0:0:0:
44,231,145398,6,0,B|58:275|40:299|37:297|13:314|33:374,1,136,0|10,3:0|0:0,0:0:0:0:
112,344,145892,1,0,3:0:0:0:
154,270,146057,2,0,P|188:275|222:298,1,68,0|0,3:0|0:0,0:0:0:0:
266,361,146387,2,0,P|300:356|334:333,1,68,10|0,0:0|0:0,0:0:0:0:
363,260,146716,6,0,P|338:205|353:133,1,136,14|0,0:0|3:0,0:0:0:0:
438,132,147211,2,0,P|450:159|443:195,1,68,8|2,0:0|0:0,0:0:0:0:
504,254,147541,1,0,3:0:0:0:
509,342,147705,2,0,P|465:361|408:350,1,102,10|0,0:0|0:0,0:0:0:0:
413,352,148035,6,0,P|279:292|100:327,1,326.4,6|2,3:2|0:0,0:0:0:0:
105,152,149354,2,0,P|119:118|111:73,2,81.6,2|2|2,0:0|0:0|0:0,0:0:0:0:
28,188,150013,5,2,0:0:0:0:
29,281,150177,1,0,3:0:0:0:
29,281,150260,1,0,3:0:0:0:
29,281,150342,2,0,L|107:286,1,68,12|0,0:0|0:0,0:0:0:0:
158,225,150672,2,0,L|197:227,3,34,10|8|8|8,0:0|0:0|0:0|0:0,0:0:0:0:
224,229,151002,1,8,0:0:0:0:
355,121,151331,6,0,B|365:88|349:72|348:71|333:56|350:6,2,102,6|2|2,3:2|3:2|3:2,0:0:0:0:
417,179,151991,1,0,3:0:0:0:
475,117,152155,1,2,3:2:0:0:
475,117,152238,1,0,3:0:0:0:
475,117,152320,2,0,P|483:124|495:148,3,34,0|0|0|0,3:0|3:0|3:0|3:0,0:0:0:0:
503,180,152650,6,0,P|494:221|435:311,1,149.60000456543,6|0,3:2|3:0,0:0:0:0:
350,345,153144,2,0,P|309:358|202:352,1,149.60000456543,2|0,0:0|0:0,0:0:0:0:
130,294,153639,1,0,3:0:0:0:
72,368,153804,1,2,0:0:0:0:
36,280,153969,6,0,P|27:243|31:206,1,74.8000022827149,0|0,3:0|0:0,0:0:0:0:
7,115,154298,2,0,P|43:106|81:110,1,74.8000022827149,2|0,3:2|0:0,0:0:0:0:
172,86,154628,2,0,P|180:122|177:160,1,74.8000022827149,0|0,3:0|0:0,0:0:0:0:
201,251,154958,2,0,P|164:259|127:256,1,74.8000022827149,2|0,3:2|0:0,0:0:0:0:
103,346,155287,6,0,B|154:337|181:362|176:365|202:386|249:360,1,149.60000456543,6|0,3:2|3:0,0:0:0:0:
339,360,155782,1,2,0:0:0:0:
294,277,155947,2,0,B|285:226|310:199|313:204|334:178|308:131,1,149.60000456543,0|0,3:0|3:0,0:0:0:0:
260,54,156441,6,0,P|295:35|317:2,1,74.8000022827149,2|0,0:0|3:0,0:0:0:0:
409,10,156771,2,0,P|447:80|513:124,1,149.60000456543,2|0,0:0|0:0,0:0:0:0:
499,214,157265,1,0,3:0:0:0:
412,179,157430,5,2,0:0:0:0:
319,192,157595,1,0,3:0:0:0:
332,285,157760,1,2,0:0:0:0:
425,272,157925,1,4,3:2:0:0:
261,362,158254,6,0,P|237:335|197:318,1,74.8000022827149,2|0,3:2|0:0,0:0:0:0:
120,272,158584,2,0,P|66:282|14:322,1,112.200003424072,4|0,3:2|0:0,0:0:0:0:
20,315,158914,2,0,L|6:242,1,74.8000022827149,10|0,0:0|0:0,0:0:0:0:
76,181,159243,5,10,0:0:0:0:
7,117,159408,1,0,3:0:0:0:
7,117,159491,1,0,3:0:0:0:
7,117,159573,1,14,0:0:0:0:
46,31,159738,1,2,3:2:0:0:
139,42,159903,2,0,B|176:20|194:37|194:39|214:50|253:22,2,112.200003424072,10|2|0,0:0|3:2|3:0,0:0:0:0:
158,134,160562,6,0,P|220:157|265:232,1,149.60000456543,6|0,3:2|3:0,0:0:0:0:
194,288,161056,1,2,0:0:0:0:
282,317,161221,2,0,B|344:293|389:337|384:343|432:379|501:354,1,224.400006848145,0|0,3:0|0:0,0:0:0:0:
463,267,161881,6,0,P|459:188|467:112,1,149.60000456543,2|0,3:2|3:0,0:0:0:0:
431,30,162375,2,0,P|352:34|276:26,1,149.60000456543,2|0,0:0|0:0,0:0:0:0:
194,62,162870,2,0,P|196:101|192:139,1,74.8000022827149,2|0,3:2|0:0,0:0:0:0:
239,217,163199,6,0,P|317:211|369:268,1,149.60000456543,2|0,3:2|3:0,0:0:0:0:
338,347,163694,2,0,P|260:353|208:296,1,149.60000456543,2|0,0:0|0:0,0:0:0:0:
143,369,164188,1,0,3:0:0:0:
63,324,164353,1,2,0:0:0:0:
81,234,164518,6,0,P|118:226|154:224,1,74.8000022827149,0|0,3:0|0:0,0:0:0:0:
248,219,164848,2,0,P|240:182|238:146,1,74.8000022827149,2|0,3:2|0:0,0:0:0:0:
331,139,165177,2,0,P|328:101|321:65,1,74.8000022827149,0|0,3:0|0:0,0:0:0:0:
415,60,165507,2,0,P|452:57|488:50,1,74.8000022827149,2|0,3:2|0:0,0:0:0:0:
510,141,165837,6,0,P|507:182|410:190,1,149.60000456543,6|0,3:2|3:0,0:0:0:0:
344,256,166331,1,2,0:0:0:0:
253,230,166496,2,0,P|250:189|153:181,1,149.60000456543,0|0,3:0|3:0,0:0:0:0:
87,115,166991,6,0,P|69:149|68:190,1,74.8000022827149,2|0,0:0|3:0,0:0:0:0:
7,256,167320,2,0,P|47:321|117:363,1,149.60000456543,2|0,0:0|0:0,0:0:0:0:
180,300,167815,1,0,3:0:0:0:
240,373,167980,5,2,0:0:0:0:
334,359,168144,1,8,0:0:0:0:
368,272,168310,1,2,0:0:0:0:
274,286,168474,1,6,3:2:0:0:
238,98,168804,6,0,P|230:62|219:26,1,74.8000022827149,14|0,0:0|0:0,0:0:0:0:
128,51,169133,2,0,P|136:87|147:123,2,74.8000022827149,0|2|8,3:0|0:0|0:0,0:0:0:0:
38,22,169628,5,8,0:0:0:0:
38,22,169710,1,8,0:0:0:0:
38,22,169793,2,0,L|13:98,1,74.8000022827149,8|0,0:0|0:0,0:0:0:0:
36,183,170122,1,8,0:0:0:0:
125,212,170286,1,10,0:0:0:0:
155,310,170452,1,8,0:0:0:0:
155,310,170534,1,8,0:0:0:0:
155,310,170617,2,0,L|167:348,2,37.4000011413575,10|8|8,0:0|0:0|0:0,0:0:0:0:
225,247,170947,5,8,0:0:0:0:
225,247,171029,1,8,0:0:0:0:
225,247,171111,2,0,B|221:194|246:181|250:184|270:167|268:116,1,136,6|8,3:2|0:0,0:0:0:0:
263,37,171606,1,2,0:0:0:0:
352,36,171771,1,0,3:0:0:0:
352,36,171936,1,0,3:0:0:0:
357,121,172100,6,0,L|431:138,1,68,10|0,0:0|0:0,0:0:0:0:
495,182,172430,2,0,L|478:256,1,68,0|0,3:0|0:0,0:0:0:0:
434,320,172760,2,0,L|360:303,1,68,10|0,0:0|0:0,0:0:0:0:
296,259,173089,1,0,3:0:0:0:
296,259,173254,1,0,3:0:0:0:
297,351,173419,1,10,0:0:0:0:
128,376,173749,6,0,P|97:359|82:324,1,68,0|0,3:0|0:0,0:0:0:0:
2,301,174078,2,0,P|-7:267|6:231,1,68,10|0,0:0|0:0,0:0:0:0:
13,152,174408,1,0,3:0:0:0:
13,152,174573,1,0,3:0:0:0:
84,213,174738,2,0,P|101:182|136:167,1,68,10|0,0:0|0:0,0:0:0:0:
185,231,175067,6,0,P|245:229|328:199,2,136,0|10|0,3:0|0:0|3:0,0:0:0:0:
211,149,175892,1,0,3:0:0:0:
286,110,176056,2,0,L|292:4,1,102,12|0,0:0|0:0,0:0:0:0:
291,8,176386,6,0,B|253:-3|230:18|234:18|209:40|157:32,1,136,4|10,3:2|0:0,0:0:0:0:
79,9,176881,1,0,3:0:0:0:
32,80,177045,1,0,3:0:0:0:
32,80,177209,1,0,3:0:0:0:
85,146,177375,2,0,P|92:180|93:214,1,68,10|0,0:0|0:0,0:0:0:0:
177,224,177705,6,0,P|189:158|235:105,1,136,0|10,3:0|0:0,0:0:0:0:
316,91,178199,1,0,3:0:0:0:
369,24,178364,2,0,P|402:30|428:53,1,68,0|0,3:0|3:0,0:0:0:0:
494,104,178694,2,0,P|488:137|465:163,1,68,10|0,0:0|0:0,0:0:0:0:
413,229,179023,6,0,B|398:274|419:296|422:293|443:316|428:366,1,136,4|10,3:2|0:0,0:0:0:0:
346,341,179518,1,0,3:0:0:0:
266,369,179683,1,0,3:0:0:0:
266,369,179848,1,0,3:0:0:0:
281,285,180013,2,0,P|277:251|268:214,1,68,10|0,0:0|0:0,0:0:0:0:
262,202,180260,1,0,3:0:0:0:
251,189,180342,6,0,L|268:48,1,136,4|10,3:2|0:0,0:0:0:0:
97,22,181002,5,8,0:0:0:0:
97,22,181084,1,8,0:0:0:0:
97,22,181166,1,8,0:0:0:0:
87,106,181331,1,10,0:0:0:0:
77,190,181496,1,8,0:0:0:0:
10,242,181661,6,0,P|38:273|124:263,1,136,6|8,3:2|0:0,0:0:0:0:
194,214,182155,1,2,0:0:0:0:
275,255,182320,1,0,3:0:0:0:
275,255,182485,1,0,3:0:0:0:
345,207,182650,6,0,P|378:207|412:220,1,68,10|0,0:0|0:0,0:0:0:0:
428,135,182980,2,0,P|428:102|441:68,1,68,0|0,3:0|0:0,0:0:0:0:
356,52,183309,2,0,P|323:52|289:39,1,68,10|0,0:0|0:0,0:0:0:0:
211,66,183639,1,0,3:0:0:0:
211,66,183804,1,0,3:0:0:0:
273,124,183969,1,10,0:0:0:0:
233,289,184298,6,0,P|211:317|180:323,1,68,0|0,3:0|0:0,0:0:0:0:
101,354,184628,2,0,P|65:348|45:325,1,68,10|0,0:0|0:0,0:0:0:0:
119,268,184958,1,0,3:0:0:0:
119,268,185122,1,0,3:0:0:0:
32,245,185287,2,0,P|18:211|29:182,1,68,10|0,0:0|0:0,0:0:0:0:
100,136,185617,6,0,B|98:87|76:73|73:76|49:64|43:11,2,136,0|10|0,3:0|0:0|3:0,0:0:0:0:
178,169,186441,1,0,3:0:0:0:
252,124,186606,2,0,L|265:17,1,102,12|0,0:0|0:0,0:0:0:0:
264,23,186936,6,0,P|319:8|393:45,1,136,4|10,3:2|0:0,0:0:0:0:
473,31,187430,1,0,3:0:0:0:
485,120,187595,1,0,3:0:0:0:
485,120,187760,1,0,3:0:0:0:
396,132,187925,2,0,P|368:139|331:120,1,68,10|0,0:0|0:0,0:0:0:0:
248,125,188254,6,0,B|263:173|246:196|239:193|213:210|229:261,1,136,0|10,3:0|0:0,0:0:0:0:
231,338,188749,1,0,3:0:0:0:
314,353,188914,2,0,P|347:360|389:358,1,68,0|0,3:0|3:0,0:0:0:0:
465,366,189243,2,0,P|472:333|470:291,1,68,10|0,0:0|0:0,0:0:0:0:
478,215,189573,5,0,3:0:0:0:
414,57,189903,1,14,0:0:0:0:
345,7,190067,1,0,0:0:0:0:
268,42,190232,1,0,3:0:0:0:
268,42,190397,1,0,3:0:0:0:
259,126,190562,2,0,P|291:145|332:150,1,68,10|0,0:0|0:0,0:0:0:0:
350,240,190892,5,8,0:0:0:0:
350,240,190974,1,8,0:0:0:0:
350,240,191056,1,8,0:0:0:0:
257,232,191221,2,0,P|238:264|233:305,1,68,14|0,0:0|0:0,0:0:0:0:
171,353,191551,2,0,P|183:364|191:379,2,34,0|0|0,3:0|3:0|3:0,0:0:0:0:
150,270,191881,2,0,P|133:275|117:274,2,34,10|0|8,0:0|3:0|0:0,0:0:0:0:
178,189,192210,5,6,3:2:0:0:
