osu file format v14

[General]
AudioFilename: audio.mp3
AudioLeadIn: 0
PreviewTime: 63557
Countdown: 0
SampleSet: Soft
StackLeniency: 0.8
Mode: 0
LetterboxInBreaks: 0
WidescreenStoryboard: 1

[Editor]
Bookmarks: 1662,12211,22760,33310,43859,54409,64958,75508,86057,96607,101881,107156,117705,128255,138804,149354,160562,171111,181661,192210
DistanceSpacing: 1
BeatDivisor: 4
GridSize: 32
TimelineZoom: 0.7

[Metadata]
Title:Eternal Bliss
TitleUnicode:Eternal Bliss
Artist:Emiru no Aishita Tsukiyo ni Dai San Gensou Kyoku wo
ArtistUnicode:エミルの愛した月夜に第III幻想曲を
Creator:Hinsvar
Version:Easy
Source:
Tags:Emiru3 Emille's Moonlight Serenade EMS Japanese Rock J-Rock JRock gothic symphonic Pop J-Pop JPop Fallen サラ SALA SARA いばら IBARA Featured Artist FA Mappers' Guild MG MPG
BeatmapID:4538355
BeatmapSetID:2153172

[Difficulty]
HPDrainRate:2
CircleSize:2
OverallDifficulty:2
ApproachRate:4
SliderMultiplier:0.96
SliderTickRate:1

[Events]
//Background and Video events
0,0,"BG.jpg",0,0
//Break Periods
2,96807,100561
//Storyboard Layer 0 (Background)
//Storyboard Layer 1 (Fail)
//Storyboard Layer 2 (Pass)
//Storyboard Layer 3 (Foreground)
//Storyboard Layer 4 (Overlay)
//Storyboard Sound Samples

[TimingPoints]
1662,329.67032967033,4,2,1,70,1,0
6936,-111.111111111111,4,2,1,60,0,0
8255,-111.111111111111,4,2,1,65,0,0
11387,-111.111111111111,4,2,1,60,0,0
12211,-100,4,2,1,70,0,0
33310,-100,4,2,1,60,0,0
43859,-100,4,2,1,70,0,0
64958,-95.2380952380952,4,2,1,80,0,1
74848,-95.2380952380952,4,2,1,80,0,0
75508,-95.2380952380952,4,2,1,80,0,1
86057,-100,4,2,1,70,0,0
96607,-100,4,2,1,60,0,0
107156,-100,4,2,1,70,0,0
148035,-111.111111111111,4,2,1,65,0,0
149354,-111.111111111111,4,2,1,60,0,0
150013,329.67032967033,4,2,1,60,1,8
150177,-100,4,2,1,70,0,8
152650,-95.2380952380952,4,2,1,80,0,9
159903,-95.2380952380952,4,2,1,80,0,8
160562,-95.2380952380952,4,2,1,80,0,9
171111,-100,4,2,1,70,0,8

[Colours]
Combo1 : 176,230,123
Combo2 : 235,245,109
Combo3 : 139,253,111
Combo4 : 231,220,120

[HitObjects]
256,192,1662,5,4,3:2:0:0:
256,192,4299,1,4,3:2:0:0:
256,192,5618,5,4,3:2:0:0:
139,344,6277,2,0,P|93:359|40:356,1,96,2|2,3:2|3:2,0:0:0:0:
41,262,6936,6,0,B|10:208|37:176|39:181|70:144|46:90,1,172.799994726563,6|2,3:2|3:2,0:0:0:0:
221,17,8255,2,0,B|256:1|283:24|280:25|304:46|344:22,2,129.599996044922,4|4|8,3:2|3:2|0:0,0:0:0:0:
170,97,9574,5,8,0:0:0:0:
214,182,9903,2,0,P|193:219|159:254,2,86.3999973632813,10|0|2,0:0|3:0|3:2,0:0:0:0:
309,186,10892,1,4,3:2:0:0:
64,333,11881,1,8,0:0:0:0:
156,359,12211,6,0,P|252:360|341:310,1,192,6|0,3:2|3:0,0:0:0:0:
423,352,13200,2,0,P|438:306|428:256,1,96,10|0,0:0|3:0,0:0:0:0:
490,187,13859,2,0,P|451:158|400:152,1,96,10|0,0:0|3:0,0:0:0:0:
309,164,14519,1,10,0:0:0:0:
214,177,14848,6,0,L|226:277,2,96,0|10|0,3:0|0:0|3:0,0:0:0:0:
201,82,15837,2,0,L|101:94,1,96,10|0,0:0|3:0,0:0:0:0:
10,106,16497,2,0,L|34:306,1,192,10|12,0:0|0:0,0:0:0:0:
129,285,17486,5,4,3:2:0:0:
225,272,17815,1,10,0:0:0:0:
306,97,18475,2,0,P|316:57|310:3,2,96,10|0|10,0:0|3:0|0:0,0:0:0:0:
417,254,19793,1,10,0:0:0:0:
496,304,20123,6,0,L|433:383,1,96,4|10,3:2|0:0,0:0:0:0:
340,379,20782,2,0,L|261:315,1,96,0|10,3:0|0:0,0:0:0:0:
265,222,21442,1,6,3:2:0:0:
358,202,21771,2,0,P|381:162|370:115,1,96,10|8,0:0|0:0,0:0:0:0:
285,72,22431,1,10,0:0:0:0:
198,28,22760,6,0,P|152:25|97:40,2,96,4|10|0,3:2|0:0|3:0,0:0:0:0:
206,123,23749,2,0,P|159:134|111:131,1,96,10|0,0:0|3:0,0:0:0:0:
26,175,24409,2,0,P|37:221|34:269,1,96,10|0,0:0|3:0,0:0:0:0:
78,355,25068,1,10,0:0:0:0:
172,346,25398,6,0,L|190:250,2,96,0|10|0,3:0|0:0|3:0,0:0:0:0:
263,376,26387,2,0,L|353:344,1,96,10|0,0:0|3:0,0:0:0:0:
333,250,27046,2,0,L|174:113,1,192,10|14,0:0|0:0,0:0:0:0:
164,31,28035,5,4,3:2:0:0:
258,11,28365,1,10,0:0:0:0:
426,102,29024,2,0,P|474:98|509:68,2,96,10|0|10,0:0|3:0|0:0,0:0:0:0:
262,202,30343,1,10,0:0:0:0:
247,295,30672,6,0,L|150:326,1,96,4|10,3:2|0:0,0:0:0:0:
122,234,31332,2,0,L|90:137,1,96,0|10,3:0|0:0,0:0:0:0:
183,110,31991,1,4,3:2:0:0:
275,136,32321,2,0,L|332:52,2,96,10|8|10,0:0|0:0|0:0,0:0:0:0:
337,209,33310,5,4,3:2:0:0:
420,256,33640,1,0,3:0:0:0:
490,191,33969,2,0,P|496:134|475:50,1,144,0|2,3:0|0:0,0:0:0:0:
383,22,34793,2,0,P|345:18|289:31,2,96,2|2|0,0:0|0:0|0:0,0:0:0:0:
350,175,35947,6,0,B|299:210|258:177|263:173|218:139|163:158,2,192,4|2|0,3:2|3:2|3:0,0:0:0:0:
361,280,37596,1,0,3:0:0:0:
165,360,38255,1,2,3:2:0:0:
60,371,38585,6,0,B|19:311|56:229|62:230|90:156|46:82,1,288,4|2,3:2|3:2,0:0:0:0:
145,45,39903,2,0,B|177:25|214:39|213:42|254:61|284:40,2,144,0|2|2,3:0|0:0|3:2,0:0:0:0:
177,145,41222,6,0,P|205:194|292:199,1,144,0|2,3:0|0:0,0:0:0:0:
357,123,42046,1,2,0:0:0:0:
436,194,42376,1,2,0:0:0:0:
204,365,43200,2,0,P|194:316|191:265,1,96,0|8,3:0|0:0,0:0:0:0:
187,174,43859,5,4,3:2:0:0:
260,111,44189,1,8,0:0:0:0:
222,22,44519,2,0,B|177:12|158:38|159:36|133:61|83:49,1,144,2|2,3:2|3:2,0:0:0:0:
7,105,45343,2,0,B|0:134|17:147|16:146|32:164|24:197,2,96,0|2|0,3:0|3:2|3:0,0:0:0:0:
155,161,46497,6,0,P|190:193|202:247,1,96,6|8,3:2|0:0,0:0:0:0:
298,238,47156,2,0,P|313:168|374:112,1,144,2|2,3:2|3:2,0:0:0:0:
451,156,47980,1,0,3:0:0:0:
475,249,48310,2,0,P|459:318|398:374,1,144,0|8,3:0|0:0,0:0:0:0:
322,331,49134,5,6,3:2:0:0:
133,365,49793,1,2,3:2:0:0:
52,312,50123,1,8,0:0:0:0:
57,216,50453,2,0,B|68:163|50:143|47:145|22:125|37:66,2,144,2|2|8,0:0|3:2|0:0,0:0:0:0:
138,269,51771,6,0,B|183:239|184:212|181:212|177:179|229:148,1,144,6|0,3:2|0:0,0:0:0:0:
307,194,52596,1,2,3:2:0:0:
385,138,52925,2,0,P|415:82|359:30,1,144,6|12,3:2|0:0,0:0:0:0:
270,41,53749,2,0,P|232:21|198:58,1,96,8|0,0:0|3:0,0:0:0:0:
208,149,54409,5,10,0:0:0:0:
112,159,54738,1,10,0:0:0:0:
72,247,55068,2,0,B|68:285|41:311|36:308|4:333|2:374,2,144,0|10|10,3:0|0:0|0:0,0:0:0:0:
304,77,57046,5,10,0:0:0:0:
400,87,57375,1,10,0:0:0:0:
440,175,57705,1,8,0:0:0:0:
302,253,58200,2,0,B|306:291|333:317|338:314|370:339|372:380,1,144,6|6,3:2|0:0,0:0:0:0:
456,330,59024,2,0,B|458:304|476:287|479:289|501:272|502:248,1,96,0|2,3:0|3:2,0:0:0:0:
440,175,59683,6,0,P|425:94|481:54,2,144,6|0|8,3:2|0:0|0:0,0:0:0:0:
379,249,61002,1,2,3:2:0:0:
285,234,61332,2,0,P|270:190|225:180,1,96,12|0,0:0|3:0,0:0:0:0:
40,183,62321,5,6,3:2:0:0:
26,278,62651,2,0,P|18:323|14:373,2,96,8|8|10,0:0|0:0|0:0,0:0:0:0:
121,292,63640,2,0,P|166:300|216:304,1,96,10|2,0:0|3:2,0:0:0:0:
230,209,64299,1,2,0:0:0:0:
401,103,64958,6,0,P|429:57|469:31,2,100.799996923828,6|0|0,3:2|3:0|3:0,0:0:0:0:
199,115,66277,2,0,B|145:90|143:61|148:61|146:34|80:10,2,151.199995385742,2|2|2,3:2|0:0|3:2,0:0:0:0:
153,204,67596,6,0,B|104:237|79:225|80:220|56:209|3:254,2,151.199995385742,2|2|0,3:2|0:0|3:0,0:0:0:0:
207,288,68914,1,0,3:0:0:0:
307,284,69244,2,0,P|328:333|319:378,2,100.799996923828,2|0|2,3:2|3:0|3:2,0:0:0:0:
353,195,70233,6,0,P|405:201|480:84,1,201.599993847656,6|0,3:2|3:0,0:0:0:0:
402,29,71222,2,0,P|362:24|306:112,2,151.199995385742,0|2|0,3:0|0:0|3:0,0:0:0:0:
481,92,72541,1,8,0:0:0:0:
466,192,72870,6,0,P|469:241|485:301,2,100.799996923828,4|2|0,3:2|3:2|3:0,0:0:0:0:
371,226,73859,1,14,0:0:0:0:
270,218,74189,2,0,P|282:266|285:317,1,100.799996923828,10|14,0:0|0:0,0:0:0:0:
193,357,74848,1,10,0:0:0:0:
92,181,75508,6,0,P|53:147|4:137,2,100.799996923828,6|0|0,3:2|3:0|3:0,0:0:0:0:
290,122,76826,2,0,B|341:105|350:77|343:76|348:37|404:21,2,151.199995385742,2|2|2,3:2|0:0|3:2,0:0:0:0:
305,221,78145,6,0,B|322:272|350:281|352:274|391:280|406:335,2,151.199995385742,2|2|0,3:2|0:0|3:0,0:0:0:0:
206,236,79464,1,0,3:0:0:0:
191,138,79793,2,0,P|184:88|169:36,2,100.799996923828,2|0|2,3:2|3:0|3:2,0:0:0:0:
113,202,80782,6,0,P|31:217|2:325,1,201.599993847656,6|0,3:2|3:0,0:0:0:0:
85,376,81771,2,0,P|146:364|168:284,2,151.199995385742,0|2|0,3:0|0:0|3:0,0:0:0:0:
0,320,83090,1,8,0:0:0:0:
6,219,83420,1,6,3:2:0:0:
96,174,83749,5,14,0:0:0:0:
102,73,84079,2,0,P|174:46|246:68,1,151.199995385742,0|8,3:0|0:0,0:0:0:0:
332,20,84903,2,0,P|371:52|382:101,1,100.799996923828,2|8,0:0|0:0,0:0:0:0:
466,153,85563,1,10,0:0:0:0:
459,311,86057,6,0,B|400:287|367:325|374:329|336:369|275:349,1,192,6|0,3:2|3:0,0:0:0:0:
296,256,87046,2,0,P|288:204|279:159,1,96,10|0,0:0|3:0,0:0:0:0:
185,146,87705,2,0,P|133:154|88:163,1,96,10|0,0:0|3:0,0:0:0:0:
14,221,88365,1,10,0:0:0:0:
73,297,88694,6,0,P|58:341|10:376,2,96,0|10|0,3:0|0:0|3:0,0:0:0:0:
149,238,89683,2,0,P|193:253|228:301,1,96,10|0,0:0|3:0,0:0:0:0:
295,354,90343,2,0,P|378:352|465:290,1,192,10|12,0:0|0:0,0:0:0:0:
485,196,91332,5,4,3:2:0:0:
401,147,91662,1,10,0:0:0:0:
220,81,92321,2,0,P|178:56|155:15,2,96,10|0|10,0:0|3:0|0:0,0:0:0:0:
253,270,93640,1,10,0:0:0:0:
228,362,93969,6,0,L|331:372,1,96,4|10,3:2|0:0,0:0:0:0:
413,336,94629,2,0,L|423:232,1,96,0|10,3:0|0:0,0:0:0:0:
388,152,95288,1,4,3:2:0:0:
292,142,95618,2,0,L|188:132,2,96,10|8|10,0:0|0:0|0:0,0:0:0:0:
348,64,96607,5,4,3:2:0:0:
51,56,101881,6,0,P|194:43|311:126,1,288,6|2,3:2|3:2,0:0:0:0:
331,215,103200,2,0,P|389:254|459:247,2,144,0|2|2,3:0|0:0|3:2,0:0:0:0:
237,191,104519,6,0,B|201:227|215:255|212:257|227:289|191:324,1,144,0|2,3:0|0:0,0:0:0:0:
113,376,105343,2,0,B|77:340|91:312|88:310|103:278|67:243,1,144,2|4,0:0|3:2,0:0:0:0:
444,140,107156,5,4,3:2:0:0:
455,44,107486,1,8,0:0:0:0:
359,33,107815,2,0,P|296:22|221:59,1,144,2|2,3:2|3:2,0:0:0:0:
130,72,108640,2,0,P|83:78|40:57,2,96,0|2|0,3:0|3:2|3:0,0:0:0:0:
249,175,109793,6,0,L|261:274,1,96,2|8,3:2|0:0,0:0:0:0:
233,362,110453,2,0,L|95:303,1,144,2|2,3:2|3:2,0:0:0:0:
34,235,111277,1,0,3:0:0:0:
61,141,111607,2,0,L|198:199,1,144,0|8,3:0|0:0,0:0:0:0:
260,270,112431,5,6,3:2:0:0:
431,356,113090,1,2,3:2:0:0:
510,302,113420,1,8,0:0:0:0:
502,206,113749,2,0,P|502:140|485:60,2,144,2|2|8,0:0|3:2|0:0,0:0:0:0:
423,260,115068,6,0,P|376:213|307:168,1,144,6|0,3:2|0:0,0:0:0:0:
232,225,115892,1,0,3:0:0:0:
145,185,116222,2,0,P|83:161|12:186,1,144,6|12,3:2|0:0,0:0:0:0:
15,282,117046,2,0,P|0:323|16:370,1,96,8|0,0:0|3:0,0:0:0:0:
110,367,117705,5,10,0:0:0:0:
155,284,118035,1,10,0:0:0:0:
250,281,118365,2,0,B|300:275|314:305|311:309|327:335|392:322,2,144,0|10|10,3:0|0:0|0:0,0:0:0:0:
402,17,120343,5,10,0:0:0:0:
357,100,120673,1,10,0:0:0:0:
262,103,121002,1,8,0:0:0:0:
152,217,121497,2,0,B|102:223|88:193|91:189|75:163|10:176,1,144,6|2,3:2|0:0,0:0:0:0:
21,77,122321,2,0,B|56:84|67:67|65:64|74:44|107:48,1,96,0|2,3:0|3:2,0:0:0:0:
203,47,122980,6,0,P|271:42|340:4,2,144,6|0|8,3:2|0:0|0:0,0:0:0:0:
210,142,124299,1,2,3:2:0:0:
203,237,124629,2,0,P|248:239|294:264,1,96,14|0,0:0|3:0,0:0:0:0:
480,208,125618,5,6,3:2:0:0:
477,112,125947,2,0,P|480:63|466:17,2,96,8|8|10,0:0|0:0|0:0,0:0:0:0:
381,115,126936,2,0,P|332:111|286:126,1,96,0|0,3:0|3:0,0:0:0:0:
290,221,127596,1,0,3:0:0:0:
146,347,128255,6,0,P|77:351|21:294,2,144,6|2|8,3:2|0:0|0:0,0:0:0:0:
159,189,129738,2,0,B|178:143|152:113|150:117|122:90|144:49,1,144,2|0,0:0|3:0,0:0:0:0:
232,19,130563,1,10,0:0:0:0:
306,81,130892,5,0,3:0:0:0:
396,47,131222,2,0,P|458:86|470:203,1,192,8|8,0:0|0:0,0:0:0:0:
420,277,132211,2,0,L|431:378,2,96,2|8|2,3:2|0:0|3:2,0:0:0:0:
339,225,133200,1,12,0:0:0:0:
287,306,133530,6,0,P|198:333|120:341,2,144,4|2|10,3:2|0:0|0:0,0:0:0:0:
244,220,134848,2,0,P|196:227|151:242,1,96,0|10,3:0|0:0,0:0:0:0:
55,228,135508,2,0,P|47:180|32:135,1,96,0|10,3:0|0:0,0:0:0:0:
47,37,136167,6,0,B|102:13|142:47|136:50|176:79|231:41,1,192,6|0,3:2|3:0,0:0:0:0:
266,130,137156,2,0,B|290:147|285:173|282:171|280:196|310:210,1,96,8|10,0:0|0:0,0:0:0:0:
383,271,137815,1,14,0:0:0:0:
444,197,138145,1,10,0:0:0:0:
410,8,138804,6,0,P|463:7|511:20,2,96,6|8|0,3:2|0:0|3:0,0:0:0:0:
315,24,139793,2,0,P|304:70|305:118,1,96,10|0,0:0|3:0,0:0:0:0:
210,134,140453,2,0,P|157:135|109:122,1,96,10|0,0:0|3:0,0:0:0:0:
29,167,141112,1,10,0:0:0:0:
72,253,141442,6,0,P|69:298|30:346,2,96,0|10|0,3:0|0:0|3:0,0:0:0:0:
157,209,142431,2,0,P|202:212|250:251,1,96,10|0,0:0|3:0,0:0:0:0:
328,196,143090,2,0,P|357:229|364:291,1,96,10|0,0:0|3:0,0:0:0:0:
458,307,143749,1,12,0:0:0:0:
480,214,144078,5,4,3:2:0:0:
452,124,144408,1,10,0:0:0:0:
266,73,145068,2,0,P|224:52|189:17,2,96,10|0|10,0:0|3:0|0:0,0:0:0:0:
314,259,146387,1,10,0:0:0:0:
304,352,146716,6,0,L|203:354,1,96,14|0,0:0|3:0,0:0:0:0:
113,372,147376,2,0,L|61:284,1,96,2|10,0:0|0:0,0:0:0:0:
1,215,148035,6,0,P|0:131|133:39,1,259.199992089844,6|2,3:2|0:0,0:0:0:0:
220,76,149354,2,0,P|259:35|365:55,1,172.799994726563,2|2,0:0|0:0,0:0:0:0:
438,117,150342,5,12,0:0:0:0:
377,190,150672,1,10,0:0:0:0:
169,227,151331,2,0,B|149:275|171:296|173:292|198:315|180:370,2,144,6|2|0,3:2|3:2|3:0,0:0:0:0:
228,145,152650,6,0,P|282:130|355:64,2,151.199995385742,6|2|0,3:2|0:0|3:0,0:0:0:0:
168,63,153969,1,0,3:0:0:0:
72,95,154298,2,0,P|33:79|7:13,2,100.799996923828,2|0|2,3:2|3:0|3:2,0:0:0:0:
72,196,155287,6,0,P|156:216|252:295,1,201.599993847656,6|0,3:2|3:0,0:0:0:0:
177,360,156276,2,0,P|113:345|42:285,2,151.199995385742,0|2|0,3:0|0:0|3:0,0:0:0:0:
245,286,157595,1,0,3:0:0:0:
214,190,157925,6,0,P|202:139|219:90,2,100.799996923828,4|2|4,3:2|3:2|3:2,0:0:0:0:
313,208,158914,1,10,0:0:0:0:
346,302,159243,2,0,P|396:317|430:356,1,100.799996923828,10|14,0:0|0:0,0:0:0:0:
512,296,159903,1,10,0:0:0:0:
463,100,160562,6,0,P|460:50|487:9,2,100.799996923828,6|0|0,3:2|3:0|3:0,0:0:0:0:
261,94,161881,2,0,B|204:82|195:53|197:50|186:21|115:13,2,151.199995385742,2|2|2,3:2|0:0|3:2,0:0:0:0:
321,174,163199,6,0,B|377:185|386:214|384:217|395:246|466:254,2,151.199995385742,2|2|0,3:2|0:0|3:0,0:0:0:0:
224,204,164518,1,0,3:0:0:0:
284,284,164848,2,0,P|318:316|344:376,2,100.799996923828,2|0|2,3:2|3:0|3:2,0:0:0:0:
193,312,165837,6,0,P|117:358|14:324,1,201.599993847656,6|0,3:2|3:0,0:0:0:0:
31,225,166826,2,0,P|88:190|165:216,2,151.199995385742,0|2|0,3:0|0:0|3:0,0:0:0:0:
15,325,168145,1,8,0:0:0:0:
107,359,168475,1,6,3:2:0:0:
193,312,168804,5,14,0:0:0:0:
284,345,169133,2,0,B|315:302|300:269|298:272|284:240|313:199,1,151.199995385742,0|8,3:0|0:0,0:0:0:0:
302,100,169958,2,0,B|266:96|252:116|255:116|241:134|208:131,1,100.799996923828,2|10,0:0|0:0,0:0:0:0:
126,189,170617,1,10,0:0:0:0:
3,88,171111,6,0,P|60:22|164:30,1,192,6|0,3:2|3:0,0:0:0:0:
253,18,172100,2,0,P|302:25|369:54,1,96,10|0,0:0|3:0,0:0:0:0:
353,135,172760,2,0,P|346:184|317:251,1,96,10|0,0:0|3:0,0:0:0:0:
236,235,173419,1,10,0:0:0:0:
155,287,173749,6,0,P|160:333|193:378,2,96,0|10|0,3:0|0:0|3:0,0:0:0:0:
146,191,174738,2,0,P|103:172|47:178,1,96,10|0,0:0|3:0,0:0:0:0:
5,93,175397,2,0,P|42:64|65:13,1,96,10|0,0:0|3:0,0:0:0:0:
160,19,176056,1,12,0:0:0:0:
198,106,176386,5,4,3:2:0:0:
285,68,176716,1,10,0:0:0:0:
416,207,177375,2,0,P|458:234|515:234,2,96,10|0|10,0:0|3:0|0:0,0:0:0:0:
230,250,178694,1,10,0:0:0:0:
160,310,179023,6,0,L|71:348,1,96,4|10,3:2|0:0,0:0:0:0:
38,257,179683,2,0,L|0:167,1,96,0|10,3:0|0:0,0:0:0:0:
91,134,180342,1,4,3:2:0:0:
179,96,180672,2,0,L|268:57,2,96,10|8|10,0:0|0:0|0:0,0:0:0:0:
172,191,181661,6,0,B|236:194|256:236|248:241|276:278|342:274,1,192,6|0,3:2|3:0,0:0:0:0:
361,367,182650,2,0,P|407:365|452:337,1,96,10|0,0:0|3:0,0:0:0:0:
506,263,183309,2,0,P|504:217|476:172,1,96,10|0,0:0|3:0,0:0:0:0:
402,118,183969,1,10,0:0:0:0:
306,113,184298,6,0,L|289:10,2,96,0|10|0,3:0|0:0|3:0,0:0:0:0:
247,189,185287,2,0,L|262:283,1,96,10|0,0:0|3:0,0:0:0:0:
166,278,185947,2,0,L|150:183,1,96,10|0,0:0|3:0,0:0:0:0:
55,165,186606,1,12,0:0:0:0:
12,251,186936,5,4,3:2:0:0:
79,318,187265,1,10,0:0:0:0:
270,310,187925,2,0,P|315:331|361:366,2,96,10|0|10,0:0|3:0|0:0,0:0:0:0:
167,148,189243,2,0,P|162:98|169:41,1,96,10|0,0:0|3:0,0:0:0:0:
256,16,189902,5,14,0:0:0:0:
351,20,190232,2,0,P|356:70|349:127,1,96,0|10,3:0|0:0,0:0:0:0:
262,152,190891,1,8,0:0:0:0:
207,230,191221,2,0,P|157:235|100:228,2,96,14|0|10,0:0|3:0|0:0,0:0:0:0:
302,240,192210,5,6,3:2:0:0:
