osu file format v14

[General]
AudioFilename: audio.mp3
AudioLeadIn: 0
PreviewTime: 60896
Countdown: 0
SampleSet: Soft
StackLeniency: 0.7
Mode: 0
LetterboxInBreaks: 0
WidescreenStoryboard: 0

[Editor]
DistanceSpacing: 0.9
BeatDivisor: 4
GridSize: 32
TimelineZoom: 1.9

[Metadata]
Title:Cinderella
TitleUnicode:Cinderella
Artist:Emiru no Aishita Tsukiyo ni Dai San Gensou Kyoku wo
ArtistUnicode:エミルの愛した月夜に第III幻想曲を
Creator:Adinda
Version:Illusion
Source:
Tags:metal gothic rock doujin japanese fa featured artist red ribbon m3-41 Emille's Moonlight Serenade サラ Sara 荊 いばら Ibara
BeatmapID:3056312
BeatmapSetID:1490978

[Difficulty]
HPDrainRate:6
CircleSize:4
OverallDifficulty:9
ApproachRate:9.5
SliderMultiplier:1.9
SliderTickRate:1

[Events]
//Background and Video events
0,0,"a.jpg",0,0
//Break Periods
//Storyboard Layer 0 (Background)
//Storyboard Layer 1 (Fail)
//Storyboard Layer 2 (Pass)
//Storyboard Layer 3 (Foreground)
//Storyboard Layer 4 (Overlay)
//Storyboard Sound Samples

[TimingPoints]
964,260.869565217391,4,2,1,40,1,0
964,-100,4,2,1,40,0,0
2920,-222.222222222221,4,2,1,45,0,0
17659,-222.222222222221,4,2,1,80,0,0
19224,-222.222222222221,4,2,1,90,0,0
19746,-90.9090909090909,4,2,1,85,0,0
19942,-90.9090909090909,4,2,1,5,0,0
20007,-90.9090909090909,4,2,1,85,0,0
22029,-90.9090909090909,4,2,1,5,0,0
22094,-90.9090909090909,4,2,1,85,0,0
24116,-90.9090909090909,4,2,1,5,0,0
24181,-90.9090909090909,4,2,1,85,0,0
35398,-111.111111111111,4,2,1,80,0,0
36441,260.869565217391,3,2,1,75,1,0
36441,-133.333333333333,3,2,1,75,0,0
48962,-153.846153846153,3,2,1,70,0,0
49745,-83.3333333333333,3,2,1,80,0,0
50527,-153.846153846153,3,2,1,70,0,0
51310,-83.3333333333333,3,2,1,80,0,0
52093,-153.846153846153,3,2,1,70,0,0
52875,-83.3333333333333,3,2,1,80,0,0
53658,-153.846153846153,3,2,1,70,0,0
54440,-83.3333333333333,3,2,1,80,0,0
55223,-153.846153846153,3,2,1,70,0,0
56005,-83.3333333333333,3,2,1,80,0,0
56788,-153.846153846153,3,2,1,70,0,0
57570,-83.3333333333333,3,2,1,80,0,0
58354,-153.846153846153,3,2,1,70,0,0
59136,-83.3333333333333,3,2,1,80,0,0
60701,260.869565217391,4,2,1,75,1,0
60701,-133.333333333333,4,2,1,75,0,0
61744,-71.4285714285714,4,2,1,90,0,1
62004,-83.3333333333333,4,2,1,90,0,1
63701,-71.4285714285714,4,2,1,90,0,1
63961,-83.3333333333333,4,2,1,90,0,1
70092,-71.4285714285714,4,2,1,90,0,1
70352,-83.3333333333333,4,2,1,90,0,1
78440,-71.4285714285714,4,2,1,90,0,1
78700,-83.3333333333333,4,2,1,90,0,1
80396,-71.4285714285714,4,2,1,90,0,1
80657,-83.3333333333333,4,2,1,90,0,1
84700,-71.4285714285714,4,2,1,90,0,1
84896,-71.4285714285714,4,2,1,5,0,1
84960,-62.5,4,2,1,90,0,1
85352,-83.3333333333333,4,2,1,90,0,1
85613,-71.4285714285714,4,2,1,90,0,1
86004,-62.5,4,2,1,90,0,1
86526,-100,4,2,1,90,0,1
86786,-71.4285714285714,4,2,1,90,0,1
87046,-83.3333333333333,4,2,1,90,0,1
93308,-71.4285714285714,4,2,1,90,0,1
93830,-83.3333333333333,4,2,1,90,0,1
94352,-71.4285714285714,4,2,1,90,0,1
111831,-90.9090909090909,4,2,1,85,0,0
112027,-90.9090909090909,4,2,1,5,0,0
112092,-90.9090909090909,4,2,1,85,0,0
114114,-90.9090909090909,4,2,1,5,0,0
114179,-90.9090909090909,4,2,1,85,0,0
116200,-90.9090909090909,4,2,1,5,0,0
116265,-90.9090909090909,4,2,1,85,0,0
127483,-111.111111111111,4,2,1,80,0,0
128527,260.869565217391,3,2,1,75,1,0
128527,-133.333333333333,3,2,1,75,0,0
141048,-153.846153846153,3,2,1,70,0,0
141831,-83.3333333333333,3,2,1,80,0,0
142613,-153.846153846153,3,2,1,70,0,0
143396,-83.3333333333333,3,2,1,80,0,0
144179,-153.846153846153,3,2,1,70,0,0
144961,-83.3333333333333,3,2,1,80,0,0
145744,-153.846153846153,3,2,1,70,0,0
146526,-83.3333333333333,3,2,1,80,0,0
147309,-153.846153846153,3,2,1,70,0,0
148091,-83.3333333333333,3,2,1,80,0,0
148874,-153.846153846153,3,2,1,70,0,0
149656,-83.3333333333333,3,2,1,80,0,0
150440,-153.846153846153,3,2,1,70,0,0
151222,-83.3333333333333,3,2,1,80,0,0
152788,260.869565217391,4,2,1,80,1,0
153048,-100,4,2,1,75,0,0
153570,-133.333333333333,4,2,1,75,0,0
153831,-71.4285714285714,4,2,1,90,0,1
154091,-83.3333333333333,4,2,1,90,0,1
155788,-71.4285714285714,4,2,1,90,0,1
156048,-83.3333333333333,4,2,1,90,0,1
162179,-71.4285714285714,4,2,1,90,0,1
162439,-83.3333333333333,4,2,1,90,0,1
170527,-71.4285714285714,4,2,1,90,0,1
170787,-83.3333333333333,4,2,1,90,0,1
172483,-71.4285714285714,4,2,1,90,0,1
172744,-83.3333333333333,4,2,1,90,0,1
176787,-71.4285714285714,4,2,1,90,0,1
176983,-71.4285714285714,4,2,1,5,0,1
177047,-62.5,4,2,1,90,0,1
177439,-83.3333333333333,4,2,1,90,0,1
177700,-71.4285714285714,4,2,1,90,0,1
178091,-62.5,4,2,1,90,0,1
178613,-100,4,2,1,90,0,1
178873,-71.4285714285714,4,2,1,90,0,1
179133,-83.3333333333333,4,2,1,90,0,1
185395,-71.4285714285714,4,2,1,90,0,1
185917,-83.3333333333333,4,2,1,90,0,1
186439,-71.4285714285714,4,2,1,90,0,1
203918,-90.9090909090909,4,2,1,85,0,0
204114,-90.9090909090909,4,2,1,5,0,0
204179,-90.9090909090909,4,2,1,85,0,0
206201,-90.9090909090909,4,2,1,5,0,0
206266,-90.9090909090909,4,2,1,85,0,0
208287,-90.9090909090909,4,2,1,5,0,0
208352,-90.9090909090909,4,2,1,85,0,0
219570,-71.4285714285714,4,2,1,85,0,0
220614,-71.4285714285714,4,2,1,90,0,1
220809,-71.4285714285714,4,2,1,5,0,1
220874,-83.3333333333333,4,2,1,90,0,1
222896,-71.4285714285714,4,2,1,5,0,1
222961,-83.3333333333333,4,2,1,90,0,1
224787,-71.4285714285714,4,2,1,90,0,1
225047,-83.3333333333333,4,2,1,90,0,1
235222,-71.4285714285714,4,2,1,90,0,1
235482,-83.3333333333333,4,2,1,90,0,1
236266,-100,4,2,1,90,0,1
237310,260.869565217391,3,2,1,70,1,0
237310,-76.9230769230769,3,2,1,70,0,0
238092,-76.9230769230769,3,2,1,80,0,0
238614,-76.9230769230769,3,2,1,70,0,0
239657,-76.9230769230769,3,2,1,80,0,0
240179,-76.9230769230769,3,2,1,70,0,0
241223,-76.9230769230769,3,2,1,80,0,0
241745,-76.9230769230769,3,2,1,70,0,0
242788,-76.9230769230769,3,2,1,80,0,0
243570,-76.9230769230769,3,2,1,70,0,0
244353,-76.9230769230769,3,2,1,80,0,0
244875,-76.9230769230769,3,2,1,70,0,0
245918,-76.9230769230769,3,2,1,80,0,0
246440,-76.9230769230769,3,2,1,70,0,0
247483,-76.9230769230769,3,2,1,80,0,0
249049,260.869565217391,4,2,1,100,1,0
249309,-100,4,2,1,75,0,0
249831,-181.818181818181,4,2,1,75,0,0
250092,-285.714285714284,4,2,1,75,0,0
256353,-133.333333333333,4,2,1,70,0,0
262614,-133.333333333333,4,2,1,75,0,0
263657,-133.333333333333,4,2,1,80,0,0
264701,-83.3333333333333,4,2,1,85,0,0
267049,-62.5,4,2,1,90,0,1
267309,-83.3333333333333,4,2,1,90,0,1
268744,-71.4285714285714,4,2,1,90,0,1
269004,-83.3333333333333,4,2,1,90,0,1
273049,-71.4285714285714,4,2,1,90,0,1
273244,-71.4285714285714,4,2,1,5,0,1
273309,-62.5,4,2,1,90,0,1
273701,-83.3333333333333,4,2,1,90,0,1
273962,-71.4285714285714,4,2,1,90,0,1
274353,-62.5,4,2,1,90,0,1
274875,-100,4,2,1,90,0,1
275135,-71.4285714285714,4,2,1,90,0,1
275395,-83.3333333333333,4,2,1,90,0,1
281657,-71.4285714285714,4,2,1,90,0,1
282179,-83.3333333333333,4,2,1,90,0,1
282701,-71.4285714285714,4,2,1,90,0,1
297831,-90.9090909090909,4,2,1,90,0,1
298092,-90.9090909090909,4,2,1,90,0,0
300179,-90.9090909090909,4,2,1,85,0,0
300375,-90.9090909090909,4,2,1,5,0,0
300440,-90.9090909090909,4,2,1,85,0,0
302462,-90.9090909090909,4,2,1,5,0,0
302527,-90.9090909090909,4,2,1,85,0,0
304548,-90.9090909090909,4,2,1,5,0,0
304613,-90.9090909090909,4,2,1,85,0,0
315831,-71.4285714285714,4,2,1,90,0,0
316875,-71.4285714285714,4,2,1,85,0,0

[Colours]
Combo1 : 192,192,192
Combo2 : 0,112,223
Combo3 : 255,55,55

[HitObjects]
141,82,2920,6,0,P|63:69|9:66,1,128.249996086121,2|0,0:0|0:0,0:0:0:0:
109,220,3572,2,0,P|110:274|133:304,1,85.4999973907472,2|0,0:0|0:0,0:0:0:0:
207,337,3963,2,0,P|285:324|339:321,1,128.249996086121,2|0,0:0|0:0,0:0:0:0:
280,159,4616,6,0,L|307:67,1,85.4999973907472,2|0,0:0|0:0,0:0:0:0:
422,123,5007,2,0,L|385:0,1,128.249996086121,2|0,0:0|0:0,0:0:0:0:
12,71,5659,2,0,P|59:66|112:70,1,85.4999973907472,2|0,0:0|0:0,0:0:0:0:
54,167,6050,2,0,P|61:232|55:307,1,128.249996086121,2|0,0:0|0:0,0:0:0:0:
321,368,6703,2,0,L|232:339,1,85.4999973907472,2|0,0:0|0:0,0:0:0:0:
239,341,7094,1,2,0:0:0:0:
312,270,7224,6,0,L|393:243,1,85.4999973907472,2|0,0:0|0:0,0:0:0:0:
424,0,7746,2,0,L|505:26,1,85.4999973907472,2|0,0:0|0:0,0:0:0:0:
371,69,8137,2,0,P|361:111|279:108,1,128.249996086121,2|0,0:0|0:0,0:0:0:0:
115,40,8790,2,0,P|154:30|209:9,1,85.4999973907472,2|0,0:0|0:0,0:0:0:0:
87,213,9311,6,0,P|46:198|5:187,1,85.4999973907472,2|0,0:0|0:0,0:0:0:0:
8,279,9703,2,0,L|21:377,1,85.4999973907472,2|0,0:0|0:0,0:0:0:0:
19,363,10094,1,2,0:0:0:0:
221,205,10355,2,0,L|208:303,1,85.4999973907472,2|0,0:0|0:0,0:0:0:0:
196,65,10877,6,0,P|155:50|114:39,1,85.4999973907472,2|0,0:0|0:0,0:0:0:0:
274,105,11268,2,0,P|342:79|412:61,1,128.249996086121,2|0,0:0|0:0,0:0:0:0:
372,265,11920,2,0,P|372:308|400:356,1,85.4999973907472,2|0,0:0|0:0,0:0:0:0:
485,341,12311,2,0,L|502:205,1,128.249996086121,2|0,0:0|0:0,0:0:0:0:
176,321,12963,6,0,L|164:236,1,85.4999973907472,2|0,0:0|0:0,0:0:0:0:
72,161,13355,2,0,L|54:293,1,128.249996086121,2|0,0:0|0:0,0:0:0:0:
207,118,14007,2,0,P|174:111|128:74,1,85.4999973907472,2|0,0:0|0:0,0:0:0:0:
184,3,14398,2,0,P|230:6|323:3,1,128.249996086121,2|0,0:0|0:0,0:0:0:0:
489,229,15050,2,0,P|484:186|487:136,1,85.4999973907472,2|0,0:0|0:0,0:0:0:0:
485,143,15442,1,2,0:0:0:0:
390,208,15572,6,0,P|356:213|334:304,1,128.249996086121,2|0,0:0|0:0,0:0:0:0:
188,293,16094,2,0,P|222:298|244:389,1,128.249996086121,2|0,0:0|0:0,0:0:0:0:
146,377,16616,2,0,P|118:370|59:364,1,85.4999973907472,2|0,0:0|0:0,0:0:0:0:
125,142,17137,2,0,P|153:135|212:129,1,85.4999973907472,2|0,0:0|0:0,0:0:0:0:
399,53,17659,5,12,0:0:0:0:
231,8,17920,1,8,0:3:0:0:
231,8,17985,1,8,0:3:0:0:
231,8,18050,1,8,0:1:0:0:
231,8,18116,1,8,0:1:0:0:
231,8,18181,1,8,0:0:0:0:
399,53,18442,5,8,0:0:0:0:
209,129,18572,1,12,0:1:0:0:
381,177,18833,5,8,0:1:0:0:
231,8,18963,1,12,0:0:0:0:
310,97,19224,5,8,0:0:0:0:
186,246,19355,1,8,0:0:0:0:
401,378,19485,1,8,0:0:0:0:
0,327,19746,6,0,B|-9:282|-9:282|19:206|19:206|51:238,1,156.750004783631,14|0,0:1|0:0,0:0:0:0:
67,211,20007,2,0,P|63:164|67:102,1,104.500003189087,10|0,0:0|0:0,0:0:0:0:
311,201,20268,2,0,P|307:154|311:92,1,104.500003189087,2|8,0:0|0:1,0:0:0:0:
512,171,20529,5,10,0:0:0:0:
439,251,20659,2,0,B|437:338|337:347|337:347|287:298,1,209.000006378174,2|0,0:0|0:0,0:0:0:0:
393,45,21050,6,0,B|450:51|450:51|497:41,1,104.500003189087,10|0,0:0|0:0,0:0:0:0:
310,96,21311,2,0,B|263:86|263:86|206:92,1,104.500003189087,2|8,0:0|0:1,0:0:0:0:
409,28,21572,2,0,B|466:34|466:34|513:24,1,104.500003189087,10|0,0:0|0:0,0:0:0:0:
216,253,21833,6,0,B|227:300|227:300|207:371|207:371|170:354,1,156.750004783631,10|0,0:1|0:0,0:0:0:0:
146,362,22094,2,0,P|90:358|30:365,1,104.500003189087,10|0,0:0|0:0,0:0:0:0:
86,167,22355,2,0,B|77:221|77:221|85:277,1,104.500003189087,2|8,0:0|0:1,0:0:0:0:
31,85,22616,5,10,0:0:0:0:
135,76,22746,2,0,B|188:119|260:85|260:85|265:48|301:18,1,209.000006378174,2|0,0:0|0:0,0:0:0:0:
433,140,23137,6,0,P|422:196|415:249,1,104.500003189087,10|0,0:0|0:0,0:0:0:0:
314,123,23398,2,8,P|306:71|296:20,1,104.500003189087,10|8,0:1|0:1,0:0:0:0:
441,187,23659,2,0,P|430:243|423:296,1,104.500003189087,10|0,0:0|0:0,0:0:0:0:
357,351,23855,1,2,0:0:0:0:
348,334,23920,6,0,B|296:323|243:351|243:351|193:322,1,156.750004783631,14|0,0:1|0:0,0:0:0:0:
171,317,24181,2,0,P|163:270|126:225,1,104.500003189087,10|0,0:0|0:0,0:0:0:0:
0,252,24442,2,0,P|9:201|43:162,1,104.500003189087,2|8,0:0|0:1,0:0:0:0:
209,16,24703,5,10,0:0:0:0:
108,13,24833,2,0,B|88:106|186:135|186:135|241:105,1,209.000006378174,2|0,0:0|0:0,0:0:0:0:
375,37,25224,6,0,B|364:91|364:91|373:148,1,104.500003189087,10|0,0:0|0:0,0:0:0:0:
512,190,25485,2,0,B|519:141|519:141|508:87,1,104.500003189087,2|8,0:0|0:1,0:0:0:0:
327,233,25746,2,0,B|316:287|316:287|325:344,1,104.500003189087,10|0,0:0|0:0,0:0:0:0:
47,343,26007,6,0,B|100:386|172:352|172:352|177:315|213:285,1,209.000006378174,10|8,0:1|0:0,0:0:0:0:
209,287,26398,1,0,0:0:0:0:
25,320,26529,2,0,B|78:363|150:329|150:329|155:292|191:262,1,209.000006378174,2|8,0:0|0:0,0:0:0:0:
187,264,26920,1,0,0:0:0:0:
109,139,27050,6,0,P|59:128|17:97,1,104.500003189087,10|0,0:1|0:0,0:0:0:0:
210,48,27311,2,0,P|169:18|118:7,1,104.500003189087,8|0,0:0|0:0,0:0:0:0:
406,113,27572,5,10,0:1:0:0:
343,0,27703,1,8,0:1:0:0:
283,164,27833,2,0,B|274:218|274:218|283:276,1,104.500003189087,12|0,0:0|0:0,0:0:0:0:
512,373,28094,6,0,B|446:346|382:384|382:384|317:325,1,209.000006378174,14|8,0:1|0:0,0:0:0:0:
110,233,28485,2,0,P|28:254|11:369,1,209.000006378174,2|8,0:0|0:1,0:0:0:0:
180,135,28877,2,0,P|262:156|279:271,1,209.000006378174,10|8,0:0|0:1,0:0:0:0:
109,56,29268,5,2,0:0:0:0:
109,56,29333,1,2,0:0:0:0:
109,56,29398,2,0,B|53:66|53:66|3:58,1,104.500003189087,10|0,0:0|0:0,0:0:0:0:
213,24,29659,2,0,B|260:16|260:16|316:26,1,104.500003189087,2|8,0:0|0:1,0:0:0:0:
507,282,29920,5,10,0:0:0:0:
417,191,30050,1,2,0:0:0:0:
483,125,30181,2,0,P|479:73|481:21,1,104.500003189087,8|0,0:1|0:1,0:0:0:0:
295,195,30442,6,0,B|327:176|327:176|438:214|399:319,1,209.000006378174,8|0,0:0|0:0,0:0:0:0:
403,306,30833,1,8,0:1:0:0:
308,384,30963,2,0,B|316:333|316:333|306:279,1,104.500003189087,8|0,0:0|0:0,0:0:0:0:
143,151,31224,6,0,P|70:151|30:273,1,209.000006378174,10|8,0:1|0:0,0:0:0:0:
25,263,31616,1,0,0:0:0:0:
137,360,31746,2,8,P|77:356|25:360,1,104.500003189087,10|8,0:1|0:1,0:0:0:0:
222,249,32007,2,0,P|169:246|117:250,1,104.500003189087,8|0,0:0|0:0,0:0:0:0:
234,103,32268,6,0,B|225:52|225:52|234:-7,1,104.500003189087,14|0,0:1|0:0,0:0:0:0:
473,28,32529,2,0,B|433:12|433:12|334:33|333:125,1,209.000006378174,8|0,0:0|0:0,0:0:0:0:
332,125,32920,1,8,0:1:0:0:
407,215,33050,2,0,P|457:202|512:191,1,104.500003189087,8|0,0:0|0:0,0:0:0:0:
340,365,33311,6,0,P|290:352|235:341,1,104.500003189087,8|0,0:1|0:0,0:0:0:0:
9,212,33572,2,0,B|5:300|104:322|104:322|152:286,1,209.000006378174,8|0,0:0|0:0,0:0:0:0:
142,293,33963,1,8,0:1:0:0:
87,138,34094,2,0,P|90:90|124:35,1,104.500003189087,8|0,0:0|0:0,0:0:0:0:
385,97,34355,6,0,P|382:49|348:-6,1,104.500003189087,14|0,0:1|0:0,0:0:0:0:
302,208,34616,2,0,B|355:251|427:217|427:217|432:180|468:150,1,209.000006378174,12|0,0:0|0:0,0:0:0:0:
464,152,35007,1,8,0:1:0:0:
512,271,35137,2,0,P|500:331|493:382,1,104.500003189087,12|0,0:0|0:0,0:0:0:0:
208,179,35398,6,0,P|195:90|177:2,1,170.999994781494,8|8,0:3|0:3,0:0:0:0:
57,306,35790,2,4,P|70:221|87:138,1,170.999994781494,4|4,0:3|0:3,0:0:0:0:
254,348,36181,2,0,L|161:310,1,85.4999973907472,4|0,0:3|0:0,0:0:0:0:
344,74,36441,6,0,L|479:18,1,142.500005435944,14|10,0:1|0:0,0:0:0:0:
487,124,36832,1,8,0:0:0:0:
487,124,36897,1,8,0:0:0:0:
487,124,36962,2,8,L|355:177,1,142.500005435944,10|10,0:0|0:1,0:0:0:0:
438,244,37354,6,0,B|428:278|428:278|434:324,1,71.2500027179719,2|8,0:0|0:0,0:0:0:0:
512,377,37614,1,8,0:0:0:0:
512,377,37680,1,8,0:0:0:0:
512,377,37745,1,8,0:0:0:0:
209,226,38006,6,0,P|158:215|66:203,1,142.500005435944,14|10,0:1|0:0,0:0:0:0:
24,117,38397,1,10,0:0:0:0:
24,117,38462,1,8,0:0:0:0:
24,117,38527,2,8,B|19:81|19:81|29:47,1,71.2500027179719,10|0,0:0|0:0,0:0:0:0:
125,84,38788,2,0,B|129:48|129:48|119:14,1,71.2500027179719,10|0,0:1|0:0,0:0:0:0:
281,157,39049,5,8,0:0:0:0:
219,31,39180,1,8,0:0:0:0:
209,226,39310,1,10,0:0:0:0:
209,226,39441,1,2,0:0:0:0:
376,151,39571,6,0,P|376:97|407:4,1,142.500005435944,12|8,0:1|0:0,0:0:0:0:
466,101,39962,1,10,0:0:0:0:
466,101,40027,1,8,0:0:0:0:
466,101,40093,2,8,L|490:182,1,71.2500027179719,10|0,0:0|0:0,0:0:0:0:
402,313,40354,6,0,L|378:394,1,71.2500027179719,10|0,0:1|0:0,0:0:0:0:
505,350,40614,2,0,L|484:281,1,71.2500027179719,10|8,0:0|0:0,0:0:0:0:
485,282,40810,1,8,0:0:0:0:
485,282,40875,1,10,0:0:0:0:
192,364,41136,6,0,P|142:353|41:366,1,142.500005435944,14|10,0:1|0:0,0:0:0:0:
121,244,41527,1,8,0:0:0:0:
121,244,41593,1,8,0:0:0:0:
121,244,41658,2,8,P|132:193|119:92,1,142.500005435944,10|10,0:0|0:1,0:0:0:0:
192,364,42180,5,8,0:0:0:0:
245,204,42310,1,8,0:0:0:0:
316,330,42440,1,8,0:0:0:0:
508,142,42701,6,0,L|472:0,1,142.500005435944,12|10,0:1|0:0,0:0:0:0:
382,42,43093,1,8,0:0:0:0:
382,42,43158,1,8,0:0:0:0:
382,42,43223,2,8,L|346:180,1,142.500005435944,10|10,0:0|0:1,0:0:0:0:
268,82,43614,6,0,L|250:12,1,71.2500027179719,2|8,0:0|0:0,0:0:0:0:
157,40,43875,1,8,0:0:0:0:
157,40,43940,1,8,0:0:0:0:
157,40,44006,1,8,0:0:0:0:
2,295,44267,6,0,P|66:286|162:247,1,142.500005435944,14|8,0:1|0:0,0:0:0:0:
210,377,44658,1,10,0:0:0:0:
210,377,44723,1,8,0:0:0:0:
210,377,44788,2,8,L|139:354,1,71.2500027179719,10|0,0:0|0:0,0:0:0:0:
285,269,45049,2,0,L|214:292,1,71.2500027179719,10|0,0:1|0:0,0:0:0:0:
388,228,45310,5,8,0:0:0:0:
356,331,45440,1,8,0:0:0:0:
320,172,45571,1,10,0:0:0:0:
320,172,45701,1,2,0:0:0:0:
507,125,45832,6,0,P|496:187|487:275,1,142.500005435944,14|8,0:1|0:0,0:0:0:0:
419,130,46223,1,10,0:0:0:0:
419,130,46288,1,8,0:0:0:0:
419,130,46354,2,8,L|399:53,1,71.2500027179719,10|0,0:0|0:0,0:0:0:0:
247,81,46614,6,0,L|267:4,1,71.2500027179719,10|0,0:1|0:0,0:0:0:0:
430,80,46875,2,0,L|410:3,1,71.2500027179719,10|8,0:0|0:0,0:0:0:0:
412,11,47071,1,8,0:0:0:0:
412,11,47136,1,10,0:0:0:0:
11,138,47397,6,0,P|22:200|31:288,1,142.500005435944,14|10,0:1|0:0,0:0:0:0:
197,200,47788,1,8,0:0:0:0:
197,200,47854,1,8,0:0:0:0:
197,200,47919,2,8,B|163:209|163:209|119:198,1,71.2500027179719,10|0,0:0|0:0,0:0:0:0:
216,360,48180,2,0,B|250:369|250:369|294:358,1,71.2500027179719,14|0,0:0|0:0,0:0:0:0:
348,278,48440,5,8,0:0:0:0:
444,377,48571,1,8,0:3:0:0:
486,173,48701,1,4,0:3:0:0:
284,20,48962,6,0,B|307:3|307:3|373:26|373:26|402:109|340:183,1,246.999988693238,6|2,0:0|0:0,0:0:0:0:
21,68,49745,6,0,P|86:53|141:20,1,113.999996520996,6|0,0:3|0:0,0:0:0:0:
16,183,50006,2,0,P|81:168|136:135,1,113.999996520996,6|0,0:3|0:0,0:0:0:0:
122,145,50527,6,0,B|110:195|56:211|56:211|43:313|124:331,1,246.999988693238,14|0,0:1|0:0,0:0:0:0:
307,111,51310,6,0,L|276:-5,1,113.999996520996,6|0,0:3|0:0,0:0:0:0:
431,140,51571,2,0,L|462:24,1,113.999996520996,6|0,0:3|0:0,0:0:0:0:
381,19,51832,5,2,0:0:0:0:
381,19,51962,1,2,0:0:0:0:
509,186,52093,6,0,B|539:286|431:334|431:334|402:304|360:288,1,246.999988693238,14|2,0:1|0:0,0:0:0:0:
125,371,52875,6,0,P|181:353|242:344,1,113.999996520996,6|0,0:3|0:0,0:0:0:0:
111,267,53136,2,0,P|55:249|-6:240,1,113.999996520996,6|0,0:3|0:0,0:0:0:0:
0,240,53397,1,2,0:0:0:0:
83,21,53658,6,0,B|53:121|161:169|161:169|190:139|232:123,1,246.999988693238,14|2,0:1|0:0,0:0:0:0:
491,351,54440,6,0,B|434:362|434:362|374:351,1,113.999996520996,6|0,0:3|0:0,0:0:0:0:
367,221,54701,2,0,B|310:232|310:232|250:221,1,113.999996520996,6|0,0:3|0:0,0:0:0:0:
512,332,54962,2,0,B|455:343|455:343|395:332,1,113.999996520996,6|0,0:3|0:0,0:0:0:0:
349,110,55223,6,0,B|382:99|406:74|406:74|521:110|495:217,1,246.999988693238,14|2,0:1|0:0,0:0:0:0:
0,334,56006,6,0,L|35:219,1,113.999996520996,6|0,0:3|0:0,0:0:0:0:
167,377,56267,2,0,L|132:262,1,113.999996520996,6|0,0:3|0:0,0:0:0:0:
133,267,56527,1,2,0:0:0:0:
9,63,56788,6,0,B|71:115|157:74|157:74|163:30|207:-5,1,246.999988693238,14|2,0:1|0:0,0:0:0:0:
201,0,57440,1,2,0:0:0:0:
281,102,57571,6,0,B|268:159|268:159|283:224,1,113.999996520996,6|0,0:3|0:0,0:0:0:0:
418,212,57832,2,0,B|430:157|430:157|417:100,1,113.999996520996,6|0,0:3|0:0,0:0:0:0:
353,38,58093,5,2,0:0:0:0:
353,38,58223,1,2,0:0:0:0:
502,244,58354,6,0,P|506:335|367:318,1,246.999988693238,14|2,0:1|0:0,0:0:0:0:
16,245,59136,6,0,P|30:306|40:371,1,113.999996520996,6|0,0:3|0:0,0:0:0:0:
193,330,59397,2,0,P|202:273|215:218,1,113.999996520996,6|0,0:3|0:0,0:0:0:0:
25,37,59658,2,0,P|39:98|49:163,1,113.999996520996,6|0,0:3|0:0,0:0:0:0:
356,46,59919,6,0,B|277:-6|197:36|197:36|136:14,1,227.999993041992,14|8,0:1|0:0,0:0:0:0:
409,297,60310,5,8,0:1:0:0:
268,258,60440,1,8,0:1:0:0:
398,171,60571,1,8,0:3:0:0:
278,380,60701,1,12,0:1:0:0:
398,171,60961,5,2,0:0:0:0:
409,297,61222,5,2,0:0:0:0:
409,297,61309,1,2,0:0:0:0:
409,297,61396,1,2,0:0:0:0:
409,297,61483,2,0,B|404:336|404:336|412:382,1,71.2500027179719,2|0,0:0|0:0,0:0:0:0:
315,89,61744,6,0,B|382:63|443:104|443:104|524:67|509:-12,2,265.999991882324,14|8|2,0:1|0:0|0:0,0:0:0:0:
228,200,62396,2,0,P|242:258|248:323,1,113.999996520996,10|8,0:1|0:0,0:0:0:0:
15,200,62657,6,0,B|58:212|58:212|164:165|128:54,1,227.999993041992,2|0,0:0|0:0,0:0:0:0:
144,335,63048,2,0,B|87:324|87:324|17:338,1,113.999996520996,10|0,0:0|0:0,0:0:0:0:
247,311,63309,2,0,B|301:321|301:321|358:310,1,113.999996520996,2|8,0:0|0:1,0:0:0:0:
430,374,63570,5,10,0:0:0:0:
512,195,63701,2,0,B|474:205|474:205|402:170|402:170|407:95|327:53,1,265.999991882324,2|0,0:0|0:0,0:0:0:0:
105,58,64092,2,0,P|165:48|208:15,1,113.999996520996,8|0,0:0|0:0,0:0:0:0:
132,176,64353,2,0,B|89:164|89:164|-17:211|19:322,1,227.999993041992,2|8,0:0|0:0,0:0:0:0:
15,311,64744,1,0,0:0:0:0:
214,220,64874,6,0,B|257:208|257:208|363:255|327:366,1,227.999993041992,10|8,0:1|0:0,0:0:0:0:
330,355,65266,1,0,0:0:0:0:
502,145,65396,2,8,P|497:206|504:275,1,113.999996520996,10|8,0:1|0:1,0:0:0:0:
404,134,65657,2,0,P|408:77|403:20,1,113.999996520996,8|2,0:0|0:0,0:0:0:0:
377,13,65853,1,2,0:0:0:0:
377,13,65918,6,0,B|291:-2|291:-2|248:33|248:33|145:10,2,227.999993041992,10|8|0,0:1|0:0|0:0,0:0:0:0:
377,13,66570,1,8,0:1:0:0:
312,178,66701,5,10,0:0:0:0:
165,157,66831,1,2,0:0:0:0:
229,323,66961,2,0,P|272:297|343:281,1,113.999996520996,10|0,0:1|0:0,0:0:0:0:
116,283,67222,6,0,P|60:270|11:241,1,113.999996520996,10|0,0:0|0:0,0:0:0:0:
105,83,67483,2,0,P|55:54|0:41,1,113.999996520996,2|8,0:0|0:1,0:0:0:0:
132,313,67744,2,0,P|76:300|27:271,1,113.999996520996,10|0,0:0|0:0,0:0:0:0:
227,50,68005,6,0,B|304:33|360:77|360:77|435:32,1,227.999993041992,10|8,0:1|0:0,0:0:0:0:
336,197,68396,2,0,P|425:202|442:331,1,227.999993041992,2|8,0:0|0:1,0:0:0:0:
307,384,68787,6,0,B|321:329|321:329|306:268,1,113.999996520996,10|0,0:0|0:0,0:0:0:0:
27,271,69048,2,0,B|13:216|13:216|26:160,1,113.999996520996,10|0,0:1|0:0,0:0:0:0:
100,8,69309,2,0,P|97:66|133:111,1,113.999996520996,8|0,0:0|0:0,0:0:0:0:
231,163,69570,5,8,0:1:0:0:
129,108,69700,1,8,0:1:0:0:
205,31,69831,5,14,0:0:0:0:
162,241,69961,1,2,0:0:0:0:
358,173,70092,6,0,B|316:68|425:9|425:9|483:69,1,265.999991882324,12|8,0:1|0:0,0:0:0:0:
463,233,70483,2,0,P|470:318|339:305,1,227.999993041992,2|8,0:0|0:1,0:0:0:0:
144,377,70874,2,0,B|203:365|203:365|266:377,1,113.999996520996,10|0,0:0|0:0,0:0:0:0:
36,272,71135,6,0,B|79:284|79:284|185:237|149:126,1,227.999993041992,10|8,0:1|0:0,0:0:0:0:
354,31,71527,2,0,B|275:-21|195:21|195:21|134:-1,1,227.999993041992,2|8,0:0|0:1,0:0:0:0:
484,106,71918,2,0,P|471:57|445:-2,1,113.999996520996,10|0,0:0|0:0,0:0:0:0:
341,170,72179,6,0,B|384:158|384:158|490:205|454:316,1,227.999993041992,10|8,0:1|0:0,0:0:0:0:
457,305,72570,1,0,0:0:0:0:
323,377,72700,2,0,B|336:321|336:321|318:266,1,113.999996520996,2|8,0:0|0:1,0:0:0:0:
193,267,72961,2,0,B|176:321|176:321|189:377,1,113.999996520996,8|0,0:0|0:0,0:0:0:0:
135,100,73222,6,0,P|128:193|17:181,1,227.999993041992,10|8,0:1|0:0,0:0:0:0:
17,182,73614,1,0,0:0:0:0:
135,100,73744,1,10,0:1:0:0:
35,83,73874,1,8,0:1:0:0:
149,2,74005,2,0,B|207:15|207:15|263:0,1,113.999996520996,8|0,0:0|0:0,0:0:0:0:
466,137,74266,6,0,L|426:22,1,113.999996520996,14|0,0:1|0:0,0:0:0:0:
374,184,74527,2,0,P|381:277|492:265,1,227.999993041992,8|0,0:0|0:0,0:0:0:0:
177,355,74918,1,8,0:1:0:0:
248,266,75048,2,0,P|268:335|277:395,1,113.999996520996,8|0,0:0|0:0,0:0:0:0:
10,320,75309,6,0,P|20:263|37:209,1,113.999996520996,10|0,0:1|0:0,0:0:0:0:
201,140,75570,2,0,B|167:149|167:149|102:118|102:118|107:51|35:14,1,227.999993041992,8|0,0:0|0:0,0:0:0:0:
364,9,75961,1,8,0:1:0:0:
300,113,76092,2,0,L|267:0,1,113.999996520996,8|0,0:0|0:0,0:0:0:0:
481,312,76353,6,0,L|514:199,1,113.999996520996,14|0,0:1|0:0,0:0:0:0:
224,326,76614,2,0,B|282:373|360:336|360:336|365:296|405:263,1,227.999993041992,8|0,0:0|0:0,0:0:0:0:
401,266,77005,1,8,0:1:0:0:
109,269,77135,6,0,P|103:332|112:396,1,113.999996520996,12|0,0:0|0:0,0:0:0:0:
0,206,77396,2,0,P|-6:269|3:333,1,113.999996520996,12|0,0:1|0:0,0:0:0:0:
350,116,77657,5,8,0:0:0:0:
82,124,77787,1,0,0:0:0:0:
216,0,77918,1,8,0:1:0:0:
216,0,77983,1,8,0:1:0:0:
216,0,78048,1,8,0:1:0:0:
218,249,78179,1,10,0:0:0:0:
218,249,78309,1,2,0:0:0:0:
426,34,78440,6,0,B|438:87|494:104|494:104|514:212|423:229,2,265.999991882324,12|8|2,0:1|0:0|0:0,0:0:0:0:
304,272,79092,2,0,B|296:330|296:330|303:391,1,113.999996520996,10|8,0:1|0:0,0:0:0:0:
40,299,79353,6,0,B|91:321|91:321|180:293|161:163,1,227.999993041992,2|0,0:0|0:0,0:0:0:0:
158,0,79744,2,0,P|99:4|27:-1,1,113.999996520996,10|0,0:0|0:0,0:0:0:0:
163,181,80005,2,0,P|104:185|32:180,1,113.999996520996,2|8,0:0|0:1,0:0:0:0:
0,95,80266,5,10,0:0:0:0:
261,102,80396,2,0,B|328:76|389:117|389:117|470:80|455:1,1,265.999991882324,2|0,0:0|0:0,0:0:0:0:
508,233,80787,2,0,P|495:293|494:358,1,113.999996520996,8|0,0:0|0:0,0:0:0:0:
243,277,81048,2,0,B|301:324|379:287|379:287|384:247|424:214,1,227.999993041992,2|8,0:0|0:0,0:0:0:0:
420,217,81440,1,0,0:0:0:0:
179,347,81570,6,0,B|121:394|43:357|43:357|38:317|-2:284,1,227.999993041992,10|8,0:1|0:0,0:0:0:0:
1,287,81961,1,0,0:0:0:0:
109,158,82092,2,8,B|51:174|51:174|-6:158,1,113.999996520996,10|8,0:1|0:1,0:0:0:0:
221,128,82353,2,0,B|206:76|206:76|222:18,1,113.999996520996,8|2,0:0|0:0,0:0:0:0:
250,30,82548,1,2,0:0:0:0:
250,30,82614,6,0,B|329:-22|409:20|409:20|470:-2,2,227.999993041992,10|8|0,0:1|0:0|0:0,0:0:0:0:
250,30,83266,1,8,0:1:0:0:
432,173,83396,5,10,0:0:0:0:
308,231,83527,1,2,0:0:0:0:
490,374,83657,2,0,L|513:253,1,113.999996520996,10|0,0:1|0:0,0:0:0:0:
280,368,83918,6,0,P|341:349|399:334,1,113.999996520996,10|0,0:0|0:0,0:0:0:0:
109,253,84179,2,0,P|48:234|-10:219,1,113.999996520996,2|8,0:0|0:1,0:0:0:0:
304,332,84440,2,0,P|365:313|423:298,1,113.999996520996,10|0,0:0|0:0,0:0:0:0:
512,114,84700,6,0,B|536:25|431:1|431:1|399:49,1,199.499993911743,14|0,0:1|0:0,0:0:0:0:
354,92,84961,2,0,P|357:198|187:201,1,304,14|10,0:0|0:0,0:0:0:0:
268,43,85353,2,0,B|257:98|257:98|269:170,1,113.999996520996,2|8,0:0|0:0,0:0:0:0:
7,160,85614,6,0,B|45:170|45:170|117:135|117:135|112:60|192:18,1,265.999991882324,14|8,0:1|0:1,0:0:0:0:
319,384,86005,2,0,B|216:316|112:370|112:370|32:341,1,304,12|8,0:0|0:3,0:0:0:0:
32,341,86331,1,8,0:3:0:0:
32,341,86396,1,8,0:1:0:0:
32,341,86461,1,8,0:1:0:0:
32,341,86527,2,0,B|24:295|24:295|34:242,1,95,10|0,0:0|0:0,0:0:0:0:
407,37,86787,6,0,B|375:15|333:26|333:26|288:140|372:197,1,265.999991882324,14|10,0:1|0:0,0:0:0:0:
215,78,87179,2,0,B|136:26|56:68|56:68|-5:46,1,227.999993041992,2|8,0:0|0:1,0:0:0:0:
113,202,87570,2,0,P|163:190|241:178,1,113.999996520996,10|0,0:0|0:0,0:0:0:0:
512,241,87831,6,0,B|536:341|428:372|428:372|406:347|362:331,1,227.999993041992,10|8,0:1|0:0,0:0:0:0:
330,44,88222,2,0,B|306:144|414:175|414:175|436:150|480:134,1,227.999993041992,2|8,0:0|0:1,0:0:0:0:
223,269,88614,2,0,B|211:325|211:325|219:384,1,113.999996520996,10|0,0:0|0:0,0:0:0:0:
7,258,88874,6,0,B|28:273|28:273|88:252|88:252|115:177|58:109,1,227.999993041992,10|8,0:1|0:0,0:0:0:0:
68,122,89266,1,0,0:0:0:0:
126,16,89396,2,0,P|68:20|-2:14,1,113.999996520996,2|8,0:0|0:1,0:0:0:0:
181,121,89657,2,0,P|123:125|53:119,1,113.999996520996,8|0,0:0|0:0,0:0:0:0:
386,0,89918,6,0,B|429:-12|429:-12|535:35|499:146,1,227.999993041992,10|8,0:1|0:0,0:0:0:0:
502,135,90309,1,0,0:0:0:0:
370,150,90440,1,10,0:1:0:0:
466,234,90570,1,8,0:1:0:0:
332,254,90700,2,0,P|321:313|316:372,1,113.999996520996,8|0,0:0|0:0,0:0:0:0:
2,219,90961,6,0,P|13:278|18:337,1,113.999996520996,14|0,0:1|0:0,0:0:0:0:
126,215,91222,2,0,B|169:227|169:227|275:180|239:69,1,227.999993041992,8|0,0:0|0:0,0:0:0:0:
0,19,91614,1,8,0:1:0:0:
89,119,91744,2,0,B|78:66|78:66|88:4,1,113.999996520996,8|0,0:0|0:0,0:0:0:0:
243,191,92005,6,0,B|232:138|232:138|242:76,1,113.999996520996,10|0,0:1|0:0,0:0:0:0:
452,45,92266,2,0,P|458:113|329:127,1,227.999993041992,8|0,0:0|0:0,0:0:0:0:
395,373,92657,1,8,0:1:0:0:
463,257,92787,2,0,P|493:318|499:368,1,113.999996520996,8|0,0:0|0:0,0:0:0:0:
293,364,93048,6,0,P|302:308|329:257,1,113.999996520996,10|0,0:1|0:0,0:0:0:0:
6,21,93309,2,0,B|95:0|160:52|160:52|247:0,1,265.999991882324,12|0,0:0|0:0,0:0:0:0:
327,33,93700,5,8,0:1:0:0:
68,178,93831,2,0,B|57:235|57:235|68:298,1,113.999996520996,12|0,0:0|0:0,0:0:0:0:
511,255,94092,2,0,B|522:312|522:312|511:375,1,113.999996520996,12|0,0:0|0:0,0:0:0:0:
345,142,94353,5,14,0:0:0:0:
265,247,94483,1,8,0:1:0:0:
432,55,94614,1,8,0:1:0:0:
432,55,94679,1,8,0:1:0:0:
432,55,94744,1,8,0:1:0:0:
432,55,94809,1,8,0:1:0:0:
432,55,94874,1,10,0:0:0:0:
426,296,95005,1,10,0:0:0:0:
244,9,95135,6,0,B|145:-15|145:-15|87:30|87:30|-24:-1,1,265.999991882324,12|10,0:1|0:0,0:0:0:0:
0,5,95527,1,0,0:0:0:0:
70,150,95657,2,0,P|70:211|115:273,1,132.999995941162,10|8,0:0|0:1,0:0:0:0:
226,366,95918,1,10,0:0:0:0:
226,366,96048,2,0,P|226:305|271:243,1,132.999995941162,10|8,0:1|0:0,0:0:0:0:
265,247,96309,1,0,0:0:0:0:
469,362,96440,6,0,B|406:374|406:374|329:360,1,132.999995941162,10|0,0:0|0:0,0:0:0:0:
489,179,96700,2,0,B|426:191|426:191|349:177,1,132.999995941162,10|8,0:0|0:1,0:0:0:0:
155,18,96961,5,10,0:0:0:0:
340,2,97092,1,10,0:1:0:0:
169,197,97222,6,0,B|120:179|120:179|-14:224|37:359,1,265.999991882324,12|10,0:0|0:0,0:0:0:0:
31,344,97614,1,0,0:0:0:0:
1,132,97744,6,0,P|-5:64|1:-7,1,132.999995941162,10|8,0:0|0:1,0:0:0:0:
264,79,98005,1,10,0:0:0:0:
264,79,98135,2,0,P|259:145|265:211,1,132.999995941162,10|8,0:1|0:0,0:0:0:0:
265,211,98396,1,0,0:0:0:0:
408,360,98527,6,0,B|345:378|345:378|268:359,1,132.999995941162,10|0,0:0|0:0,0:0:0:0:
432,229,98787,2,0,B|415:163|415:163|433:100,1,132.999995941162,10|8,0:0|0:1,0:0:0:0:
377,3,99048,1,10,0:0:0:0:
184,226,99179,5,10,0:1:0:0:
184,226,99244,1,8,0:1:0:0:
184,226,99309,2,0,B|145:236|145:236|73:201|73:201|78:126|-2:85,1,265.999991882324,12|8,0:0|0:0,0:0:0:0:
0,85,99700,1,0,0:0:0:0:
211,41,99831,6,0,P|144:17|83:1,1,132.999995941162,8|8,0:0|0:1,0:0:0:0:
307,140,100092,2,0,P|374:116|435:100,1,132.999995941162,8|8,0:0|0:1,0:0:0:0:
182,63,100353,2,0,P|115:39|54:23,1,132.999995941162,8|0,0:0|0:0,0:0:0:0:
258,341,100614,2,0,B|324:396|414:353|414:353|420:307|466:269,1,265.999991882324,10|10,0:0|0:0,0:0:0:0:
433,100,101005,5,8,0:1:0:0:
464,270,101135,1,10,0:0:0:0:
505,0,101266,1,8,0:1:0:0:
347,213,101396,2,0,B|281:268|191:225|191:225|185:179|139:141,1,265.999991882324,14|8,0:0|0:0,0:0:0:0:
19,251,101787,6,0,P|32:319|35:384,1,132.999995941162,2|8,0:0|0:0,0:0:0:0:
35,382,102048,1,8,0:1:0:0:
124,273,102179,2,0,P|127:206|140:141,1,132.999995941162,10|8,0:0|0:1,0:0:0:0:
4,225,102440,2,0,P|17:293|20:358,1,132.999995941162,10|0,0:0|0:0,0:0:0:0:
52,83,102700,5,12,0:0:0:0:
124,273,102831,1,8,0:1:0:0:
269,140,102961,1,8,0:0:0:0:
197,330,103092,1,8,0:1:0:0:
52,83,103222,1,14,0:0:0:0:
369,227,103353,5,10,0:1:0:0:
369,227,103418,1,8,0:1:0:0:
369,227,103483,2,8,P|376:331|522:326,1,265.999991882324,12|10,0:0|0:0,0:0:0:0:
512,337,103874,1,0,0:0:0:0:
503,138,104005,2,0,P|496:98|452:9,1,132.999995941162,10|8,0:0|0:1,0:0:0:0:
269,140,104266,1,10,0:0:0:0:
269,140,104396,2,0,P|276:100|320:11,1,132.999995941162,10|8,0:1|0:0,0:0:0:0:
315,17,104657,1,0,0:0:0:0:
178,124,104787,6,0,L|42:79,1,132.999995941162,10|0,0:0|0:0,0:0:0:0:
141,359,105048,2,0,L|277:314,1,132.999995941162,10|8,0:0|0:1,0:0:0:0:
512,230,105309,5,10,0:0:0:0:
492,384,105440,1,10,0:1:0:0:
267,317,105570,6,0,B|173:291|173:291|112:335|112:335|15:307,1,265.999991882324,12|10,0:0|0:0,0:0:0:0:
22,309,105961,1,0,0:0:0:0:
292,152,106092,2,0,B|280:84|280:84|301:3,1,132.999995941162,10|8,0:0|0:1,0:0:0:0:
465,21,106353,1,10,0:0:0:0:
465,21,106483,2,0,B|481:82|481:82|469:150,1,132.999995941162,10|8,0:1|0:0,0:0:0:0:
469,150,106744,1,0,0:0:0:0:
188,84,106874,6,0,P|239:77|295:22,1,132.999995941162,10|0,0:0|0:0,0:0:0:0:
107,175,107135,2,0,P|56:168|0:113,1,132.999995941162,10|8,0:0|0:1,0:0:0:0:
85,32,107396,1,10,0:0:0:0:
210,224,107527,5,10,0:1:0:0:
210,224,107592,1,8,0:1:0:0:
210,224,107657,2,0,B|181:342|309:378|309:378|335:349|387:330,1,265.999991882324,12|8,0:0|0:0,0:0:0:0:
354,344,108048,1,0,0:0:0:0:
463,104,108179,5,8,0:0:0:0:
512,289,108309,1,8,0:1:0:0:
403,159,108440,1,8,0:0:0:0:
354,344,108570,1,8,0:1:0:0:
474,26,108700,6,0,B|380:0|380:0|319:44|319:44|222:16,1,265.999991882324,10|8,0:0|0:0,0:0:0:0:
229,18,109092,1,0,0:0:0:0:
90,237,109222,1,8,0:0:0:0:
25,89,109353,5,8,0:1:0:0:
151,384,109483,1,8,0:0:0:0:
0,284,109614,1,8,0:0:0:0:
174,193,109744,2,0,B|240:248|330:205|330:205|336:159|382:121,1,265.999991882324,14|8,0:1|0:0,0:0:0:0:
501,228,110135,6,0,P|506:320|355:314,1,265.999991882324,2|8,0:0|0:1,0:0:0:0:
174,193,110527,6,0,B|184:128|184:128|170:59,1,132.999995941162,10|0,0:0|0:0,0:0:0:0:
37,130,110787,2,0,B|47:65|47:65|33:-4,1,132.999995941162,10|0,0:1|0:0,0:0:0:0:
0,335,111048,6,0,B|94:273|190:323|190:323|263:296,1,265.999991882324,12|8,0:0|0:3,0:0:0:0:
251,300,111374,1,8,0:3:0:0:
251,300,111440,1,8,0:1:0:0:
251,300,111505,1,8,0:1:0:0:
251,300,111570,5,8,0:0:0:0:
376,25,111700,1,8,0:0:0:0:
490,137,111831,6,0,B|504:175|504:175|476:246|476:246|424:216,1,156.750004783631,14|0,0:1|0:0,0:0:0:0:
404,204,112092,2,0,P|351:198|279:205,1,104.500003189087,10|0,0:0|0:0,0:0:0:0:
253,25,112353,2,0,P|200:19|128:26,1,104.500003189087,2|8,0:0|0:1,0:0:0:0:
12,162,112614,5,10,0:0:0:0:
119,128,112744,2,0,B|91:117|91:117|34:165|34:165|56:269,1,209.000006378174,2|0,0:0|0:0,0:0:0:0:
163,367,113135,6,0,P|168:320|203:257,1,104.500003189087,10|0,0:0|0:0,0:0:0:0:
418,361,113396,2,0,P|411:309|388:263,1,104.500003189087,2|8,0:0|0:1,0:0:0:0:
147,334,113657,2,0,P|152:287|187:224,1,104.500003189087,10|0,0:0|0:0,0:0:0:0:
405,23,113918,6,0,B|376:15|376:15|308:35|318:122,1,156.750004783631,10|0,0:1|0:0,0:0:0:0:
286,136,114179,2,0,P|282:192|288:256,1,104.500003189087,10|0,0:0|0:0,0:0:0:0:
481,242,114440,2,0,P|484:189|480:137,1,104.500003189087,2|8,0:0|0:1,0:0:0:0:
225,38,114700,5,10,0:0:0:0:
191,144,114831,2,0,B|193:234|89:245|89:245|48:195,1,209.000006378174,2|0,0:0|0:0,0:0:0:0:
133,36,115222,6,0,P|87:21|21:12,1,104.500003189087,10|0,0:0|0:0,0:0:0:0:
286,136,115483,2,0,P|337:128|387:112,1,104.500003189087,10|8,0:1|0:1,0:0:0:0:
101,47,115744,2,0,P|55:32|-11:23,1,104.500003189087,10|0,0:0|0:0,0:0:0:0:
128,216,116005,6,0,B|120:176|120:176|153:115|153:115|199:150,1,156.750004783631,14|0,0:1|0:0,0:0:0:0:
215,191,116266,2,0,B|208:248|208:248|217:309,1,104.500003189087,10|0,0:0|0:0,0:0:0:0:
495,384,116527,2,0,B|488:337|488:337|495:280,1,104.500003189087,2|8,0:0|0:1,0:0:0:0:
487,102,116787,5,10,0:0:0:0:
448,191,116918,2,0,B|395:234|323:200|323:200|318:163|282:133,1,209.000006378174,2|0,0:0|0:0,0:0:0:0:
20,73,117309,2,0,P|35:133|40:183,1,104.500003189087,10|0,0:0|0:0,0:0:0:0:
305,33,117570,2,0,P|290:93|285:143,1,104.500003189087,2|8,0:0|0:1,0:0:0:0:
28,0,117831,2,0,P|43:60|48:110,1,104.500003189087,10|0,0:0|0:0,0:0:0:0:
202,351,118092,6,0,B|128:326|72:370|72:370|5:329,1,209.000006378174,10|8,0:1|0:0,0:0:0:0:
11,332,118483,1,0,0:0:0:0:
223,338,118614,2,0,B|149:313|93:357|93:357|26:316,1,209.000006378174,2|8,0:0|0:0,0:0:0:0:
32,319,119005,1,0,0:0:0:0:
285,135,119135,6,0,B|233:144|233:144|178:132,1,104.500003189087,10|0,0:1|0:0,0:0:0:0:
312,249,119396,2,0,P|312:294|350:351,1,104.500003189087,8|0,0:0|0:0,0:0:0:0:
402,88,119657,5,10,0:1:0:0:
418,206,119787,1,8,0:1:0:0:
512,191,119918,2,0,P|510:242|482:286,1,104.500003189087,12|0,0:0|0:0,0:0:0:0:
282,11,120179,6,0,B|186:43|186:43|69:3,2,209.000006378174,14|8|0,0:1|0:0|0:0,0:0:0:0:
282,11,120831,1,8,0:1:0:0:
136,187,120961,2,0,P|80:171|19:164,1,104.500003189087,10|0,0:0|0:0,0:0:0:0:
232,178,121222,5,10,0:1:0:0:
188,268,121353,1,2,0:0:0:0:
294,260,121483,2,0,B|375:250|375:250|411:274|411:274|501:259,1,209.000006378174,10|2,0:0|0:0,0:0:0:0:
493,260,121874,1,8,0:1:0:0:
367,167,122005,5,10,0:0:0:0:
409,105,122135,1,2,0:0:0:0:
282,11,122266,2,0,P|279:70|282:127,1,104.500003189087,8|0,0:1|0:1,0:0:0:0:
31,74,122527,6,0,B|82:68|110:98|110:98|184:91|201:27,1,209.000006378174,8|0,0:0|0:0,0:0:0:0:
200,27,122918,1,8,0:1:0:0:
67,186,123048,2,0,B|58:237|58:237|63:298,1,104.500003189087,8|0,0:0|0:0,0:0:0:0:
285,263,123309,6,0,P|200:264|183:382,1,209.000006378174,10|8,0:1|0:0,0:0:0:0:
174,369,123700,1,0,0:0:0:0:
365,358,123831,2,0,P|370:308|384:253,1,104.500003189087,10|8,0:1|0:1,0:0:0:0:
512,303,124092,2,0,P|507:253|493:198,1,104.500003189087,8|0,0:0|0:0,0:0:0:0:
363,83,124353,6,0,B|310:126|238:92|238:92|233:55|197:25,2,209.000006378174,14|8|0,0:1|0:0|0:0,0:0:0:0:
363,83,125005,1,8,0:1:0:0:
119,150,125135,2,0,L|88:44,1,104.500003189087,8|0,0:0|0:0,0:0:0:0:
207,205,125396,5,10,0:1:0:0:
79,249,125527,1,2,0:0:0:0:
168,308,125657,2,0,B|221:351|293:317|293:317|298:280|334:250,1,209.000006378174,10|0,0:0|0:0,0:0:0:0:
330,252,126048,1,8,0:1:0:0:
488,248,126179,2,0,B|479:305|479:305|489:362,1,104.500003189087,8|0,0:0|0:0,0:0:0:0:
277,115,126440,6,0,B|285:68|285:68|276:11,1,104.500003189087,14|0,0:1|0:0,0:0:0:0:
467,0,126700,2,0,B|506:93|404:134|404:134|364:86,1,209.000006378174,12|0,0:0|0:0,0:0:0:0:
379,104,127092,1,8,0:1:0:0:
139,274,127222,2,0,B|130:320|130:320|139:377,1,104.500003189087,12|0,0:0|0:0,0:0:0:0:
16,159,127483,6,0,B|3:118|3:118|29:48|29:48|87:74,1,170.999994781494,8|8,0:3|0:3,0:0:0:0:
277,115,127874,2,0,B|290:74|290:74|264:4|264:4|206:30,1,170.999994781494,4|4,0:3|0:3,0:0:0:0:
384,231,128266,2,0,L|408:147,1,85.4999973907472,4|0,0:3|0:0,0:0:0:0:
364,374,128527,6,0,P|302:359|224:347,1,142.500005435944,14|10,0:1|0:0,0:0:0:0:
139,274,128918,1,8,0:0:0:0:
139,274,128983,1,8,0:0:0:0:
139,274,129048,2,0,P|200:259|278:247,1,142.500005435944,10|10,0:0|0:1,0:0:0:0:
52,203,129440,6,0,B|44:167|44:167|52:129,1,71.2500027179719,2|8,0:0|0:0,0:0:0:0:
10,51,129700,1,8,0:0:0:0:
10,51,129766,1,8,0:0:0:0:
10,51,129831,1,8,0:0:0:0:
210,0,130092,6,0,P|214:44|303:67,1,142.500005435944,14|10,0:1|0:0,0:0:0:0:
458,27,130483,1,10,0:0:0:0:
458,27,130548,1,8,0:0:0:0:
458,27,130613,2,0,P|419:17|378:-6,1,71.2500027179719,10|0,0:0|0:0,0:0:0:0:
386,142,130874,2,0,P|425:132|466:109,1,71.2500027179719,10|0,0:1|0:0,0:0:0:0:
336,256,131135,5,8,0:0:0:0:
439,246,131266,1,8,0:0:0:0:
388,357,131396,1,10,0:0:0:0:
184,217,131657,6,0,L|210:364,1,142.500005435944,12|8,0:1|0:0,0:0:0:0:
98,263,132048,1,10,0:0:0:0:
98,263,132113,1,8,0:0:0:0:
98,263,132179,2,0,L|79:365,1,71.2500027179719,10|0,0:0|0:0,0:0:0:0:
33,161,132440,6,0,L|20:90,1,71.2500027179719,10|0,0:1|0:0,0:0:0:0:
132,111,132700,2,0,L|202:98,1,71.2500027179719,10|8,0:0|0:0,0:0:0:0:
202,98,132896,1,8,0:0:0:0:
202,98,132961,1,10,0:0:0:0:
468,24,133222,6,0,L|323:-1,1,142.500005435944,14|10,0:1|0:0,0:0:0:0:
354,104,133613,1,8,0:0:0:0:
354,104,133679,1,8,0:0:0:0:
354,104,133744,2,0,L|494:128,1,142.500005435944,10|10,0:0|0:1,0:0:0:0:
202,98,134266,5,8,0:0:0:0:
328,0,134396,1,8,0:0:0:0:
228,202,134527,1,8,0:0:0:0:
11,241,134787,6,0,P|4:317|15:394,1,142.500005435944,12|10,0:1|0:0,0:0:0:0:
124,307,135179,1,8,0:0:0:0:
124,307,135244,1,8,0:0:0:0:
124,307,135309,2,0,P|194:298|265:305,1,142.500005435944,10|10,0:0|0:1,0:0:0:0:
365,295,135700,6,0,L|387:370,1,71.2500027179719,2|8,0:0|0:0,0:0:0:0:
487,369,135961,1,8,0:0:0:0:
487,369,136027,1,8,0:0:0:0:
487,369,136092,1,8,0:0:0:0:
474,96,136353,6,0,P|413:88|344:27,1,142.500005435944,14|8,0:1|0:0,0:0:0:0:
212,124,136744,1,10,0:0:0:0:
212,124,136809,1,8,0:0:0:0:
212,124,136874,2,0,P|251:122|298:126,1,71.2500027179719,10|0,0:0|0:0,0:0:0:0:
280,39,137135,2,0,P|319:37|366:41,1,71.2500027179719,10|0,0:1|0:0,0:0:0:0:
156,8,137396,5,8,0:0:0:0:
212,124,137527,1,8,0:0:0:0:
88,105,137657,1,10,0:0:0:0:
88,105,137787,1,2,0:0:0:0:
8,205,137918,6,0,P|25:273|39:349,1,142.500005435944,14|8,0:1|0:0,0:0:0:0:
180,240,138309,1,10,0:0:0:0:
180,240,138374,1,8,0:0:0:0:
180,240,138440,2,0,L|113:214,1,71.2500027179719,10|0,0:0|0:0,0:0:0:0:
274,201,138700,6,0,L|341:175,1,71.2500027179719,10|0,0:1|0:0,0:0:0:0:
289,337,138961,2,0,L|356:363,1,71.2500027179719,10|8,0:0|0:0,0:0:0:0:
355,362,139157,1,8,0:0:0:0:
355,362,139222,1,10,0:0:0:0:
512,89,139483,6,0,P|495:157|481:233,1,142.500005435944,14|10,0:1|0:0,0:0:0:0:
415,66,139874,1,8,0:0:0:0:
415,66,139940,1,8,0:0:0:0:
415,66,140005,2,0,B|379:78|379:78|342:66,1,71.2500027179719,10|0,0:0|0:0,0:0:0:0:
178,7,140266,2,0,B|142:19|142:19|105:7,1,71.2500027179719,14|0,0:0|0:0,0:0:0:0:
25,38,140527,5,8,0:0:0:0:
163,117,140657,1,8,0:3:0:0:
0,246,140787,1,4,0:3:0:0:
246,207,141048,6,0,B|246:264|197:289|197:289|211:385|307:381,1,246.999988693238,6|2,0:0|0:0,0:0:0:0:
488,137,141831,6,0,L|511:248,1,113.999996520996,6|0,0:3|0:0,0:0:0:0:
403,54,142092,2,0,L|380:165,1,113.999996520996,6|0,0:3|0:0,0:0:0:0:
379,165,142613,6,0,B|225:118|335:71|164:48,1,246.999988693238,14|2,0:1|0:0,0:0:0:0:
3,298,143396,6,0,P|65:300|112:249,1,113.999996520996,6|0,0:3|0:0,0:0:0:0:
290,364,143657,2,0,P|228:366|181:315,1,113.999996520996,6|0,0:3|0:0,0:0:0:0:
189,334,143918,1,2,0:0:0:0:
267,88,144179,6,0,B|359:81|410:125|410:125|506:92,1,246.999988693238,14|2,0:1|0:0,0:0:0:0:
500,94,144831,1,2,0:0:0:0:
502,255,144961,6,0,P|486:315|479:384,1,113.999996520996,6|0,0:3|0:0,0:0:0:0:
354,302,145222,2,0,P|346:245|331:190,1,113.999996520996,6|0,0:3|0:0,0:0:0:0:
331,190,145483,1,2,0:0:0:0:
72,358,145744,6,0,L|143:334,1,61.7499971733095,14|0,0:1|0:0,0:0:0:0:
59,252,146005,2,0,L|-12:228,1,61.7499971733095,2|0,0:0|0:0,0:0:0:0:
105,368,146266,2,0,L|176:344,1,61.7499971733095,2|0,0:0|0:0,0:0:0:0:
49,152,146526,6,0,B|36:99|36:99|52:23,1,113.999996520996,6|0,0:3|0:0,0:0:0:0:
180,251,146787,2,0,B|193:198|193:198|177:122,1,113.999996520996,6|0,0:3|0:0,0:0:0:0:
29,122,147048,2,0,B|16:69|16:69|32:-7,1,113.999996520996,6|0,0:3|0:0,0:0:0:0:
398,64,147309,6,0,B|335:116|249:75|249:75|243:31|199:-4,1,246.999988693238,14|2,0:1|0:0,0:0:0:0:
377,222,148092,6,0,L|501:182,1,113.999996520996,6|0,0:3|0:0,0:0:0:0:
329,328,148353,2,0,L|453:368,1,113.999996520996,6|0,0:3|0:0,0:0:0:0:
437,362,148613,1,2,0:0:0:0:
46,339,148874,6,0,B|106:315|161:352|161:352|234:319|220:247,1,246.999988693238,14|2,0:1|0:0,0:0:0:0:
221,253,149526,1,2,0:0:0:0:
121,171,149657,6,0,P|60:158|12:120,1,113.999996520996,6|0,0:3|0:0,0:0:0:0:
212,0,149918,2,0,P|151:13|103:51,1,113.999996520996,6|0,0:3|0:0,0:0:0:0:
121,171,150179,5,2,0:0:0:0:
121,171,150309,1,2,0:0:0:0:
279,85,150440,6,0,B|365:27|453:73|453:73|521:49,1,246.999988693238,14|2,0:1|0:0,0:0:0:0:
330,262,151222,6,0,P|350:325|360:377,1,113.999996520996,6|0,0:3|0:0,0:0:0:0:
512,254,151483,2,0,P|492:317|482:369,1,113.999996520996,6|0,0:3|0:0,0:0:0:0:
286,188,151744,2,0,P|306:251|316:303,1,113.999996520996,6|0,0:3|0:0,0:0:0:0:
478,132,152005,6,0,B|444:141|444:141|379:110|379:110|384:43|312:6,1,227.999993041992,14|8,0:1|0:0,0:0:0:0:
13,212,152396,5,8,0:1:0:0:
198,313,152526,1,8,0:1:0:0:
145,157,152657,1,8,0:3:0:0:
66,365,152787,1,12,0:1:0:0:
145,157,153048,5,2,0:0:0:0:
198,313,153309,5,2,0:0:0:0:
198,313,153396,1,2,0:0:0:0:
198,313,153483,1,2,0:0:0:0:
198,313,153570,2,0,B|192:273|192:273|197:225,1,71.2500027179719,2|0,0:0|0:0,0:0:0:0:
0,33,153831,6,0,B|58:103|172:65|172:65|190:24|236:-3,2,265.999991882324,14|8|2,0:1|0:0|0:0,0:0:0:0:
75,200,154483,2,0,P|56:252|54:315,1,113.999996520996,10|8,0:1|0:0,0:0:0:0:
215,192,154744,6,0,B|300:179|300:179|341:213|341:213|443:191,1,227.999993041992,2|0,0:0|0:0,0:0:0:0:
263,384,155135,2,0,B|251:331|251:331|262:273,1,113.999996520996,10|0,0:0|0:0,0:0:0:0:
426,305,155396,2,0,B|438:251|438:251|427:193,1,113.999996520996,2|8,0:0|0:1,0:0:0:0:
504,114,155657,5,10,0:0:0:0:
291,28,155788,2,0,B|233:98|119:60|119:60|101:19|55:-8,1,265.999991882324,2|0,0:0|0:0,0:0:0:0:
110,166,156179,2,0,P|44:180|-4:217,1,113.999996520996,8|0,0:0|0:0,0:0:0:0:
269,231,156440,2,0,B|235:209|235:209|170:264|170:264|196:368,1,227.999993041992,2|8,0:0|0:0,0:0:0:0:
194,363,156831,1,0,0:0:0:0:
511,336,156961,6,0,B|432:284|352:326|352:326|291:304,1,227.999993041992,10|8,0:1|0:0,0:0:0:0:
295,305,157353,1,0,0:0:0:0:
395,119,157483,2,0,P|409:181|444:222,1,113.999996520996,10|8,0:1|0:1,0:0:0:0:
512,104,157744,2,0,P|498:42|463:1,1,113.999996520996,8|2,0:0|0:0,0:0:0:0:
446,17,157940,1,2,0:0:0:0:
446,17,158005,6,0,B|369:0|313:44|313:44|238:-1,2,227.999993041992,10|8|0,0:1|0:0|0:0,0:0:0:0:
446,17,158657,1,8,0:1:0:0:
296,150,158788,5,10,0:0:0:0:
153,82,158918,1,2,0:0:0:0:
0,215,159048,2,0,L|29:327,1,113.999996520996,10|0,0:1|0:0,0:0:0:0:
229,250,159309,6,0,B|175:264|175:264|114:253,1,113.999996520996,10|0,0:0|0:0,0:0:0:0:
295,361,159570,2,0,B|352:371|352:371|406:357,1,113.999996520996,2|8,0:0|0:1,0:0:0:0:
246,240,159831,2,0,B|192:254|192:254|131:243,1,113.999996520996,10|0,0:0|0:0,0:0:0:0:
468,147,160092,6,0,B|480:43|358:26|358:26|325:72,1,227.999993041992,10|8,0:1|0:0,0:0:0:0:
94,112,160483,2,0,B|82:8|204:-9|204:-9|237:37,1,227.999993041992,2|8,0:0|0:1,0:0:0:0:
4,216,160874,6,0,P|18:277|23:332,1,113.999996520996,10|0,0:0|0:0,0:0:0:0:
264,127,161135,2,0,P|250:188|245:243,1,113.999996520996,10|0,0:1|0:0,0:0:0:0:
349,277,161396,2,0,B|410:286|410:286|477:274,1,113.999996520996,8|0,0:0|0:0,0:0:0:0:
113,194,161657,5,8,0:1:0:0:
135,362,161788,1,8,0:1:0:0:
245,239,161918,1,8,0:0:0:0:
6,313,162048,1,2,0:0:0:0:
6,313,162114,1,2,0:0:0:0:
6,313,162179,2,0,B|44:234|-10:146|-10:146|67:78,1,265.999991882324,12|8,0:1|0:0,0:0:0:0:
198,1,162570,6,0,P|196:71|339:53,1,227.999993041992,2|8,0:0|0:1,0:0:0:0:
473,139,162961,2,0,P|461:84|434:30,1,113.999996520996,10|0,0:0|0:0,0:0:0:0:
292,267,163222,6,0,B|371:215|451:257|451:257|512:235,1,227.999993041992,10|8,0:1|0:0,0:0:0:0:
303,374,163614,2,0,B|224:322|144:364|144:364|83:342,1,227.999993041992,2|8,0:0|0:1,0:0:0:0:
177,150,164005,2,0,B|164:206|164:206|180:264,1,113.999996520996,10|0,0:0|0:0,0:0:0:0:
0,142,164266,6,0,B|28:162|28:162|41:102|94:97|94:97|118:48|89:-3,1,227.999993041992,10|8,0:1|0:0,0:0:0:0:
94,6,164657,1,0,0:0:0:0:
257,48,164788,2,0,P|308:40|363:-15,1,113.999996520996,2|8,0:0|0:1,0:0:0:0:
512,119,165048,2,0,P|461:111|406:56,1,113.999996520996,8|0,0:0|0:0,0:0:0:0:
362,211,165309,6,0,B|400:195|400:195|509:229|493:352,1,227.999993041992,10|8,0:1|0:0,0:0:0:0:
494,336,165701,1,0,0:0:0:0:
390,304,165831,1,10,0:1:0:0:
332,371,165961,1,8,0:1:0:0:
225,338,166092,2,0,P|174:323|102:313,1,113.999996520996,8|0,0:0|0:0,0:0:0:0:
0,166,166353,6,0,P|56:157|111:141,1,113.999996520996,14|0,0:1|0:0,0:0:0:0:
218,38,166614,2,0,B|137:16|137:16|85:54|85:54|1:30,1,227.999993041992,8|0,0:0|0:0,0:0:0:0:
322,20,167005,1,8,0:1:0:0:
286,114,167135,2,0,P|286:166|330:211,1,113.999996520996,8|0,0:0|0:0,0:0:0:0:
431,119,167396,6,0,P|431:67|475:22,1,113.999996520996,10|0,0:1|0:0,0:0:0:0:
502,222,167657,2,0,B|504:191|504:191|434:242|434:242|499:342,1,227.999993041992,8|0,0:0|0:0,0:0:0:0:
209,331,168048,1,8,0:1:0:0:
321,383,168179,2,0,L|286:274,1,113.999996520996,8|0,0:0|0:0,0:0:0:0:
126,208,168440,6,0,L|91:317,1,113.999996520996,14|0,0:1|0:0,0:0:0:0:
0,136,168701,2,0,B|34:145|34:145|99:114|99:114|94:47|166:10,1,227.999993041992,8|0,0:0|0:0,0:0:0:0:
354,231,169092,1,8,0:1:0:0:
321,383,169222,5,8,0:0:0:0:
507,226,169353,1,8,0:1:0:0:
389,113,169483,1,12,0:1:0:0:
389,113,169614,1,8,0:1:0:0:
510,62,169744,5,10,0:0:0:0:
276,185,169874,1,8,0:1:0:0:
356,0,170005,1,10,0:3:0:0:
356,0,170070,1,8,0:3:0:0:
356,0,170135,1,8,0:3:0:0:
435,249,170266,1,14,0:0:0:0:
435,249,170396,1,2,0:0:0:0:
251,302,170527,6,0,B|157:240|61:290|61:290|-12:263,2,265.999991882324,12|8|2,0:1|0:0|0:0,0:0:0:0:
189,116,171179,2,0,B|202:61|202:61|187:-7,1,113.999996520996,10|8,0:1|0:0,0:0:0:0:
12,67,171440,2,0,P|6:155|140:148,1,227.999993041992,2|0,0:0|0:0,0:0:0:0:
483,144,171831,6,0,L|444:35,1,113.999996520996,10|0,0:0|0:0,0:0:0:0:
296,195,172092,2,0,L|335:86,1,113.999996520996,2|8,0:0|0:1,0:0:0:0:
432,301,172353,5,10,0:0:0:0:
512,252,172483,2,0,B|446:234|390:280|390:280|309:267|296:191,1,265.999991882324,2|0,0:0|0:0,0:0:0:0:
176,264,172874,2,0,P|191:321|196:379,1,113.999996520996,8|0,0:0|0:0,0:0:0:0:
0,205,173135,2,0,B|43:217|43:217|149:170|113:59,1,227.999993041992,2|8,0:0|0:0,0:0:0:0:
116,69,173527,1,0,0:0:0:0:
402,66,173657,6,0,B|344:113|266:76|266:76|261:36|221:3,1,227.999993041992,10|8,0:1|0:0,0:0:0:0:
224,6,174048,1,0,0:0:0:0:
379,222,174179,2,0,P|431:205|492:192,1,113.999996520996,10|8,0:1|0:1,0:0:0:0:
418,376,174440,2,0,P|363:358|308:346,1,113.999996520996,8|2,0:0|0:0,0:0:0:0:
284,323,174635,1,2,0:0:0:0:
284,323,174701,6,0,B|305:226|194:195|194:195|143:240,2,227.999993041992,10|8|0,0:1|0:0|0:0,0:0:0:0:
284,323,175353,1,8,0:1:0:0:
66,332,175483,6,0,B|123:321|123:321|194:329,1,113.999996520996,10|0,0:0|0:0,0:0:0:0:
0,79,175744,2,0,B|57:68|57:68|128:76,1,113.999996520996,10|0,0:1|0:0,0:0:0:0:
494,154,176005,6,0,P|481:98|452:37,1,113.999996520996,10|0,0:0|0:0,0:0:0:0:
287,107,176266,2,0,P|300:51|329:-10,1,113.999996520996,2|8,0:0|0:1,0:0:0:0:
491,370,176527,2,0,P|478:314|449:253,1,113.999996520996,10|0,0:0|0:0,0:0:0:0:
123,173,176787,6,0,B|98:171|75:155|75:155|-21:191|10:289,1,199.499993911743,14|0,0:1|0:0,0:0:0:0:
66,332,177048,2,0,B|172:308|250:369|250:369|354:307,1,304,14|10,0:0|0:0,0:0:0:0:
476,277,177440,2,0,P|499:328|512:384,1,113.999996520996,2|8,0:0|0:0,0:0:0:0:
506,55,177701,6,0,B|448:125|334:87|334:87|316:46|270:19,1,265.999991882324,14|8,0:1|0:1,0:0:0:0:
66,332,178092,2,0,B|117:327|117:327|168:370|168:370|241:387|291:325|282:259,1,304,12|8,0:0|0:3,0:0:0:0:
282,263,178418,1,8,0:3:0:0:
282,263,178483,1,8,0:1:0:0:
282,263,178548,1,8,0:1:0:0:
282,263,178614,2,0,B|274:213|274:213|283:164,1,95,10|0,0:0|0:0,0:0:0:0:
0,83,178874,6,0,P|-7:158|155:172,1,265.999991882324,14|10,0:1|0:0,0:0:0:0:
281,27,179266,2,0,B|200:5|200:5|148:43|148:43|64:19,1,227.999993041992,2|8,0:0|0:1,0:0:0:0:
282,263,179657,2,0,B|270:321|270:321|284:385,1,113.999996520996,10|0,0:0|0:0,0:0:0:0:
367,199,179918,6,0,B|434:218|434:218|427:138|427:138|449:63,1,227.999993041992,10|8,0:1|0:0,0:0:0:0:
145,185,180309,2,0,B|77:165|77:165|84:245|84:245|62:320,1,227.999993041992,2|8,0:0|0:1,0:0:0:0:
270,355,180701,2,0,B|258:301|258:301|270:243,1,113.999996520996,10|0,0:0|0:0,0:0:0:0:
512,244,180961,6,0,P|506:333|385:315,1,227.999993041992,10|8,0:1|0:0,0:0:0:0:
391,326,181353,1,0,0:0:0:0:
452,175,181483,2,0,P|442:134|450:60,1,113.999996520996,2|8,0:0|0:1,0:0:0:0:
302,111,181744,2,0,P|292:70|300:-4,1,113.999996520996,8|0,0:0|0:0,0:0:0:0:
38,66,182005,6,0,B|74:60|96:34|96:34|201:65|182:157,1,227.999993041992,10|8,0:1|0:0,0:0:0:0:
183,148,182396,1,0,0:0:0:0:
66,183,182527,1,10,0:1:0:0:
143,237,182657,1,8,0:1:0:0:
29,273,182787,2,0,B|20:331|20:331|32:398,1,113.999996520996,8|0,0:0|0:0,0:0:0:0:
244,332,183048,6,0,P|177:326|115:334,1,113.999996520996,14|0,0:1|0:0,0:0:0:0:
361,352,183309,2,0,B|414:369|414:369|501:349|476:230,1,227.999993041992,8|0,0:0|0:0,0:0:0:0:
343,13,183701,1,8,0:1:0:0:
492,111,183831,2,0,L|450:2,1,113.999996520996,8|0,0:0|0:0,0:0:0:0:
312,104,184092,6,0,L|271:210,1,113.999996520996,10|0,0:1|0:0,0:0:0:0:
65,88,184353,2,0,B|123:135|201:98|201:98|206:58|246:25,1,227.999993041992,8|0,0:0|0:0,0:0:0:0:
28,299,184744,1,8,0:1:0:0:
98,227,184874,2,0,P|70:198|-3:184,1,113.999996520996,8|0,0:0|0:0,0:0:0:0:
127,375,185135,6,0,P|182:368|225:331,1,113.999996520996,10|0,0:1|0:0,0:0:0:0:
343,13,185396,2,0,B|357:116|465:130|465:130|479:230,1,265.999991882324,12|0,0:0|0:0,0:0:0:0:
512,304,185787,5,8,0:1:0:0:
271,138,185918,2,0,L|234:-3,1,113.999996520996,12|0,0:0|0:0,0:0:0:0:
390,257,186179,2,0,L|362:368,1,113.999996520996,12|0,0:0|0:0,0:0:0:0:
61,189,186440,5,12,0:0:0:0:
242,27,186570,1,8,0:1:0:0:
35,84,186701,1,8,0:3:0:0:
35,84,186766,1,8,0:3:0:0:
35,84,186831,1,8,0:1:0:0:
35,84,186896,1,8,0:1:0:0:
35,84,186961,1,10,0:0:0:0:
271,138,187092,1,10,0:0:0:0:
4,347,187222,6,0,B|93:326|158:378|158:378|245:326,1,265.999991882324,12|10,0:1|0:0,0:0:0:0:
246,325,187614,1,0,0:0:0:0:
473,248,187744,2,0,P|494:315|499:383,1,132.999995941162,10|8,0:0|0:1,0:0:0:0:
398,124,188005,1,10,0:0:0:0:
398,124,188135,2,0,P|377:191|372:259,1,132.999995941162,10|8,0:1|0:0,0:0:0:0:
371,253,188396,1,0,0:0:0:0:
325,7,188527,6,0,B|395:22|395:22|455:7,1,132.999995941162,10|0,0:0|0:0,0:0:0:0:
132,79,188787,2,0,B|72:64|72:64|2:79,1,132.999995941162,10|8,0:0|0:1,0:0:0:0:
268,139,189048,5,10,0:0:0:0:
222,0,189179,1,10,0:1:0:0:
182,220,189309,6,0,B|172:270|213:298|213:298|176:409|51:358,1,265.999991882324,12|10,0:0|0:0,0:0:0:0:
74,366,189701,1,0,0:0:0:0:
310,253,189831,2,0,L|343:392,1,132.999995941162,10|8,0:0|0:1,0:0:0:0:
482,208,190092,1,10,0:0:0:0:
482,208,190222,2,0,L|512:78,1,132.999995941162,10|8,0:1|0:0,0:0:0:0:
512,78,190483,1,0,0:0:0:0:
304,19,190614,6,0,B|372:27|372:27|445:11,1,132.999995941162,10|0,0:0|0:0,0:0:0:0:
231,130,190874,2,0,B|299:138|299:138|372:122,1,132.999995941162,10|8,0:0|0:1,0:0:0:0:
310,253,191135,1,10,0:0:0:0:
147,29,191266,5,10,0:1:0:0:
147,29,191331,1,8,0:1:0:0:
147,29,191396,2,0,B|133:132|25:146|25:146|11:246,1,265.999991882324,12|8,0:0|0:0,0:0:0:0:
13,226,191787,1,0,0:0:0:0:
188,370,191918,6,0,P|121:359|52:374,1,132.999995941162,8|8,0:0|0:1,0:0:0:0:
310,253,192179,2,0,P|243:242|174:257,1,132.999995941162,8|8,0:0|0:1,0:0:0:0:
164,348,192440,2,0,P|97:337|28:352,1,132.999995941162,8|0,0:0|0:0,0:0:0:0:
318,362,192701,2,0,B|356:372|356:372|428:337|428:337|423:262|503:220,1,265.999991882324,10|10,0:0|0:0,0:0:0:0:
418,81,193092,5,8,0:1:0:0:
502,221,193222,1,10,0:0:0:0:
503,2,193353,1,8,0:1:0:0:
325,160,193483,2,0,B|148:117|300:59|67:34,1,265.999991882324,14|8,0:0|0:0,0:0:0:0:
199,226,193874,6,0,P|142:242|83:291,1,132.999995941162,2|8,0:0|0:0,0:0:0:0:
85,287,194135,1,8,0:1:0:0:
206,360,194266,2,0,P|269:340|319:298,1,132.999995941162,10|8,0:0|0:1,0:0:0:0:
161,214,194527,2,0,P|104:230|45:279,1,132.999995941162,10|0,0:0|0:0,0:0:0:0:
494,201,194787,5,12,0:0:0:0:
319,297,194918,1,8,0:1:0:0:
407,117,195048,1,8,0:0:0:0:
406,381,195179,1,8,0:1:0:0:
406,244,195309,1,12,0:0:0:0:
323,30,195440,5,10,0:1:0:0:
323,30,195505,1,8,0:1:0:0:
323,30,195570,2,0,B|229:4|229:4|168:48|168:48|71:20,1,265.999991882324,12|10,0:0|0:0,0:0:0:0:
78,22,195961,1,0,0:0:0:0:
0,265,196092,2,0,P|-2:328|46:385,1,132.999995941162,10|8,0:0|0:1,0:0:0:0:
161,214,196353,1,10,0:0:0:0:
161,214,196483,2,0,P|163:277|115:334,1,132.999995941162,10|8,0:1|0:0,0:0:0:0:
121,330,196744,1,0,0:0:0:0:
352,358,196874,6,0,B|284:345|284:345|215:361,1,132.999995941162,10|0,0:0|0:0,0:0:0:0:
382,240,197135,2,0,B|314:227|314:227|245:243,1,132.999995941162,10|8,0:0|0:1,0:0:0:0:
512,256,197396,5,10,0:0:0:0:
445,359,197527,1,10,0:1:0:0:
449,137,197657,6,0,B|461:19|320:4|320:4|281:58,1,265.999991882324,12|10,0:0|0:0,0:0:0:0:
288,47,198048,1,0,0:0:0:0:
192,162,198179,2,0,P|197:112|150:33,1,132.999995941162,10|8,0:0|0:1,0:0:0:0:
31,237,198440,1,10,0:0:0:0:
31,237,198570,2,0,P|26:187|73:108,1,132.999995941162,10|8,0:1|0:0,0:0:0:0:
63,115,198831,1,0,0:0:0:0:
202,362,198961,6,0,B|138:377|138:377|65:361,1,132.999995941162,10|0,0:0|0:0,0:0:0:0:
302,265,199222,2,0,B|287:201|287:201|303:128,1,132.999995941162,10|8,0:0|0:1,0:0:0:0:
379,29,199483,1,10,0:0:0:0:
512,251,199614,5,10,0:1:0:0:
512,251,199679,1,8,0:1:0:0:
512,251,199744,2,0,P|512:343|353:336,1,265.999991882324,12|8,0:0|0:0,0:0:0:0:
367,356,200135,1,0,0:0:0:0:
27,316,200266,5,8,0:0:0:0:
193,153,200396,1,8,0:1:0:0:
198,246,200527,1,8,0:0:0:0:
16,224,200657,1,8,0:1:0:0:
164,375,200787,6,0,B|202:385|202:385|274:350|274:350|269:275|349:233,1,265.999991882324,10|8,0:0|0:0,0:0:0:0:
348,234,201179,1,0,0:0:0:0:
476,206,201309,2,0,B|465:274|465:274|474:350,1,132.999995941162,10|8,0:0|0:1,0:0:0:0:
413,18,201570,5,8,0:0:0:0:
512,86,201701,1,8,0:0:0:0:
362,140,201831,6,0,B|323:150|323:150|251:115|251:115|256:40|176:-1,1,265.999991882324,14|8,0:1|0:0,0:0:0:0:
157,204,202222,2,0,P|68:193|39:340,1,265.999991882324,2|8,0:0|0:1,0:0:0:0:
283,375,202614,6,0,B|217:364|217:364|145:376,1,132.999995941162,10|0,0:0|0:0,0:0:0:0:
362,273,202874,2,0,B|296:262|296:262|224:274,1,132.999995941162,10|0,0:1|0:0,0:0:0:0:
512,45,203135,6,0,B|488:27|488:27|420:51|420:51|389:136|454:214,1,265.999991882324,12|8,0:0|0:3,0:0:0:0:
446,205,203461,1,8,0:3:0:0:
446,205,203527,1,8,0:1:0:0:
446,205,203592,1,8,0:1:0:0:
446,205,203657,5,8,0:0:0:0:
283,375,203787,1,8,0:0:0:0:
81,142,203918,6,0,B|70:86|120:58|120:58|84:6,1,156.750004783631,14|0,0:1|0:0,0:0:0:0:
115,6,204179,2,0,P|171:12|221:6,1,104.500003189087,10|0,0:0|0:0,0:0:0:0:
103,236,204440,2,0,P|51:230|0:236,1,104.500003189087,2|8,0:0|0:1,0:0:0:0:
287,118,204701,5,10,0:0:0:0:
185,112,204831,2,0,B|173:208|275:227|275:227|325:193,1,209.000006378174,2|0,0:0|0:0,0:0:0:0:
474,115,205222,6,0,L|439:8,1,104.500003189087,10|0,0:0|0:0,0:0:0:0:
377,292,205483,2,0,L|412:185,1,104.500003189087,2|8,0:0|0:1,0:0:0:0:
459,0,205744,2,0,L|491:99,1,104.500003189087,10|0,0:0|0:0,0:0:0:0:
277,358,206005,6,0,B|217:349|217:349|185:371|185:371|106:358,1,156.750004783631,10|0,0:1|0:0,0:0:0:0:
102,339,206266,2,0,P|92:286|68:237,1,104.500003189087,10|0,0:0|0:0,0:0:0:0:
31,38,206527,2,0,P|8:85|0:136,1,104.500003189087,2|8,0:0|0:1,0:0:0:0:
148,24,206787,5,10,0:0:0:0:
111,130,206918,2,0,B|187:108|238:145|238:145|307:93,1,209.000006378174,2|0,0:0|0:0,0:0:0:0:
245,265,207309,6,0,P|247:320|283:361,1,104.500003189087,10|0,0:0|0:0,0:0:0:0:
395,118,207570,2,0,P|346:92|292:102,1,104.500003189087,10|8,0:1|0:1,0:0:0:0:
449,335,207831,2,0,P|495:305|513:254,1,104.500003189087,10|0,0:0|0:0,0:0:0:0:
451,40,208092,6,0,B|460:80|460:80|422:146|422:146|388:111,1,156.750004783631,14|0,0:1|0:0,0:0:0:0:
362,129,208353,2,0,P|366:185|365:246,1,104.500003189087,10|0,0:0|0:0,0:0:0:0:
106,376,208614,2,0,P|105:323|109:271,1,104.500003189087,2|8,0:0|0:1,0:0:0:0:
90,80,208874,5,10,0:0:0:0:
16,50,209005,2,0,P|17:114|148:129,1,209.000006378174,2|0,0:0|0:0,0:0:0:0:
266,24,209396,6,0,P|205:15|165:-3,1,104.500003189087,10|0,0:0|0:0,0:0:0:0:
237,165,209657,2,0,P|176:156|136:138,1,104.500003189087,2|8,0:0|0:1,0:0:0:0:
357,26,209918,2,0,P|296:17|256:-1,1,104.500003189087,10|0,0:0|0:0,0:0:0:0:
372,265,210179,6,0,B|332:181|435:131|435:131|475:179,1,209.000006378174,10|8,0:1|0:0,0:0:0:0:
460,161,210570,1,0,0:0:0:0:
381,298,210701,2,0,B|341:214|444:164|444:164|484:212,1,209.000006378174,2|8,0:0|0:0,0:0:0:0:
469,194,211092,1,0,0:0:0:0:
268,364,211222,6,0,P|258:309|237:262,1,104.500003189087,10|0,0:1|0:0,0:0:0:0:
88,302,211483,2,0,P|98:247|119:200,1,104.500003189087,8|0,0:0|0:0,0:0:0:0:
239,0,211744,5,10,0:1:0:0:
243,130,211874,1,8,0:1:0:0:
104,69,212005,2,0,B|52:77|52:77|-2:69,1,104.500003189087,12|0,0:0|0:0,0:0:0:0:
118,203,212266,6,0,B|114:252|66:275|66:275|61:346|118:377,2,209.000006378174,14|8|0,0:1|0:0|0:0,0:0:0:0:
118,203,212918,1,8,0:1:0:0:
310,254,213048,2,0,P|299:307|321:368,1,104.500003189087,10|0,0:0|0:0,0:0:0:0:
372,174,213309,5,10,0:1:0:0:
441,258,213440,1,2,0:0:0:0:
497,179,213570,2,0,B|476:115|516:45|516:45|448:-2,1,209.000006378174,10|0,0:0|0:0,0:0:0:0:
458,5,213961,1,8,0:1:0:0:
306,91,214092,5,10,0:0:0:0:
359,4,214222,1,2,0:0:0:0:
206,89,214353,2,0,P|157:74|101:66,1,104.500003189087,8|0,0:1|0:1,0:0:0:0:
5,202,214614,6,0,B|45:186|45:186|144:207|145:299,1,209.000006378174,8|0,0:0|0:0,0:0:0:0:
145,299,215005,1,8,0:1:0:0:
258,368,215135,2,0,B|245:318|245:318|258:259,1,104.500003189087,8|0,0:0|0:0,0:0:0:0:
373,134,215396,6,0,P|440:132|483:258,1,209.000006378174,10|8,0:1|0:0,0:0:0:0:
488,247,215787,1,0,0:0:0:0:
364,349,215918,2,0,B|351:299|351:299|364:240,1,104.500003189087,10|8,0:1|0:1,0:0:0:0:
230,145,216179,2,0,B|217:95|217:95|230:36,1,104.500003189087,8|0,0:0|0:0,0:0:0:0:
123,159,216440,6,0,P|56:157|13:283,2,209.000006378174,14|8|0,0:1|0:0|0:0,0:0:0:0:
123,159,217092,1,8,0:1:0:0:
186,264,217222,2,0,P|168:313|161:377,1,104.500003189087,8|0,0:0|0:0,0:0:0:0:
319,255,217483,5,10,0:1:0:0:
273,333,217614,1,2,0:0:0:0:
407,319,217744,2,0,B|445:329|445:329|541:287|509:187,1,209.000006378174,8|0,0:0|0:0,0:0:0:0:
511,193,218135,1,8,0:1:0:0:
383,64,218266,2,0,B|438:73|438:73|497:62,1,104.500003189087,8|0,0:0|0:0,0:0:0:0:
216,117,218527,6,0,B|168:108|168:108|113:117,1,104.500003189087,14|8,0:1|0:0,0:0:0:0:
114,117,218722,1,8,0:0:0:0:
114,117,218787,1,8,0:0:0:0:
314,145,218918,1,8,0:0:0:0:
222,0,219048,1,8,0:0:0:0:
225,269,219179,1,8,0:0:0:0:
225,269,219244,1,8,0:0:0:0:
225,269,219309,1,8,0:0:0:0:
114,117,219440,1,8,0:0:0:0:
358,220,219570,6,0,B|407:202|407:202|541:247|490:382,1,265.999991882324,12|8,0:1|0:0,0:0:0:0:
163,175,219961,2,0,B|114:157|114:157|-20:202|31:337,1,265.999991882324,12|8,0:1|0:0,0:0:0:0:
252,371,220353,2,0,B|185:360|185:360|110:374,1,132.999995941162,12|0,0:1|0:0,0:0:0:0:
358,220,220614,6,0,B|324:132|420:91|420:91|457:136,1,199.499993911743,14|0,0:1|0:0,0:0:0:0:
479,149,220874,2,0,P|476:208|481:266,1,113.999996520996,10|0,0:0|0:0,0:0:0:0:
257,172,221135,2,0,P|261:115|258:58,1,113.999996520996,2|8,0:0|0:1,0:0:0:0:
345,0,221396,5,10,0:0:0:0:
259,59,221527,2,0,B|201:106|123:69|123:69|118:29|78:-4,1,227.999993041992,2|0,0:0|0:0,0:0:0:0:
0,264,221918,2,0,P|2:207|19:152,1,113.999996520996,8|0,0:0|0:0,0:0:0:0:
115,268,222179,6,0,P|98:323|96:382,1,113.999996520996,2|8,0:0|0:1,0:0:0:0:
276,283,222440,2,0,P|273:226|256:171,1,113.999996520996,10|0,0:0|0:0,0:0:0:0:
369,357,222701,6,0,B|414:393|475:364|475:364|479:333|510:307,1,170.999994781494,10|0,0:1|0:0,0:0:0:0:
496,285,222961,1,10,0:0:0:0:
486,42,223092,2,0,P|480:131|358:124,1,227.999993041992,2|8,0:0|0:1,0:0:0:0:
123,92,223483,5,10,0:0:0:0:
123,92,223614,1,2,0:0:0:0:
224,33,223744,5,10,0:1:0:0:
14,168,223874,1,2,0:0:0:0:
89,0,224005,1,10,0:0:0:0:
147,190,224135,1,2,0:0:0:0:
43,354,224266,5,10,0:1:0:0:
215,270,224396,1,10,0:1:0:0:
77,253,224527,1,10,0:0:0:0:
185,373,224657,1,2,0:0:0:0:
389,236,224787,6,0,B|419:274|456:266|456:266|504:165|417:101,1,265.999991882324,14|10,0:1|0:0,0:0:0:0:
416,101,225179,1,0,0:0:0:0:
263,55,225309,2,0,P|321:42|382:18,1,113.999996520996,2|8,0:0|0:1,0:0:0:0:
138,17,225570,5,10,0:0:0:0:
166,131,225701,2,0,B|241:185|199:272|199:272|168:279|142:245,1,227.999993041992,2|0,0:0|0:0,0:0:0:0:
20,217,226092,6,0,B|12:275|12:275|22:335,1,113.999996520996,10|0,0:0|0:0,0:0:0:0:
253,247,226353,2,0,P|188:237|119:253,1,113.999996520996,2|8,0:0|0:1,0:0:0:0:
351,221,226614,2,0,B|359:279|359:279|349:339,1,113.999996520996,10|0,0:0|0:0,0:0:0:0:
487,72,226874,6,0,L|457:-9,1,75.9999976806641,10|0,0:1|0:0,0:0:0:0:
337,96,227048,2,0,L|367:15,1,75.9999976806641,2|8,0:0|0:0,0:0:0:0:
488,155,227222,2,0,L|458:74,1,75.9999976806641,2|0,0:0|0:0,0:0:0:0:
163,50,227396,6,0,P|208:42|236:13,1,75.9999976806641,2|0,0:0|0:0,0:0:0:0:
73,0,227570,2,0,P|28:8|0:37,1,75.9999976806641,2|8,0:0|0:0,0:0:0:0:
189,55,227744,2,0,P|234:47|262:18,1,75.9999976806641,2|0,0:0|0:0,0:0:0:0:
0,227,227918,6,0,L|10:311,1,75.9999976806641,10|0,0:1|0:0,0:0:0:0:
149,208,228092,2,0,L|71:174,1,75.9999976806641,2|8,0:0|0:0,0:0:0:0:
94,346,228266,2,0,L|161:295,1,75.9999976806641,2|0,0:0|0:0,0:0:0:0:
344,307,228440,6,0,P|341:344|347:382,1,75.9999976806641,10|0,0:1|0:0,0:0:0:0:
436,320,228614,2,0,P|470:304|499:281,1,75.9999976806641,2|8,0:0|0:0,0:0:0:0:
398,229,228787,2,0,P|367:208|332:194,1,75.9999976806641,2|0,0:0|0:0,0:0:0:0:
495,110,228961,6,0,B|506:57|506:57|488:-7,1,113.999996520996,14|0,0:1|0:0,0:0:0:0:
369,0,229222,2,0,B|352:57|352:57|363:110,1,113.999996520996,8|0,0:0|0:0,0:0:0:0:
243,65,229483,2,0,B|154:50|154:50|110:85|110:85|6:65,1,227.999993041992,2|8,0:0|0:0,0:0:0:0:
29,69,229874,1,0,0:0:0:0:
192,265,230005,2,0,B|181:211|181:211|197:154,1,113.999996520996,10|0,0:1|0:0,0:0:0:0:
488,22,230266,5,10,0:0:0:0:
365,124,230396,1,2,0:0:0:0:
465,148,230527,1,2,0:0:0:0:
342,250,230657,1,10,0:1:0:0:
441,274,230787,1,10,0:0:0:0:
318,376,230917,1,2,0:0:0:0:
14,324,231048,6,0,B|72:371|150:334|150:334|155:294|195:261,1,227.999993041992,10|8,0:1|0:0,0:0:0:0:
73,77,231440,5,2,0:0:0:0:
191,264,231570,1,2,0:0:0:0:
195,48,231701,1,10,0:1:0:0:
77,235,231831,1,10,0:0:0:0:
83,52,231961,1,2,0:0:0:0:
201,239,232091,1,10,0:1:0:0:
472,88,232222,5,2,0:0:0:0:
319,130,232353,1,10,0:0:0:0:
442,70,232483,1,2,0:0:0:0:
289,112,232614,1,10,0:1:0:0:
467,259,232744,5,10,0:1:0:0:
358,229,232875,1,10,0:0:0:0:
445,271,233005,1,2,0:0:0:0:
337,241,233136,1,14,0:1:0:0:
165,369,233266,5,2,0:0:0:0:
201,239,233396,1,10,0:0:0:0:
135,161,233527,1,2,0:0:0:0:
37,255,233657,5,2,0:0:0:0:
1,125,233787,1,10,0:1:0:0:
67,47,233918,1,10,0:0:0:0:
67,47,234048,1,2,0:0:0:0:
392,21,234179,5,10,0:1:0:0:
336,240,234309,1,2,0:0:0:0:
457,108,234440,1,10,0:0:0:0:
512,328,234570,1,2,0:0:0:0:
392,21,234701,5,2,0:0:0:0:
470,225,234831,5,10,0:1:0:0:
271,349,234961,1,10,0:0:0:0:
450,209,235092,1,2,0:0:0:0:
251,333,235222,2,0,B|157:271|61:321|61:321|-12:294,2,265.999991882324,14|8|0,0:1|0:0|0:0,0:0:0:0:
251,333,235874,1,8,0:1:0:0:
369,67,236005,5,14,0:0:0:0:
450,209,236135,1,2,0:0:0:0:
177,191,236266,6,8,B|103:178|103:178|66:206|66:206|-20:187,1,190,10|8,0:3|0:3,0:0:0:0:
216,106,236657,2,4,B|210:64|210:64|259:-1|259:-1|303:60,1,190,4|4,0:3|0:3,0:0:0:0:
119,105,237048,2,0,L|91:6,1,95,4|0,0:3|0:0,0:0:0:0:
268,193,237310,5,14,0:0:0:0:
177,191,237570,1,8,0:0:0:0:
177,191,237636,1,8,0:0:0:0:
177,191,237701,1,8,0:0:0:0:
216,106,237831,1,10,0:0:0:0:
476,77,238092,6,0,P|419:63|368:21,1,123.499994346619,10|0,0:0|0:0,0:0:0:0:
405,213,238353,2,0,P|462:199|513:157,1,123.499994346619,10|0,0:0|0:0,0:0:0:0:
308,285,238614,5,8,0:0:0:0:
347,147,238744,1,8,0:0:0:0:
366,351,238875,1,10,0:0:0:0:
405,213,239136,5,8,0:0:0:0:
405,213,239201,1,8,0:0:0:0:
405,213,239266,1,8,0:0:0:0:
308,285,239396,1,10,0:0:0:0:
94,218,239657,6,0,L|131:344,1,123.499994346619,10|0,0:0|0:0,0:0:0:0:
1,214,239918,2,0,L|36:96,1,123.499994346619,10|0,0:0|0:0,0:0:0:0:
184,116,240179,5,10,0:0:0:0:
88,10,240310,1,10,0:0:0:0:
36,96,240440,1,10,0:0:0:0:
184,116,240701,5,8,0:0:0:0:
184,116,240766,1,8,0:0:0:0:
184,116,240831,1,8,0:0:0:0:
236,30,240961,1,10,0:0:0:0:
476,165,241223,6,0,P|471:119|417:56,1,123.499994346619,10|0,0:0|0:0,0:0:0:0:
297,246,241483,2,0,P|302:200|356:137,1,123.499994346619,10|0,0:0|0:0,0:0:0:0:
313,375,241744,5,10,0:0:0:0:
224,324,241875,1,8,0:0:0:0:
383,298,242005,1,10,0:0:0:0:
297,246,242266,5,10,0:0:0:0:
297,246,242331,1,8,0:0:0:0:
297,246,242396,1,8,0:0:0:0:
313,375,242527,1,10,0:0:0:0:
54,62,242788,6,0,B|62:6|4:-14|4:-14|-4:26,1,123.499994346619,6|0,0:3|0:0,0:0:0:0:
160,156,243049,2,0,B|204:190|250:150|250:150|220:123,1,123.499994346619,6|0,0:3|0:0,0:0:0:0:
29,200,243310,2,0,B|-23:221|-11:281|-11:281|26:268,1,123.499994346619,6|0,0:3|0:0,0:0:0:0:
191,16,243570,5,14,0:0:0:0:
233,135,243831,1,8,0:0:0:0:
233,135,243896,1,8,0:0:0:0:
233,135,243962,1,8,0:0:0:0:
334,0,244092,1,10,0:0:0:0:
323,367,244353,6,0,B|310:309|310:309|324:241,1,123.499994346619,10|0,0:0|0:0,0:0:0:0:
493,369,244614,2,0,B|506:311|506:311|492:243,1,123.499994346619,10|0,0:0|0:0,0:0:0:0:
389,155,244875,5,10,0:0:0:0:
493,248,245005,1,10,0:0:0:0:
475,96,245136,1,10,0:0:0:0:
423,314,245396,5,8,0:0:0:0:
423,314,245462,1,8,0:0:0:0:
423,314,245527,1,8,0:0:0:0:
493,248,245657,1,10,0:0:0:0:
222,52,245918,6,0,L|368:2,1,123.499994346619,10|0,0:0|0:0,0:0:0:0:
116,130,246179,2,0,L|-30:80,1,123.499994346619,10|0,0:0|0:0,0:0:0:0:
139,4,246440,5,10,0:0:0:0:
198,181,246570,1,10,0:0:0:0:
222,52,246701,1,10,0:0:0:0:
116,130,246961,5,8,0:0:0:0:
116,130,247026,1,8,0:0:0:0:
116,130,247092,1,8,0:0:0:0:
139,4,247223,1,10,0:0:0:0:
7,251,247483,6,0,P|8:313|59:368,1,123.499994346619,10|0,0:0|0:0,0:0:0:0:
265,347,247744,2,0,P|265:286|302:238,1,123.499994346619,10|0,0:0|0:0,0:0:0:0:
291,99,248005,5,10,0:0:0:0:
493,304,248136,1,8,0:0:0:0:
414,117,248266,6,0,B|351:167|267:127|267:127|261:84|218:49,1,246.999988693238,14|8,0:1|0:0,0:0:0:0:
48,12,248657,5,8,0:1:0:0:
221,51,248788,1,8,0:1:0:0:
129,199,248918,1,8,0:3:0:0:
302,238,249049,1,12,0:1:0:0:
221,51,249309,5,2,0:0:0:0:
129,199,249570,5,2,0:0:0:0:
129,199,249657,1,2,0:0:0:0:
129,199,249744,1,2,0:0:0:0:
129,199,249831,2,0,B|125:227|125:227|131:269,1,52.2500015945435,2|0,0:0|0:0,0:0:0:0:
204,352,250092,6,0,B|279:328|279:328|369:376|369:376|484:378|540:269|505:173,1,465.499985794068,12|0,0:1|0:0,0:0:0:0:
436,4,252179,6,0,B|480:189|280:246|280:246|239:200|158:170,1,465.499985794068,14|0,0:1|0:0,0:0:0:0:
110,3,254266,6,0,B|134:113|40:171|40:171|56:344|214:352,1,465.499985794068,12|0,0:1|0:0,0:0:0:0:
315,380,256353,6,0,P|370:367|468:352,1,142.500005435944,10|0,0:3|0:0,0:0:0:0:
343,267,256744,2,0,P|288:254|190:239,1,142.500005435944,6|0,0:3|0:0,0:0:0:0:
426,143,257135,6,0,B|418:182|418:182|426:215,1,71.2500027179719,10|0,0:3|0:0,0:0:0:0:
469,62,257396,1,10,0:1:0:0:
512,142,257527,2,0,B|520:181|520:181|512:214,1,71.2500027179719,8|0,0:0|0:0,0:0:0:0:
265,93,257788,5,8,0:0:0:0:
330,18,257918,1,8,0:3:0:0:
236,92,258049,1,8,0:3:0:0:
301,17,258179,2,0,P|339:18|372:0,1,71.2500027179719,10|0,0:3|0:0,0:0:0:0:
66,14,258440,5,14,0:1:0:0:
120,145,258962,1,8,0:1:0:0:
54,101,259483,1,8,0:1:0:0:
0,232,260005,5,8,0:0:0:0:
277,261,260527,5,10,0:1:0:0:
243,372,261049,1,8,0:1:0:0:
181,303,261570,1,8,0:1:0:0:
339,336,262092,1,8,0:1:0:0:
460,133,262353,5,8,0:0:0:0:
501,231,262614,6,0,P|492:273|490:309,1,71.2500027179719,10|0,0:1|0:0,0:0:0:0:
391,229,262875,2,0,P|387:193|379:158,1,71.2500027179719,8|0,0:1|0:0,0:0:0:0:
482,257,263135,2,0,P|473:299|471:335,1,71.2500027179719,8|0,0:1|0:0,0:0:0:0:
183,228,263396,6,0,B|145:235|145:235|101:227,1,71.2500027179719,8|0,0:0|0:0,0:0:0:0:
6,83,263657,5,10,0:1:0:0:
112,229,263788,1,8,0:0:0:0:
25,280,263918,1,8,0:0:0:0:
105,43,264049,1,8,0:0:0:0:
239,57,264179,5,8,0:0:0:0:
239,104,264265,1,8,0:0:0:0:
260,145,264352,1,8,0:0:0:0:
298,173,264439,1,8,0:0:0:0:
345,181,264526,1,8,0:0:0:0:
390,168,264613,1,8,0:0:0:0:
426,136,264701,6,0,B|379:50|477:-14|477:-14|512:34,1,227.999993041992,14|8,0:1|0:0,0:0:0:0:
511,166,265092,2,8,P|521:258|396:250,1,227.999993041992,14|8,0:1|0:0,0:0:0:0:
160,383,265483,2,8,B|239:331|319:373|319:373|380:351,1,227.999993041992,14|12,0:1|0:1,0:0:0:0:
197,160,265875,1,8,0:0:0:0:
197,160,265940,1,8,0:0:0:0:
197,160,266005,5,10,0:3:0:0:
205,191,266091,1,8,0:3:0:0:
203,224,266178,1,8,0:3:0:0:
191,254,266265,1,10,0:3:0:0:
170,279,266352,1,8,0:3:0:0:
143,297,266439,1,8,0:3:0:0:
112,305,266526,1,10,0:3:0:0:
79,304,266613,1,8,0:3:0:0:
49,293,266700,1,8,0:3:0:0:
23,273,266787,1,8,0:3:0:0:
300,34,267049,6,0,B|345:28|375:0|375:0|502:36|491:168,1,304,12|2,0:0|0:0,0:0:0:0:
422,320,267440,2,0,P|418:274|377:209,1,113.999996520996,10|8,0:1|0:0,0:0:0:0:
97,135,267701,6,0,B|69:155|69:155|56:95|3:90|3:90|-21:41|8:-10,1,227.999993041992,2|0,0:0|0:0,0:0:0:0:
23,273,268092,2,0,L|-3:397,1,113.999996520996,10|0,0:0|0:0,0:0:0:0:
109,243,268353,2,0,L|135:367,1,113.999996520996,2|8,0:0|0:1,0:0:0:0:
97,135,268614,5,10,0:0:0:0:
201,176,268744,2,0,B|250:196|250:196|280:158|280:158|336:131|336:131|291:9,1,265.999991882324,2|0,0:0|0:0,0:0:0:0:
445,173,269135,2,0,B|435:115|435:115|454:53,1,113.999996520996,8|0,0:0|0:0,0:0:0:0:
511,336,269396,2,0,B|432:284|352:326|352:326|291:304,1,227.999993041992,2|8,0:0|0:0,0:0:0:0:
295,306,269788,1,0,0:0:0:0:
39,246,269918,6,0,P|23:312|161:328,1,227.999993041992,10|8,0:1|0:0,0:0:0:0:
147,346,270309,1,0,0:0:0:0:
111,127,270440,2,0,B|55:138|55:138|-2:125,1,113.999996520996,10|8,0:1|0:1,0:0:0:0:
215,128,270701,2,0,B|204:72|204:72|217:15,1,113.999996520996,8|2,0:0|0:0,0:0:0:0:
243,33,270896,1,2,0:0:0:0:
243,33,270962,6,0,B|321:-18|401:23|401:23|462:1,2,227.999993041992,10|8|0,0:1|0:0|0:0,0:0:0:0:
243,33,271614,1,8,0:1:0:0:
399,122,271744,5,10,0:0:0:0:
315,198,271875,1,2,0:0:0:0:
469,285,272005,2,0,L|495:161,1,113.999996520996,10|0,0:1|0:0,0:0:0:0:
265,350,272266,6,0,B|321:361|321:361|378:348,1,113.999996520996,10|0,0:0|0:0,0:0:0:0:
113,302,272527,2,0,B|57:291|57:291|0:304,1,113.999996520996,2|8,0:0|0:1,0:0:0:0:
291,341,272788,2,0,B|347:352|347:352|404:339,1,113.999996520996,10|0,0:0|0:0,0:0:0:0:
233,114,273049,6,0,B|216:138|216:138|288:115|288:115|241:30,1,199.499993911743,14|0,0:1|0:0,0:0:0:0:
155,10,273309,2,0,B|101:-11|101:-11|68:29|68:29|6:59|6:59|53:188,1,304,14|10,0:0|0:0,0:0:0:0:
291,341,273701,2,0,P|288:293|322:224,1,113.999996520996,2|8,0:0|0:0,0:0:0:0:
493,66,273962,6,0,B|399:4|303:54|303:54|230:27,1,265.999991882324,14|8,0:1|0:1,0:0:0:0:
506,359,274353,2,0,B|488:340|488:340|488:295|456:263|456:263|452:210|517:159|517:159|535:191|503:235,1,304,12|8,0:0|0:3,0:0:0:0:
511,223,274679,1,8,0:3:0:0:
511,223,274744,1,8,0:1:0:0:
511,223,274809,1,8,0:1:0:0:
511,223,274875,2,0,B|469:218|469:218|451:227|451:227|396:220,1,95,10|0,0:0|0:0,0:0:0:0:
30,348,275135,6,0,B|79:368|79:368|109:330|109:330|165:303|165:303|122:185,1,265.999991882324,14|10,0:1|0:0,0:0:0:0:
0,5,275527,2,0,P|-12:70|119:94,1,227.999993041992,2|8,0:0|0:1,0:0:0:0:
225,28,275918,2,0,L|97:2,1,113.999996520996,10|0,0:0|0:0,0:0:0:0:
376,131,276179,6,0,B|406:121|428:99|428:99|533:131|509:229,1,227.999993041992,10|8,0:1|0:0,0:0:0:0:
406,267,276570,2,0,B|376:257|354:235|354:235|249:267|273:365,1,227.999993041992,2|8,0:0|0:1,0:0:0:0:
494,371,276962,2,0,B|438:360|438:360|368:373,1,113.999996520996,10|0,0:0|0:0,0:0:0:0:
3,257,277222,6,0,B|-36:160|62:101|62:101|105:125,1,227.999993041992,10|8,0:1|0:0,0:0:0:0:
99,121,277614,1,0,0:0:0:0:
197,13,277744,2,0,P|194:71|221:126,1,113.999996520996,2|8,0:0|0:1,0:0:0:0:
406,22,278005,2,0,B|350:33|350:33|280:20,1,113.999996520996,8|0,0:0|0:0,0:0:0:0:
496,109,278266,6,0,B|468:89|468:89|455:149|402:154|402:154|378:203|407:254,1,227.999993041992,10|8,0:1|0:0,0:0:0:0:
401,244,278657,1,0,0:0:0:0:
434,375,278788,1,10,0:1:0:0:
490,306,278918,1,8,0:1:0:0:
335,323,279048,2,0,B|279:334|279:334|209:321,1,113.999996520996,8|0,0:0|0:0,0:0:0:0:
0,254,279309,6,0,L|30:374,1,113.999996520996,14|0,0:1|0:0,0:0:0:0:
216,167,279570,2,0,B|137:115|57:157|57:157|-4:135,1,227.999993041992,8|0,0:0|0:0,0:0:0:0:
216,0,279962,1,8,0:1:0:0:
299,26,280092,2,0,P|307:81|339:147,1,113.999996520996,8|0,0:0|0:0,0:0:0:0:
512,143,280353,6,0,P|504:198|472:264,1,113.999996520996,10|0,0:1|0:0,0:0:0:0:
256,368,280614,2,0,B|335:316|415:358|415:358|476:336,1,227.999993041992,8|0,0:0|0:0,0:0:0:0:
6,231,281005,1,8,0:1:0:0:
88,275,281135,2,0,L|123:391,1,113.999996520996,8|0,0:0|0:0,0:0:0:0:
216,167,281396,6,0,L|181:283,1,113.999996520996,10|0,0:1|0:0,0:0:0:0:
488,115,281657,2,0,B|496:7|387:-21|387:-21|357:2|367:49,1,265.999991882324,12|0,0:0|0:0,0:0:0:0:
292,108,282048,5,8,0:1:0:0:
375,266,282179,2,0,P|373:326|408:376,1,113.999996520996,12|0,0:0|0:0,0:0:0:0:
7,117,282440,2,0,P|36:69|33:13,1,113.999996520996,12|0,0:0|0:0,0:0:0:0:
199,178,282701,5,12,0:0:0:0:
51,318,282831,1,8,0:1:0:0:
139,118,282962,1,8,0:3:0:0:
139,118,283027,1,8,0:3:0:0:
139,118,283092,1,8,0:1:0:0:
139,118,283157,1,8,0:1:0:0:
139,118,283222,1,10,0:0:0:0:
112,384,283353,1,10,0:0:0:0:
510,72,283483,6,0,P|509:167|360:156,1,265.999991882324,12|10,0:1|0:0,0:0:0:0:
367,169,283875,1,0,0:0:0:0:
260,46,284005,2,0,B|329:56|329:56|402:42,1,132.999995941162,10|8,0:0|0:1,0:0:0:0:
139,118,284266,1,10,0:0:0:0:
139,118,284396,2,0,B|76:106|76:106|7:116,1,132.999995941162,10|8,0:1|0:0,0:0:0:0:
7,116,284657,1,0,0:0:0:0:
14,349,284788,6,0,L|43:200,1,132.999995941162,10|0,0:0|0:0,0:0:0:0:
217,378,285048,2,0,L|188:229,1,132.999995941162,10|8,0:0|0:1,0:0:0:0:
411,139,285309,5,10,0:0:0:0:
337,333,285440,1,10,0:1:0:0:
260,46,285570,6,0,B|354:-16|450:34|450:34|523:7,1,265.999991882324,12|10,0:0|0:0,0:0:0:0:
511,11,285962,1,0,0:0:0:0:
451,260,286092,2,0,P|454:336|492:378,1,132.999995941162,10|8,0:0|0:1,0:0:0:0:
192,248,286353,1,10,0:0:0:0:
192,248,286483,2,0,P|232:196|230:131,1,132.999995941162,10|8,0:1|0:0,0:0:0:0:
230,131,286744,1,0,0:0:0:0:
132,28,286875,6,0,B|68:44|68:44|-10:29,1,132.999995941162,10|0,0:0|0:0,0:0:0:0:
142,167,287135,2,0,B|78:183|78:183|0:168,1,132.999995941162,10|8,0:0|0:1,0:0:0:0:
59,291,287396,1,10,0:0:0:0:
260,46,287527,5,10,0:1:0:0:
260,46,287592,1,8,0:1:0:0:
260,46,287657,2,0,B|309:26|309:26|339:64|339:64|395:91|395:91|354:206,1,265.999991882324,12|8,0:0|0:0,0:0:0:0:
360,187,288048,1,0,0:0:0:0:
255,365,288179,6,0,P|249:293|252:227,1,132.999995941162,8|8,0:0|0:1,0:0:0:0:
489,324,288440,2,0,P|483:252|486:186,1,132.999995941162,8|8,0:0|0:1,0:0:0:0:
281,375,288701,2,0,P|275:303|278:237,1,132.999995941162,8|0,0:0|0:0,0:0:0:0:
163,8,288962,2,0,B|175:126|34:141|34:141|-5:87,1,265.999991882324,10|10,0:0|0:0,0:0:0:0:
78,21,289353,5,8,0:1:0:0:
169,220,289483,1,10,0:0:0:0:
2,97,289614,1,8,0:1:0:0:
239,146,289744,2,0,B|275:157|275:157|342:121|342:121|345:37|426:-3,1,265.999991882324,14|8,0:0|0:0,0:0:0:0:
512,196,290135,6,0,P|498:262|492:336,1,132.999995941162,2|8,0:0|0:0,0:0:0:0:
492,327,290396,1,8,0:1:0:0:
420,0,290527,2,0,P|434:66|440:140,1,132.999995941162,10|8,0:0|0:1,0:0:0:0:
472,354,290788,2,0,P|477:287|491:222,1,132.999995941162,10|0,0:0|0:0,0:0:0:0:
128,126,291048,5,12,0:0:0:0:
261,347,291179,1,8,0:1:0:0:
224,158,291309,5,8,0:0:0:0:
91,379,291440,1,8,0:1:0:0:
154,107,291570,5,12,0:0:0:0:
293,328,291701,1,8,0:1:0:0:
53,113,291831,6,0,B|119:168|209:125|209:125|215:79|261:41,1,265.999991882324,12|10,0:0|0:0,0:0:0:0:
259,43,292222,1,0,0:0:0:0:
466,163,292353,2,0,P|395:140|327:137,1,132.999995941162,10|8,0:0|0:1,0:0:0:0:
384,331,292614,1,10,0:0:0:0:
384,331,292744,2,0,P|455:308|523:305,1,132.999995941162,10|8,0:1|0:0,0:0:0:0:
512,304,293005,1,0,0:0:0:0:
244,252,293135,6,0,L|282:384,1,132.999995941162,10|0,0:0|0:0,0:0:0:0:
53,113,293396,2,0,L|15:245,1,132.999995941162,10|8,0:0|0:1,0:0:0:0:
137,27,293657,5,10,0:0:0:0:
10,12,293788,1,10,0:1:0:0:
180,131,293918,6,0,B|274:69|370:119|370:119|443:92,1,265.999991882324,12|10,0:0|0:0,0:0:0:0:
431,96,294309,1,0,0:0:0:0:
145,245,294440,2,0,B|131:306|131:306|143:377,1,132.999995941162,10|8,0:0|0:1,0:0:0:0:
280,379,294701,1,10,0:0:0:0:
280,379,294831,2,0,B|292:310|292:310|278:249,1,132.999995941162,10|8,0:1|0:0,0:0:0:0:
278,249,295092,1,0,0:0:0:0:
511,369,295222,6,0,L|378:319,1,132.999995941162,10|0,0:0|0:0,0:0:0:0:
306,142,295483,2,0,L|431:96,1,132.999995941162,10|8,0:0|0:1,0:0:0:0:
145,15,295744,5,10,0:0:0:0:
430,96,295875,1,10,0:1:0:0:
230,56,296005,6,0,B|164:38|108:84|108:84|27:71|14:-5,1,265.999991882324,12|8,0:1|0:0,0:0:0:0:
172,158,296396,1,2,0:0:0:0:
1,200,296527,1,2,0:0:0:0:
229,342,296657,1,10,0:1:0:0:
58,384,296788,2,0,L|90:249,1,132.999995941162,14|0,0:0|0:1,0:0:0:0:
356,18,297048,5,10,0:0:0:0:
505,182,297179,1,8,0:0:0:0:
505,182,297244,1,8,0:0:0:0:
505,182,297309,1,8,0:0:0:0:
504,0,297440,1,8,0:3:0:0:
364,200,297570,1,10,0:3:0:0:
430,96,297701,1,8,0:3:0:0:
310,258,297831,6,0,B|324:245|324:245|386:263|386:263|413:337|366:379,1,209.000006378174,12|2,0:0|0:0,0:0:0:0:
366,378,299135,5,8,0:1:0:0:
231,350,299396,2,0,B|153:330|101:377|101:377|35:331,1,209.000006378174,12|8,0:0|0:3,0:0:0:0:
43,336,299722,1,8,0:3:0:0:
43,336,299788,1,8,0:1:0:0:
43,336,299853,1,8,0:1:0:0:
43,336,299918,1,12,0:0:0:0:
50,18,300179,6,0,P|33:80|21:188,1,156.750004783631,14|0,0:1|0:0,0:0:0:0:
50,198,300440,2,0,B|88:195|88:195|105:204|105:204|162:198,1,104.500003189087,10|0,0:0|0:0,0:0:0:0:
295,115,300701,2,0,P|306:60|337:17,1,104.500003189087,2|8,0:0|0:1,0:0:0:0:
507,87,300962,5,10,0:0:0:0:
404,98,301092,2,0,B|436:79|436:79|547:117|508:222,1,209.000006378174,2|0,0:0|0:0,0:0:0:0:
372,366,301483,6,0,P|428:351|486:345,1,104.500003189087,10|0,0:0|0:0,0:0:0:0:
410,230,301744,2,0,P|466:215|524:209,1,104.500003189087,2|8,0:0|0:1,0:0:0:0:
338,355,302005,2,0,P|394:340|452:334,1,104.500003189087,10|0,0:0|0:0,0:0:0:0:
187,336,302266,6,0,B|124:317|85:338|85:338|40:297,1,156.750004783631,10|0,0:1|0:0,0:0:0:0:
12,286,302527,2,0,P|16:226|10:172,1,104.500003189087,10|0,0:0|0:0,0:0:0:0:
172,106,302788,2,0,P|167:158|171:210,1,104.500003189087,2|8,0:0|0:1,0:0:0:0:
107,33,303048,5,10,0:0:0:0:
211,14,303179,2,0,B|294:5|294:5|324:29|324:29|431:13,1,209.000006378174,2|0,0:0|0:0,0:0:0:0:
339,241,303570,6,0,L|300:118,1,104.500003189087,10|0,0:0|0:0,0:0:0:0:
481,282,303831,2,0,L|520:159,1,104.500003189087,10|8,0:1|0:1,0:0:0:0:
288,384,304092,2,0,L|249:261,1,104.500003189087,10|0,0:0|0:0,0:0:0:0:
0,168,304353,6,0,B|-1:242|73:249|73:249|107:227,1,156.750004783631,14|0,0:1|0:0,0:0:0:0:
103,206,304614,2,0,P|155:199|218:202,1,104.500003189087,10|0,0:0|0:0,0:0:0:0:
156,103,304875,2,0,B|149:51|149:51|164:-13,1,104.500003189087,2|8,0:0|0:1,0:0:0:0:
394,86,305135,5,10,0:0:0:0:
342,6,305266,2,0,B|311:-5|311:-6|311:-6|260:51|260:51|304:149,1,209.000006378174,2|0,0:0|0:0,0:0:0:0:
366,225,305657,2,0,P|364:272|398:319,1,104.500003189087,10|0,0:0|0:0,0:0:0:0:
156,358,305918,6,0,B|105:368|105:368|45:358,1,104.500003189087,2|8,0:0|0:1,0:0:0:0:
293,318,306179,2,0,B|344:308|344:308|395:316,1,104.500003189087,10|0,0:0|0:0,0:0:0:0:
153,128,306440,6,0,P|152:198|34:194,1,209.000006378174,10|8,0:1|0:0,0:0:0:0:
37,200,306831,1,0,0:0:0:0:
157,103,306962,2,0,P|156:173|38:169,1,209.000006378174,2|8,0:0|0:0,0:0:0:0:
41,175,307353,1,0,0:0:0:0:
15,43,307483,6,0,P|72:30|119:9,1,104.500003189087,10|0,0:1|0:0,0:0:0:0:
256,134,307744,2,0,P|207:113|156:102,1,104.500003189087,8|0,0:0|0:0,0:0:0:0:
480,121,308005,5,10,0:1:0:0:
403,38,308135,1,8,0:1:0:0:
330,211,308266,2,0,B|322:263|322:263|332:319,1,104.500003189087,12|0,0:0|0:0,0:0:0:0:
403,38,308527,6,0,B|337:11|273:49|273:49|208:-10,1,209.000006378174,14|8,0:1|0:0,0:0:0:0:
0,171,308918,2,0,P|14:235|36:381,1,209.000006378174,2|8,0:0|0:1,0:0:0:0:
129,308,309309,2,0,P|143:204|164:102,1,209.000006378174,10|8,0:0|0:1,0:0:0:0:
331,314,309701,5,2,0:0:0:0:
331,314,309766,1,2,0:0:0:0:
331,314,309831,2,0,B|278:324|278:324|211:310,1,104.500003189087,10|0,0:0|0:0,0:0:0:0:
397,373,310092,2,0,B|450:383|450:383|517:369,1,104.500003189087,2|8,0:0|0:1,0:0:0:0:
371,139,310353,5,10,0:0:0:0:
428,274,310483,1,2,0:0:0:0:
486,207,310614,2,0,P|480:158|484:93,1,104.500003189087,8|0,0:1|0:1,0:0:0:0:
350,7,310875,6,0,B|254:39|254:39|146:-4,1,209.000006378174,8|0,0:0|0:0,0:0:0:0:
153,0,311266,1,8,0:1:0:0:
37,153,311396,2,0,P|81:140|144:128,1,104.500003189087,8|0,0:0|0:0,0:0:0:0:
123,381,311657,6,0,B|136:334|136:334|88:246|88:246|35:309,1,209.000006378174,10|8,0:1|0:0,0:0:0:0:
49,291,312048,1,0,0:0:0:0:
249,329,312179,2,0,L|270:219,1,104.500003189087,10|8,0:1|0:1,0:0:0:0:
390,384,312440,2,0,L|369:274,1,104.500003189087,8|0,0:0|0:0,0:0:0:0:
492,136,312701,6,0,L|513:26,1,104.500003189087,14|0,0:1|0:0,0:0:0:0:
401,63,312962,2,0,B|348:106|276:72|276:72|271:35|235:5,1,209.000006378174,8|0,0:0|0:0,0:0:0:0:
243,14,313353,1,8,0:1:0:0:
123,108,313483,2,0,P|139:162|148:222,1,104.500003189087,8|0,0:0|0:0,0:0:0:0:
4,136,313744,6,0,P|12:84|27:34,1,104.500003189087,8|0,0:1|0:0,0:0:0:0:
146,209,314005,2,0,B|109:194|109:194|9:221|22:333,1,209.000006378174,8|0,0:0|0:0,0:0:0:0:
20,319,314396,1,8,0:1:0:0:
212,368,314527,2,0,P|159:358|105:364,1,104.500003189087,8|0,0:0|0:0,0:0:0:0:
248,213,314788,6,0,P|195:203|141:209,1,104.500003189087,14|8,0:1|0:0,0:0:0:0:
145,208,314983,1,8,0:0:0:0:
145,208,315048,1,12,0:0:0:0:
284,0,315179,1,8,0:0:0:0:
359,315,315309,1,8,0:0:0:0:
510,110,315440,1,8,0:0:0:0:
510,110,315505,1,8,0:0:0:0:
510,110,315570,1,12,0:0:0:0:
324,164,315701,1,8,0:0:0:0:
363,65,315831,6,0,B|412:45|412:45|442:83|442:83|498:110|498:110|456:226,1,265.999991882324,12|8,0:1|0:0,0:0:0:0:
121,119,316222,2,8,B|72:99|72:99|42:137|42:137|-14:164|-14:164|30:279,1,265.999991882324,12|8,0:1|0:0,0:1:0:0:
261,375,316614,6,0,B|355:313|451:363|451:363|524:336,1,265.999991882324,12|4,0:1|0:0,0:0:0:0:
