osu file format v14

[General]
AudioFilename: audio.mp3
AudioLeadIn: 0
PreviewTime: 60896
Countdown: 0
SampleSet: Soft
StackLeniency: 0.7
Mode: 2
LetterboxInBreaks: 0
WidescreenStoryboard: 0

[Editor]
Bookmarks: 36441,61744,95135,128527,153831,187222,203918,237309,250092,266788,283483,300179
DistanceSpacing: 0.9
BeatDivisor: 4
GridSize: 16
TimelineZoom: 1

[Metadata]
Title:Cinderella
TitleUnicode:Cinderella
Artist:Emiru no Aishita Tsukiyo ni Dai San Gensou Kyoku wo
ArtistUnicode:エミルの愛した月夜に第III幻想曲を
Creator:-Rustyy
Version:Utopia
Source:
Tags:metal gothic rock doujin japanese fa featured artist red ribbon m3-41 Emille's Moonlight Serenade サラ Sara 荊 いばら Ibara
BeatmapID:3601226
BeatmapSetID:1759559

[Difficulty]
HPDrainRate:6
CircleSize:4
OverallDifficulty:9.5
ApproachRate:9.5
SliderMultiplier:1.7
SliderTickRate:2

[Events]
//Background and Video events
0,0,"(10.jpg",0,0
//Break Periods
//Storyboard Layer 0 (Background)
//Storyboard Layer 1 (Fail)
//Storyboard Layer 2 (Pass)
//Storyboard Layer 3 (Foreground)
//Storyboard Layer 4 (Overlay)
//Storyboard Sound Samples

[TimingPoints]
964,260.869565217391,4,2,1,40,1,0
17659,-100,4,2,1,60,0,0
19746,-90.9090909090909,4,2,1,60,0,0
36441,260.869565217391,3,2,1,60,1,0
48962,-100,3,2,1,50,0,0
54440,-100,3,3,3,60,0,0
55223,-100,3,2,1,60,0,0
60701,260.869565217391,4,2,1,60,1,0
61744,-90.9090909090909,4,2,1,70,0,1
95005,-90.9090909090909,4,2,1,70,0,0
95135,-83.3333333333333,4,2,1,80,0,1
109744,-83.3333333333333,4,2,1,70,0,1
111831,-90.9090909090909,4,2,1,60,0,0
128527,260.869565217391,3,2,1,60,1,0
141048,-100,3,2,1,50,0,0
146526,-100,3,3,3,60,0,0
147309,-100,3,2,1,60,0,0
152788,260.869565217391,4,2,1,60,1,0
153831,-90.9090909090909,4,2,1,70,0,1
187092,-90.9090909090909,4,2,1,70,0,0
187222,-83.3333333333333,4,2,1,80,0,1
201831,-83.3333333333333,4,2,1,70,0,1
203918,-90.9090909090909,4,2,1,60,0,0
220614,-90.9090909090909,4,2,1,60,0,1
220744,-90.9090909090909,4,2,1,60,0,0
237310,260.869565217391,3,3,3,50,1,0
242788,-100,3,3,3,60,0,0
243570,-100,3,3,3,50,0,0
248266,-100,3,2,1,60,0,0
249049,260.869565217391,4,2,1,60,1,0
267049,-90.9090909090909,4,2,1,70,0,1
283353,-90.9090909090909,4,2,1,70,0,0
283483,-83.3333333333333,4,2,1,80,0,1
296005,-83.3333333333333,4,2,1,70,0,1
298092,-100,4,2,1,60,0,0
300179,-90.9090909090909,4,2,1,60,0,0
316875,-90.9090909090909,4,2,1,50,0,0
332005,-90.9090909090909,4,2,1,50,0,0
332527,-90.9090909090909,4,2,1,50,0,0
333048,-90.9090909090909,4,2,1,50,0,0
333570,-90.9090909090909,4,2,1,50,0,0
334092,-90.9090909090909,4,2,1,50,0,0
334614,-90.9090909090909,4,2,1,50,0,0
335135,-90.9090909090909,4,2,1,50,0,0

[Colours]
Combo1 : 180,134,249
Combo2 : 128,128,255
Combo3 : 191,191,191

[HitObjects]
159,350,1485,6,0,L|351:50,2,340,2|2|2,0:0|0:0|0:0,0:0:0:0:
403,334,2920,6,0,P|434:215|332:152,1,255,2|2,0:0|0:0,0:0:0:0:
474,106,3572,1,2,0:0:0:0:
303,33,3833,2,0,L|209:57,1,85,2|2,0:0|0:0,0:0:0:0:
401,162,4355,1,2,0:0:0:0:
134,352,5007,6,0,P|113:233|215:172,1,255,2|2,0:0|0:0,0:0:0:0:
78,114,5659,1,2,0:0:0:0:
218,61,5920,2,0,L|301:44,1,85,2|2,0:0|0:0,0:0:0:0:
98,30,6442,1,2,0:0:0:0:
292,101,7224,6,0,L|142:212,2,170,2|2|2,0:0|0:0|0:0,0:0:0:0:
156,41,8007,2,0,L|144:137,1,85,2|2,0:0|0:0,0:0:0:0:
353,197,8529,5,2,0:0:0:0:
234,244,8790,1,2,0:0:0:0:
116,272,9050,1,2,0:0:0:0:
313,337,9311,6,0,P|367:317|291:187,2,255,2|2|2,0:0|0:0|0:0,0:0:0:0:
138,336,10355,1,2,0:0:0:0:
326,314,11268,6,0,P|359:278|257:125,1,255,2|2,0:0|0:0,0:0:0:0:
140,82,11920,1,2,0:0:0:0:
283,31,12181,2,0,L|184:83,1,85,2|2,0:0|0:0,0:0:0:0:
376,152,12703,1,2,0:0:0:0:
149,335,13355,6,0,P|109:293|213:163,1,255,2|2,0:0|0:0,0:0:0:0:
348,127,14007,1,2,0:0:0:0:
209,74,14268,2,0,L|290:35,1,85,2|2,0:0|0:0,0:0:0:0:
107,33,14790,1,2,0:0:0:0:
377,345,15572,6,0,L|167:58,2,340,2|2|2,0:0|0:0|0:0,0:0:0:0:
240,307,16877,1,2,0:0:0:0:
358,246,17137,1,2,0:0:0:0:
477,212,17398,1,2,0:0:0:0:
138,208,17659,6,0,P|92:160|152:99,1,170,14|0,0:0|3:0,0:0:0:0:
209,74,18007,1,0,3:0:0:0:
265,61,18094,1,0,3:0:0:0:
434,51,18181,1,8,0:0:0:0:
208,124,18442,1,8,0:0:0:0:
397,153,18572,6,0,P|447:185|388:262,1,170,4|0,3:2|3:2,0:0:0:0:
187,331,18963,2,0,L|187:231,1,85,12|0,0:2|0:0,0:0:0:0:
411,214,19224,1,8,0:0:0:0:
218,176,19355,1,8,0:0:0:0:
411,214,19485,1,8,0:0:0:0:
75,35,19746,6,0,P|36:83|112:160,1,187.000005706787,4|8,3:2|0:0,0:0:0:0:
199,211,20137,1,0,0:0:0:0:
326,285,20268,2,0,L|209:298,1,93.5000028533936,0|0,0:0|3:2,0:0:0:0:
447,334,20529,1,8,0:0:0:0:
233,257,20659,6,0,L|439:203,1,187.000005706787
203,172,21050,2,0,L|191:64,1,93.5000028533936,8|0,0:0|0:0,0:0:0:0:
383,27,21311,2,0,L|393:133,1,93.5000028533936,0|0,0:0|3:2,0:0:0:0:
269,129,21572,2,0,L|262:231,1,93.5000028533936,8|0,0:0|0:0,0:0:0:0:
68,290,21833,6,0,P|116:318|235:270,1,187.000005706787,0|8,3:2|0:0,0:0:0:0:
137,237,22224,1,0,0:0:0:0:
258,211,22355,2,0,L|270:98,1,93.5000028533936,0|0,0:0|3:2,0:0:0:0:
79,78,22616,1,8,0:0:0:0:
299,52,22746,6,0,L|104:29,1,187.000005706787
318,150,23137,2,0,L|432:139,1,93.5000028533936,8|0,0:0|0:0,0:0:0:0:
207,244,23398,2,0,L|200:133,1,93.5000028533936,0|0,3:0|3:0,0:0:0:0:
392,258,23659,1,8,0:0:0:0:
486,313,23790,2,0,L|412:318,1,46.7500014266968
271,342,23920,6,0,P|240:301|318:209,1,187.000005706787,4|8,3:2|0:0,0:0:0:0:
404,187,24311,1,0,0:0:0:0:
280,156,24442,2,0,L|267:45,1,93.5000028533936,0|0,0:0|3:2,0:0:0:0:
461,35,24703,1,8,0:0:0:0:
250,103,24833,6,0,P|182:114|237:192,1,187.000005706787
439,162,25224,2,0,L|451:266,1,93.5000028533936,8|0,0:0|0:0,0:0:0:0:
336,257,25485,2,0,L|342:359,1,93.5000028533936,0|0,0:0|3:2,0:0:0:0:
152,309,25746,2,0,L|49:288,1,93.5000028533936,8|0,0:0|0:0,0:0:0:0:
264,241,26007,6,0,L|67:193,1,187.000005706787,0|8,3:2|0:0,0:0:0:0:
176,172,26398,1,0,0:0:0:0:
367,125,26529,2,0,L|236:109,1,93.5000028533936,0|0,0:0|3:2,0:0:0:0:
379,83,26790,2,0,L|497:67,1,93.5000028533936,8|0,0:0|0:0,0:0:0:0:
264,31,27050,6,0,P|225:78|303:155,1,187.000005706787,0|8,3:2|0:0,0:0:0:0:
390,187,27442,1,0,0:0:0:0:
201,248,27572,1,0,3:2:0:0:
303,273,27703,1,0,3:2:0:0:
111,332,27833,1,12,0:0:0:0:
18,279,27963,2,0,L|79:260,1,46.7500014266968
254,214,28094,6,0,P|306:185|244:95,1,187.000005706787,4|8,3:2|0:0,0:0:0:0:
64,62,28616,2,0,L|164:45,1,93.5000028533936,0|0,0:0|3:2,0:0:0:0:
260,37,28877,2,0,L|137:24,1,93.5000028533936,8|0,0:0|0:0,0:0:0:0:
364,113,29137,6,0,L|258:122,1,93.5000028533936,0|0,3:2|0:0,0:0:0:0:
383,161,29398,2,0,L|391:272,1,93.5000028533936,8|0,0:0|0:0,0:0:0:0:
200,351,29659,2,0,L|189:252,1,93.5000028533936,0|0,0:0|3:2,0:0:0:0:
379,212,29920,1,8,0:0:0:0:
277,187,30050,2,0,L|216:181,1,46.7500014266968
406,127,30181,6,0,L|413:28,1,93.5000028533936,0|0,3:2|0:0,0:0:0:0:
221,37,30442,2,0,P|181:76|250:160,1,187.000005706787,8|0,0:0|0:0,0:0:0:0:
343,187,30833,1,0,3:2:0:0:
222,256,30963,2,0,L|112:265,1,93.5000028533936,8|0,0:0|0:0,0:0:0:0:
331,335,31224,6,0,P|377:318|332:215,1,187.000005706787,0|8,3:2|0:0,0:0:0:0:
247,193,31616,1,0,0:0:0:0:
440,139,31746,2,0,L|348:115,1,93.5000028533936,0|0,3:2|3:2,0:0:0:0:
236,70,32007,1,8,0:0:0:0:
348,47,32137,2,0,L|407:45,1,46.7500014266968
214,32,32268,6,0,L|206:125,1,93.5000028533936,4|0,3:2|0:0,0:0:0:0:
328,140,32529,2,0,L|336:253,1,93.5000028533936,8|0,0:0|0:0,0:0:0:0:
146,324,32790,2,0,L|141:219,1,93.5000028533936,0|0,0:0|3:2,0:0:0:0:
252,195,33050,2,0,L|142:176,1,93.5000028533936,8|0,0:0|0:0,0:0:0:0:
361,135,33311,6,0,L|457:117,1,93.5000028533936,0|0,3:2|0:0,0:0:0:0:
252,37,33572,2,0,P|212:85|286:167,1,187.000005706787,8|0,0:0|0:0,0:0:0:0:
373,213,33963,1,0,3:2:0:0:
486,273,34094,2,0,L|493:377,1,93.5000028533936,8|0,0:0|0:0,0:0:0:0:
240,279,34355,6,0,L|141:263,1,93.5000028533936,4|0,3:2|0:0,0:0:0:0:
423,241,34616,2,0,L|430:135,1,93.5000028533936,8|0,0:0|0:0,0:0:0:0:
192,106,34877,1,0,3:2:0:0:
294,97,35007,1,0,3:2:0:0:
52,57,35137,2,0,L|47:172,1,93.5000028533936,12|0,0:0|0:0,0:0:0:0:
313,218,35398,5,8,3:0:0:0:
462,264,35659,1,8,3:0:0:0:
270,319,35790,1,8,1:0:0:0:
177,190,36050,1,8,1:0:0:0:
404,164,36181,1,8,1:0:0:0:
71,40,36441,6,0,P|44:81|123:157,1,170,4|10,3:2|0:0,0:0:0:0:
240,225,36832,1,8,0:0:0:0:
197,227,36897,1,8,0:0:0:0:
155,228,36962,1,10,0:0:0:0:
69,242,37093,1,0,0:0:0:0:
195,336,37223,6,0,P|271:318|250:215,1,170,2|8,3:2|0:0,0:0:0:0:
146,163,37614,2,0,L|87:167,2,42.5,8|8|8,0:0|0:0|0:0,0:0:0:0:
231,140,37875,1,0,0:0:0:0:
426,89,38006,6,0,L|243:58,1,170,6|8,3:2|0:0,0:0:0:0:
388,31,38397,2,0,L|398:75,2,42.5,10|8|10,0:0|0:0|0:0,0:0:0:0:
302,120,38658,1,10,0:0:0:0:
175,156,38788,6,0,L|371:185,1,170,2|8,3:2|0:0,0:0:0:0:
219,224,39180,1,8,0:0:0:0:
345,219,39310,2,0,L|351:310,1,85,10|2,0:0|0:0,0:0:0:0:
144,347,39571,6,0,P|105:306|184:232,1,170,6|8,3:2|0:0,0:0:0:0:
288,209,39962,1,10,0:0:0:0:
329,216,40027,1,8,0:0:0:0:
371,224,40092,1,10,0:0:0:0:
288,209,40223,1,0,0:0:0:0:
417,79,40354,6,0,P|418:134|319:185,1,170,2|10,3:2|0:0,0:0:0:0:
204,231,40745,1,8,0:0:0:0:
246,248,40810,1,8,0:0:0:0:
288,265,40875,1,10,0:0:0:0:
373,290,41006,1,0,0:0:0:0:
178,320,41136,6,0,P|164:285|272:194,1,170,6|10,3:2|0:0,0:0:0:0:
363,172,41527,1,8,0:0:0:0:
320,165,41592,1,8,0:0:0:0:
278,159,41657,1,10,0:0:0:0:
363,172,41788,1,0,0:0:0:0:
486,122,41919,6,0,L|280:84,1,170,2|8,3:2|0:0,0:0:0:0:
191,152,42310,1,8,0:0:0:0:
315,199,42440,2,0,L|319:308,1,85,8|0,0:0|0:0,0:0:0:0:
112,330,42701,6,0,L|298:341,1,170,4|10,3:2|0:0,0:0:0:0:
155,284,43093,2,0,L|143:223,2,42.5,8|8|10,0:0|0:0|0:0,0:0:0:0:
240,313,43354,1,0,0:0:0:0:
115,269,43484,6,0,P|53:206|111:144,1,170,2|8,3:2|0:0,0:0:0:0:
219,98,43875,2,0,L|268:104,2,42.5,8|8|8,0:0|0:0|0:0,0:0:0:0:
135,75,44136,1,0,0:0:0:0:
331,34,44267,6,0,P|374:69|322:155,1,170,6|8,3:2|0:0,0:0:0:0:
200,223,44658,1,10,0:0:0:0:
242,228,44723,1,8,0:0:0:0:
284,234,44788,1,10,0:0:0:0:
369,263,44919,1,2,0:2:0:0:
243,325,45049,6,0,P|153:284|177:233,1,170,2|8,3:2|0:0,0:0:0:0:
297,184,45440,1,8,0:0:0:0:
165,138,45571,2,0,L|256:126,1,85,10|2,0:0|0:0,0:0:0:0:
461,98,45832,6,0,P|381:60|291:45,1,170,6|8,3:2|0:0,0:0:0:0:
425,39,46223,2,0,L|475:32,2,42.5,10|8|10,0:0|0:0|0:0,0:0:0:0:
341,108,46484,1,2,0:0:0:0:
214,139,46614,6,0,P|147:169|146:256,1,170,2|10,3:2|0:0,0:0:0:0:
277,283,47006,1,8,0:0:0:0:
235,289,47071,1,8,0:0:0:0:
193,296,47136,1,10,0:0:0:0:
277,283,47267,1,0,0:0:0:0:
79,293,47397,6,0,L|283:333,1,170,6|10,3:2|0:0,0:0:0:0:
118,336,47788,2,0,L|103:292,2,42.5,8|8|10,0:0|0:0|0:0,0:0:0:0:
203,354,48049,1,0,0:0:0:0:
448,267,48180,6,0,L|336:245,1,85,12|0,0:0|0:0,0:0:0:0:
168,202,48440,1,12,0:0:0:0:
419,193,48571,2,0,L|426:97,1,85,8|8,1:0|1:0,0:0:0:0:
86,38,48962,6,0,P|51:74|231:314,1,425,4|0,3:2|0:0,0:0:0:0:
403,296,49745,1,0,3:0:0:0:
53,226,50006,1,0,3:0:0:0:
275,347,50527,6,0,B|339:332|349:323|357:295|319:231|270:230|250:231|250:231|218:229|192:218|181:200|175:182|171:166|198:124|280:118,1,425,4|0,3:2|0:0,0:0:0:0:
480,77,51310,1,0,3:2:0:0:
136,69,51571,1,0,3:2:0:0:
306,152,51832,2,0,L|184:157,1,85,2|2,0:0|0:0,0:0:0:0:
453,32,52093,6,0,P|482:76|291:306,1,425,4|0,3:2|0:0,0:0:0:0:
90,319,52875,1,0,3:2:0:0:
432,344,53136,1,0,3:2:0:0:
159,151,53658,6,0,P|164:231|366:136,1,425,4|0,3:2|0:0,0:0:0:0:
175,89,54440,1,8,3:0:0:0:
412,45,54701,1,8,3:0:0:0:
66,37,54962,1,8,3:0:0:0:
412,45,55223,6,0,P|453:81|302:337,1,425,4|0,3:2|0:0,0:0:0:0:
119,342,56006,1,0,3:0:0:0:
454,292,56267,1,0,3:0:0:0:
454,292,56527,1,0,0:0:0:0:
82,258,56788,6,0,B|262:54|262:54|369:182,1,425,4|0,3:2|0:0,0:0:0:0:
154,247,57571,1,0,3:2:0:0:
486,265,57832,1,0,3:2:0:0:
351,308,58093,2,0,L|438:320,1,85
203,356,58354,6,0,P|123:351|150:89,1,425,4|0,3:2|0:0,0:0:0:0:
353,45,59136,1,10,0:0:0:0:
183,83,59397,1,10,0:0:0:0:
427,143,59658,1,10,0:0:0:0:
80,155,59919,6,0,P|34:196|109:273,1,170,6|8,3:2|0:0,0:0:0:0:
167,305,60310,1,8,0:0:0:0:
288,344,60440,2,0,L|188:342,1,85,8|8,1:0|1:0,0:0:0:0:
410,338,60701,5,4,3:2:0:0:
410,338,60961,1,2,0:0:0:0:
252,231,61222,1,2,0:0:0:0:
308,226,61308,1,2,0:0:0:0:
364,221,61395,1,2,0:0:0:0:
421,216,61482,1,2,0:0:0:0:
82,44,61744,6,0,P|32:93|114:171,1,187.000005706787,4|8,3:2|0:0,0:0:0:0:
185,208,62135,1,0,0:0:0:0:
308,226,62266,2,0,L|316:327,1,93.5000028533936,2|0,0:0|3:2,0:0:0:0:
102,326,62527,1,10,0:0:0:0:
324,287,62657,6,0,L|118:262,1,187.000005706787,2|0,0:0|0:0,0:0:0:0:
337,221,63048,2,0,L|341:114,1,93.5000028533936,10|0,0:0|0:0,0:0:0:0:
121,85,63309,2,0,L|221:62,1,93.5000028533936,2|0,0:0|3:2,0:0:0:0:
403,42,63570,1,10,0:0:0:0:
209,137,63701,2,0,L|156:133,1,46.7500014266968,2|0,0:0|0:0,0:0:0:0:
361,147,63831,6,0,P|403:194|330:276,1,187.000005706787,0|8,3:2|0:0,0:0:0:0:
243,294,64222,1,0,0:0:0:0:
441,334,64353,2,0,L|332:343,1,93.5000028533936,2|0,0:0|3:2,0:0:0:0:
460,312,64614,2,0,L|462:205,1,93.5000028533936,8|0,0:0|0:0,0:0:0:0:
227,186,64874,6,0,L|407:122,1,187.000005706787,2|8,3:2|0:0,0:0:0:0:
309,150,65266,1,0,0:0:0:0:
96,122,65396,2,0,L|201:110,1,93.5000028533936,2|0,3:2|3:2,0:0:0:0:
283,94,65657,1,8,0:0:0:0:
159,47,65787,2,0,L|90:44,1,46.7500014266968
284,50,65918,6,0,L|390:51,1,93.5000028533936,2|0,3:2|0:0,0:0:0:0:
178,152,66179,2,0,L|379:168,1,187.000005706787,8|0,0:0|0:0,0:0:0:0:
269,204,66570,1,0,3:2:0:0:
392,249,66701,2,0,L|491:253,1,93.5000028533936,10|2,0:0|0:0,0:0:0:0:
264,327,66961,6,0,L|170:336,1,93.5000028533936,2|0,3:2|0:0,0:0:0:0:
294,288,67222,2,0,L|296:191,1,93.5000028533936,10|0,0:0|0:0,0:0:0:0:
101,145,67483,2,0,L|211:134,1,93.5000028533936,2|0,0:0|3:2,0:0:0:0:
426,94,67744,2,0,L|289:71,1,93.5000028533936,10|0,0:0|0:0,0:0:0:0:
140,73,68005,6,0,L|358:45,1,187.000005706787,2|8,3:2|0:0,0:0:0:0:
136,26,68396,2,0,P|97:86|186:156,1,187.000005706787,2|0,0:0|3:2,0:0:0:0:
287,211,68787,2,0,L|178:212,1,93.5000028533936,10|0,0:0|0:0,0:0:0:0:
400,230,69048,6,0,L|415:335,1,93.5000028533936,2|0,3:2|0:0,0:0:0:0:
301,267,69309,2,0,L|318:367,1,93.5000028533936,8|0,0:0|0:0,0:0:0:0:
126,287,69570,2,0,L|252:271,1,93.5000028533936,0|0,3:2|3:2,0:0:0:0:
27,232,69831,2,0,L|18:112,1,93.5000028533936,14|2,0:0|0:0,0:0:0:0:
262,70,70092,6,0,L|55:45,1,187.000005706787,6|8,3:2|0:0,0:0:0:0:
275,22,70483,2,0,P|325:82|226:139,1,187.000005706787,2|0,0:0|3:2,0:0:0:0:
139,156,70874,2,0,L|134:260,1,93.5000028533936,10|0,0:0|0:0,0:0:0:0:
342,293,71135,6,0,L|147:323,1,187.000005706787,2|8,3:2|0:0,0:0:0:0:
353,349,71527,2,0,P|402:336|348:247,1,187.000005706787,2|0,0:0|3:2,0:0:0:0:
232,202,71918,1,10,0:0:0:0:
355,159,72048,2,0,L|434:154,1,46.7500014266968
241,104,72179,6,0,L|237:7,1,93.5000028533936,2|0,3:2|0:0,0:0:0:0:
359,21,72440,2,0,L|361:124,1,93.5000028533936,8|0,0:0|0:0,0:0:0:0:
163,170,72700,2,0,L|273:181,1,93.5000028533936,2|0,0:0|3:2,0:0:0:0:
153,220,72961,2,0,L|58:230,1,93.5000028533936,8|0,0:0|0:0,0:0:0:0:
266,190,73222,6,0,P|309:237|236:316,1,187.000005706787,2|8,3:2|0:0,0:0:0:0:
146,318,73614,1,0,0:0:0:0:
349,309,73744,2,0,L|448:318,1,93.5000028533936,2|0,3:2|3:2,0:0:0:0:
339,266,74005,2,0,L|440:271,1,93.5000028533936,8|0,0:0|0:0,0:0:0:0:
213,207,74266,6,0,L|202:93,1,93.5000028533936,6|0,3:2|0:0,0:0:0:0:
401,73,74527,2,0,L|212:52,1,187.000005706787,8|0,0:0|0:0,0:0:0:0:
309,42,74918,1,0,3:2:0:0:
118,96,75048,2,0,L|20:84,1,93.5000028533936,8|0,0:0|0:0,0:0:0:0:
261,127,75309,6,0,L|272:243,1,93.5000028533936,2|0,3:2|0:0,0:0:0:0:
57,270,75570,2,0,L|243:299,1,187.000005706787,8|0,0:0|0:0,0:0:0:0:
148,323,75961,1,0,3:2:0:0:
336,346,76092,2,0,L|432:351,1,93.5000028533936,8|0,0:0|0:0,0:0:0:0:
220,239,76353,6,0,L|325:237,1,93.5000028533936,6|0,3:2|0:0,0:0:0:0:
185,202,76614,2,0,L|176:94,1,93.5000028533936,8|0,0:0|0:0,0:0:0:0:
397,29,76874,2,0,L|400:127,1,93.5000028533936,0|0,0:0|3:2,0:0:0:0:
275,185,77135,2,0,L|401:191,1,93.5000028533936,8|0,0:0|0:0,0:0:0:0:
153,289,77396,6,0,L|31:273,1,93.5000028533936,0|0,3:2|0:0,0:0:0:0:
107,253,77592,1,0,0:0:0:0:
278,225,77657,2,0,L|384:226,1,93.5000028533936,14|0,0:0|0:0,0:0:0:0:
149,153,77918,2,0,L|86:138,2,46.7500014266968,2|0|0,3:2|3:2|3:2,0:0:0:0:
339,268,78179,1,10,0:0:0:0:
236,279,78309,2,0,L|173:280,1,46.7500014266968,10|0,0:0|0:0,0:0:0:0:
401,345,78440,6,0,P|445:328|391:232,1,187.000005706787,4|8,3:2|0:0,0:0:0:0:
306,217,78831,1,0,0:0:0:0:
427,179,78961,2,0,L|314:153,1,93.5000028533936,2|0,0:0|3:2,0:0:0:0:
146,125,79222,1,10,0:0:0:0:
384,79,79353,6,0,L|163:58,1,187.000005706787,2|0,0:0|0:0,0:0:0:0:
389,32,79744,2,0,L|392:160,1,93.5000028533936,10|0,0:0|0:0,0:0:0:0:
268,136,80005,2,0,L|380:161,1,93.5000028533936,2|0,0:0|3:2,0:0:0:0:
141,221,80266,1,10,0:0:0:0:
334,265,80396,2,0,L|279:274,1,46.7500014266968,2|0,0:0|0:0,0:0:0:0:
108,337,80527,6,0,P|58:299|120:209,1,187.000005706787,0|8,3:2|0:0,0:0:0:0:
201,338,80918,1,0,0:0:0:0:
416,254,81048,2,0,L|286:243,1,93.5000028533936,2|0,0:0|3:2,0:0:0:0:
230,227,81309,2,0,L|330:226,1,93.5000028533936,8|0,0:0|0:0,0:0:0:0:
127,150,81570,6,0,L|31:130,1,93.5000028533936,2|0,3:2|0:0,0:0:0:0:
139,107,81831,2,0,L|33:87,1,93.5000028533936,8|0,0:0|0:0,0:0:0:0:
242,51,82092,2,0,L|335:48,1,93.5000028533936,2|0,3:2|3:2,0:0:0:0:
242,51,82353,1,8,0:0:0:0:
355,121,82483,2,0,L|418:124,1,46.7500014266968,2|0,0:0|0:0,0:0:0:0:
228,195,82614,6,0,L|130:207,1,93.5000028533936,0|0,3:2|0:0,0:0:0:0:
336,196,82874,2,0,P|372:239|287:318,1,187.000005706787,8|0,0:0|0:0,0:0:0:0:
206,333,83266,1,0,3:2:0:0:
332,344,83396,2,0,L|341:247,1,93.5000028533936,10|2,0:0|0:0,0:0:0:0:
132,192,83657,6,0,L|145:78,1,93.5000028533936,2|0,3:2|0:0,0:0:0:0:
264,143,83918,2,0,L|276:38,1,93.5000028533936,10|0,0:0|0:0,0:0:0:0:
152,37,84179,2,0,L|255:27,1,93.5000028533936,2|0,0:0|3:2,0:0:0:0:
464,125,84440,2,0,L|349:128,1,93.5000028533936,10|0,0:0|0:0,0:0:0:0:
117,147,84700,6,0,L|119:256,1,93.5000028533936,4|0,3:2|0:0,0:0:0:0:
412,238,84961,2,0,L|414:344,1,93.5000028533936,10|0,0:0|0:0,0:0:0:0:
178,343,85222,1,10,0:0:0:0:
281,342,85353,1,0,0:0:0:0:
42,283,85483,1,10,0:0:0:0:
328,254,85614,6,0,P|372:213|310:119,1,187.000005706787,6|0,3:2|3:2,0:0:0:0:
101,92,86005,2,0,L|205:87,1,93.5000028533936,8|0,0:0|0:0,0:0:0:0:
403,56,86266,1,8,3:0:0:0:
356,55,86331,1,8,3:0:0:0:
310,51,86396,1,8,3:0:0:0:
412,101,86527,2,0,L|293:105,1,93.5000028533936,2|2,3:2|0:0,0:0:0:0:
116,180,86787,6,0,P|74:202|136:298,1,187.000005706787,6|10,3:2|0:0,0:0:0:0:
340,339,87179,2,0,L|137:346,1,187.000005706787,2|0,0:0|3:2,0:0:0:0:
278,324,87570,2,0,L|287:227,1,93.5000028533936,10|0,0:0|0:0,0:0:0:0:
72,184,87831,6,0,L|261:151,1,187.000005706787,2|8,3:2|0:0,0:0:0:0:
461,110,88222,2,0,L|270:75,1,187.000005706787,2|0,0:0|3:2,0:0:0:0:
471,44,88614,2,0,L|477:156,1,93.5000028533936,10|0,0:0|0:0,0:0:0:0:
429,162,88809,1,0,0:0:0:0:
258,226,88874,6,0,L|156:232,1,93.5000028533936,2|0,3:2|0:0,0:0:0:0:
261,289,89135,2,0,L|368:298,1,93.5000028533936,8|0,0:0|0:0,0:0:0:0:
146,340,89396,2,0,L|141:238,1,93.5000028533936,2|0,0:0|3:2,0:0:0:0:
264,202,89657,2,0,L|131:193,1,93.5000028533936,8|0,0:0|0:0,0:0:0:0:
381,137,89918,6,0,L|258:132,1,93.5000028533936,2|0,3:2|0:0,0:0:0:0:
390,108,90179,2,0,L|398:8,1,93.5000028533936,8|0,0:0|0:0,0:0:0:0:
188,38,90440,2,0,L|181:142,1,93.5000028533936,2|0,3:2|3:2,0:0:0:0:
303,159,90700,2,0,L|311:262,1,93.5000028533936,8|0,0:0|0:0,0:0:0:0:
74,312,90961,6,0,L|195:331,1,93.5000028533936,6|0,3:2|0:0,0:0:0:0:
366,281,91222,2,0,L|151:258,1,187.000005706787,8|0,0:0|0:0,0:0:0:0:
276,246,91614,1,0,3:2:0:0:
471,202,91744,2,0,L|474:93,1,93.5000028533936,8|0,0:0|0:0,0:0:0:0:
266,87,92005,6,0,L|380:79,1,93.5000028533936,2|0,3:2|0:0,0:0:0:0:
156,48,92266,2,0,L|344:44,1,187.000005706787,8|0,0:0|0:0,0:0:0:0:
249,69,92657,1,0,3:2:0:0:
41,129,92787,2,0,L|153:138,1,93.5000028533936,8|0,0:0|0:0,0:0:0:0:
364,162,93048,6,0,L|370:273,1,93.5000028533936,2|0,3:2|0:0,0:0:0:0:
171,322,93309,2,0,L|265:345,2,93.5000028533936,12|0|0,0:0|0:0|0:0,0:0:0:0:
368,265,93700,1,0,3:2:0:0:
168,215,93831,2,0,L|46:199,1,93.5000028533936,12|0,0:0|0:0,0:0:0:0:
397,185,94092,6,0,L|397:73,1,93.5000028533936,12|0,0:0|0:0,0:0:0:0:
154,102,94353,2,0,L|152:-3,1,93.5000028533936,14|0,0:0|0:0,0:0:0:0:
416,68,94614,1,2,3:2:0:0:
369,61,94679,1,0,3:2:0:0:
323,54,94744,1,0,3:2:0:0:
78,131,94874,1,10,0:0:0:0:
334,176,95005,1,10,0:0:0:0:
41,166,95135,6,0,L|35:282,1,101.999996887207,12|0,0:0|0:0,0:0:0:0:
280,314,95396,2,0,L|170:296,1,101.999996887207,8|0,0:0|0:0,0:0:0:0:
294,275,95657,2,0,L|302:149,1,101.999996887207,8|0,0:0|3:0,0:0:0:0:
90,156,95918,2,0,L|77:46,1,101.999996887207,8|0,0:0|3:0,0:0:0:0:
322,55,96179,6,0,L|457:55,1,101.999996887207,8|0,0:0|0:0,0:0:0:0:
215,145,96440,2,0,L|340:146,1,101.999996887207,10|0,0:0|0:0,0:0:0:0:
125,235,96700,2,0,L|20:228,1,101.999996887207,10|0,0:0|3:0,0:0:0:0:
226,301,96961,1,10,0:0:0:0:
124,364,97092,2,0,L|185:362,1,50.9999984436036,2|0,3:2|0:0,0:0:0:0:
372,356,97222,6,0,L|482:362,1,101.999996887207,12|0,0:0|0:0,0:0:0:0:
236,270,97483,2,0,L|230:163,1,101.999996887207,8|0,0:0|0:0,0:0:0:0:
345,165,97744,2,0,L|353:54,1,101.999996887207,8|0,0:0|3:0,0:0:0:0:
131,73,98005,2,0,L|241:72,1,101.999996887207,8|0,0:0|3:0,0:0:0:0:
440,157,98266,6,0,L|313:145,1,101.999996887207,8|0,0:0|0:0,0:0:0:0:
131,160,98527,2,0,L|132:272,1,101.999996887207,10|0,0:0|0:0,0:0:0:0:
343,296,98787,2,0,L|466:322,1,101.999996887207,10|0,0:0|3:0,0:0:0:0:
204,339,99048,1,10,0:0:0:0:
421,251,99179,2,0,L|356:241,1,50.9999984436036,2|0,3:2|3:0,0:0:0:0:
177,208,99309,6,0,L|305:201,1,101.999996887207,12|0,0:0|0:0,0:0:0:0:
167,164,99570,2,0,L|154:53,1,101.999996887207,8|0,0:0|0:0,0:0:0:0:
386,52,99831,2,0,L|272:59,1,101.999996887207,8|0,0:0|3:0,0:0:0:0:
397,102,100092,2,0,L|407:205,1,101.999996887207,8|0,0:0|3:0,0:0:0:0:
176,257,100353,6,0,L|280:285,1,101.999996887207,8|0,0:0|0:0,0:0:0:0:
486,326,100614,2,0,L|489:212,1,101.999996887207,10|0,0:0|0:0,0:0:0:0:
274,218,100874,2,0,L|269:99,1,101.999996887207,10|0,0:0|3:0,0:0:0:0:
49,156,101135,2,0,L|41:31,1,101.999996887207,10|0,0:0|3:0,0:0:0:0:
94,39,101331,1,0,0:0:0:0:
299,48,101396,6,0,L|167:57,2,101.999996887207,14|0|8,0:0|0:0|0:0,0:0:0:0:
61,187,101787,2,0,L|166:199,2,101.999996887207,2|8|0,0:0|0:0|3:0,0:0:0:0:
261,290,102179,2,0,L|383:288,1,101.999996887207,14|0,0:0|3:0,0:0:0:0:
127,337,102440,6,0,L|115:208,1,101.999996887207,10|0,0:0|0:0,0:0:0:0:
309,217,102700,2,0,L|318:100,1,101.999996887207,14|0,0:0|0:0,0:0:0:0:
96,71,102961,2,0,L|217:63,1,101.999996887207,10|0,0:0|3:0,0:0:0:0:
427,126,103222,1,14,0:0:0:0:
197,166,103353,2,0,L|275:167,1,50.9999984436036,2|0,3:2|0:0,0:0:0:0:
457,229,103483,6,0,L|342:223,1,101.999996887207,12|0,0:0|0:0,0:0:0:0:
148,303,103744,2,0,L|286:306,1,101.999996887207,8|0,0:0|0:0,0:0:0:0:
137,254,104005,2,0,L|27:247,1,101.999996887207,8|0,0:0|3:0,0:0:0:0:
251,180,104266,2,0,L|123:170,1,101.999996887207,8|0,0:0|3:0,0:0:0:0:
386,100,104527,6,0,L|494:96,1,101.999996887207,8|0,0:0|0:0,0:0:0:0:
261,67,104787,2,0,L|152:59,1,101.999996887207,10|0,0:0|0:0,0:0:0:0:
374,34,105048,2,0,L|380:168,1,101.999996887207,10|0,0:0|3:0,0:0:0:0:
157,154,105309,2,0,L|144:266,1,101.999996887207,8|2,0:0|3:2,0:0:0:0:
197,274,105505,1,0,0:0:0:0:
364,340,105570,6,0,L|490:350,1,101.999996887207,8|0,0:0|0:0,0:0:0:0:
248,277,105831,2,0,L|130:275,1,101.999996887207,8|0,0:0|0:0,0:0:0:0:
261,228,106092,2,0,L|149:223,1,101.999996887207,8|0,0:0|3:0,0:0:0:0:
378,173,106353,2,0,L|386:52,1,101.999996887207,8|0,0:0|3:0,0:0:0:0:
175,48,106614,6,0,L|67:39,1,101.999996887207,8|0,0:0|0:0,0:0:0:0:
286,136,106874,2,0,L|163:145,1,101.999996887207,10|0,0:0|0:0,0:0:0:0:
391,237,107135,2,0,L|494:249,1,101.999996887207,10|0,0:0|3:0,0:0:0:0:
263,296,107396,1,10,0:0:0:0:
488,334,107527,2,0,L|420:341,1,50.9999984436036,2|0,2:0|3:0,0:0:0:0:
241,307,107657,6,0,L|365:305,1,101.999996887207,8|0,0:0|0:0,0:0:0:0:
241,255,107918,2,0,L|121:244,1,101.999996887207,8|0,0:0|0:0,0:0:0:0:
357,169,108179,2,0,L|236:167,1,101.999996887207,10|0,0:0|3:0,0:0:0:0:
357,169,108440,2,0,L|470:163,1,101.999996887207,8|0,0:0|3:0,0:0:0:0:
233,91,108700,6,0,L|342:87,1,101.999996887207,10|0,0:0|0:0,0:0:0:0:
231,36,108961,2,0,L|229:145,1,101.999996887207,8|0,0:0|0:0,0:0:0:0:
436,147,109222,2,0,L|440:256,1,101.999996887207,10|0,0:0|3:0,0:0:0:0:
210,274,109483,1,8,0:0:0:0:
440,319,109614,1,8,0:0:0:0:
202,337,109744,6,0,P|142:308|214:226,1,203.999993774414,6|8,3:2|0:0,0:0:0:0:
297,211,110135,1,0,0:0:0:0:
406,159,110266,2,0,L|294:139,2,101.999996887207,0|0|8,3:0|3:0|0:0,0:0:0:0:
416,71,110657,1,0,0:0:0:0:
205,52,110787,6,0,L|105:96,1,101.999996887207,0|0,3:0|0:0,0:0:0:0:
319,139,111048,2,0,L|407:194,1,101.999996887207,12|0,0:0|0:0,0:0:0:0:
174,233,111309,2,0,L|134:263,2,50.9999984436036,8|8|8,3:0|3:0|3:0,0:0:0:0:
385,303,111570,1,8,0:0:0:0:
179,333,111700,1,8,0:0:0:0:
405,352,111831,6,0,P|454:320|389:230,1,187.000005706787,4|8,3:2|0:0,0:0:0:0:
307,219,112222,1,0,0:0:0:0:
432,184,112353,2,0,L|431:66,1,93.5000028533936,0|0,0:0|3:2,0:0:0:0:
232,57,112614,1,8,0:0:0:0:
438,32,112744,6,0,L|216:27,1,187.000005706787
450,87,113135,2,0,L|461:183,1,93.5000028533936,8|0,0:0|0:0,0:0:0:0:
241,167,113396,2,0,L|233:274,1,93.5000028533936,0|0,0:0|3:2,0:0:0:0:
356,298,113657,2,0,L|459:313,1,93.5000028533936,8|0,0:0|0:0,0:0:0:0:
256,352,113918,6,0,P|190:342|172:218,1,187.000005706787,0|8,3:2|0:0,0:0:0:0:
255,201,114309,1,0,0:0:0:0:
131,169,114440,2,0,L|121:69,1,93.5000028533936,0|0,0:0|3:2,0:0:0:0:
312,40,114700,1,8,0:0:0:0:
94,33,114831,6,0,P|48:74|123:142,1,187.000005706787
312,187,115222,2,0,L|205:198,1,93.5000028533936,8|0,0:0|0:0,0:0:0:0:
407,235,115483,2,0,L|411:349,1,93.5000028533936,0|0,3:0|3:0,0:0:0:0:
217,340,115744,1,8,0:0:0:0:
124,287,115874,2,0,L|206:282,1,46.7500014266968
342,233,116005,6,0,L|148:201,1,187.000005706787,4|8,3:2|0:0,0:0:0:0:
251,170,116396,1,0,0:0:0:0:
371,121,116527,2,0,L|249:108,1,93.5000028533936,0|0,0:0|3:2,0:0:0:0:
471,58,116787,1,8,0:0:0:0:
276,33,116918,6,0,L|175:29,2,93.5000028533936,0|0|0,0:0|3:2|0:0,0:0:0:0:
71,91,117309,2,0,L|64:194,1,93.5000028533936,8|0,0:0|0:0,0:0:0:0:
177,202,117570,2,0,L|171:317,1,93.5000028533936,0|0,0:0|3:2,0:0:0:0:
371,348,117831,2,0,L|264:359,1,93.5000028533936,8|0,0:0|0:0,0:0:0:0:
64,311,118092,6,0,L|269:273,1,187.000005706787,0|8,3:2|0:0,0:0:0:0:
342,253,118483,1,0,0:0:0:0:
151,209,118614,2,0,L|138:97,1,93.5000028533936,0|0,0:0|3:2,0:0:0:0:
243,86,118874,2,0,L|148:79,1,93.5000028533936,8|0,0:0|0:0,0:0:0:0:
356,150,119135,6,0,P|409:136|379:32,1,187.000005706787,0|8,3:2|0:0,0:0:0:0:
289,32,119527,1,0,0:0:0:0:
477,105,119657,2,0,L|352:107,1,93.5000028533936,0|0,3:2|3:2,0:0:0:0:
288,116,119918,1,8,0:0:0:0:
407,187,120048,2,0,L|461:190,1,46.7500014266968
259,309,120179,6,0,P|205:283|265:183,1,187.000005706787,4|8,3:2|0:0,0:0:0:0:
446,68,120700,2,0,L|451:182,1,93.5000028533936,0|0,0:0|3:2,0:0:0:0:
345,215,120961,2,0,L|463:236,1,93.5000028533936,8|0,0:0|0:0,0:0:0:0:
248,277,121222,6,0,L|154:284,1,93.5000028533936,0|0,3:2|0:0,0:0:0:0:
267,325,121483,2,0,L|274:217,1,93.5000028533936,8|0,0:0|0:0,0:0:0:0:
61,208,121744,2,0,L|53:104,1,93.5000028533936,0|0,0:0|3:2,0:0:0:0:
254,85,122005,2,0,L|149:77,1,93.5000028533936,8|0,0:0|0:0,0:0:0:0:
364,41,122266,6,0,L|468:38,1,93.5000028533936,0|0,3:2|0:0,0:0:0:0:
254,136,122527,2,0,L|444:143,1,187.000005706787,8|0,0:0|0:0,0:0:0:0:
347,167,122918,1,0,3:2:0:0:
226,251,123048,2,0,L|346:261,1,93.5000028533936,8|0,0:0|0:0,0:0:0:0:
128,326,123309,6,0,P|69:291|133:209,1,187.000005706787,0|8,3:2|0:0,0:0:0:0:
214,186,123700,1,0,0:0:0:0:
409,128,123831,2,0,L|295:119,1,93.5000028533936,0|0,3:2|3:2,0:0:0:0:
221,108,124092,2,0,L|218:14,1,93.5000028533936,8|0,0:0|0:0,0:0:0:0:
406,23,124353,6,0,L|410:137,1,93.5000028533936,4|0,3:2|0:0,0:0:0:0:
304,137,124614,2,0,L|308:242,1,93.5000028533936,8|0,0:0|0:0,0:0:0:0:
111,273,124874,2,0,L|217:288,1,93.5000028533936,0|0,0:0|3:2,0:0:0:0:
99,323,125135,2,0,L|86:209,1,93.5000028533936,8|0,0:0|0:0,0:0:0:0:
284,201,125396,6,0,L|166:181,1,93.5000028533936,0|0,3:2|0:0,0:0:0:0:
382,162,125657,2,0,P|428:137|381:35,1,187.000005706787,8|0,0:0|0:0,0:0:0:0:
290,47,126048,1,0,3:2:0:0:
171,91,126179,2,0,L|169:188,1,93.5000028533936,8|0,0:0|0:0,0:0:0:0:
368,267,126440,6,0,L|466:282,1,93.5000028533936,4|0,3:2|0:0,0:0:0:0:
214,313,126700,2,0,L|105:323,1,93.5000028533936,8|0,0:0|0:0,0:0:0:0:
361,201,126961,1,0,3:2:0:0:
258,190,127092,1,0,3:2:0:0:
470,156,127222,2,0,L|469:43,1,93.5000028533936,12|0,0:0|0:0,0:0:0:0:
229,65,127483,5,8,3:0:0:0:
65,131,127744,1,8,3:0:0:0:
264,161,127874,1,8,1:0:0:0:
357,262,128135,1,8,1:0:0:0:
120,293,128266,1,8,1:0:0:0:
468,339,128527,6,0,P|484:287|396:207,1,170,4|10,3:2|0:0,0:0:0:0:
285,189,128918,1,8,0:0:0:0:
242,185,128983,1,8,0:0:0:0:
200,181,129048,1,10,0:0:0:0:
285,189,129179,1,0,0:0:0:0:
159,131,129309,6,0,P|121:87|190:25,1,170,2|8,3:2|0:0,0:0:0:0:
312,47,129700,1,8,0:0:0:0:
269,42,129765,1,8,0:0:0:0:
227,38,129830,1,8,0:0:0:0:
141,88,129961,1,0,0:0:0:0:
339,143,130092,6,0,L|162:162,1,170,6|8,3:2|0:0,0:0:0:0:
301,187,130483,2,0,L|323:238,2,42.5,10|8|10,0:0|0:0|0:0,0:0:0:0:
216,280,130744,1,10,0:0:0:0:
343,330,130874,6,0,P|384:323|352:215,1,170,2|8,3:2|0:0,0:0:0:0:
250,188,131266,1,8,0:0:0:0:
376,161,131396,2,0,L|380:63,1,85,10|0,0:0|0:0,0:0:0:0:
180,50,131657,6,0,L|354:21,1,170,6|8,3:2|0:0,0:0:0:0:
220,77,132048,1,10,0:0:0:0:
177,71,132113,1,8,0:0:0:0:
135,65,132178,1,10,0:0:0:0:
220,77,132309,1,2,0:0:0:0:
345,129,132440,6,0,P|366:172|275:222,1,170,2|10,3:2|0:0,0:0:0:0:
406,288,132831,1,8,0:0:0:0:
448,293,132896,1,8,0:0:0:0:
490,298,132961,1,10,0:0:0:0:
406,288,133092,1,0,0:0:0:0:
207,318,133222,6,0,P|166:286|224:198,1,170,6|10,3:2|0:0,0:0:0:0:
338,180,133613,1,8,0:0:0:0:
380,178,133678,1,8,0:0:0:0:
422,177,133743,1,10,0:0:0:0:
338,180,133874,1,0,0:0:0:0:
206,143,134005,6,0,L|382:94,1,170,2|8,3:2|0:0,0:0:0:0:
492,62,134396,1,8,0:0:0:0:
363,35,134527,2,0,L|465:29,1,85,8|0,0:0|0:0,0:0:0:0:
241,77,134787,6,0,P|181:109|212:198,1,170,4|10,3:2|0:0,0:0:0:0:
334,243,135179,2,0,L|397:239,2,42.5,8|8|10,0:0|0:0|0:0,0:0:0:0:
249,280,135440,1,0,0:0:0:0:
120,321,135570,6,0,L|295:342,1,170,2|8,3:2|0:0,0:0:0:0:
161,346,135961,2,0,L|149:293,2,42.5,8|8|8,0:0|0:0|0:0,0:0:0:0:
246,257,136222,1,0,0:0:0:0:
449,231,136353,6,0,P|413:181|305:143,1,170,6|8,3:2|0:0,0:0:0:0:
186,83,136744,2,0,L|114:108,2,42.5,10|8|10,0:0|0:0|0:0,0:0:0:0:
271,50,137005,1,2,0:2:0:0:
397,42,137135,6,0,P|427:88|331:152,1,170,2|8,3:2|0:0,0:0:0:0:
229,201,137527,1,8,0:0:0:0:
357,243,137657,2,0,L|461:247,1,85,10|2,0:0|0:0,0:0:0:0:
245,334,137918,6,0,P|176:322|173:232,1,170,6|8,3:2|0:0,0:0:0:0:
301,212,138309,2,0,L|382:228,2,42.5,10|8|10,0:0|0:0|0:0,0:0:0:0:
217,173,138570,1,2,0:0:0:0:
88,138,138700,6,0,P|129:90|250:62,1,170,2|10,3:2|0:0,0:0:0:0:
99,25,139092,2,0,L|89:73,2,42.5,8|8|10,0:0|0:0|0:0,0:0:0:0:
184,118,139353,1,0,0:0:0:0:
391,165,139483,6,0,L|205:187,1,170,6|10,3:2|0:0,0:0:0:0:
343,253,139874,2,0,L|393:259,2,42.5,8|8|10,0:0|0:0|0:0,0:0:0:0:
259,290,140135,1,0,0:0:0:0:
42,338,140266,6,0,L|36:229,1,85,14|0,0:0|0:0,0:0:0:0:
246,200,140527,1,12,0:0:0:0:
35,161,140657,2,0,L|122:143,1,85,8|8,1:0|1:0,0:0:0:0:
470,348,141048,6,0,L|164:19,1,425,4|0,3:2|0:0,0:0:0:0:
394,47,141831,1,0,3:0:0:0:
51,107,142092,1,0,3:0:0:0:
282,351,142613,6,0,P|340:353|310:105,1,425,4|0,3:2|0:0,0:0:0:0:
111,83,143396,1,0,3:2:0:0:
452,45,143657,1,0,3:2:0:0:
452,45,143918,1,2,0:0:0:0:
79,351,144179,6,0,L|360:18,1,425,4|0,3:2|0:0,0:0:0:0:
143,54,144961,1,0,3:2:0:0:
484,113,145222,1,0,3:2:0:0:
219,351,145744,6,0,P|146:343|129:62,1,425,4|0,3:2|0:0,0:0:0:0:
331,67,146526,1,8,3:0:0:0:
113,124,146787,1,8,3:0:0:0:
461,162,147048,1,8,3:0:0:0:
111,338,147309,6,0,P|81:299|269:300,1,425,4|0,3:2|0:0,0:0:0:0:
80,262,148092,1,0,3:0:0:0:
429,293,148353,1,0,3:0:0:0:
429,293,148613,1,0,0:0:0:0:
77,347,148874,6,0,P|51:293|275:102,1,425,4|0,3:2|0:0,0:0:0:0:
470,172,149657,1,0,3:2:0:0:
114,211,149918,1,0,3:2:0:0:
260,275,150179,2,0,L|146:292,1,85,2|2,0:0|0:0,0:0:0:0:
398,360,150440,6,0,P|440:332|309:75,1,425,4|0,3:2|0:0,0:0:0:0:
121,140,151222,1,8,0:0:0:0:
314,207,151483,1,8,0:0:0:0:
66,245,151744,1,8,0:0:0:0:
420,340,152005,6,0,P|458:320|387:234,1,170,4|8,3:2|0:0,0:0:0:0:
330,223,152396,1,8,0:0:0:0:
207,192,152526,2,0,L|319:178,1,85,8|8,1:0|1:0,0:0:0:0:
101,88,152788,5,6,3:2:0:0:
101,88,153048,1,2,0:0:0:0:
250,38,153309,1,2,0:0:0:0:
193,33,153395,1,2,0:0:0:0:
136,29,153482,1,2,0:0:0:0:
80,25,153569,1,2,0:0:0:0:
436,33,153831,6,0,P|476:82|388:160,1,187.000005706787,4|8,3:2|0:0,0:0:0:0:
314,191,154222,1,0,0:0:0:0:
191,241,154353,2,0,L|291:262,1,93.5000028533936,2|0,0:0|3:2,0:0:0:0:
473,282,154614,1,10,0:0:0:0:
270,309,154744,6,0,L|486:243,1,187.000005706787,2|0,0:0|0:0,0:0:0:0:
250,197,155135,2,0,L|144:171,1,93.5000028533936,10|0,0:0|0:0,0:0:0:0:
279,148,155396,2,0,L|290:41,1,93.5000028533936,2|0,0:0|3:2,0:0:0:0:
100,61,155657,1,10,0:0:0:0:
304,37,155788,2,0,L|361:36,1,46.7500014266968,2|0,0:0|0:0,0:0:0:0:
161,60,155918,6,0,P|134:121|226:194,1,187.000005706787,0|8,3:2|0:0,0:0:0:0:
304,208,156309,1,0,0:0:0:0:
89,293,156440,2,0,L|83:191,1,93.5000028533936,2|0,0:0|3:2,0:0:0:0:
195,152,156701,2,0,L|68:146,1,93.5000028533936,8|0,0:0|0:0,0:0:0:0:
318,57,156961,6,0,L|110:47,1,187.000005706787,2|8,3:2|0:0,0:0:0:0:
226,28,157353,1,0,0:0:0:0:
436,104,157483,2,0,L|311:117,1,93.5000028533936,2|0,3:2|3:2,0:0:0:0:
248,134,157744,1,8,0:0:0:0:
371,215,157874,2,0,L|441:218,1,46.7500014266968
250,308,158005,6,0,L|239:188,1,93.5000028533936,2|0,3:2|0:0,0:0:0:0:
453,169,158266,2,0,P|474:120|357:59,1,187.000005706787,8|0,0:0|0:0,0:0:0:0:
292,51,158657,1,0,3:2:0:0:
416,74,158788,2,0,L|421:188,1,93.5000028533936,10|2,0:0|0:0,0:0:0:0:
196,217,159048,6,0,L|99:221,1,93.5000028533936,2|0,3:2|0:0,0:0:0:0:
215,231,159309,2,0,L|223:332,1,93.5000028533936,10|0,0:0|0:0,0:0:0:0:
418,346,159570,2,0,L|427:237,1,93.5000028533936,2|0,0:0|3:2,0:0:0:0:
196,169,159831,1,10,0:0:0:0:
103,127,159961,2,0,L|40:118,1,46.7500014266968
241,20,160092,6,0,P|284:60|191:137,1,187.000005706787,2|8,3:2|0:0,0:0:0:0:
415,201,160483,2,0,P|442:263|351:308,1,187.000005706787,2|0,0:0|3:2,0:0:0:0:
157,333,160874,2,0,L|54:327,1,93.5000028533936,10|0,0:0|0:0,0:0:0:0:
280,243,161135,6,0,L|170:227,1,93.5000028533936,2|0,3:2|0:0,0:0:0:0:
286,186,161396,2,0,L|388:183,1,93.5000028533936,8|0,0:0|0:0,0:0:0:0:
169,123,161657,2,0,L|154:0,1,93.5000028533936,0|0,3:2|3:2,0:0:0:0:
359,60,161918,1,14,0:0:0:0:
266,86,162048,2,0,L|207:85,1,46.7500014266968
382,203,162179,6,0,P|443:194|438:72,1,187.000005706787,6|8,3:2|0:0,0:0:0:0:
245,219,162570,2,0,P|337:260|445:276,1,187.000005706787,2|0,0:0|3:2,0:0:0:0:
223,323,162961,2,0,L|90:335,1,93.5000028533936,10|0,0:0|0:0,0:0:0:0:
342,261,163222,6,0,L|152:233,1,187.000005706787,2|8,3:2|0:0,0:0:0:0:
374,172,163614,2,0,P|386:111|286:37,1,187.000005706787,2|0,0:0|3:2,0:0:0:0:
101,68,164005,1,10,0:0:0:0:
194,92,164135,2,0,L|269:91,1,46.7500014266968
73,136,164266,6,0,L|67:241,1,93.5000028533936,2|0,3:2|0:0,0:0:0:0:
190,269,164527,2,0,L|94:273,1,93.5000028533936,8|0,0:0|0:0,0:0:0:0:
299,332,164788,2,0,L|406:341,1,93.5000028533936,2|0,0:0|3:2,0:0:0:0:
291,285,165048,2,0,L|386:289,1,93.5000028533936,8|0,0:0|0:0,0:0:0:0:
179,227,165309,6,0,P|151:164|256:111,1,187.000005706787,2|8,3:2|0:0,0:0:0:0:
327,92,165701,1,0,0:0:0:0:
125,45,165831,2,0,L|251:42,1,93.5000028533936,2|0,3:2|3:2,0:0:0:0:
115,85,166092,2,0,L|12:103,1,93.5000028533936,8|0,0:0|0:0,0:0:0:0:
259,201,166353,6,0,L|389:209,1,93.5000028533936,6|0,3:2|0:0,0:0:0:0:
125,286,166614,2,0,L|334:298,1,187.000005706787,8|0,0:0|0:0,0:0:0:0:
217,302,167005,1,0,3:2:0:0:
420,345,167135,2,0,L|312:338,1,93.5000028533936,8|0,0:0|0:0,0:0:0:0:
98,286,167396,6,0,L|96:159,1,93.5000028533936,2|0,3:2|0:0,0:0:0:0:
321,141,167657,2,0,L|122:117,1,187.000005706787,8|0,0:0|0:0,0:0:0:0:
230,89,168048,1,0,3:2:0:0:
37,41,168179,2,0,L|141:37,1,93.5000028533936,8|0,0:0|0:0,0:0:0:0:
357,64,168440,6,0,L|246:56,1,93.5000028533936,6|0,3:2|0:0,0:0:0:0:
357,64,168701,2,0,L|463:72,1,93.5000028533936,8|0,0:0|0:0,0:0:0:0:
232,193,168961,2,0,L|329:188,1,93.5000028533936,0|0,0:0|3:2,0:0:0:0:
223,209,169222,2,0,L|212:334,1,93.5000028533936,8|0,0:0|0:0,0:0:0:0:
440,292,169483,6,0,L|339:278,1,93.5000028533936,0|0,3:2|0:0,0:0:0:0:
83,243,169744,2,0,L|201:228,1,93.5000028533936,14|0,0:0|0:0,0:0:0:0:
403,202,170005,2,0,L|431:141,2,46.7500014266968,2|0|0,3:2|3:2|3:2,0:0:0:0:
179,154,170266,1,10,0:0:0:0:
418,100,170396,2,0,L|347:96,1,46.7500014266968,10|0,0:0|0:0,0:0:0:0:
159,53,170527,6,0,L|365:39,1,187.000005706787,4|8,3:2|0:0,0:0:0:0:
440,26,170918,1,0,0:0:0:0:
317,20,171048,2,0,L|304:117,1,93.5000028533936,2|0,0:0|3:2,0:0:0:0:
496,172,171309,1,10,0:0:0:0:
246,177,171440,6,0,P|216:215|305:294,1,187.000005706787,2|0,0:0|0:0,0:0:0:0:
77,329,171831,2,0,L|181:341,1,93.5000028533936,10|0,0:0|0:0,0:0:0:0:
48,276,172092,2,0,L|46:171,1,93.5000028533936,2|0,0:0|3:2,0:0:0:0:
264,144,172353,1,10,0:0:0:0:
37,91,172483,2,0,L|122:81,1,46.7500014266968,2|0,0:0|0:0,0:0:0:0:
271,27,172614,6,0,P|303:76|206:143,1,187.000005706787,0|8,3:2|0:0,0:0:0:0:
129,160,173005,1,0,0:0:0:0:
321,237,173135,2,0,L|418:245,3,93.5000028533936,2|0|8|0,0:0|3:2|0:0|0:0,0:0:0:0:
190,333,173657,6,0,L|287:334,1,93.5000028533936,2|0,3:2|0:0,0:0:0:0:
379,327,173918,2,0,L|383:213,1,93.5000028533936,8|0,0:0|0:0,0:0:0:0:
182,183,174179,2,0,L|83:176,1,93.5000028533936,2|0,3:2|3:2,0:0:0:0:
182,183,174440,1,8,0:0:0:0:
297,146,174570,2,0,L|359:150,1,46.7500014266968,2|0,0:0|0:0,0:0:0:0:
171,87,174701,6,0,L|64:76,1,93.5000028533936,0|0,3:2|0:0,0:0:0:0:
276,31,174961,2,0,P|330:78|251:154,1,187.000005706787,8|0,0:0|0:0,0:0:0:0:
178,194,175353,1,0,3:2:0:0:
57,204,175483,2,0,L|47:306,1,93.5000028533936,10|0,0:0|0:0,0:0:0:0:
276,366,175744,6,0,L|286:267,1,93.5000028533936,2|0,3:2|0:0,0:0:0:0:
163,257,176005,2,0,L|152:149,1,93.5000028533936,10|0,0:0|0:0,0:0:0:0:
278,132,176266,2,0,L|290:27,1,93.5000028533936,2|0,0:0|3:2,0:0:0:0:
67,74,176527,2,0,L|170:56,1,93.5000028533936,10|0,0:0|0:0,0:0:0:0:
387,42,176787,6,0,L|397:158,1,93.5000028533936,4|0,3:2|0:0,0:0:0:0:
133,143,177048,2,0,L|125:251,1,93.5000028533936,10|0,0:0|0:0,0:0:0:0:
363,270,177309,1,10,0:0:0:0:
260,285,177440,1,0,0:0:0:0:
495,318,177570,1,10,0:0:0:0:
220,341,177701,6,0,P|166:293|232:222,1,187.000005706787,6|0,3:2|3:2,0:0:0:0:
436,198,178092,2,0,L|441:87,1,93.5000028533936,8|0,0:0|0:0,0:0:0:0:
249,57,178353,1,8,3:0:0:0:
295,53,178418,1,8,3:0:0:0:
342,49,178483,1,8,3:0:0:0:
244,118,178614,2,0,L|231:248,1,93.5000028533936,2|2,3:2|0:0,0:0:0:0:
445,265,178874,6,0,L|241:318,1,187.000005706787,6|10,3:2|0:0,0:0:0:0:
53,325,179266,2,0,L|265:342,1,187.000005706787,2|0,0:0|3:2,0:0:0:0:
47,252,179657,2,0,L|37:142,1,93.5000028533936,10|0,0:0|0:0,0:0:0:0:
265,170,179918,6,0,P|320:133|259:46,1,187.000005706787,2|8,3:2|0:0,0:0:0:0:
71,45,180309,2,0,P|53:103|155:156,1,187.000005706787,2|0,0:0|3:2,0:0:0:0:
341,210,180701,2,0,L|230:212,1,93.5000028533936,10|0,0:0|0:0,0:0:0:0:
446,200,180961,6,0,L|461:306,1,93.5000028533936,2|0,3:2|0:0,0:0:0:0:
345,329,181222,2,0,L|451:349,1,93.5000028533936,8|0,0:0|0:0,0:0:0:0:
205,272,181483,2,0,L|316:269,1,93.5000028533936,2|0,0:0|3:2,0:0:0:0:
181,220,181744,2,0,L|171:108,1,93.5000028533936,8|0,0:0|0:0,0:0:0:0:
393,51,182005,6,0,L|284:45,1,93.5000028533936,2|0,3:2|0:0,0:0:0:0:
403,100,182266,2,0,L|308:89,1,93.5000028533936,8|0,0:0|0:0,0:0:0:0:
102,119,182527,2,0,L|219:123,1,93.5000028533936,2|0,3:2|3:2,0:0:0:0:
92,93,182787,2,0,L|201:98,1,93.5000028533936,8|0,0:0|0:0,0:0:0:0:
387,168,183048,6,0,L|288:159,1,93.5000028533936,6|0,3:2|0:0,0:0:0:0:
488,240,183309,2,0,L|272:234,1,187.000005706787,8|0,0:0|0:0,0:0:0:0:
396,285,183701,1,0,3:2:0:0:
199,316,183831,2,0,L|77:313,1,93.5000028533936,8|0,0:0|0:0,0:0:0:0:
325,324,184092,6,0,L|326:202,1,93.5000028533936,2|0,3:2|0:0,0:0:0:0:
107,157,184353,2,0,L|301:141,1,187.000005706787,8|0,0:0|0:0,0:0:0:0:
198,122,184744,1,0,3:2:0:0:
397,74,184874,2,0,L|279:56,1,93.5000028533936,8|0,0:0|0:0,0:0:0:0:
84,39,185135,6,0,L|77:138,1,93.5000028533936,2|0,3:2|0:0,0:0:0:0:
301,241,185396,1,12,0:0:0:0:
207,236,185526,1,0,0:0:0:0:
114,231,185656,1,0,0:0:0:0:
318,298,185787,1,0,3:2:0:0:
89,258,185918,2,0,L|85:155,1,93.5000028533936,12|0,0:0|0:0,0:0:0:0:
311,118,186179,6,0,L|181:100,1,93.5000028533936,12|0,0:0|0:0,0:0:0:0:
410,31,186440,2,0,L|417:140,1,93.5000028533936,14|0,0:0|0:0,0:0:0:0:
151,164,186701,1,2,3:2:0:0:
197,172,186766,1,0,3:2:0:0:
243,180,186831,1,0,3:2:0:0:
456,207,186961,1,10,0:0:0:0:
207,245,187092,1,10,0:0:0:0:
482,301,187222,6,0,L|487:179,1,101.999996887207,12|0,0:0|0:0,0:0:0:0:
260,135,187483,2,0,L|381:131,1,101.999996887207,8|0,0:0|0:0,0:0:0:0:
260,135,187744,2,0,L|136:126,1,101.999996887207,8|0,0:0|3:0,0:0:0:0:
391,57,188005,2,0,L|283:44,1,101.999996887207,8|0,0:0|3:0,0:0:0:0:
74,46,188266,6,0,L|70:167,1,101.999996887207,8|0,0:0|0:0,0:0:0:0:
271,176,188527,2,0,L|268:283,1,101.999996887207,10|0,0:0|0:0,0:0:0:0:
56,321,188787,2,0,L|177:318,1,101.999996887207,10|0,0:0|3:0,0:0:0:0:
374,273,189048,2,0,L|253:260,1,101.999996887207,10|2,0:0|3:2,0:0:0:0:
324,248,189244,1,0,0:0:0:0:
482,285,189309,6,0,L|486:168,1,101.999996887207,12|0,0:0|0:0,0:0:0:0:
269,125,189570,2,0,L|154:108,1,101.999996887207,8|0,0:0|0:0,0:0:0:0:
274,22,189831,2,0,L|284:124,1,101.999996887207,8|0,0:0|3:0,0:0:0:0:
66,160,190092,2,0,L|58:280,1,101.999996887207,8|0,0:0|3:0,0:0:0:0:
283,285,190353,6,0,L|167:286,1,101.999996887207,8|0,0:0|0:0,0:0:0:0:
453,333,190614,2,0,L|339:336,1,101.999996887207,10|0,0:0|0:0,0:0:0:0:
133,312,190874,2,0,L|127:199,1,101.999996887207,10|0,0:0|3:0,0:0:0:0:
346,176,191135,1,10,0:0:0:0:
109,132,191266,2,0,L|205:123,1,50.9999984436036,2|0,3:2|3:0,0:0:0:0:
356,74,191396,6,0,L|236:67,1,101.999996887207,12|0,0:0|0:0,0:0:0:0:
356,22,191657,2,0,L|366:130,1,101.999996887207,8|0,0:0|0:0,0:0:0:0:
152,234,191918,2,0,L|33:226,1,101.999996887207,8|0,0:0|3:0,0:0:0:0:
157,237,192179,2,0,L|42:227,1,101.999996887207,8|0,0:0|3:0,0:0:0:0:
264,342,192440,6,0,L|267:226,1,101.999996887207,8|0,0:0|0:0,0:0:0:0:
39,223,192701,2,0,L|31:89,1,101.999996887207,10|0,0:0|0:0,0:0:0:0:
241,137,192961,2,0,L|247:26,1,101.999996887207,10|0,0:0|3:0,0:0:0:0:
470,115,193222,2,0,L|464:2,1,101.999996887207,10|0,0:0|3:0,0:0:0:0:
413,25,193418,1,0,0:0:0:0:
227,220,193483,5,14,0:0:0:0:
328,227,193613,1,0,0:0:0:0:
430,234,193743,1,8,0:0:0:0:
171,309,193874,2,0,L|314:328,2,101.999996887207,2|8|0,0:0|0:0|3:0,0:0:0:0:
417,360,194266,2,0,L|424:241,1,101.999996887207,14|0,0:0|3:0,0:0:0:0:
213,184,194527,6,0,L|99:169,1,101.999996887207,10|0,0:0|0:0,0:0:0:0:
334,142,194787,2,0,L|450:147,1,101.999996887207,14|0,0:0|0:0,0:0:0:0:
161,105,195048,2,0,L|159:-7,1,101.999996887207,10|0,0:0|3:0,0:0:0:0:
407,70,195309,1,14,0:0:0:0:
147,160,195440,2,0,L|216:168,1,50.9999984436036,2|0,3:2|0:0,0:0:0:0:
383,224,195570,6,0,L|372:343,1,101.999996887207,12|0,0:0|0:0,0:0:0:0:
111,307,195831,2,0,L|224:308,1,101.999996887207,8|0,0:0|0:0,0:0:0:0:
111,307,196092,2,0,L|225:309,1,101.999996887207,8|0,0:0|3:0,0:0:0:0:
426,356,196353,2,0,L|431:224,1,101.999996887207,8|0,0:0|3:0,0:0:0:0:
209,228,196614,6,0,L|203:108,1,101.999996887207,8|0,0:0|0:0,0:0:0:0:
426,80,196874,2,0,L|430:205,1,101.999996887207,10|0,0:0|0:0,0:0:0:0:
221,281,197135,2,0,L|350:266,1,101.999996887207,10|0,0:0|3:0,0:0:0:0:
83,348,197396,2,0,L|93:237,1,101.999996887207,8|2,0:0|3:2,0:0:0:0:
144,238,197592,1,0,0:0:0:0:
334,279,197657,6,0,L|223:272,1,101.999996887207,8|0,0:0|0:0,0:0:0:0:
494,310,197918,2,0,L|491:196,1,101.999996887207,8|0,0:0|0:0,0:0:0:0:
388,170,198179,2,0,L|497:167,1,101.999996887207,8|0,0:0|3:0,0:0:0:0:
269,106,198440,2,0,L|398:96,1,101.999996887207,8|0,0:0|3:0,0:0:0:0:
136,43,198701,6,0,L|126:165,1,101.999996887207,8|0,0:0|0:0,0:0:0:0:
348,251,198961,2,0,L|231:245,1,101.999996887207,10|0,0:0|0:0,0:0:0:0:
31,313,199222,2,0,L|139:326,1,101.999996887207,10|0,0:0|3:0,0:0:0:0:
358,341,199483,1,10,0:0:0:0:
123,246,199614,2,0,L|66:240,1,50.9999984436036,2|0,2:0|3:0,0:0:0:0:
253,213,199744,6,0,L|372:204,1,101.999996887207,8|0,0:0|0:0,0:0:0:0:
253,213,200005,2,0,L|375:203,1,101.999996887207,8|0,0:0|0:0,0:0:0:0:
133,140,200266,2,0,L|5:131,1,101.999996887207,10|0,0:0|3:0,0:0:0:0:
133,140,200527,2,0,L|24:133,1,101.999996887207,8|0,0:0|3:0,0:0:0:0:
274,64,200787,6,0,L|141:62,1,101.999996887207,10|0,0:0|0:0,0:0:0:0:
274,64,201048,2,0,L|397:64,1,101.999996887207,8|0,0:0|0:0,0:0:0:0:
165,152,201309,2,0,L|273:145,1,101.999996887207,10|0,0:0|3:0,0:0:0:0:
477,198,201570,1,8,0:0:0:0:
213,235,201701,1,8,0:0:0:0:
469,333,201831,6,0,P|491:270|375:192,1,203.999993774414,6|8,3:2|0:0,0:0:0:0:
308,178,202222,1,0,0:0:0:0:
199,158,202353,1,0,3:0:0:0:
311,52,202483,2,0,L|312:160,1,101.999996887207,0|8,3:0|0:0,0:0:0:0:
416,192,202744,1,0,0:0:0:0:
184,244,202874,6,0,L|268:309,1,101.999996887207,0|0,3:0|0:0,0:0:0:0:
457,309,203135,2,0,L|348:354,1,101.999996887207,12|0,0:0|0:0,0:0:0:0:
142,340,203396,2,0,L|120:272,2,50.9999984436036,8|8|8,3:0|3:0|3:0,0:0:0:0:
361,278,203657,1,8,0:0:0:0:
144,338,203787,1,8,0:0:0:0:
419,358,203918,6,0,P|466:322|374:253,1,187.000005706787,4|8,3:2|0:0,0:0:0:0:
308,226,204309,1,0,0:0:0:0:
178,192,204440,2,0,L|165:82,1,93.5000028533936,0|0,0:0|3:2,0:0:0:0:
370,49,204701,1,8,0:0:0:0:
149,74,204831,6,0,L|347:104,1,187.000005706787
129,163,205222,2,0,L|31:176,1,93.5000028533936,8|0,0:0|0:0,0:0:0:0:
229,210,205483,2,0,L|232:320,1,93.5000028533936,0|0,0:0|3:2,0:0:0:0:
345,358,205744,2,0,L|352:252,1,93.5000028533936,8|0,0:0|0:0,0:0:0:0:
141,216,206005,6,0,L|343:180,1,187.000005706787,0|8,3:2|0:0,0:0:0:0:
231,154,206396,1,0,0:0:0:0:
354,117,206527,2,0,L|448:113,1,93.5000028533936,0|0,0:0|3:2,0:0:0:0:
243,74,206787,1,8,0:0:0:0:
444,39,206918,6,0,P|482:95|382:154,1,187.000005706787
215,221,207309,2,0,L|343:230,1,93.5000028533936,8|0,0:0|0:0,0:0:0:0:
102,261,207570,2,0,L|91:362,1,93.5000028533936,0|0,3:0|3:0,0:0:0:0:
292,346,207831,2,0,L|389:343,1,93.5000028533936,8|0,0:0|0:0,0:0:0:0:
161,305,208092,6,0,P|84:277|126:192,1,187.000005706787,4|8,3:2|0:0,0:0:0:0:
208,167,208483,1,0,0:0:0:0:
331,125,208614,2,0,L|228:119,1,93.5000028533936,0|0,0:0|3:2,0:0:0:0:
443,64,208874,1,8,0:0:0:0:
195,45,209005,6,0,L|427:32,1,187.000005706787
169,137,209396,2,0,L|52:135,1,93.5000028533936,8|0,0:0|0:0,0:0:0:0:
187,190,209657,2,0,L|196:298,1,93.5000028533936,0|0,0:0|3:2,0:0:0:0:
403,287,209918,2,0,L|413:381,1,93.5000028533936,8|0,0:0|0:0,0:0:0:0:
192,304,210179,6,0,P|164:247|260:187,1,187.000005706787,0|8,3:2|0:0,0:0:0:0:
343,172,210570,1,0,0:0:0:0:
128,108,210701,2,0,L|250:91,1,93.5000028533936,0|0,0:0|3:2,0:0:0:0:
121,27,210961,2,0,L|113:137,1,93.5000028533936,8|0,0:0|0:0,0:0:0:0:
308,171,211222,6,0,L|112:193,1,187.000005706787,0|8,3:2|0:0,0:0:0:0:
28,205,211614,1,0,0:0:0:0:
216,213,211744,2,0,L|234:324,1,93.5000028533936,0|0,3:2|3:2,0:0:0:0:
35,336,212005,2,0,L|147:342,1,93.5000028533936,12|0,0:0|0:0,0:0:0:0:
345,289,212266,6,0,L|126:272,1,187.000005706787,4|8,3:2|0:0,0:0:0:0:
376,225,212787,2,0,L|377:125,1,93.5000028533936,0|0,0:0|3:2,0:0:0:0:
286,98,213048,2,0,L|379:93,1,93.5000028533936,8|0,0:0|0:0,0:0:0:0:
172,44,213309,6,0,L|294:38,1,93.5000028533936,0|0,3:2|0:0,0:0:0:0:
172,44,213570,2,0,L|74:50,1,93.5000028533936,8|0,0:0|0:0,0:0:0:0:
268,99,213831,2,0,L|267:221,1,93.5000028533936,0|0,0:0|3:2,0:0:0:0:
66,248,214092,2,0,L|158:259,1,93.5000028533936,8|0,0:0|0:0,0:0:0:0:
359,307,214353,6,0,L|470:312,1,93.5000028533936,0|0,3:2|0:0,0:0:0:0:
253,344,214614,2,0,P|225:298|307:212,1,187.000005706787,8|0,0:0|0:0,0:0:0:0:
395,191,215005,1,0,3:2:0:0:
271,165,215135,2,0,L|164:159,1,93.5000028533936,8|0,0:0|0:0,0:0:0:0:
389,72,215396,6,0,L|189:57,1,187.000005706787,0|8,3:2|0:0,0:0:0:0:
109,46,215787,1,0,0:0:0:0:
299,41,215918,2,0,L|305:150,1,93.5000028533936,0|0,3:2|3:2,0:0:0:0:
186,197,216179,2,0,L|310:204,1,93.5000028533936,8|0,0:0|0:0,0:0:0:0:
64,277,216440,6,0,L|178:284,1,93.5000028533936,4|0,3:2|0:0,0:0:0:0:
252,312,216701,2,0,L|154:312,1,93.5000028533936,8|0,0:0|0:0,0:0:0:0:
351,341,216961,2,0,L|456:345,1,93.5000028533936,0|0,0:0|3:2,0:0:0:0:
341,310,217222,2,0,L|447:312,1,93.5000028533936,8|0,0:0|0:0,0:0:0:0:
240,232,217483,6,0,L|120:224,1,93.5000028533936,0|0,3:2|0:0,0:0:0:0:
342,159,217744,2,0,L|145:149,1,187.000005706787,8|0,0:0|0:0,0:0:0:0:
249,127,218135,1,0,3:2:0:0:
374,35,218266,2,0,L|381:140,1,93.5000028533936,8|0,0:0|0:0,0:0:0:0:
131,205,218527,5,4,3:2:0:0:
255,266,218657,2,0,L|197:269,1,46.7500014266968,8|8,0:0|0:0,0:0:0:0:
46,308,218787,2,0,L|165:321,1,93.5000028533936,8|8,0:0|0:0,0:0:0:0:
381,335,219048,1,8,0:0:0:0:
259,323,219179,2,0,L|318:317,1,46.7500014266968,8|8,0:0|0:0,0:0:0:0:
480,285,219309,2,0,L|358:280,1,93.5000028533936,8|8,0:0|0:0,0:0:0:0:
146,220,219570,6,0,L|356:199,1,187.000005706787,4|8,3:2|0:0,0:0:0:0:
89,152,219961,2,0,P|36:112|110:38,1,187.000005706787,4|8,3:2|0:0,0:0:0:0:
335,78,220353,2,0,L|225:80,1,93.5000028533936,4|0,3:2|0:0,0:0:0:0:
474,115,220614,6,0,L|469:222,1,93.5000028533936,4|0,3:2|0:0,0:0:0:0:
357,211,220874,2,0,L|349:325,1,93.5000028533936,8|0,0:0|0:0,0:0:0:0:
128,330,221135,2,0,L|234:351,1,93.5000028533936,0|0,0:0|3:2,0:0:0:0:
423,318,221396,1,8,0:0:0:0:
211,259,221527,6,0,P|191:197|293:132,1,187.000005706787
397,119,221918,2,0,L|401:16,1,93.5000028533936,8|0,0:0|0:0,0:0:0:0:
164,61,222179,2,0,L|262:60,1,93.5000028533936,0|0,0:0|3:2,0:0:0:0:
480,154,222440,2,0,L|359:163,1,93.5000028533936,8|0,0:0|0:0,0:0:0:0:
176,179,222701,6,0,L|172:304,1,93.5000028533936,0|0,3:2|0:0,0:0:0:0:
383,308,222961,1,8,0:0:0:0:
149,355,223092,2,0,L|376:345,1,187.000005706787,0|0,0:0|3:2,0:0:0:0:
142,278,223483,2,0,L|26:253,1,93.5000028533936,8|0,0:0|0:0,0:0:0:0:
277,202,223744,5,0,3:0:0:0:
370,180,223874,1,0,0:0:0:0:
418,105,224005,1,8,0:0:0:0:
370,180,224135,1,0,0:0:0:0:
176,226,224266,1,0,3:0:0:0:
269,247,224396,1,0,3:0:0:0:
176,226,224527,1,8,0:0:0:0:
269,247,224657,1,0,0:0:0:0:
477,311,224787,6,0,L|360:308,1,93.5000028533936,4|0,3:2|0:0,0:0:0:0:
288,312,225048,2,0,L|389:312,1,93.5000028533936,8|0,0:0|0:0,0:0:0:0:
184,276,225309,2,0,L|72:259,1,93.5000028533936,0|0,0:0|3:2,0:0:0:0:
309,207,225570,1,8,0:0:0:0:
72,170,225701,6,0,P|67:74|157:45,1,187.000005706787
266,100,226092,2,0,L|162:99,1,93.5000028533936,8|0,0:0|0:0,0:0:0:0:
401,178,226353,2,0,L|298:178,1,93.5000028533936,0|0,0:0|3:2,0:0:0:0:
110,241,226614,2,0,L|101:362,1,93.5000028533936,8|0,0:0|0:0,0:0:0:0:
332,318,226874,6,0,L|414:313,1,62.3333352355958,0|0,3:2|0:0,0:0:0:0:
238,249,227048,2,0,L|234:171,1,62.3333352355958,0|8,0:0|0:0,0:0:0:0:
313,168,227222,2,0,L|319:88,1,62.3333352355958
144,75,227396,6,0,L|136:150,1,62.3333352355958
300,215,227570,2,0,L|373:219,1,62.3333352355958,0|8,0:0|0:0,0:0:0:0:
300,215,227744,2,0,L|214:210,1,62.3333352355958
400,86,227918,6,0,L|413:151,1,62.3333352355958,0|0,3:2|0:0,0:0:0:0:
325,168,228092,2,0,L|296:256,1,62.3333352355958,0|8,0:0|0:0,0:0:0:0:
216,252,228266,2,0,L|143:266,1,62.3333352355958
382,326,228440,6,0,L|391:250,1,62.3333352355958,0|0,3:2|0:0,0:0:0:0:
311,237,228614,2,0,L|298:157,1,62.3333352355958,0|12,0:0|0:0,0:0:0:0:
384,328,228787,2,0,L|388:257,1,62.3333352355958
176,222,228961,6,0,P|141:177|219:90,1,187.000005706787,4|8,3:2|0:0,0:0:0:0:
303,75,229353,1,0,0:0:0:0:
492,65,229483,2,0,L|367:65,1,93.5000028533936,0|0,0:0|3:2,0:0:0:0:
492,65,229744,2,0,L|392:63,1,93.5000028533936,8|0,0:0|0:0,0:0:0:0:
201,156,230005,6,0,L|391:192,1,187.000005706787,0|8,3:2|0:0,0:0:0:0:
291,217,230396,1,0,0:0:0:0:
415,241,230527,2,0,L|419:343,1,93.5000028533936,0|0,0:0|3:2,0:0:0:0:
295,348,230787,2,0,L|403:361,1,93.5000028533936,8|0,0:0|0:0,0:0:0:0:
181,349,231048,6,0,P|115:328|150:221,1,187.000005706787,0|8,3:2|0:0,0:0:0:0:
258,191,231440,1,0,0:0:0:0:
133,153,231570,2,0,L|35:138,1,93.5000028533936,0|0,0:0|3:2,0:0:0:0:
163,95,231831,2,0,L|173:-5,1,93.5000028533936,8|0,0:0|0:0,0:0:0:0:
380,91,232092,5,0,3:2:0:0:
287,105,232222,1,0,0:0:0:0:
240,183,232353,1,8,0:0:0:0:
287,105,232483,1,0,0:0:0:0:
165,192,232614,1,0,3:2:0:0:
257,222,232744,1,0,3:2:0:0:
302,303,232874,1,8,0:0:0:0:
257,222,233005,1,0,0:0:0:0:
445,351,233135,5,4,3:2:0:0:
494,279,233266,1,0,0:0:0:0:
445,351,233396,1,8,0:0:0:0:
352,350,233527,1,0,0:0:0:0:
97,283,233657,2,0,L|232:280,1,93.5000028533936,0|0,0:0|3:2,0:0:0:0:
85,248,233918,2,0,L|79:137,1,93.5000028533936,8|0,0:0|0:0,0:0:0:0:
275,124,234179,6,0,L|270:7,1,93.5000028533936,0|0,3:2|0:0,0:0:0:0:
72,64,234440,2,0,L|165:59,1,93.5000028533936,8|0,0:0|0:0,0:0:0:0:
354,152,234701,2,0,L|219:156,1,93.5000028533936,0|0,0:0|3:2,0:0:0:0:
354,152,234961,2,0,L|449:155,1,93.5000028533936,8|0,0:0|0:0,0:0:0:0:
207,122,235222,6,0,L|87:118,1,93.5000028533936,4|0,3:2|0:0,0:0:0:0:
346,234,235483,2,0,L|443:231,1,93.5000028533936,8|0,0:0|0:0,0:0:0:0:
240,310,235744,2,0,L|362:316,1,93.5000028533936,0|0,0:0|3:2,0:0:0:0:
141,342,236005,2,0,L|30:339,1,93.5000028533936,12|0,0:0|0:0,0:0:0:0:
292,248,236266,5,8,3:0:0:0:
432,169,236527,1,8,3:0:0:0:
244,138,236657,1,8,1:0:0:0:
157,65,236918,1,8,1:0:0:0:
382,45,237048,1,8,1:0:0:0:
40,51,237310,5,4,0:0:0:0:
208,136,237570,2,0,L|267:140,1,42.5
208,136,237701,2,0,L|137:145,2,42.5
420,235,238092,5,0,0:0:0:0:
203,273,238353,1,0,0:0:0:0:
409,343,238614,2,0,L|414:237,1,85
283,197,238875,5,0,0:0:0:0:
442,182,239136,1,0,0:0:0:0:
473,155,239201,1,0,0:0:0:0:
478,114,239266,1,0,0:0:0:0:
452,81,239331,1,0,0:0:0:0:
411,76,239396,1,0,0:0:0:0:
200,62,239657,5,0,0:0:0:0:
412,26,239918,1,0,0:0:0:0:
200,62,240179,2,0,L|181:115,2,42.5
331,137,240440,5,0,0:0:0:0:
175,191,240701,2,0,L|171:269,1,42.5
230,266,240831,2,0,L|234:329,1,42.5
171,346,240962,1,0,0:0:0:0:
395,346,241223,5,0,0:0:0:0:
180,290,241483,1,0,0:0:0:0:
395,346,241744,1,0,0:0:0:0:
301,315,241875,6,0,L|294:266,2,42.5
474,213,242266,1,0,0:0:0:0:
494,176,242331,1,0,0:0:0:0:
489,135,242396,1,0,0:0:0:0:
461,104,242461,1,0,0:0:0:0:
421,95,242526,1,0,0:0:0:0:
60,44,242788,5,8,0:0:0:0:
431,33,243049,1,8,0:0:0:0:
60,44,243310,1,8,0:0:0:0:
418,145,243570,5,4,0:0:0:0:
250,203,243831,2,0,L|198:197,1,42.5
250,203,243962,2,0,L|304:204,2,42.5
43,275,244353,5,0,0:0:0:0:
256,315,244614,1,0,0:0:0:0:
43,275,244875,1,0,0:0:0:0:
134,249,245005,5,0,0:0:0:0:
91,244,245070,1,0,0:0:0:0:
49,239,245135,1,0,0:0:0:0:
234,68,245396,2,0,L|239:145,1,42.5
176,129,245527,2,0,L|173:192,1,42.5
234,203,245657,1,0,0:0:0:0:
436,252,245918,5,0,0:0:0:0:
211,300,246179,1,0,0:0:0:0:
436,252,246440,1,0,0:0:0:0:
349,254,246570,5,0,0:0:0:0:
391,252,246635,1,0,0:0:0:0:
433,251,246700,1,0,0:0:0:0:
261,200,246962,1,0,0:0:0:0:
220,192,247027,1,0,0:0:0:0:
198,157,247092,1,0,0:0:0:0:
209,117,247157,1,0,0:0:0:0:
246,98,247222,1,0,0:0:0:0:
453,52,247483,5,0,0:0:0:0:
257,39,247744,1,0,0:0:0:0:
453,52,248005,1,0,0:0:0:0:
94,113,248266,6,0,P|51:156|139:214,1,170,4|8,3:2|0:0,0:0:0:0:
198,241,248657,1,8,0:0:0:0:
320,281,248788,2,0,L|232:300,1,85,8|8,1:0|1:0,0:0:0:0:
444,343,249049,5,6,0:0:0:0:
444,343,249309,1,2,0:0:0:0:
296,244,249570,1,2,0:0:0:0:
352,241,249656,1,2,0:0:0:0:
409,239,249743,1,2,0:0:0:0:
465,237,249830,1,2,0:0:0:0:
123,149,250092,5,4,3:2:0:0:
401,112,252179,5,4,3:2:0:0:
135,73,254266,5,4,3:2:0:0:
391,267,256353,6,0,L|231:39,2,255,8|8|8,3:0|3:0|3:0,0:0:0:0:
165,308,257396,5,0,3:0:0:0:
364,348,257527,2,0,P|405:321|343:237,1,170,8|8,0:0|0:0,0:0:0:0:
233,227,257918,2,0,L|226:123,1,85,8|8,1:0|1:0,0:0:0:0:
349,139,258179,2,0,L|355:39,1,85,8|0,1:0|0:0,0:0:0:0:
106,38,258440,6,0,P|57:72|120:146,1,170,0|0,3:0|0:0,0:0:0:0:
280,217,258962,2,0,L|91:242,1,170,0|0,3:0|0:0,0:0:0:0:
282,317,259483,2,0,L|491:346,1,170,0|0,3:0|0:0,0:0:0:0:
243,232,260005,2,0,L|429:216,1,170,8|0,0:0|0:0,0:0:0:0:
65,273,260527,6,0,L|60:66,1,170,0|0,3:0|0:0,0:0:0:0:
242,90,261049,2,0,L|62:42,1,170,0|0,3:0|0:0,0:0:0:0:
256,27,261570,2,0,P|305:50|256:133,1,170,0|0,3:0|0:0,0:0:0:0:
76,167,262092,2,0,P|28:206|97:270,1,170,0|8,3:0|0:0,0:0:0:0:
360,326,262614,5,0,3:0:0:0:
190,254,262875,1,0,3:0:0:0:
376,246,263135,1,0,3:0:0:0:
172,207,263396,1,8,0:0:0:0:
405,187,263657,6,0,L|407:95,1,85,0|8,3:0|0:0,0:0:0:0:
286,87,263918,2,0,L|279:3,1,85,0|8,3:0|0:0,0:0:0:0:
473,21,264179,6,0,L|477:96,1,56.6666666666667,8|8,0:0|0:0,0:0:0:0:
418,113,264353,1,8,0:0:0:0:
240,178,264440,1,8,0:0:0:0:
295,187,264526,1,8,0:0:0:0:
351,197,264613,1,8,0:0:0:0:
106,223,264701,6,0,P|53:256|114:334,1,170,4|8,3:2|0:0,0:0:0:0:
316,310,265092,2,0,L|110:295,1,170,4|8,3:2|0:0,0:0:0:0:
341,252,265483,2,0,L|444:243,1,85,4|0,3:2|0:0,0:0:0:0:
182,194,265744,5,4,3:2:0:0:
266,158,265875,2,0,L|333:157,1,42.5,8|8,0:0|0:0,0:0:0:0:
133,87,266005,2,0,L|54:78,2,56.6666666666667,8|8|8,3:0|3:0|3:0,0:0:0:0:
317,41,266266,1,8,1:0:0:0:
260,36,266352,1,8,1:0:0:0:
204,31,266439,1,8,1:0:0:0:
287,89,266527,2,0,L|369:83,2,56.6666666666667,8|8|8,1:0|1:0|1:0,0:0:0:0:
88,141,266788,1,8,1:0:0:0:
459,160,267049,6,0,P|491:225|390:266,1,187.000005706787,12|2,0:0|0:0,0:0:0:0:
283,325,267440,1,0,3:2:0:0:
376,334,267570,1,10,0:0:0:0:
165,274,267701,6,0,L|360:249,1,187.000005706787,2|0,0:0|0:0,0:0:0:0:
156,181,268092,2,0,L|139:80,1,93.5000028533936,10|0,0:0|0:0,0:0:0:0:
253,115,268353,2,0,L|254:19,1,93.5000028533936,2|0,0:0|3:2,0:0:0:0:
64,50,268614,1,10,0:0:0:0:
260,48,268744,2,0,L|331:39,1,46.7500014266968,2|0,0:0|0:0,0:0:0:0:
139,73,268875,6,0,P|116:127|218:176,1,187.000005706787,0|8,3:2|0:0,0:0:0:0:
301,195,269266,1,0,0:0:0:0:
490,264,269396,2,0,L|364:266,1,93.5000028533936,2|0,0:0|3:2,0:0:0:0:
490,264,269657,2,0,L|391:264,1,93.5000028533936,8|0,0:0|0:0,0:0:0:0:
202,330,269918,6,0,L|194:220,1,93.5000028533936,2|0,3:2|0:0,0:0:0:0:
299,207,270179,2,0,L|415:200,1,93.5000028533936,8|0,0:0|0:0,0:0:0:0:
199,126,270440,2,0,L|310:117,1,93.5000028533936,2|0,3:2|3:2,0:0:0:0:
199,126,270701,1,8,0:0:0:0:
106,193,270831,2,0,L|46:195,1,46.7500014266968,2|0,0:0|0:0,0:0:0:0:
223,292,270962,6,0,L|353:281,1,93.5000028533936,0|0,3:2|0:0,0:0:0:0:
124,328,271222,2,0,L|336:335,1,187.000005706787,8|0,0:0|0:0,0:0:0:0:
214,290,271614,1,0,3:2:0:0:
334,262,271744,2,0,L|347:146,1,93.5000028533936,10|2,0:0|0:0,0:0:0:0:
121,189,272005,6,0,L|116:83,1,93.5000028533936,2|0,3:2|0:0,0:0:0:0:
239,98,272266,2,0,L|242:-8,1,93.5000028533936,10|0,0:0|0:0,0:0:0:0:
119,34,272527,2,0,L|111:145,1,93.5000028533936,2|0,0:0|3:2,0:0:0:0:
353,207,272788,2,0,L|228:210,1,93.5000028533936,10|0,0:0|0:0,0:0:0:0:
27,246,273049,6,0,L|136:255,1,93.5000028533936,4|0,3:2|0:0,0:0:0:0:
345,292,273309,2,0,L|241:296,1,93.5000028533936,10|0,0:0|0:0,0:0:0:0:
485,340,273570,2,0,L|374:345,1,93.5000028533936,10|0,0:0|0:0,0:0:0:0:
136,294,273831,1,10,0:0:0:0:
396,241,273962,6,0,P|431:182|350:117,1,187.000005706787,6|0,3:2|3:2,0:0:0:0:
120,77,274353,2,0,L|215:73,1,93.5000028533936,8|0,0:0|0:0,0:0:0:0:
420,44,274614,1,8,3:0:0:0:
373,39,274679,1,8,3:0:0:0:
326,35,274744,1,8,3:0:0:0:
420,44,274875,2,0,L|321:33,1,93.5000028533936,2|2,3:2|0:0,0:0:0:0:
111,134,275135,6,0,L|294:178,1,187.000005706787,6|10,3:2|0:0,0:0:0:0:
487,235,275527,2,0,L|295:248,1,187.000005706787,2|0,0:0|3:2,0:0:0:0:
494,341,275918,2,0,L|494:242,1,93.5000028533936,10|0,0:0|0:0,0:0:0:0:
252,206,276179,6,0,P|321:160|426:157,1,187.000005706787,2|8,3:2|0:0,0:0:0:0:
216,147,276570,2,0,P|149:126|172:29,1,187.000005706787,2|0,0:0|3:2,0:0:0:0:
373,63,276962,2,0,L|249:57,1,93.5000028533936,10|0,0:0|0:0,0:0:0:0:
233,55,277157,1,0,0:0:0:0:
417,27,277222,6,0,L|420:142,1,93.5000028533936,2|0,3:2|0:0,0:0:0:0:
331,172,277483,2,0,L|427:177,1,93.5000028533936,8|0,0:0|0:0,0:0:0:0:
197,268,277744,2,0,L|299:279,1,93.5000028533936,2|0,0:0|3:2,0:0:0:0:
187,320,278005,2,0,L|172:202,1,93.5000028533936,8|0,0:0|0:0,0:0:0:0:
399,179,278266,6,0,L|270:152,1,93.5000028533936,2|0,3:2|0:0,0:0:0:0:
210,122,278527,2,0,L|322:116,1,93.5000028533936,8|0,0:0|0:0,0:0:0:0:
91,69,278788,2,0,L|201:63,1,93.5000028533936,2|0,3:2|3:2,0:0:0:0:
288,44,279048,2,0,L|172:37,1,93.5000028533936,8|0,0:0|0:0,0:0:0:0:
387,83,279309,6,0,L|493:96,1,93.5000028533936,6|0,3:2|0:0,0:0:0:0:
246,186,279570,2,0,L|453:205,1,187.000005706787,8|0,0:0|0:0,0:0:0:0:
338,248,279962,1,0,3:2:0:0:
138,300,280092,2,0,L|31:300,1,93.5000028533936,8|0,0:0|0:0,0:0:0:0:
265,341,280353,6,0,L|139:337,1,93.5000028533936,2|0,3:2|0:0,0:0:0:0:
386,248,280614,2,0,L|171:241,1,187.000005706787,8|0,0:0|0:0,0:0:0:0:
294,197,281005,1,0,3:2:0:0:
96,162,281135,2,0,L|199:145,1,93.5000028533936,8|0,0:0|0:0,0:0:0:0:
396,144,281396,6,0,L|393:29,1,93.5000028533936,2|0,3:2|0:0,0:0:0:0:
137,38,281657,2,0,L|130:166,1,93.5000028533936,12|0,0:0|0:0,0:0:0:0:
347,200,281918,2,0,L|214:207,1,93.5000028533936,0|0,0:0|3:2,0:0:0:0:
464,206,282179,2,0,L|464:328,1,93.5000028533936,12|0,0:0|0:0,0:0:0:0:
226,328,282440,6,0,L|102:337,1,93.5000028533936,12|0,0:0|0:0,0:0:0:0:
351,310,282701,2,0,L|451:316,1,93.5000028533936,14|0,0:0|0:0,0:0:0:0:
185,257,282962,2,0,L|165:202,2,46.7500014266968,2|0|0,3:2|3:2|3:2,0:0:0:0:
391,227,283222,1,10,0:0:0:0:
164,303,283353,1,10,0:0:0:0:
462,342,283483,6,0,L|461:229,1,101.999996887207,12|0,0:0|0:0,0:0:0:0:
230,196,283744,2,0,L|365:182,1,101.999996887207,8|0,0:0|0:0,0:0:0:0:
230,196,284005,2,0,L|120:189,1,101.999996887207,8|0,0:0|3:0,0:0:0:0:
364,115,284266,2,0,L|246:103,1,101.999996887207,8|0,0:0|3:0,0:0:0:0:
61,32,284527,6,0,L|57:149,1,101.999996887207,8|0,0:0|0:0,0:0:0:0:
273,191,284788,2,0,L|278:299,1,101.999996887207,10|0,0:0|0:0,0:0:0:0:
55,317,285048,2,0,L|167:336,1,101.999996887207,10|0,0:0|3:0,0:0:0:0:
363,248,285309,2,0,L|216:244,1,101.999996887207,10|2,0:0|3:2,0:0:0:0:
312,235,285505,1,0,0:0:0:0:
468,207,285570,6,0,L|473:91,1,101.999996887207,12|0,0:0|0:0,0:0:0:0:
268,74,285831,2,0,L|148:66,1,101.999996887207,8|0,0:0|0:0,0:0:0:0:
271,23,286092,2,0,L|277:143,1,101.999996887207,8|0,0:0|3:0,0:0:0:0:
57,198,286353,2,0,L|167:207,1,101.999996887207,8|0,0:0|3:0,0:0:0:0:
367,303,286614,6,0,L|368:188,1,101.999996887207,8|0,0:0|0:0,0:0:0:0:
168,212,286875,2,0,L|163:98,1,101.999996887207,10|0,0:0|0:0,0:0:0:0:
407,60,287135,2,0,L|277:46,1,101.999996887207,10|0,0:0|3:0,0:0:0:0:
92,67,287396,1,10,0:0:0:0:
325,146,287527,2,0,L|401:144,1,50.9999984436036,2|0,3:2|3:0,0:0:0:0:
180,222,287657,6,0,L|68:212,1,101.999996887207,12|0,0:0|0:0,0:0:0:0:
180,222,287918,2,0,L|70:212,1,101.999996887207,8|0,0:0|0:0,0:0:0:0:
296,317,288179,2,0,L|415:311,1,101.999996887207,8|0,0:0|3:0,0:0:0:0:
296,317,288440,2,0,L|412:310,1,101.999996887207,8|0,0:0|3:0,0:0:0:0:
186,290,288701,6,0,L|186:178,1,101.999996887207,8|0,0:0|0:0,0:0:0:0:
390,146,288962,2,0,L|506:127,1,101.999996887207,10|0,0:0|0:0,0:0:0:0:
276,125,289222,2,0,L|274:9,1,101.999996887207,10|0,0:0|3:0,0:0:0:0:
69,67,289483,2,0,L|68:181,1,101.999996887207,10|0,0:0|3:0,0:0:0:0:
120,177,289679,1,0,0:0:0:0:
312,251,289744,6,0,L|195:244,2,101.999996887207,14|0|8,0:0|0:0|0:0,0:0:0:0:
66,334,290135,2,0,L|172:338,2,101.999996887207,2|8|0,0:0|0:0|3:0,0:0:0:0:
306,290,290527,2,0,L|443:290,1,101.999996887207,14|0,0:0|3:0,0:0:0:0:
164,243,290788,6,0,L|151:127,1,101.999996887207,10|0,0:0|0:0,0:0:0:0:
360,101,291048,2,0,L|461:94,1,101.999996887207,14|0,0:0|0:0,0:0:0:0:
234,65,291309,2,0,L|108:47,1,101.999996887207,10|0,0:0|3:0,0:0:0:0:
361,127,291570,1,14,0:0:0:0:
106,196,291701,2,0,L|176:197,1,50.9999984436036,2|0,3:2|0:0,0:0:0:0:
332,263,291831,6,0,L|195:262,1,101.999996887207,12|0,0:0|0:0,0:0:0:0:
450,347,292092,2,0,L|450:232,1,101.999996887207,8|0,0:0|0:0,0:0:0:0:
338,201,292353,2,0,L|447:192,1,101.999996887207,8|0,0:0|3:0,0:0:0:0:
225,144,292614,2,0,L|102:136,1,101.999996887207,8|0,0:0|3:0,0:0:0:0:
347,70,292875,6,0,L|217:56,1,101.999996887207,8|0,0:0|0:0,0:0:0:0:
449,21,293135,2,0,L|451:130,1,101.999996887207,10|0,0:0|0:0,0:0:0:0:
231,222,293396,2,0,L|370:235,1,101.999996887207,10|0,0:0|3:0,0:0:0:0:
126,298,293657,2,0,L|18:294,1,101.999996887207,8|2,0:0|3:2,0:0:0:0:
76,282,293853,1,0,0:0:0:0:
247,353,293918,6,0,L|251:240,1,101.999996887207,8|0,0:0|0:0,0:0:0:0:
44,192,294179,2,0,L|178:182,1,101.999996887207,8|0,0:0|0:0,0:0:0:0:
249,147,294440,2,0,L|118:138,1,101.999996887207,8|0,0:0|3:0,0:0:0:0:
363,79,294701,2,0,L|475:76,1,101.999996887207,8|0,0:0|3:0,0:0:0:0:
267,28,294962,6,0,L|271:157,1,101.999996887207,8|0,0:0|0:0,0:0:0:0:
66,155,295222,2,0,L|62:295,1,101.999996887207,10|0,0:0|0:0,0:0:0:0:
273,333,295483,2,0,L|385:335,1,101.999996887207,10|0,0:0|3:0,0:0:0:0:
143,245,295744,1,10,0:0:0:0:
378,230,295875,1,10,2:0:0:0:
111,308,296005,6,0,P|54:272|122:177,1,203.999993774414,12|8,0:0|0:0,0:0:0:0:
204,155,296396,1,0,0:0:0:0:
405,47,296527,2,0,L|406:151,1,101.999996887207,0|0,0:0|3:0,0:0:0:0:
177,237,296788,2,0,L|75:287,1,101.999996887207,8|0,0:0|3:0,0:0:0:0:
319,338,297048,5,10,0:0:0:0:
226,293,297179,2,0,L|273:265,1,50.9999984436036,8|0,0:0|0:0,0:0:0:0:
439,223,297309,2,0,L|343:176,1,101.999996887207,8|8,0:0|0:0,0:0:0:0:
439,223,297570,2,0,L|333:173,1,101.999996887207,10|0,0:0|3:0,0:0:0:0:
158,136,297831,1,8,0:0:0:0:
251,88,297962,2,0,L|190:84,1,50.9999984436036,8|0,0:0|0:0,0:0:0:0:
58,50,298092,6,0,P|44:110|310:28,1,595
106,40,299135,5,0,3:0:0:0:
306,55,299396,1,8,0:0:0:0:
111,122,299657,2,8,L|49:118,1,56.6666666666667,8|8,1:0|1:0,1:0:0:0:
111,122,299831,2,8,L|43:119,1,56.6666666666667,8|8,1:0|1:0,1:0:0:0:
399,269,300179,6,0,P|449:236|389:146,1,187.000005706787,4|8,3:2|0:0,0:0:0:0:
301,137,300570,1,0,0:0:0:0:
177,168,300701,2,0,L|175:290,1,93.5000028533936,0|0,0:0|3:2,0:0:0:0:
372,312,300962,1,8,0:0:0:0:
176,284,301092,6,0,L|380:271,1,187.000005706787
173,193,301483,2,0,L|45:184,1,93.5000028533936,8|0,0:0|0:0,0:0:0:0:
280,120,301744,2,0,L|164:117,1,93.5000028533936,0|0,0:0|3:2,0:0:0:0:
86,110,302005,2,0,L|86:5,1,93.5000028533936,8|0,0:0|0:0,0:0:0:0:
296,62,302266,6,0,L|80:49,1,187.000005706787,0|8,3:2|0:0,0:0:0:0:
203,42,302657,1,0,0:0:0:0:
323,162,302788,2,0,L|217:155,1,93.5000028533936,0|0,0:0|3:2,0:0:0:0:
432,230,303048,1,8,0:0:0:0:
208,319,303179,6,0,P|151:274|228:197,1,187.000005706787
403,151,303570,2,0,L|292:141,1,93.5000028533936,8|0,0:0|0:0,0:0:0:0:
84,121,303831,2,0,L|194:112,1,93.5000028533936,0|0,3:0|3:0,0:0:0:0:
368,69,304092,1,8,0:0:0:0:
463,35,304222,2,0,L|414:31,1,46.7500014266968
246,24,304353,6,0,L|428:73,1,187.000005706787,4|8,3:2|0:0,0:0:0:0:
333,107,304744,1,0,0:0:0:0:
456,138,304875,2,0,L|462:241,1,93.5000028533936,0|0,0:0|3:2,0:0:0:0:
218,252,305135,1,8,0:0:0:0:
428,341,305266,6,0,P|465:288|384:217,1,187.000005706787
181,205,305657,2,0,L|172:97,1,93.5000028533936,8|0,0:0|0:0,0:0:0:0:
286,105,305918,2,0,L|281:5,1,93.5000028533936,0|0,0:0|3:2,0:0:0:0:
479,83,306179,2,0,L|347:86,1,93.5000028533936,8|0,0:0|0:0,0:0:0:0:
127,78,306440,6,0,L|330:59,1,187.000005706787,0|8,3:2|0:0,0:0:0:0:
219,98,306831,1,0,0:0:0:0:
412,117,306962,2,0,L|416:235,1,93.5000028533936,0|0,0:0|3:2,0:0:0:0:
321,251,307222,2,0,L|423:264,1,93.5000028533936,8|0,0:0|0:0,0:0:0:0:
211,348,307483,6,0,P|141:337|156:238,1,187.000005706787,0|8,3:2|0:0,0:0:0:0:
244,207,307875,1,0,0:0:0:0:
437,134,308005,1,0,3:2:0:0:
343,124,308135,1,0,3:2:0:0:
250,114,308265,1,8,0:0:0:0:
376,57,308396,2,0,L|451:60,1,46.7500014266968
224,40,308527,6,0,P|162:112|257:153,1,187.000005706787,4|8,3:2|0:0,0:0:0:0:
421,244,309048,2,0,L|316:239,1,93.5000028533936,0|0,0:0|3:2,0:0:0:0:
421,244,309309,2,0,L|320:243,1,93.5000028533936,8|0,0:0|0:0,0:0:0:0:
116,320,309570,6,0,L|109:212,1,93.5000028533936,0|0,3:2|0:0,0:0:0:0:
204,193,309831,2,0,L|321:188,1,93.5000028533936,8|0,0:0|0:0,0:0:0:0:
103,113,310092,2,0,L|199:108,1,93.5000028533936,0|0,0:0|3:2,0:0:0:0:
386,50,310353,2,0,L|272:44,1,93.5000028533936,8|0,0:0|0:0,0:0:0:0:
487,24,310614,6,0,L|487:128,1,93.5000028533936,0|0,3:2|0:0,0:0:0:0:
274,150,310875,2,0,P|228:191|306:264,1,187.000005706787,8|0,0:0|0:0,0:0:0:0:
389,289,311266,1,0,3:2:0:0:
496,330,311396,2,0,L|396:330,1,93.5000028533936,8|0,0:0|0:0,0:0:0:0:
173,328,311657,6,0,L|363:313,1,187.000005706787,0|8,3:2|0:0,0:0:0:0:
453,301,312048,1,0,0:0:0:0:
251,213,312179,2,0,L|136:202,1,93.5000028533936,0|0,3:2|3:2,0:0:0:0:
251,213,312440,1,8,0:0:0:0:
158,202,312570,2,0,L|77:197,1,46.7500014266968
301,145,312701,6,0,L|401:145,1,93.5000028533936,4|0,3:2|0:0,0:0:0:0:
267,117,312962,2,0,L|261:18,1,93.5000028533936,8|0,0:0|0:0,0:0:0:0:
468,49,313222,2,0,L|360:53,1,93.5000028533936,0|0,0:0|3:2,0:0:0:0:
275,95,313483,2,0,L|370:99,1,93.5000028533936,8|0,0:0|0:0,0:0:0:0:
171,173,313744,6,0,L|58:166,1,93.5000028533936,0|0,3:2|0:0,0:0:0:0:
294,255,314005,2,0,L|89:253,1,187.000005706787,8|0,0:0|0:0,0:0:0:0:
201,297,314396,1,0,3:2:0:0:
325,339,314527,2,0,L|331:235,1,93.5000028533936,8|0,0:0|0:0,0:0:0:0:
127,192,314788,5,4,3:2:0:0:
355,155,314918,2,0,L|297:150,1,46.7500014266968,8|8,0:0|0:0,0:0:0:0:
127,114,315048,2,0,L|123:12,1,93.5000028533936,8|8,0:0|0:0,0:0:0:0:
343,60,315309,1,8,0:0:0:0:
153,120,315440,2,0,L|88:123,1,46.7500014266968,8|8,0:0|0:0,0:0:0:0:
289,200,315570,2,0,L|396:205,1,93.5000028533936,8|8,0:0|0:0,0:0:0:0:
123,317,315831,6,0,P|54:286|126:215,1,187.000005706787,4|0,3:2|0:0,0:0:0:0:
330,289,316222,2,0,L|133:279,1,187.000005706787,4|0,3:2|0:0,0:0:0:0:
368,347,316614,2,0,L|472:342,1,93.5000028533936,4|0,3:2|0:0,0:0:0:0:
254,248,316875,5,6,0:0:0:0:
388,211,317135,1,2,0:0:0:0:
250,160,317396,1,2,0:0:0:0:
417,141,317657,2,0,L|418:37,1,93.5000028533936,2|2,0:0|0:0,0:0:0:0:
193,56,318179,5,2,0:0:0:0:
343,116,318440,1,2,0:0:0:0:
492,155,318701,1,2,0:0:0:0:
268,264,319222,5,2,0:0:0:0:
112,243,319483,1,2,0:0:0:0:
268,264,319744,2,0,L|274:161,1,93.5000028533936,2|2,0:0|0:0,0:0:0:0:
68,111,320266,5,2,0:0:0:0:
220,98,320527,1,2,0:0:0:0:
68,111,320788,1,2,0:0:0:0:
332,199,321309,5,2,0:0:0:0:
183,248,321570,1,2,0:0:0:0:
34,317,321831,2,0,L|31:218,1,93.5000028533936,2|2,0:0|0:0,0:0:0:0:
237,169,322353,5,2,0:0:0:0:
87,148,322614,1,2,0:0:0:0:
237,169,322875,1,2,0:0:0:0:
386,232,323135,5,2,0:0:0:0:
168,278,323657,1,2,0:0:0:0:
386,234,324179,1,2,0:0:0:0:
131,251,324701,1,2,0:0:0:0:
381,311,325222,5,2,0:0:0:0:
184,278,327048,5,2,0:0:0:0:
271,244,327178,1,2,0:0:0:0:
358,211,327308,1,2,0:0:0:0:
106,129,328353,5,2,0:0:0:0:
306,153,328875,1,2,0:0:0:0:
104,132,329396,1,2,0:0:0:0:
255,193,331483,5,2,0:0:0:0:
256,192,331614,12,0,335135,0:0:0:0:
