osu file format v14

[General]
AudioFilename: audio.mp3
AudioLeadIn: 0
PreviewTime: 232211
Countdown: 0
SampleSet: Soft
StackLeniency: 0.4
Mode: 0
LetterboxInBreaks: 0
WidescreenStoryboard: 0

[Editor]
Bookmarks: 37802,51894,52482,64835,67384,86796,87973,104639,105424,113071,115816,138169,163071,169541,180522,181502,188365,194639,207188,213463,217188,232286
DistanceSpacing: 0.7
BeatDivisor: 3
GridSize: 32
TimelineZoom: 2.5

[Metadata]
Title:Lucky you
TitleUnicode:Lucky you
Artist:Eminem ft. Joyner Lucas
ArtistUnicode:Eminem ft. Joyner Lucas
Creator:Rdzeniu
Version:F*ck you too!
Source:
Tags:
BeatmapID:1875544
BeatmapSetID:897784

[Difficulty]
HPDrainRate:3.5
CircleSize:4
OverallDifficulty:8.8
ApproachRate:9.6
SliderMultiplier:3.2
SliderTickRate:1

[Events]
//Background and Video events
0,0,"bg.jpg",0,0
//Break Periods
//Storyboard Layer 0 (Background)
//Storyboard Layer 1 (Fail)
//Storyboard Layer 2 (Pass)
//Storyboard Layer 3 (Foreground)
//Storyboard Sound Samples

[TimingPoints]
12698,392.156862745098,4,2,0,53,1,0
12698,-200,4,2,0,53,0,0
25247,-133.333333333333,4,2,0,53,0,0
37403,-100,4,2,0,53,0,0
50326,392.156862745098,4,2,0,53,1,0
68757,-133.333333333333,4,2,0,53,0,0
69149,-100,4,2,0,53,0,0
75031,-200,4,2,0,53,0,0
75424,-100,4,2,0,53,0,0
76208,-133.333333333333,4,2,0,53,0,0
78169,-200,4,2,0,53,0,0
78561,-133.333333333333,4,2,0,53,0,0
87973,-83.3333333333333,4,2,0,53,0,1
100129,-100,4,2,0,53,0,0
100914,-133.333333333333,4,2,0,53,0,0
106404,-100,4,2,0,53,0,0
109933,-200,4,2,0,53,0,0
113071,-151.515151515152,4,2,0,53,0,0
124443,-133.333333333333,4,2,0,53,0,0
137776,-100,4,2,0,53,0,0
138169,-151.515151515152,4,2,0,53,0,0
178169,-133.333333333333,4,2,0,53,0,0
187973,-83.3333333333333,4,2,0,53,0,0
188365,-83.3333333333333,4,2,0,53,0,1
191061,-83.3333333333333,4,2,0,5,0,1
191208,-83.3333333333333,4,2,0,53,0,1
194639,-100,4,2,0,53,0,0
220326,-133.333333333333,4,2,0,53,0,0
222849,392.156862745098,4,2,0,53,1,0
232260,-100,4,2,0,53,0,0

[Colours]
Combo1 : 255,81,85
Combo2 : 99,169,254
Combo3 : 18,124,255
Combo4 : 196,223,145

[HitObjects]
145,91,12698,6,0,L|173:190,1,80
237,143,13090,1,0,0:0:0:0:
222,311,13286,1,0,0:0:0:0:
75,216,13482,1,0,0:0:0:0:
271,247,13874,6,0,B|366:261|366:261|400:233,1,120
335,180,14266,1,0,0:0:0:0:
216,126,14462,1,0,0:0:0:0:
85,159,14658,1,0,0:0:0:0:
216,83,14854,1,0,0:0:0:0:
210,242,15050,1,0,0:0:0:0:
138,89,15247,1,0,0:0:0:0:
134,258,15443,1,0,0:0:0:0:
61,105,15639,1,0,0:0:0:0:
61,280,15835,1,0,0:0:0:0:
321,301,16227,5,0,0:0:0:0:
146,301,16423,1,0,0:0:0:0:
299,228,16619,1,0,0:0:0:0:
130,224,16815,1,0,0:0:0:0:
298,149,17011,1,0,0:0:0:0:
298,324,17207,1,0,0:0:0:0:
225,171,17403,1,0,0:0:0:0:
221,340,17599,1,0,0:0:0:0:
87,253,17796,5,0,0:0:0:0:
77,95,17992,1,0,0:0:0:0:
264,64,18188,2,0,B|310:107|392:103,1,120
447,131,18580,2,0,B|414:122|388:127|388:127|371:162|372:202,1,120
374,294,18972,5,0,0:0:0:0:
211,228,19168,1,0,0:0:0:0:
435,243,19364,1,0,0:0:0:0:
255,332,19560,1,0,0:0:0:0:
377,207,19756,1,0,0:0:0:0:
377,207,19854,1,0,0:0:0:0:
377,207,19952,1,0,0:0:0:0:
257,232,20148,5,0,0:0:0:0:
288,73,20345,1,0,0:0:0:0:
320,285,20541,1,0,0:0:0:0:
245,137,20737,1,0,0:0:0:0:
260,338,20933,6,0,P|210:295|222:211,1,120
242,211,21325,1,0,0:0:0:0:
403,203,21521,1,0,0:0:0:0:
472,56,21717,1,0,0:0:0:0:
447,225,21913,1,0,0:0:0:0:
391,110,22109,1,0,0:0:0:0:
332,226,22305,1,0,0:0:0:0:
276,111,22501,1,0,0:0:0:0:
220,226,22698,1,0,0:0:0:0:
138,346,22894,5,0,0:0:0:0:
81,194,23090,1,0,0:0:0:0:
51,317,23286,1,0,0:0:0:0:
14,132,23482,1,0,0:0:0:0:
233,202,23678,1,0,0:0:0:0:
113,269,23874,1,0,0:0:0:0:
114,42,24070,5,0,0:0:0:0:
155,198,24266,1,0,0:0:0:0:
297,23,24462,1,0,0:0:0:0:
322,187,24658,1,0,0:0:0:0:
114,42,24854,1,0,0:0:0:0:
150,72,24952,1,0,0:0:0:0:
158,120,25050,1,0,0:0:0:0:
105,299,25247,6,0,P|138:291|195:298,2,60.0000022888184
244,352,25639,2,0,P|259:261|224:212,1,120.000004577637
78,115,26031,1,0,0:0:0:0:
334,92,26423,5,0,0:0:0:0:
148,66,26619,1,0,0:0:0:0:
402,128,26815,1,0,0:0:0:0:
317,352,27207,5,0,0:0:0:0:
215,250,27403,1,0,0:0:0:0:
317,148,27599,1,0,0:0:0:0:
418,250,27796,1,0,0:0:0:0:
184,285,27992,1,0,0:0:0:0:
449,215,28188,1,0,0:0:0:0:
184,116,28384,1,0,0:0:0:0:
336,264,28776,6,0,P|329:329|225:331,1,180.000006866455
192,247,29168,2,0,L|170:303,1,60.0000022888184
92,289,29364,2,0,L|129:217,1,60.0000022888184
152,171,29560,1,0,0:0:0:0:
27,348,29756,1,0,0:0:0:0:
23,88,29952,1,0,0:0:0:0:
231,151,30345,6,0,P|273:154|318:133,1,60.0000022888184
255,77,30541,2,0,P|213:74|166:99,1,60.0000022888184
237,209,30737,2,0,P|238:177|225:140,1,60.0000022888184
162,189,30933,2,0,P|159:228|169:259,1,60.0000022888184
209,305,31129,1,0,0:0:0:0:
366,357,31325,1,0,0:0:0:0:
493,209,31521,1,0,0:0:0:0:
204,79,31913,5,0,0:0:0:0:
394,59,32109,1,0,0:0:0:0:
181,157,32305,1,0,0:0:0:0:
324,25,32501,1,0,0:0:0:0:
344,250,32698,1,0,0:0:0:0:
279,106,32894,1,0,0:0:0:0:
284,314,33090,1,0,0:0:0:0:
109,177,33482,5,0,0:0:0:0:
323,182,33678,1,0,0:0:0:0:
55,247,33874,1,0,0:0:0:0:
216,40,34266,5,0,0:0:0:0:
243,294,34462,1,0,0:0:0:0:
138,26,34658,1,0,0:0:0:0:
460,165,35050,5,0,0:0:0:0:
143,181,35247,1,0,0:0:0:0:
493,93,35443,1,0,0:0:0:0:
324,362,35835,5,0,0:0:0:0:
252,23,36031,1,0,0:0:0:0:
148,358,36227,1,0,0:0:0:0:
501,137,36619,5,0,0:0:0:0:
11,190,36815,1,0,0:0:0:0:
502,224,37011,1,0,0:0:0:0:
114,157,37403,2,0,B|231:178|231:178|109:204,1,240
84,204,37796,5,0,0:0:0:0:
96,283,37894,1,0,0:0:0:0:
138,348,37992,1,0,0:0:0:0:
271,240,38188,1,0,0:0:0:0:
35,34,38580,2,0,B|21:87|33:132|33:132|55:111|64:73,1,160
217,29,38972,5,0,0:0:0:0:
285,48,39070,1,0,0:0:0:0:
336,98,39168,1,0,0:0:0:0:
99,185,39364,1,0,0:0:0:0:
449,304,39756,2,0,B|457:273|479:252|479:252|491:297|477:350,1,160
231,354,40148,5,0,0:0:0:0:
299,335,40247,1,0,0:0:0:0:
350,285,40345,1,0,0:0:0:0:
127,217,40541,2,0,L|90:276,4,40
278,52,40933,5,0,0:0:0:0:
313,113,41031,1,0,0:0:0:0:
332,183,41129,1,0,0:0:0:0:
162,320,41325,2,0,P|192:345|302:281,1,160
35,34,41717,2,0,B|21:87|33:132|33:132|55:111|64:73,1,160
277,357,42109,5,0,0:0:0:0:
312,295,42207,1,0,0:0:0:0:
316,220,42305,1,0,0:0:0:0:
214,25,42501,2,0,B|196:102|272:99|220:194,1,160
35,350,42894,2,0,B|21:297|33:252|33:252|55:273|62:304,1,160
282,351,43286,5,0,0:0:0:0:
357,347,43384,1,0,0:0:0:0:
419,312,43482,1,0,0:0:0:0:
181,200,43678,2,0,P|171:294|193:368,1,160
351,104,44070,5,0,0:0:0:0:
386,166,44168,1,0,0:0:0:0:
390,241,44266,1,0,0:0:0:0:
236,53,44462,2,0,P|190:135|181:212,1,160
35,34,44854,2,0,B|21:87|33:132|33:132|55:111|64:73,1,160
40,338,45247,5,0,0:0:0:0:
44,263,45345,1,0,0:0:0:0:
79,201,45443,1,0,0:0:0:0:
309,344,45639,2,0,P|295:265|253:197,1,160
449,304,46031,2,0,B|457:273|479:252|479:252|491:297|477:350,1,160
458,70,46423,5,0,0:0:0:0:
454,145,46521,1,0,0:0:0:0:
419,207,46619,1,0,0:0:0:0:
359,98,46815,2,0,L|314:197,2,80
262,312,47207,5,0,0:0:0:0:
200,276,47305,1,0,0:0:0:0:
167,213,47403,1,0,0:0:0:0:
215,83,47599,2,0,B|230:59|246:45|246:45|183:25|140:57,1,160
35,350,47992,2,0,B|21:297|33:252|33:252|55:273|62:304,1,160
262,312,48384,5,0,0:0:0:0:
324,276,48482,1,0,0:0:0:0:
357,213,48580,1,0,0:0:0:0:
309,83,48776,2,0,B|294:59|278:45|278:45|341:25|384:57,1,160
35,34,49168,2,0,B|21:87|33:132|33:132|55:111|64:73,1,160
461,151,49560,5,0,0:0:0:0:
326,170,49658,1,0,0:0:0:0:
192,194,49756,1,0,0:0:0:0:
312,360,49952,5,0,0:0:0:0:
398,272,50326,5,0,0:0:0:0:
311,288,50424,1,0,0:0:0:0:
249,222,50522,2,0,P|246:172|268:133,1,80
473,209,50718,5,0,0:0:0:0:
495,291,50816,1,0,0:0:0:0:
447,361,50914,2,0,P|385:368|344:350,1,80
319,209,51110,2,0,P|381:202|422:220,1,80
273,357,51306,5,0,0:0:0:0:
190,327,51404,1,0,0:0:0:0:
143,253,51502,2,0,P|129:213|139:151,1,80
281,73,51698,2,0,P|269:114|232:161,1,80
34,107,51894,5,0,0:0:0:0:
110,66,51992,1,0,0:0:0:0:
196,78,52090,1,0,0:0:0:0:
249,145,52188,1,0,0:0:0:0:
303,201,52286,2,0,P|349:175|379:129,1,80
226,224,52482,2,0,P|242:259|270:286,1,80
471,292,52678,5,0,0:0:0:0:
355,34,52875,1,0,0:0:0:0:
35,34,53071,2,0,B|21:87|33:132|33:132|55:111|64:73,1,160
41,273,53463,6,0,P|86:257|127:206,1,80
158,83,53659,1,0,0:0:0:0:
235,120,53757,1,0,0:0:0:0:
267,200,53855,2,0,P|271:243|262:307,2,80
183,263,54149,1,0,0:0:0:0:
139,351,54247,6,0,P|178:354|218:351,1,80
380,343,54443,1,0,0:0:0:0:
343,269,54541,1,0,0:0:0:0:
404,215,54639,2,0,P|441:198|497:188,2,80
257,277,54933,1,0,0:0:0:0:
97,263,55031,2,0,P|58:253|22:236,2,80
166,212,55326,1,0,0:0:0:0:
163,125,55424,6,0,L|142:32,1,80
262,151,55620,2,0,L|241:244,1,80
230,52,55816,2,0,L|347:55,1,80
453,146,56012,2,0,L|336:149,1,80
312,291,56208,2,0,B|348:275|358:253|358:253|374:256|384:247|384:247|415:262|425:313,1,160
212,381,56600,5,0,0:0:0:0:
186,297,56698,1,0,0:0:0:0:
200,211,56796,1,0,0:0:0:0:
191,124,56894,1,0,0:0:0:0:
149,47,56992,2,0,P|118:36|60:36,2,80
279,83,57286,1,0,0:0:0:0:
288,171,57384,2,0,P|365:136|387:115,1,80
499,49,57580,2,0,P|422:84|400:105,1,80
369,235,57776,5,0,0:0:0:0:
358,316,57874,1,0,0:0:0:0:
431,354,57972,1,0,0:0:0:0:
491,297,58070,1,0,0:0:0:0:
453,218,58169,2,0,P|431:179|395:151,1,80
282,253,58365,2,0,P|242:255|204:243,1,80
80,134,58561,5,0,0:0:0:0:
101,53,58659,1,0,0:0:0:0:
183,38,58757,1,0,0:0:0:0:
232,106,58855,1,0,0:0:0:0:
197,187,58953,2,0,P|147:231|85:245,2,120
264,31,59345,5,0,0:0:0:0:
349,31,59443,1,0,0:0:0:0:
402,97,59541,2,0,P|408:176|400:214,1,80
302,336,59737,5,0,0:0:0:0:
354,269,59835,1,0,0:0:0:0:
438,274,59933,2,0,P|483:297|511:329,1,80
302,336,60129,2,0,P|257:313|229:281,1,80
149,165,60326,2,0,P|194:188|222:220,1,80
76,349,60522,5,0,0:0:0:0:
89,263,60620,1,0,0:0:0:0:
53,183,60718,1,0,0:0:0:0:
39,98,60816,1,0,0:0:0:0:
92,29,60914,2,0,P|137:15|201:26,1,80
222,110,61110,2,0,P|182:110|144:97,1,80
247,25,61306,2,0,P|281:44|307:74,1,80
344,222,61502,5,0,0:0:0:0:
367,137,61600,1,0,0:0:0:0:
374,225,61698,2,0,L|351:335,1,80
185,353,61894,5,0,0:0:0:0:
270,330,61992,1,0,0:0:0:0:
182,323,62090,2,0,L|72:346,1,80
30,193,62286,2,0,L|108:209,1,80
302,248,62482,1,0,0:0:0:0:
394,253,62580,1,0,0:0:0:0:
457,185,62678,1,0,0:0:0:0:
445,92,62776,1,0,0:0:0:0:
366,44,62875,6,0,P|326:33|254:43,1,80
201,179,63071,2,0,P|229:150|248:116,1,80
145,38,63267,2,0,P|116:66|104:212,1,160
337,268,63659,6,0,L|348:365,1,80
402,159,63855,1,0,0:0:0:0:
477,146,63953,1,0,0:0:0:0:
469,222,64051,2,0,L|458:319,2,80
351,101,64345,1,0,0:0:0:0:
292,148,64443,2,0,L|303:245,2,80
187,9,64737,1,0,0:0:0:0:
123,48,64835,2,0,L|142:143,2,80
392,25,65227,2,0,P|463:51|486:141,1,160
161,306,65620,6,0,P|239:309|296:286,2,120
129,156,66012,2,0,L|125:267,1,80
251,181,66208,1,0,0:0:0:0:
228,88,66306,1,0,0:0:0:0:
142,43,66404,2,0,P|58:56|0:136,1,160
194,287,66796,6,0,P|242:322|290:358,2,120
60,195,67188,1,0,0:0:0:0:
329,258,67384,1,0,0:0:0:0:
259,206,67482,1,0,0:0:0:0:
185,157,67580,2,0,L|128:234,1,80
259,206,67776,5,0,0:0:0:0:
246,118,67874,1,0,0:0:0:0:
228,31,67972,2,0,L|133:45,1,80
321,171,68169,2,0,L|400:159,1,80
137,221,68365,2,0,B|113:344|113:344|156:325,1,160
420,237,68757,6,0,L|485:206,3,60.0000022888184
493,137,69149,1,0,0:0:0:0:
458,66,69247,1,0,0:0:0:0:
389,28,69345,2,0,P|305:36|246:65,1,80
245,111,69541,2,0,P|185:91|140:44,2,120
377,136,69933,2,0,L|361:306,1,160
34,269,70326,6,0,L|169:247,1,80
250,226,70522,2,0,L|115:204,1,80
29,180,70718,1,0,0:0:0:0:
65,109,70816,1,0,0:0:0:0:
134,71,70914,1,0,0:0:0:0:
212,78,71012,1,0,0:0:0:0:
279,118,71110,2,0,P|322:118|360:101,1,80
212,160,71306,2,0,P|242:190|281:205,1,80
135,136,71502,2,0,P|134:178|211:291,1,160
415,304,71894,2,0,P|483:342|507:379,2,120
263,355,72286,5,0,0:0:0:0:
321,302,72384,1,0,0:0:0:0:
336,225,72482,2,0,P|313:142|284:113,1,80
174,110,72678,5,0,0:0:0:0:
252,105,72776,1,0,0:0:0:0:
317,148,72874,2,0,P|359:223|359:264,1,80
217,298,73071,2,0,P|174:222|174:181,2,80
336,336,73365,1,0,0:0:0:0:
453,296,73463,2,0,P|478:265|493:228,3,80
474,153,73855,5,0,0:0:0:0:
403,117,73953,1,0,0:0:0:0:
326,132,74051,1,0,0:0:0:0:
252,161,74149,1,0,0:0:0:0:
173,149,74247,2,0,P|141:139|83:86,2,80
321,212,74541,1,0,0:0:0:0:
227,300,74639,2,0,P|207:265|214:190,1,80
256,70,74835,1,0,0:0:0:0:
313,302,75031,6,0,B|309:350|288:342|294:398,1,80
414,152,75424,6,0,B|509:218|509:218|466:242,1,160
281,225,75816,1,0,0:0:0:0:
254,66,76012,1,0,0:0:0:0:
220,118,76110,1,0,0:0:0:0:
272,147,76208,2,0,B|365:144|365:144|325:183,1,120.000004577637
64,247,76600,2,0,L|60:334,1,60.0000022888184
142,256,76796,2,0,L|138:169,1,60.0000022888184
97,44,76992,5,0,0:0:0:0:
58,173,77188,1,0,0:0:0:0:
98,129,77286,1,0,0:0:0:0:
156,119,77384,2,0,P|196:126|238:143,1,60.0000022888184
330,200,77580,2,0,P|369:193|411:176,1,60.0000022888184
282,71,77776,2,0,P|288:110|305:152,1,60.0000022888184
317,19,77973,2,0,P|313:59|318:104,1,60.0000022888184
394,273,78169,2,0,P|397:298|390:323,2,40
267,326,78561,5,0,0:0:0:0:
212,302,78659,1,0,0:0:0:0:
154,314,78757,1,0,0:0:0:0:
98,335,78855,1,0,0:0:0:0:
39,327,78953,2,0,P|25:303|17:258,1,60.0000022888184
46,125,79149,1,0,0:0:0:0:
101,149,79247,1,0,0:0:0:0:
111,206,79345,2,0,P|101:239|83:266,1,60.0000022888184
104,72,79541,2,0,P|137:81|164:99,1,60.0000022888184
312,211,79737,2,0,B|274:199|250:164|250:164|271:152|303:152,1,120.000004577637
478,137,80129,5,0,0:0:0:0:
426,109,80227,1,0,0:0:0:0:
374,86,80326,2,0,P|340:81|291:86,1,60.0000022888184
419,183,80522,2,0,P|423:212|423:242,1,60.0000022888184
322,331,80718,2,0,P|341:308|364:288,1,60.0000022888184
464,366,80914,2,0,P|450:339|433:314,1,60.0000022888184
323,219,81110,1,0,0:0:0:0:
34,353,81306,2,0,B|42:314|67:288|67:288|78:317|74:357,1,120.000004577637
251,132,81698,5,0,0:0:0:0:
251,132,81796,1,0,0:0:0:0:
251,132,81894,1,0,0:0:0:0:
185,265,82090,2,0,P|208:240|247:219,1,60.0000022888184
378,238,82286,1,0,0:0:0:0:
328,298,82384,1,0,0:0:0:0:
278,237,82482,2,0,P|273:205|277:157,1,60.0000022888184
335,34,82678,1,0,0:0:0:0:
394,42,82776,1,0,0:0:0:0:
445,72,82875,2,0,P|476:97|496:126,2,60.0000022888184
277,47,83169,5,0,0:0:0:0:
222,73,83267,2,0,P|191:97|171:126,1,60.0000022888184
240,227,83463,2,0,P|220:203|197:185,1,60.0000022888184
71,195,83659,2,0,P|99:184|124:167,2,60.0000022888184
36,35,83953,1,0,0:0:0:0:
96,37,84051,2,0,P|128:39|156:46,1,60.0000022888184
363,141,84247,2,0,P|331:139|303:132,1,60.0000022888184
445,61,84443,2,0,B|451:42|476:29|476:29|482:68|462:124,1,120.000004577637
363,229,84835,6,0,P|361:147|375:120,2,90.0000034332277
438,284,85227,2,0,P|475:308|500:345,2,90.0000034332277
348,317,85620,2,0,P|323:354|285:378,2,90.0000034332277
212,304,86012,5,0,0:0:0:0:
269,292,86110,1,0,0:0:0:0:
305,246,86208,2,0,P|316:224|320:183,1,60.0000022888184
206,132,86404,2,0,P|209:161|221:188,2,60.0000022888184
280,33,86698,1,0,0:0:0:0:
221,52,86796,2,0,P|191:57|162:52,2,60.0000022888184
447,27,87188,1,0,0:0:0:0:
305,325,87384,1,0,0:0:0:0:
129,187,87580,2,0,P|90:157|71:149,1,60.0000022888184
44,110,87776,5,0,0:0:0:0:
60,99,87875,1,0,0:0:0:0:
88,90,87973,1,0,0:0:0:0:
179,90,88071,1,0,0:0:0:0:
253,145,88169,1,0,0:0:0:0:
257,238,88267,1,0,0:0:0:0:
295,324,88365,1,0,0:0:0:0:
387,338,88463,1,0,0:0:0:0:
458,277,88561,1,0,0:0:0:0:
459,184,88659,1,0,0:0:0:0:
391,117,88757,2,0,P|333:108|275:119,1,95.9999970703126
195,193,88953,5,0,0:0:0:0:
112,233,89051,1,0,0:0:0:0:
35,183,89149,1,0,0:0:0:0:
38,91,89247,1,0,0:0:0:0:
118,46,89345,1,0,0:0:0:0:
196,103,89443,1,0,0:0:0:0:
284,137,89541,2,0,P|331:148|397:135,1,95.9999970703126
264,23,89737,6,0,P|253:69|266:135,1,95.9999970703126
311,213,89933,1,0,0:0:0:0:
319,305,90031,1,0,0:0:0:0:
250,366,90129,1,0,0:0:0:0:
159,348,90227,1,0,0:0:0:0:
121,264,90326,2,0,B|96:195|149:197|132:85,1,143.999995605469
129,38,90522,2,0,B|103:107|156:105|139:217,1,143.999995605469
121,264,90718,2,0,P|188:223|325:261,1,191.999994140625
315,254,91012,1,0,0:0:0:0:
359,293,91110,5,0,0:0:0:0:
447,263,91208,1,0,0:0:0:0:
482,177,91306,1,0,0:0:0:0:
440,94,91404,1,0,0:0:0:0:
350,71,91502,1,0,0:0:0:0:
272,125,91600,1,0,0:0:0:0:
179,114,91698,2,0,P|141:73|123:3,1,95.9999970703126
272,125,91894,6,0,B|298:194|245:192|262:304,1,143.999995605469
280,350,92090,2,0,B|306:281|253:283|270:171,1,143.999995605469
272,125,92286,2,0,P|335:92|401:104,1,95.9999970703126
455,116,92482,1,0,0:0:0:0:
475,160,92580,1,0,0:0:0:0:
450,196,92678,5,0,0:0:0:0:
376,256,92776,1,0,0:0:0:0:
282,265,92874,1,0,0:0:0:0:
187,270,92972,1,0,0:0:0:0:
106,322,93070,1,0,0:0:0:0:
28,273,93169,1,0,0:0:0:0:
28,181,93267,1,0,0:0:0:0:
106,133,93365,1,0,0:0:0:0:
189,174,93463,6,0,B|220:253|163:253|196:355,1,143.999995605469
147,248,93659,2,0,B|223:217|223:274|286:251,1,143.999995605469
349,206,93855,2,0,P|366:137|339:100,1,95.9999970703126
263,92,94051,1,0,0:0:0:0:
219,72,94149,1,0,0:0:0:0:
186,37,94247,5,0,0:0:0:0:
135,116,94345,1,0,0:0:0:0:
147,211,94443,1,0,0:0:0:0:
123,302,94541,1,0,0:0:0:0:
53,225,94639,5,0,0:0:0:0:
147,211,94737,1,0,0:0:0:0:
241,227,94835,1,0,0:0:0:0:
326,271,94933,1,0,0:0:0:0:
393,335,95031,2,0,P|444:305|460:267,1,95.9999970703126
489,130,95227,5,0,0:0:0:0:
402,169,95325,1,0,0:0:0:0:
308,157,95423,1,0,0:0:0:0:
224,110,95521,1,0,0:0:0:0:
131,96,95619,1,0,0:0:0:0:
42,130,95717,1,0,0:0:0:0:
20,222,95816,5,0,0:0:0:0:
76,297,95914,1,0,0:0:0:0:
167,323,96012,1,0,0:0:0:0:
255,289,96110,1,0,0:0:0:0:
305,209,96208,1,0,0:0:0:0:
297,115,96306,1,0,0:0:0:0:
233,45,96404,1,0,0:0:0:0:
141,27,96502,1,0,0:0:0:0:
64,84,96600,6,0,B|27:157|85:160|41:258,1,143.999995605469
38,308,96796,2,0,B|74:236|16:233|47:169,1,143.999995605469
130,212,96992,2,0,P|192:213|250:170,1,95.9999970703126
285,42,97188,1,0,0:0:0:0:
285,80,97286,1,0,0:0:0:0:
283,119,97384,5,0,0:0:0:0:
255,208,97482,1,0,0:0:0:0:
301,288,97580,1,0,0:0:0:0:
392,309,97678,1,0,0:0:0:0:
469,255,97776,1,0,0:0:0:0:
482,163,97874,1,0,0:0:0:0:
426,84,97973,1,0,0:0:0:0:
333,67,98071,1,0,0:0:0:0:
247,109,98169,2,0,P|158:88|134:63,1,95.9999970703126
326,153,98365,2,0,P|247:201|213:200,1,95.9999970703126
27,186,98561,5,0,0:0:0:0:
108,187,98659,1,0,0:0:0:0:
138,263,98757,1,0,0:0:0:0:
79,319,98855,1,0,0:0:0:0:
161,278,98953,5,0,0:0:0:0:
254,273,99051,1,0,0:0:0:0:
335,325,99149,1,0,0:0:0:0:
429,330,99247,1,0,0:0:0:0:
491,261,99345,1,0,0:0:0:0:
489,167,99443,1,0,0:0:0:0:
426,97,99541,2,0,B|358:68|357:133|269:96,1,143.999995605469
217,39,99737,6,0,B|276:86|294:23|351:68,1,143.999995605469
371,165,99933,2,0,P|276:205|208:181,1,143.999995605469
193,132,100129,2,0,P|196:213|175:265,1,120
129,301,100326,2,0,L|138:375,3,40
146,359,100522,6,0,P|203:358|249:341,1,80
410,300,100718,1,0,0:0:0:0:
410,300,100914,2,0,L|425:213,1,60.0000022888184
444,114,101110,2,0,P|411:106|368:105,1,60.0000022888184
287,154,101306,2,0,P|281:94|283:73,1,60.0000022888184
344,215,101502,1,0,0:0:0:0:
207,159,101698,2,0,L|221:244,1,60.0000022888184
146,109,101894,2,0,L|216:159,1,60.0000022888184
245,296,102090,6,0,P|176:293|138:245,1,120.000004577637
123,184,102384,1,0,0:0:0:0:
126,276,102482,2,0,L|125:362,1,60.0000022888184
44,289,102678,2,0,L|43:203,1,60.0000022888184
41,70,102875,1,0,0:0:0:0:
478,358,103267,6,0,B|488:326|475:282|475:282|455:300|453:318,1,120.000004577637
272,366,103659,5,0,0:0:0:0:
300,138,103855,1,0,0:0:0:0:
309,192,103953,1,0,0:0:0:0:
301,248,104051,2,0,P|231:264|171:260,1,120.000004577637
102,158,104345,1,0,0:0:0:0:
113,213,104443,2,0,P|102:263|90:295,1,60.0000022888184
26,353,104639,2,0,P|54:344|84:339,1,60.0000022888184
242,359,104835,1,0,0:0:0:0:
288,369,104933,1,0,0:0:0:0:
334,359,105031,1,0,0:0:0:0:
371,329,105129,1,0,0:0:0:0:
401,293,105227,6,0,P|405:262|394:212,1,60.0000022888184
300,255,105424,2,0,P|296:225|300:195,1,60.0000022888184
314,55,105620,1,0,0:0:0:0:
370,46,105718,1,0,0:0:0:0:
389,100,105816,2,0,P|392:129|388:159,1,60.0000022888184
346,350,106012,1,0,0:0:0:0:
24,362,106404,2,0,B|31:308|31:308|63:335,1,80
143,356,106600,5,0,0:0:0:0:
182,354,106698,1,0,0:0:0:0:
213,329,106796,2,0,P|242:320|304:333,2,80
327,259,107188,2,0,P|245:241|162:270,1,160
69,346,107482,1,0,0:0:0:0:
88,298,107580,2,0,P|98:249|99:212,1,80
26,117,107776,2,0,P|105:95|192:126,1,160
286,230,108169,6,0,P|325:250|365:257,1,80
390,107,108365,2,0,P|356:171|367:275,1,160
433,342,108659,2,0,P|465:285|472:248,1,80
473,132,108855,2,0,P|450:165|437:202,1,80
512,68,109149,2,0,P|448:34|344:45,1,160
81,63,109541,2,0,B|27:56|27:56|44:37,1,80
168,33,109737,2,0,P|193:73|202:132,1,80
178,201,109933,2,0,P|143:212|107:214,1,60
245,166,110227,2,0,P|251:215|230:257,1,80
162,308,110522,5,0,0:0:0:0:
172,345,110620,1,0,0:0:0:0:
205,365,110718,1,0,0:0:0:0:
243,356,110816,1,0,0:0:0:0:
264,323,110914,2,0,P|311:306|388:324,1,120
472,357,111306,5,0,0:0:0:0:
477,317,111404,1,0,0:0:0:0:
469,278,111502,2,0,P|464:237|468:224,2,40
486,169,111845,2,0,P|469:133|448:106,1,60
315,211,112139,2,0,P|368:206|411:175,1,100
365,88,112482,1,0,0:0:0:0:
250,30,112678,1,0,0:0:0:0:
110,72,112875,1,0,0:0:0:0:
58,221,113071,6,0,P|75:275|111:320,1,105.599999677734
266,243,113463,1,0,0:0:0:0:
132,194,113659,1,0,0:0:0:0:
323,164,113855,1,0,0:0:0:0:
99,54,114247,6,0,B|69:39|69:39|65:78|88:121,1,105.599999677734
332,85,114639,2,0,P|359:61|369:37,2,52.7999998388672
195,163,115031,1,0,0:0:0:0:
220,322,115227,1,0,0:0:0:0:
351,165,115424,1,0,0:0:0:0:
326,324,115620,1,0,0:0:0:0:
272,156,115816,1,0,0:0:0:0:
431,181,116012,1,0,0:0:0:0:
178,245,116208,2,0,B|133:271|129:291,1,52.7999998388672
178,245,116404,2,0,P|211:207|215:187,1,52.7999998388672
173,109,116600,6,0,P|127:82|58:67,1,105.599999677734
302,44,116992,1,0,0:0:0:0:
307,184,117188,1,0,0:0:0:0:
423,70,117384,1,0,0:0:0:0:
477,187,117580,1,0,0:0:0:0:
434,309,117776,2,0,P|396:348|348:370,1,105.599999677734
263,228,118169,2,0,P|318:255|354:287,2,105.599999677734
131,235,118757,1,0,0:0:0:0:
222,367,118953,1,0,0:0:0:0:
186,182,119149,1,0,0:0:0:0:
192,194,119345,6,0,P|237:169|246:157,1,52.7999998388672
177,73,119541,2,0,P|131:85|85:129,1,105.599999677734
84,256,119933,1,0,0:0:0:0:
226,330,120129,2,0,P|271:308|315:263,1,105.599999677734
154,293,120522,2,0,P|191:256|238:232,1,105.599999677734
396,280,120914,2,0,P|440:298|497:303,1,105.599999677734
367,149,121306,1,0,0:0:0:0:
310,269,121502,1,0,0:0:0:0:
440,167,121698,2,0,P|435:116|378:72,1,105.599999677734
243,115,122090,6,0,P|277:114|301:104,1,52.7999998388672
218,39,122286,2,0,P|184:40|160:50,1,52.7999998388672
95,103,122482,1,0,0:0:0:0:
41,258,122678,1,0,0:0:0:0:
199,230,122875,1,0,0:0:0:0:
65,180,123071,1,0,0:0:0:0:
222,151,123267,1,0,0:0:0:0:
168,306,123463,1,0,0:0:0:0:
290,359,123659,1,0,0:0:0:0:
420,329,123855,1,0,0:0:0:0:
489,215,124051,2,0,P|487:181|459:113,1,105.599999677734
276,131,124443,6,0,P|311:107|345:101,1,60.0000022888184
351,201,124639,1,0,0:0:0:0:
256,44,124835,1,0,0:0:0:0:
256,235,125031,1,0,0:0:0:0:
397,86,125227,2,0,P|398:41|394:2,1,60.0000022888184
338,140,125424,2,0,P|337:185|341:224,1,60.0000022888184
376,285,125620,1,0,0:0:0:0:
376,285,125718,1,0,0:0:0:0:
160,353,126012,6,0,P|117:337|51:285,1,120.000004577637
175,148,126404,2,0,P|179:212|149:277,1,120.000004577637
76,78,126796,5,0,0:0:0:0:
262,74,126992,1,0,0:0:0:0:
119,16,127188,1,0,0:0:0:0:
28,237,127580,5,0,0:0:0:0:
218,276,127776,1,0,0:0:0:0:
29,318,127973,1,0,0:0:0:0:
31,124,128169,1,0,0:0:0:0:
145,281,128365,1,0,0:0:0:0:
143,87,128561,1,0,0:0:0:0:
280,270,128757,1,0,0:0:0:0:
271,259,128953,1,0,0:0:0:0:
390,105,129149,5,0,0:0:0:0:
234,70,129345,1,0,0:0:0:0:
401,30,129541,1,0,0:0:0:0:
251,143,129737,1,0,0:0:0:0:
390,105,129933,5,0,0:0:0:0:
355,261,130129,1,0,0:0:0:0:
315,94,130325,1,0,0:0:0:0:
428,244,130521,1,0,0:0:0:0:
209,255,130718,6,0,P|251:252|296:273,1,60.0000022888184
233,329,130914,2,0,P|191:332|144:307,1,60.0000022888184
215,197,131110,2,0,P|216:229|203:266,1,60.0000022888184
140,217,131306,2,0,P|137:178|147:147,1,60.0000022888184
187,101,131502,1,0,0:0:0:0:
344,49,131698,1,0,0:0:0:0:
471,197,131894,1,0,0:0:0:0:
41,261,132286,5,0,0:0:0:0:
230,247,132482,1,0,0:0:0:0:
46,176,132678,1,0,0:0:0:0:
180,321,132875,1,0,0:0:0:0:
95,100,133071,5,0,0:0:0:0:
112,292,133267,1,0,0:0:0:0:
182,43,133463,1,0,0:0:0:0:
403,177,133855,5,0,0:0:0:0:
189,182,134051,1,0,0:0:0:0:
457,247,134247,1,0,0:0:0:0:
296,40,134639,5,0,0:0:0:0:
269,294,134835,1,0,0:0:0:0:
374,26,135031,1,0,0:0:0:0:
52,165,135423,5,0,0:0:0:0:
369,181,135620,1,0,0:0:0:0:
19,93,135816,1,0,0:0:0:0:
188,362,136208,5,0,0:0:0:0:
260,23,136404,1,0,0:0:0:0:
364,358,136600,1,0,0:0:0:0:
11,137,136992,5,0,0:0:0:0:
501,190,137188,1,0,0:0:0:0:
10,224,137384,1,0,0:0:0:0:
398,157,137776,2,0,B|281:178|281:178|403:204,1,240
442,74,138169,5,0,0:0:0:0:
372,87,138299,1,0,0:0:0:0:
303,100,138430,1,0,0:0:0:0:
234,113,138561,1,0,0:0:0:0:
165,126,138691,1,0,0:0:0:0:
96,139,138822,1,0,0:0:0:0:
25,154,138953,2,0,L|13:216,1,35.1999998925781
90,87,139100,2,0,L|101:177,1,52.7999998388672
442,310,139737,5,0,0:0:0:0:
372,296,139867,1,0,0:0:0:0:
303,283,139998,1,0,0:0:0:0:
234,270,140129,1,0,0:0:0:0:
165,257,140259,1,0,0:0:0:0:
96,244,140390,1,0,0:0:0:0:
25,230,140521,2,0,L|13:168,1,35.1999998925781
90,297,140668,2,0,L|101:207,1,52.7999998388672
139,53,141306,5,0,0:0:0:0:
199,37,141436,1,0,0:0:0:0:
254,66,141567,1,0,0:0:0:0:
276,125,141698,1,0,0:0:0:0:
257,201,141828,1,0,0:0:0:0:
278,259,141959,1,0,0:0:0:0:
333,288,142090,1,0,0:0:0:0:
394,273,142220,1,0,0:0:0:0:
411,215,142352,1,0,0:0:0:0:
392,139,142483,5,0,0:0:0:0:
337,110,142614,1,0,0:0:0:0:
276,125,142744,1,0,0:0:0:0:
228,169,142875,1,0,0:0:0:0:
167,184,143005,1,0,0:0:0:0:
112,155,143136,1,0,0:0:0:0:
91,97,143267,2,0,P|116:62|152:43,1,52.7999998388672
242,84,143463,2,0,P|268:118|306:142,1,52.7999998388672
392,139,143659,2,0,L|430:104,2,35.1999998925781
63,357,144443,5,0,0:0:0:0:
45,211,144639,1,0,0:0:0:0:
98,227,144737,1,0,0:0:0:0:
148,204,144835,2,0,P|209:205|236:220,2,70.3999997851563
182,339,145227,2,0,P|251:358|300:321,1,105.599999677734
337,339,145522,1,0,0:0:0:0:
391,322,145620,2,0,P|441:335|479:338,3,52.7999998388672
490,252,146012,5,0,0:0:0:0:
477,196,146110,1,0,0:0:0:0:
432,161,146208,2,0,P|401:154|361:160,1,52.7999998388672
282,152,146404,2,0,P|289:121|289:106,6,26.3999999194336
240,45,146796,6,0,P|270:36|310:34,2,52.7999998388672
149,44,147090,1,0,0:0:0:0:
56,36,147188,2,0,P|29:41|5:57,3,52.7999998388672
96,115,147580,5,0,0:0:0:0:
121,166,147678,1,0,0:0:0:0:
109,222,147776,1,0,0:0:0:0:
86,275,147874,1,0,0:0:0:0:
94,331,147973,2,0,P|62:339|22:361,1,52.7999998388672
141,353,148169,2,0,P|173:345|213:323,1,52.7999998388672
274,248,148365,5,0,0:0:0:0:
304,200,148463,1,0,0:0:0:0:
360,188,148561,1,0,0:0:0:0:
407,218,148659,1,0,0:0:0:0:
420,273,148757,2,0,P|392:286|356:289,2,52.7999998388672
473,242,149051,1,0,0:0:0:0:
496,189,149149,2,0,P|503:161|502:117,3,52.7999998388672
476,40,149541,5,0,0:0:0:0:
429,74,149639,1,0,0:0:0:0:
374,91,149737,1,0,0:0:0:0:
327,55,149835,1,0,0:0:0:0:
278,92,149933,2,0,P|304:92|329:99,3,52.7999998388672
341,212,150326,2,0,L|334:277,1,52.7999998388672
321,371,150522,2,0,L|362:384,2,35.1999998925781
247,350,150718,6,0,P|199:351|119:367,1,105.599999677734
37,375,151012,1,0,0:0:0:0:
24,248,151110,2,0,P|72:249|152:265,1,105.599999677734
233,276,151404,1,0,0:0:0:0:
196,177,151502,2,0,P|197:129|213:49,1,105.599999677734
371,42,151894,2,0,P|413:37|450:47,2,52.7999998388672
318,147,152286,5,0,0:0:0:0:
302,215,152384,1,0,0:0:0:0:
356,259,152482,1,0,0:0:0:0:
420,231,152580,1,0,0:0:0:0:
423,161,152678,2,0,P|436:129|443:118,4,26.3999999194336
435,231,152973,1,0,0:0:0:0:
480,294,153071,2,0,P|485:326|470:374,2,52.7999998388672
339,135,153463,2,0,P|334:103|349:55,2,52.7999998388672
333,230,153757,1,0,0:0:0:0:
289,312,153855,6,0,B|309:299|349:312,1,52.7999998388672
289,312,154051,2,0,P|257:313|228:302,1,52.7999998388672
150,201,154247,2,0,P|145:147|128:117,3,52.7999998388672
59,60,154639,5,0,0:0:0:0:
125,30,154737,1,0,0:0:0:0:
197,42,154835,1,0,0:0:0:0:
252,91,154933,1,0,0:0:0:0:
303,145,155031,2,0,P|329:159|379:173,1,52.7999998388672
476,160,155227,2,0,P|450:146|400:132,1,52.7999998388672
227,162,155424,5,0,0:0:0:0:
205,231,155522,1,0,0:0:0:0:
236,296,155620,1,0,0:0:0:0:
303,323,155718,1,0,0:0:0:0:
371,299,155816,2,0,L|406:240,1,52.7999998388672
361,89,156012,2,0,L|344:48,2,26.3999999194336
481,191,156208,5,0,0:0:0:0:
415,168,156306,1,0,0:0:0:0:
350,194,156404,1,0,0:0:0:0:
285,167,156502,1,0,0:0:0:0:
227,209,156600,1,0,0:0:0:0:
170,166,156698,1,0,0:0:0:0:
197,99,156796,1,0,0:0:0:0:
269,98,156894,1,0,0:0:0:0:
285,167,156992,6,0,P|286:219|256:299,1,105.599999677734
51,313,157384,2,0,P|94:294|137:296,1,52.7999998388672
227,353,157580,1,0,0:0:0:0:
187,292,157678,1,0,0:0:0:0:
188,219,157776,2,0,P|195:169|194:149,2,52.7999998388672
118,182,158071,1,0,0:0:0:0:
146,110,158169,2,0,P|144:83|139:57,2,52.7999998388672
118,182,158463,5,0,0:0:0:0:
72,243,158561,2,0,P|43:260|16:300,1,52.7999998388672
120,316,158757,2,0,P|139:334|163:347,1,52.7999998388672
284,313,158953,2,0,P|307:312|332:317,6,26.3999999194336
383,337,159345,5,0,0:0:0:0:
453,323,159443,1,0,0:0:0:0:
494,264,159541,1,0,0:0:0:0:
482,193,159639,1,0,0:0:0:0:
423,151,159737,2,0,P|396:144|357:113,1,52.7999998388672
333,20,159933,2,0,P|355:38|377:82,1,52.7999998388672
355,230,160129,5,0,0:0:0:0:
231,85,160326,1,0,0:0:0:0:
108,230,160522,1,0,0:0:0:0:
140,165,160620,1,0,0:0:0:0:
119,97,160718,2,0,P|105:82|92:43,1,52.7999998388672
231,85,160914,2,0,P|255:76|275:58,1,52.7999998388672
418,57,161110,2,0,P|442:65|462:83,1,52.7999998388672
472,211,161306,5,0,0:0:0:0:
448,278,161404,1,0,0:0:0:0:
380,297,161502,1,0,0:0:0:0:
325,252,161600,1,0,0:0:0:0:
330,181,161698,2,0,P|349:126|346:96,3,52.7999998388672
163,132,162090,2,0,P|169:158|181:181,3,52.7999998388672
256,69,162482,5,0,0:0:0:0:
196,27,162580,1,0,0:0:0:0:
124,30,162678,1,0,0:0:0:0:
68,77,162776,1,0,0:0:0:0:
53,148,162874,1,0,0:0:0:0:
84,213,162972,1,0,0:0:0:0:
149,248,163071,1,0,0:0:0:0:
180,313,163169,1,0,0:0:0:0:
165,384,163267,6,0,L|87:371,1,52.7999998388672
241,252,163463,2,0,L|263:332,1,52.7999998388672
317,181,163659,2,0,L|247:181,1,52.7999998388672
345,296,163855,2,0,L|367:216,1,52.7999998388672
450,188,164051,2,0,P|441:167|443:112,1,52.7999998388672
463,42,164247,2,0,P|441:51|386:49,1,52.7999998388672
248,41,164443,5,0,0:0:0:0:
315,64,164541,1,0,0:0:0:0:
342,131,164639,1,0,0:0:0:0:
309,194,164737,1,0,0:0:0:0:
239,211,164835,2,0,L|202:150,1,52.7999998388672
309,194,165031,2,0,L|346:255,1,52.7999998388672
202,355,165227,5,0,0:0:0:0:
138,317,165325,1,0,0:0:0:0:
93,259,165423,1,0,0:0:0:0:
71,189,165521,1,0,0:0:0:0:
73,110,165620,2,0,P|75:83|79:57,3,52.7999998388672
205,33,166012,1,0,0:0:0:0:
215,106,166110,1,0,0:0:0:0:
225,179,166208,2,0,L|236:262,1,52.7999998388672
251,358,166404,1,0,0:0:0:0:
352,193,166600,5,0,0:0:0:0:
371,264,166698,1,0,0:0:0:0:
390,335,166796,2,0,B|440:328|485:346|485:346|464:323|454:281,1,158.399999516602
465,162,167188,5,0,0:0:0:0:
432,98,167286,1,0,0:0:0:0:
373,56,167384,2,0,P|346:49|303:51,1,52.7999998388672
233,146,167580,5,0,0:0:0:0:
201,83,167678,1,0,0:0:0:0:
141,40,167776,2,0,P|114:33|71:35,1,52.7999998388672
201,83,167973,2,0,P|227:82|252:75,1,52.7999998388672
132,116,168169,5,0,0:0:0:0:
111,186,168267,1,0,0:0:0:0:
137,254,168365,1,0,0:0:0:0:
151,325,168463,1,0,0:0:0:0:
97,378,168561,1,0,0:0:0:0:
27,352,168659,1,0,0:0:0:0:
16,281,168757,5,0,0:0:0:0:
69,232,168855,1,0,0:0:0:0:
137,254,168953,1,0,0:0:0:0:
210,265,169051,1,0,0:0:0:0:
278,236,169149,1,0,0:0:0:0:
348,212,169247,1,0,0:0:0:0:
419,232,169345,2,0,P|478:253|503:257,1,52.7999998388672
402,97,169541,6,0,P|376:104|352:115,1,52.7999998388672
278,236,169737,1,0,0:0:0:0:
245,169,169835,2,0,L|213:100,1,52.7999998388672
107,177,170031,1,0,0:0:0:0:
140,110,170129,2,0,L|162:62,1,52.7999998388672
319,29,170326,1,0,0:0:0:0:
140,246,170620,5,0,0:0:0:0:
182,184,170718,2,0,L|210:139,1,52.7999998388672
370,128,170915,1,0,0:0:0:0:
154,321,171208,5,0,0:0:0:0:
211,272,171306,2,0,L|250:237,1,52.7999998388672
407,270,171502,2,0,L|436:308,6,26.3999999194336
182,184,171894,6,0,L|210:139,1,52.7999998388672
211,272,172090,2,0,L|250:237,1,52.7999998388672
394,30,172482,6,0,L|349:58,1,52.7999998388672
482,59,172678,2,0,L|447:98,1,52.7999998388672
344,228,172875,5,0,0:0:0:0:
392,176,172973,1,0,0:0:0:0:
461,189,173071,2,0,P|488:211|509:240,1,52.7999998388672
344,228,173267,2,0,P|317:206|296:177,1,52.7999998388672
12,224,173659,6,0,P|30:205|51:189,1,52.7999998388672
206,192,173855,2,0,P|188:211|168:228,1,52.7999998388672
153,73,174051,1,0,0:0:0:0:
202,56,174149,1,0,0:0:0:0:
252,70,174247,2,0,P|291:85|359:58,2,105.599999677734
471,18,174835,2,0,P|480:76|462:140,1,105.599999677734
363,297,175227,1,0,0:0:0:0:
358,226,175325,1,0,0:0:0:0:
417,187,175424,6,0,P|456:202|486:206,1,52.7999998388672
350,152,175620,2,0,B|338:140|312:146|288:157,1,52.7999998388672
350,152,175816,2,0,P|357:126|360:100,1,52.7999998388672
48,104,176012,6,0,P|72:93|97:86,1,52.7999998388672
108,36,176208,2,0,P|105:62|97:87,1,52.7999998388672
24,264,176502,5,0,0:0:0:0:
52,197,176600,2,0,P|86:181|116:177,1,52.7999998388672
157,275,176796,2,0,P|123:259|93:255,1,52.7999998388672
185,359,176992,1,0,0:0:0:0:
256,339,177090,1,0,0:0:0:0:
288,269,177188,2,0,B|294:230|279:199|279:199|302:207|320:222,1,105.599999677734
482,312,177580,5,0,0:0:0:0:
454,244,177678,1,0,0:0:0:0:
397,198,177776,2,0,B|329:120|329:120|404:134,1,158.399999516602
478,105,178169,2,0,P|463:72|430:43,1,60.0000022888184
276,41,178365,5,0,0:0:0:0:
242,103,178463,1,0,0:0:0:0:
250,174,178561,1,0,0:0:0:0:
255,245,178659,1,0,0:0:0:0:
228,312,178757,2,0,P|187:330|116:325,1,90.0000034332277
126,323,178953,6,0,B|114:311|93:333|79:364,1,60.0000022888184
126,323,179149,2,0,P|133:293|129:259,1,60.0000022888184
37,85,179541,1,0,0:0:0:0:
106,103,179639,1,0,0:0:0:0:
177,99,179737,2,0,P|234:87|262:87,1,60.0000022888184
329,67,179933,1,0,0:0:0:0:
481,115,180129,1,0,0:0:0:0:
241,190,180326,6,0,P|285:178|314:154,1,60.0000022888184
161,185,180522,2,0,P|173:229|197:258,1,60.0000022888184
271,323,180718,2,0,P|259:279|235:250,1,60.0000022888184
134,334,180914,2,0,P|178:322|207:298,1,60.0000022888184
67,294,181110,2,0,P|23:306|-6:330,1,60.0000022888184
134,261,181306,2,0,P|122:217|98:188,1,60.0000022888184
25,128,181502,2,0,P|37:172|61:201,1,60.0000022888184
176,162,181698,5,0,0:0:0:0:
172,91,181796,1,0,0:0:0:0:
123,40,181894,2,0,P|96:34|55:33,1,60.0000022888184
172,91,182090,2,0,P|199:97|240:98,1,60.0000022888184
482,53,182384,5,0,0:0:0:0:
416,81,182482,2,0,P|390:110|372:148,1,60.0000022888184
459,216,182678,2,0,P|462:186|458:156,1,60.0000022888184
302,222,182875,2,0,P|359:217|403:188,2,90.0000034332277
156,163,183267,2,0,P|111:164|70:183,2,90.0000034332277
231,192,183659,1,0,0:0:0:0:
53,277,184051,5,0,0:0:0:0:
38,208,184149,1,0,0:0:0:0:
67,142,184247,1,0,0:0:0:0:
282,60,184443,2,0,P|238:89|166:70,1,120.000004577637
391,126,184835,1,0,0:0:0:0:
122,221,185031,1,0,0:0:0:0:
395,259,185227,6,0,P|437:262|465:255,1,60.0000022888184
331,199,185424,5,0,0:0:0:0:
259,200,185522,1,0,0:0:0:0:
195,240,185620,2,0,P|153:243|125:236,1,60.0000022888184
261,277,185816,2,0,P|264:319|257:347,1,60.0000022888184
336,111,186208,6,0,P|333:82|337:52,1,60.0000022888184
403,148,186404,2,0,P|432:145|462:149,1,60.0000022888184
173,187,186698,5,0,0:0:0:0:
113,231,186796,2,0,P|83:234|53:230,1,60.0000022888184
142,113,186992,2,0,P|171:109|201:113,1,60.0000022888184
478,281,187286,5,0,0:0:0:0:
412,317,187384,2,0,P|403:292|406:250,1,60.0000022888184
472,129,187580,2,0,P|473:158|463:187,1,60.0000022888184
176,267,187973,2,0,B|167:292|172:317|172:317|197:320|223:306,1,95.9999970703126
253,248,188169,1,0,0:0:0:0:
259,201,188267,1,0,0:0:0:0:
285,161,188365,5,0,0:0:0:0:
359,111,188463,1,0,0:0:0:0:
334,24,188561,1,0,0:0:0:0:
244,22,188659,1,0,0:0:0:0:
214,107,188757,1,0,0:0:0:0:
177,190,188855,1,0,0:0:0:0:
86,191,188953,1,0,0:0:0:0:
46,109,189051,1,0,0:0:0:0:
103,38,189149,6,0,P|161:37|214:54,1,95.9999970703126
177,190,189345,2,0,P|144:142|129:89,1,95.9999970703126
291,150,189541,5,0,0:0:0:0:
291,243,189639,1,0,0:0:0:0:
225,309,189737,1,0,0:0:0:0:
132,308,189835,1,0,0:0:0:0:
67,241,189933,1,0,0:0:0:0:
88,148,190031,1,0,0:0:0:0:
171,101,190129,1,0,0:0:0:0:
265,107,190227,1,0,0:0:0:0:
356,135,190325,1,0,0:0:0:0:
450,120,190423,1,0,0:0:0:0:
390,45,190522,5,0,0:0:0:0:
356,135,190620,1,0,0:0:0:0:
362,231,190718,2,0,B|401:299|342:309|385:367,1,143.999995605469
426,300,190914,2,0,P|347:302|309:384,1,143.999995605469
74,355,191208,1,0,0:0:0:0:
117,336,191306,1,0,0:0:0:0:
148,300,191404,1,0,0:0:0:0:
149,223,191502,5,0,0:0:0:0:
105,140,191600,1,0,0:0:0:0:
135,51,191698,1,0,0:0:0:0:
219,11,191796,1,0,0:0:0:0:
306,45,191894,1,0,0:0:0:0:
342,131,191992,1,0,0:0:0:0:
301,218,192090,1,0,0:0:0:0:
316,308,192188,1,0,0:0:0:0:
399,345,192286,5,0,0:0:0:0:
477,295,192384,1,0,0:0:0:0:
476,203,192482,1,0,0:0:0:0:
398,148,192580,1,0,0:0:0:0:
313,103,192678,1,0,0:0:0:0:
222,121,192776,1,0,0:0:0:0:
137,166,192874,1,0,0:0:0:0:
43,170,192972,1,0,0:0:0:0:
86,86,193071,5,0,0:0:0:0:
137,166,193169,1,0,0:0:0:0:
156,260,193267,1,0,0:0:0:0:
138,354,193365,1,0,0:0:0:0:
66,287,193463,5,0,0:0:0:0:
156,260,193561,1,0,0:0:0:0:
252,267,193659,1,0,0:0:0:0:
337,310,193757,1,0,0:0:0:0:
431,331,193855,2,0,P|473:290|487:187,1,143.999995605469
418,184,194051,2,0,P|430:254|478:307,1,143.999995605469
476,29,194443,5,0,0:0:0:0:
452,70,194541,1,0,0:0:0:0:
418,104,194639,1,0,0:0:0:0:
341,124,194737,1,0,0:0:0:0:
262,120,194835,1,0,0:0:0:0:
187,92,194933,1,0,0:0:0:0:
125,42,195031,1,0,0:0:0:0:
62,90,195129,1,0,0:0:0:0:
44,166,195227,1,0,0:0:0:0:
78,237,195325,1,0,0:0:0:0:
150,269,195424,2,0,P|211:259|239:246,1,80
341,124,195620,5,0,0:0:0:0:
320,198,195718,1,0,0:0:0:0:
361,264,195816,1,0,0:0:0:0:
438,277,195914,1,0,0:0:0:0:
494,223,196012,2,0,P|502:173|497:133,1,80
341,124,196208,5,0,0:0:0:0:
266,97,196306,1,0,0:0:0:0:
189,114,196404,1,0,0:0:0:0:
113,137,196502,1,0,0:0:0:0:
37,117,196600,1,0,0:0:0:0:
77,49,196698,1,0,0:0:0:0:
150,22,196796,1,0,0:0:0:0:
225,46,196894,1,0,0:0:0:0:
270,113,196992,5,0,0:0:0:0:
344,137,197090,1,0,0:0:0:0:
418,109,197188,1,0,0:0:0:0:
458,42,197286,1,0,0:0:0:0:
462,122,197384,5,0,0:0:0:0:
463,201,197482,1,0,0:0:0:0:
464,281,197580,1,0,0:0:0:0:
465,361,197678,1,0,0:0:0:0:
395,324,197776,2,0,P|347:306|291:301,1,80
155,307,197973,5,0,0:0:0:0:
230,280,198071,1,0,0:0:0:0:
289,226,198169,2,0,P|304:189|311:149,1,80
228,45,198365,1,0,0:0:0:0:
211,123,198463,1,0,0:0:0:0:
212,202,198561,1,0,0:0:0:0:
230,280,198659,1,0,0:0:0:0:
265,352,198757,1,0,0:0:0:0:
207,296,198855,5,0,0:0:0:0:
137,257,198953,1,0,0:0:0:0:
60,239,199051,1,0,0:0:0:0:
84,316,199149,2,0,P|133:266|140:251,1,80
211,123,199345,2,0,P|242:147|264:181,1,80
336,327,199541,5,0,0:0:0:0:
409,353,199639,1,0,0:0:0:0:
480,320,199737,1,0,0:0:0:0:
506,246,199835,1,0,0:0:0:0:
473,175,199933,1,0,0:0:0:0:
400,148,200031,1,0,0:0:0:0:
336,102,200129,2,0,P|323:67|331:8,1,80
329,179,200326,1,0,0:0:0:0:
252,199,200424,1,0,0:0:0:0:
179,169,200522,2,0,P|176:123|148:65,2,80
169,268,200816,1,0,0:0:0:0:
82,318,200914,6,0,P|51:283|30:222,1,80
181,349,201110,1,0,0:0:0:0:
259,359,201208,1,0,0:0:0:0:
329,322,201306,1,0,0:0:0:0:
399,288,201404,1,0,0:0:0:0:
476,306,201502,2,0,P|495:248|487:208,1,80
450,90,201698,1,0,0:0:0:0:
388,139,201796,1,0,0:0:0:0:
369,215,201894,1,0,0:0:0:0:
399,287,201992,1,0,0:0:0:0:
338,237,202090,5,0,0:0:0:0:
263,208,202188,1,0,0:0:0:0:
184,205,202286,1,0,0:0:0:0:
108,229,202384,1,0,0:0:0:0:
44,276,202482,5,0,0:0:0:0:
113,309,202580,1,0,0:0:0:0:
178,267,202678,1,0,0:0:0:0:
177,191,202776,1,0,0:0:0:0:
112,150,202875,1,0,0:0:0:0:
43,120,202973,1,0,0:0:0:0:
42,44,203071,1,0,0:0:0:0:
110,11,203169,1,0,0:0:0:0:
168,59,203267,5,0,0:0:0:0:
220,119,203365,1,0,0:0:0:0:
296,141,203463,1,0,0:0:0:0:
371,118,203561,1,0,0:0:0:0:
423,56,203659,1,0,0:0:0:0:
347,36,203757,1,0,0:0:0:0:
271,59,203855,1,0,0:0:0:0:
220,119,203953,1,0,0:0:0:0:
209,197,204051,6,0,B|200:224|222:275,1,80
209,197,204247,2,0,P|171:183|131:179,1,80
62,216,204443,1,0,0:0:0:0:
78,293,204541,1,0,0:0:0:0:
136,346,204639,1,0,0:0:0:0:
214,355,204737,1,0,0:0:0:0:
283,317,204835,5,0,0:0:0:0:
313,243,204933,1,0,0:0:0:0:
311,165,205031,1,0,0:0:0:0:
365,109,205129,1,0,0:0:0:0:
443,109,205227,1,0,0:0:0:0:
497,165,205325,1,0,0:0:0:0:
495,242,205423,1,0,0:0:0:0:
437,295,205521,1,0,0:0:0:0:
359,313,205620,5,0,0:0:0:0:
280,321,205718,1,0,0:0:0:0:
213,280,205816,1,0,0:0:0:0:
144,241,205914,1,0,0:0:0:0:
65,250,206012,2,0,P|37:283|14:349,1,80
96,185,206208,2,0,L|84:134,2,40
150,91,206404,5,0,0:0:0:0:
218,50,206502,1,0,0:0:0:0:
297,48,206600,1,0,0:0:0:0:
368,83,206698,1,0,0:0:0:0:
417,153,206796,1,0,0:0:0:0:
410,239,206894,1,0,0:0:0:0:
357,308,206992,2,0,P|297:310|269:270,1,80
332,154,207188,5,0,0:0:0:0:
326,230,207286,1,0,0:0:0:0:
260,270,207384,1,0,0:0:0:0:
190,238,207482,1,0,0:0:0:0:
175,163,207580,2,0,P|174:112|153:75,1,80
42,186,207776,5,0,0:0:0:0:
45,264,207874,1,0,0:0:0:0:
91,328,207972,1,0,0:0:0:0:
165,356,208070,1,0,0:0:0:0:
236,317,208169,1,0,0:0:0:0:
300,273,208267,1,0,0:0:0:0:
379,274,208365,5,0,0:0:0:0:
451,246,208463,1,0,0:0:0:0:
478,173,208561,1,0,0:0:0:0:
442,104,208659,1,0,0:0:0:0:
367,85,208757,1,0,0:0:0:0:
303,129,208855,1,0,0:0:0:0:
248,187,208953,2,0,P|186:180|150:148,1,80
69,54,209149,2,0,P|49:38|11:19,6,40
103,126,209541,5,0,0:0:0:0:
71,199,209639,1,0,0:0:0:0:
101,273,209737,1,0,0:0:0:0:
72,347,209835,1,0,0:0:0:0:
151,337,209933,2,0,P|206:316|263:323,1,80
380,361,210129,2,0,P|340:356|304:339,1,80
296,215,210326,2,0,B|290:167|319:117,1,80
296,215,210522,2,0,P|260:209|210:180,1,80
163,80,210718,5,0,0:0:0:0:
86,98,210816,1,0,0:0:0:0:
37,159,210914,1,0,0:0:0:0:
36,238,211012,1,0,0:0:0:0:
90,297,211110,1,0,0:0:0:0:
165,319,211208,1,0,0:0:0:0:
241,298,211306,1,0,0:0:0:0:
314,266,211404,1,0,0:0:0:0:
392,279,211502,1,0,0:0:0:0:
460,240,211600,1,0,0:0:0:0:
481,165,211698,1,0,0:0:0:0:
444,97,211796,1,0,0:0:0:0:
369,75,211894,6,0,P|331:85|276:131,1,80
182,218,212090,2,0,P|220:208|275:162,1,80
147,67,212286,1,0,0:0:0:0:
97,128,212384,1,0,0:0:0:0:
92,207,212482,1,0,0:0:0:0:
60,279,212580,1,0,0:0:0:0:
41,357,212678,2,0,L|3:372,6,40
120,340,213071,5,0,0:0:0:0:
193,373,213169,1,0,0:0:0:0:
267,343,213267,2,0,P|321:354|349:367,1,80
489,348,213463,5,0,0:0:0:0:
464,271,213561,1,0,0:0:0:0:
389,254,213659,1,0,0:0:0:0:
327,206,213757,1,0,0:0:0:0:
327,129,213855,1,0,0:0:0:0:
387,80,213953,1,0,0:0:0:0:
462,98,214051,1,0,0:0:0:0:
495,168,214149,1,0,0:0:0:0:
461,237,214247,6,0,L|377:257,1,80
223,287,214443,1,0,0:0:0:0:
227,47,214639,1,0,0:0:0:0:
28,174,214835,1,0,0:0:0:0:
348,176,215031,1,0,0:0:0:0:
37,251,215227,5,0,0:0:0:0:
106,232,215325,1,0,0:0:0:0:
176,214,215424,2,0,L|234:208,6,40
161,319,215816,2,0,P|214:303|297:355,1,160
334,57,216208,5,0,0:0:0:0:
386,360,216404,1,0,0:0:0:0:
467,212,216600,2,0,B|495:244|485:293,1,80
467,212,216796,2,0,P|441:178|437:133,1,80
416,272,216992,2,0,P|351:267|315:253,1,80
192,216,217188,2,0,P|257:221|293:235,1,80
222,313,217384,5,0,0:0:0:0:
242,53,217580,1,0,0:0:0:0:
428,168,217776,5,0,0:0:0:0:
55,141,217972,1,0,0:0:0:0:
330,54,218169,5,0,0:0:0:0:
310,314,218365,1,0,0:0:0:0:
118,88,218561,5,0,0:0:0:0:
491,115,218757,1,0,0:0:0:0:
171,257,218953,2,0,B|204:203|162:187|205:132,1,120
314,142,219149,2,0,B|350:187|308:203|341:257,1,120
337,332,219345,2,0,P|281:335|253:318,1,80
175,332,219541,2,0,P|231:335|259:318,1,80
256,187,219737,5,0,0:0:0:0:
255,34,220326,5,0,0:0:0:0:
215,31,220424,1,0,0:0:0:0:
175,34,220522,2,0,P|134:41|46:37,1,120
151,114,220816,2,0,P|109:118|21:109,2,120
282,105,221306,2,0,P|319:117|351:137,1,60.0000022888184
401,237,221502,1,0,0:0:0:0:
401,237,221600,2,0,P|348:256|285:255,1,120.000004577637
259,179,221894,2,0,L|254:261,1,60.0000022888184
247,338,222090,6,0,P|192:338|122:294,1,120.000004577637
47,285,222384,2,0,P|46:313|64:368,1,60.0000022888184
108,239,222580,1,0,0:0:0:0:
103,209,222678,1,0,0:0:0:0:
96,180,222776,1,0,0:0:0:0:
85,152,222849,2,0,B|48:127|13:127,1,40
85,152,223045,2,0,P|114:151|160:118,1,80
305,36,223437,5,0,0:0:0:0:
334,35,223535,1,0,0:0:0:0:
363,44,223633,2,0,P|398:63|451:144,1,120.000004577637
351,136,223927,2,0,B|318:220|401:224|352:320,1,180.000006866455
164,346,224417,2,0,P|229:328|280:344,1,120.000004577637
214,256,224711,2,0,L|214:205,1,40
214,31,225005,6,0,L|214:74,1,40
153,160,225201,2,0,P|218:142|269:158,1,120.000004577637
349,247,225496,2,0,P|335:209|336:165,1,80
416,47,225790,2,0,B|454:28|493:30,1,80
416,47,225986,6,0,P|376:53|336:51,1,80
463,124,226231,2,0,P|471:170|462:243,1,120
271,204,226574,1,0,0:0:0:0:
310,205,226672,1,0,0:0:0:0:
344,225,226770,2,0,P|362:264|358:323,1,80
189,224,227064,2,0,P|191:184|208:148,1,80
187,310,227358,5,0,0:0:0:0:
148,309,227456,1,0,0:0:0:0:
114,289,227554,2,0,P|96:250|100:191,1,80
130,125,227750,1,0,0:0:0:0:
130,125,227849,2,0,P|102:88|62:67,1,80
38,92,228045,1,0,0:0:0:0:
16,132,228143,1,0,0:0:0:0:
301,31,228339,2,0,P|342:42|386:98,1,80
283,238,228633,2,0,P|242:227|198:171,1,80
431,141,228927,5,0,0:0:0:0:
429,180,229025,1,0,0:0:0:0:
428,220,229123,2,0,L|400:307,1,80
428,220,229319,2,0,L|412:319,1,80
289,279,229515,2,0,L|305:180,1,80
314,122,229711,1,0,0:0:0:0:
270,102,229809,1,0,0:0:0:0:
223,106,229907,2,0,P|157:112|121:89,1,80
322,47,230201,2,0,P|360:38|399:48,1,80
206,228,230447,6,0,L|193:272,1,40
206,228,230545,2,0,P|276:222|314:232,1,80
354,266,230741,2,0,P|361:224|355:177,1,80
240,70,231035,2,0,B|210:180|136:101|102:245,1,200
121,303,231378,1,0,0:0:0:0:
201,346,231476,2,0,P|78:344|12:360,1,160
121,303,231770,2,0,P|200:313|279:308,1,160
482,147,232260,5,0,0:0:0:0:
328,123,232456,1,0,0:0:0:0:
255,155,232554,1,0,0:0:0:0:
177,168,232652,2,0,B|146:168|146:168|169:86|264:75,1,160
35,34,233045,2,0,B|21:87|33:132|33:132|55:111|64:73,1,160
296,50,233437,5,0,0:0:0:0:
328,123,233535,1,0,0:0:0:0:
340,201,233633,1,0,0:0:0:0:
166,302,233829,1,0,0:0:0:0:
264,177,234025,1,0,0:0:0:0:
35,34,234221,2,0,B|21:87|33:132|33:132|55:111|64:73,1,160
264,53,234613,5,0,0:0:0:0:
343,49,234711,1,0,0:0:0:0:
421,66,234809,1,0,0:0:0:0:
264,177,235005,2,0,L|240:224,4,40
34,219,235398,5,0,0:0:0:0:
36,140,235496,1,0,0:0:0:0:
78,72,235594,1,0,0:0:0:0:
278,24,235790,2,0,B|296:101|220:98|272:193,1,160
449,304,236182,2,0,B|457:273|479:252|479:252|491:297|477:350,1,160
370,60,236574,5,0,0:0:0:0:
412,128,236672,1,0,0:0:0:0:
414,207,236770,1,0,0:0:0:0:
246,354,236966,2,0,B|228:277|304:280|252:185,1,160
35,350,237358,2,0,B|21:297|33:252|33:252|55:273|62:304,1,160
40,114,237750,1,0,0:0:0:0:
117,94,237848,1,0,0:0:0:0:
196,103,237946,1,0,0:0:0:0:
318,271,238143,2,0,P|391:261|446:189,1,160
196,103,238535,5,0,0:0:0:0:
186,182,238633,1,0,0:0:0:0:
206,259,238731,1,0,0:0:0:0:
376,103,238927,1,0,0:0:0:0:
35,34,239319,2,0,B|21:87|33:132|33:132|55:111|64:73,1,160
206,259,239711,5,0,0:0:0:0:
285,269,239809,1,0,0:0:0:0:
362,249,239907,1,0,0:0:0:0:
264,66,240103,1,0,0:0:0:0:
449,304,240496,2,0,B|457:273|479:252|479:252|491:297|477:350,1,160
129,280,240888,1,0,0:0:0:0:
206,259,240986,1,0,0:0:0:0:
285,269,241084,1,0,0:0:0:0:
459,182,241280,2,0,L|493:152,4,40
205,101,241672,5,0,0:0:0:0:
192,179,241770,1,0,0:0:0:0:
205,258,241868,1,0,0:0:0:0:
449,304,242064,2,0,B|457:273|479:252|479:252|491:297|477:350,1,160
35,350,242456,2,0,B|21:297|33:252|33:252|55:273|62:304,1,160
306,258,242849,5,0,0:0:0:0:
319,179,242947,1,0,0:0:0:0:
307,101,243045,1,0,0:0:0:0:
35,34,243241,2,0,B|21:87|33:132|33:132|55:111|64:73,1,160
477,34,243633,2,0,B|491:87|479:132|479:132|457:111|448:73,1,160
191,182,244025,5,0,0:0:0:0:
256,143,244123,1,0,0:0:0:0:
319,184,244221,1,0,0:0:0:0:
254,348,244417,2,0,L|255:248,1,80
