osu file format v14

[General]
AudioFilename: audio.mp3
AudioLeadIn: 0
PreviewTime: 56936
Countdown: 0
SampleSet: Soft
StackLeniency: 0.7
Mode: 0
LetterboxInBreaks: 0
WidescreenStoryboard: 0

[Editor]
Bookmarks: 31866,54261,170879
DistanceSpacing: 0.5
BeatDivisor: 4
GridSize: 8
TimelineZoom: 1.2

[Metadata]
Title:Space Bound (Eliminate Remix)
TitleUnicode:Space Bound (Eliminate Remix)
Artist:Eminem
ArtistUnicode:Eminem
Creator:Ali_Xe
Version:Expert
Source:
Tags:Electronic Dubstep
BeatmapID:1874705
BeatmapSetID:897359

[Difficulty]
HPDrainRate:6
CircleSize:4.2
OverallDifficulty:7
ApproachRate:9.5
SliderMultiplier:1.1
SliderTickRate:1

[Events]
//Background and Video events
0,0,"5678343857873.jpg",0,0
//Break Periods
//Storyboard Layer 0 (Background)
//Storyboard Layer 1 (Fail)
//Storyboard Layer 2 (Pass)
//Storyboard Layer 3 (Foreground)
//Storyboard Sound Samples

[TimingPoints]
13697.6783216783,422.535211267606,4,2,0,15,1,0
27218,-166.666666666667,4,2,0,15,0,0
32289,-100,4,2,0,15,0,0
33556,-66.6666666666667,4,2,0,50,0,0
56796,281.69014084507,4,2,0,52,1,0
56796,-83.3333333333333,4,2,0,52,0,0
57077,-76.9230769230769,4,2,0,52,0,0
57218,-71.4285714285714,4,2,0,52,0,0
57359,-66.6666666666667,4,2,0,52,0,0
57500,-62.5,4,2,0,52,0,0
57641,-55.5555555555556,4,2,0,52,0,1
84683,422.535211267606,4,2,0,52,1,0
88063,-83.3333333333333,4,2,0,52,0,0
88063,-83.3333333333333,4,2,0,52,0,0
95246,-71.4285714285714,4,2,0,52,0,0
116795,281.69014084507,4,2,0,52,1,1
116795,-55.5555555555556,4,2,0,52,0,1
142710,-55.5555555555556,4,2,0,52,0,0
143837,-80,4,2,0,52,0,0

[Colours]
Combo1 : 64,0,128
Combo2 : 0,0,255
Combo3 : 0,0,128
Combo4 : 128,0,0
Combo5 : 255,0,0

[HitObjects]
144,272,13697,6,0,P|120:200|152:112,1,165
240,208,14542,2,0,P|288:232|352:232,1,110
368,136,15176,2,0,B|280:72|280:72|368:24|448:72|448:72,1,275
448,224,16444,1,0,0:0:0:0:
392,304,16655,1,0,0:0:0:0:
296,304,16866,1,0,0:0:0:0:
232,232,17077,2,0,B|192:176|200:104|200:104|256:120|256:120|256:64|304:48,1,275
344,128,18345,2,0,B|408:200|416:208|408:216|296:272|296:272|392:352,1,330
248,344,19824,5,0,0:0:0:0:
152,320,20035,1,0,0:0:0:0:
112,240,20246,1,0,0:0:0:0:
120,152,20458,2,0,B|192:80|200:72|208:80|216:176|224:184|232:176|256:128|264:120|336:112,1,275
416,112,21725,5,0,0:0:0:0:
352,224,21937,1,0,0:0:0:0:
352,224,22148,2,0,L|288:224,1,55
160,160,22570,2,0,L|224:160,1,55
256,48,22993,2,0,L|312:48,3,55
328,192,23838,2,0,L|384:192,1,55
136,192,24261,2,0,L|80:192,1,55
256,312,24683,5,0,0:0:0:0:
328,232,24894,1,0,0:0:0:0:
392,312,25106,2,0,L|456:312,1,55
376,176,25528,2,0,L|336:136,1,55
128,176,25951,2,0,L|166:137,1,55
256,64,26373,5,0,0:0:0:0:
304,160,26585,1,0,0:0:0:0:
256,256,26796,1,0,0:0:0:0:
304,344,27007,1,0,0:0:0:0:
184,344,27218,2,0,B|128:296|128:296|128:160|128:160|208:96|208:96|312:96|312:96|392:160|392:160|392:296|392:296|328:344,1,725.999977844239
176,296,32289,6,0,L|120:296,1,55
336,168,32711,2,0,L|392:168,1,55
184,40,33134,2,0,L|128:40,1,55
240,168,33556,2,0,P|304:200|344:192,1,82.5000031471254
320,56,33979,1,0,0:0:0:0:
136,192,34401,1,0,0:0:0:0:
136,192,34507,1,0,0:0:0:0:
136,192,34613,1,0,0:0:0:0:
264,288,34824,2,0,P|328:264|344:224,1,82.5000031471254
224,152,35246,5,0,0:0:0:0:
224,152,35352,1,0,0:0:0:0:
224,152,35458,2,0,P|254:124|294:118,1,82.5000031471254
456,128,35880,1,0,0:0:0:0:
376,240,36092,1,0,0:0:0:0:
368,250,36197,1,0,0:0:0:0:
360,262,36303,1,0,0:0:0:0:
208,192,36514,6,0,P|160:224|152:256,1,82.5000031471254
152,272,36831,1,0,0:0:0:0:
152,272,36937,1,0,0:0:0:0:
296,312,37148,1,0,0:0:0:0:
344,160,37359,1,0,0:0:0:0:
344,160,37465,1,0,0:0:0:0:
344,160,37570,1,0,0:0:0:0:
200,56,37782,5,0,0:0:0:0:
64,144,37993,1,0,0:0:0:0:
192,232,38204,2,0,P|248:264|272:264,1,82.5000031471254
384,176,38627,1,0,0:0:0:0:
384,176,38732,1,0,0:0:0:0:
384,176,38838,1,0,0:0:0:0:
360,320,39049,2,0,P|312:344|272:344,1,82.5000031471254
120,296,39472,5,0,0:0:0:0:
128,152,39683,2,0,P|152:112|200:96,1,82.5000031471254
248,224,40106,1,0,0:0:0:0:
336,112,40317,1,0,0:0:0:0:
336,112,40423,1,0,0:0:0:0:
336,112,40528,1,0,0:0:0:0:
392,248,40739,2,0,P|368:288|328:320,1,82.5000031471254
248,224,41162,5,0,0:0:0:0:
392,168,41373,2,0,P|416:128|456:96,1,82.5000031471254
464,240,41796,1,0,0:0:0:0:
464,248,41901,1,0,0:0:0:0:
464,256,42007,2,0,P|440:320|424:336,1,82.5000031471254
320,248,42430,1,0,0:0:0:0:
200,296,42641,1,0,0:0:0:0:
96,240,42852,1,0,0:0:0:0:
200,168,43063,6,0,P|248:136|272:80,1,82.5000031471254
264,16,43486,1,0,0:0:0:0:
264,16,43592,1,0,0:0:0:0:
264,16,43697,2,0,P|288:72|328:96,1,82.5000031471254
392,144,44120,2,0,P|420:173|431:212,1,82.5000031471254
432,240,44437,1,0,0:0:0:0:
432,256,44542,1,0,0:0:0:0:
296,328,44754,5,0,0:0:0:0:
240,200,44965,1,0,0:0:0:0:
136,288,45176,1,0,0:0:0:0:
168,160,45387,2,0,P|216:96|248:88,1,82.5000031471254
352,48,45810,1,0,0:0:0:0:
360,176,46021,2,0,P|312:240|280:248,1,82.5000031471254
272,248,46338,1,0,0:0:0:0:
256,248,46444,1,0,0:0:0:0:
128,144,46655,5,0,0:0:0:0:
128,288,46866,2,0,L|128:312,4,20.6250007867813
216,192,47289,1,0,0:0:0:0:
224,184,47394,1,0,0:0:0:0:
232,176,47500,2,0,P|280:136|312:128,1,82.5000031471254
392,152,47923,2,0,B|424:192|440:224|440:224|456:192|496:144,1,165.000006294251
440,72,48556,5,0,0:0:0:0:
432,64,48662,1,0,0:0:0:0:
424,56,48768,2,0,P|368:24|336:24,1,82.5000031471254
352,128,49190,2,0,P|376:184|416:224,1,82.5000031471254
424,264,49613,5,0,0:0:0:0:
393,284,49718,1,0,0:0:0:0:
360,301,49824,1,0,0:0:0:0:
325,315,49929,1,0,0:0:0:0:
289,323,50035,1,0,0:0:0:0:
252,328,50141,1,0,0:0:0:0:
215,329,50246,1,0,0:0:0:0:
177,328,50352,1,0,0:0:0:0:
141,316,50457,1,0,0:0:0:0:
110,297,50563,1,0,0:0:0:0:
85,269,50668,1,0,0:0:0:0:
70,236,50774,1,0,0:0:0:0:
62,197,50880,5,0,0:0:0:0:
77,158,50985,1,0,0:0:0:0:
97,122,51091,1,0,0:0:0:0:
125,93,51196,1,0,0:0:0:0:
165,87,51302,1,0,0:0:0:0:
200,108,51408,1,0,0:0:0:0:
226,139,51513,1,0,0:0:0:0:
252,171,51619,1,0,0:0:0:0:
290,187,51725,1,0,0:0:0:0:
331,188,51830,5,0,0:0:0:0:
371,199,51937,1,0,0:0:0:0:
388,235,52042,1,0,0:0:0:0:
387,276,52148,1,0,0:0:0:0:
365,311,52253,1,0,0:0:0:0:
330,331,52359,1,0,0:0:0:0:
289,332,52465,1,0,0:0:0:0:
253,314,52570,1,0,0:0:0:0:
220,289,52676,5,0,0:0:0:0:
171,285,52781,1,0,0:0:0:0:
129,259,52887,1,0,0:0:0:0:
104,216,52992,1,0,0:0:0:0:
102,167,53098,1,0,0:0:0:0:
123,123,53204,1,0,0:0:0:0:
161,93,53309,1,0,0:0:0:0:
210,84,53415,1,0,0:0:0:0:
256,99,53521,1,0,0:0:0:0:
291,134,53626,1,0,0:0:0:0:
306,181,53732,1,0,0:0:0:0:
297,229,53837,5,0,0:0:0:0:
267,268,53943,1,0,0:0:0:0:
222,280,54049,1,0,0:0:0:0:
176,267,54155,1,0,0:0:0:0:
144,232,54261,2,0,L|144:192,8,20.6250007867813
192,168,54736,2,0,L|192:144,15,20.6250007867813
240,240,55581,2,0,L|240:216,15,20.6250007867813
192,304,56426,2,0,L|192:264,8,20.6250007867813
256,232,56936,6,0,L|288:264,1,32.99999899292
288,176,57077,2,0,L|328:200,1,35.749998363495
304,112,57218,2,0,L|360:128,1,38.4999988250733
304,48,57359,2,0,L|360:48,1,41.2500015735627
248,80,57500,2,0,L|192:56,1,44
184,120,57641,2,0,B|72:248|72:248|264:184|384:288,1,494.999984893799
368,96,58486,6,0,B|272:88|216:136|216:136|312:176|320:272|320:272|224:240|208:368|264:384,1,494.999984893799
392,312,59331,5,0,0:0:0:0:
160,240,59472,1,0,0:0:0:0:
376,176,59612,5,0,0:0:0:0:
152,112,59753,1,0,0:0:0:0:
224,320,59894,5,0,0:0:0:0:
296,96,60035,1,0,0:0:0:0:
104,168,60176,5,0,0:0:0:0:
336,240,60317,1,0,0:0:0:0:
232,40,60457,5,0,0:0:0:0:
456,152,60598,1,0,0:0:0:0:
280,288,60739,5,0,0:0:0:0:
360,72,60880,1,0,0:0:0:0:
168,144,61021,2,0,B|64:160|32:224|40:280|40:280|192:240|192:240|216:352|120:376|24:376,1,593.999981872559
256,224,62288,2,0,B|336:112|360:296|440:136,1,197.99999395752
328,48,62711,5,0,0:0:0:0:
120,120,62852,1,0,0:0:0:0:
288,224,62993,5,0,0:0:0:0:
192,24,63134,1,0,0:0:0:0:
128,248,63274,5,0,0:0:0:0:
288,88,63415,1,0,0:0:0:0:
264,304,63556,5,0,0:0:0:0:
88,152,63697,1,0,0:0:0:0:
328,176,63838,5,0,0:0:0:0:
120,264,63979,1,0,0:0:0:0:
216,72,64119,5,0,0:0:0:0:
312,264,64260,1,0,0:0:0:0:
168,200,64401,6,0,B|144:96|144:96|232:168|232:168|352:40|480:168,1,494.999984893799
416,232,65246,2,0,B|352:168|296:248|296:248|288:336|288:336|128:336|128:336|72:224,1,494.999984893799
88,48,66091,5,0,0:0:0:0:
280,216,66232,1,0,0:0:0:0:
264,48,66373,1,0,0:0:0:0:
176,280,66514,5,0,0:0:0:0:
336,200,66655,1,0,0:0:0:0:
112,112,66795,1,0,0:0:0:0:
256,240,66936,5,0,0:0:0:0:
344,40,67077,1,0,0:0:0:0:
448,224,67218,1,0,0:0:0:0:
296,128,67359,5,0,0:0:0:0:
336,368,67500,1,0,0:0:0:0:
184,192,67641,1,0,0:0:0:0:
144,280,67781,2,0,B|48:248|64:144|64:144|128:160|128:160|56:64|56:64|128:16|184:72,1,494.999984893799
224,176,68626,2,0,B|272:376|512:368|480:64,1,494.999984893799
344,80,69472,6,0,P|288:160|328:64,1,296.99999093628
320,240,70035,1,0,0:0:0:0:
160,128,70176,1,0,0:0:0:0:
127,243,70317,2,0,B|170:350|242:75|299:359|319:271,1,197.99999395752
393,248,70739,2,0,B|429:225|450:164|450:164|404:120|325:127,1,197.99999395752
250,112,71162,2,0,B|160:31|160:31|65:83|58:193|169:234|169:234|86:304|161:345,1,494.999984893799
222,312,72007,6,0,B|273:267|273:267|299:350|299:350|360:271|360:271|423:353|423:353|475:276|475:276|447:234,1,494.999984893799
368,111,72852,5,0,0:0:0:0:
146,170,72993,1,0,0:0:0:0:
301,234,73134,5,0,0:0:0:0:
211,24,73274,1,0,0:0:0:0:
350,96,73415,5,0,0:0:0:0:
183,260,73556,1,0,0:0:0:0:
401,228,73697,5,0,0:0:0:0:
177,122,73838,1,0,0:0:0:0:
279,312,73979,5,0,0:0:0:0:
270,76,74119,1,0,0:0:0:0:
279,312,74260,5,0,0:0:0:0:
465,182,74401,1,0,0:0:0:0:
327,182,74542,2,0,B|188:62|332:387|97:109|139:351|139:351|24:224|33:65,1,593.999981872559
31,109,75810,6,0,B|90:41|137:171|236:56,1,197.99999395752
404,47,76232,1,0,0:0:0:0:
240,208,76373,1,0,0:0:0:0:
242,52,76514,5,0,0:0:0:0:
364,264,76655,1,0,0:0:0:0:
479,119,76795,5,0,0:0:0:0:
232,132,76936,1,0,0:0:0:0:
341,342,77077,5,0,0:0:0:0:
232,132,77218,1,0,0:0:0:0:
90,309,77359,5,0,0:0:0:0:
320,226,77500,1,0,0:0:0:0:
102,102,77641,5,0,0:0:0:0:
218,313,77781,1,0,0:0:0:0:
240,160,77922,2,0,B|280:80|376:72|440:96|440:96|368:200|368:200|440:248|504:208|504:208,1,494.999984893799
360,304,78767,2,0,B|288:336|288:336|224:296|224:296|136:336|136:336|16:248|88:120,1,494.999984893799
216,160,79612,5,0,0:0:0:0:
456,136,79753,1,0,0:0:0:0:
288,295,79894,5,0,0:0:0:0:
311,51,80035,1,0,0:0:0:0:
421,214,80176,5,0,0:0:0:0:
191,94,80317,1,0,0:0:0:0:
210,329,80457,5,0,0:0:0:0:
53,143,80598,1,0,0:0:0:0:
293,207,80739,5,0,0:0:0:0:
96,233,80880,1,0,0:0:0:0:
284,72,81021,5,0,0:0:0:0:
283,298,81162,1,0,0:0:0:0:
365,138,81303,2,0,B|386:73|442:43|442:43|486:159|442:294|442:294|396:274|367:207,1,494.999984893799
279,54,82148,2,0,B|171:32|125:28|38:190|144:279|268:215|247:120|168:91|91:137|130:280|130:280|155:309,1,494.999984893799
240,343,82993,2,0,B|225:149|417:341|452:145|412:88|327:2|228:131,1,494.999984893799
310,161,83838,2,0,B|201:249|81:159|149:42|232:-22|411:9,1,494.999984893799
256,192,84683,12,0,87218,0:0:0:0:
256,192,88063,5,0,0:0:0:0:
192,80,88274,2,0,P|144:120|144:136,1,65.9999979858399
160,280,88697,1,0,0:0:0:0:
320,296,88908,2,0,P|350:285|367:257,1,65.9999979858399
367,257,89330,5,0,0:0:0:0:
376,88,89542,1,0,0:0:0:0:
248,152,89753,2,0,P|208:184|200:216,1,65.9999979858399
336,232,90175,1,0,0:0:0:0:
248,304,90387,2,0,P|208:280|200:240,1,65.9999979858399
256,192,91126,5,0,0:0:0:0:
256,192,91232,1,0,0:0:0:0:
352,72,91443,1,0,0:0:0:0:
376,208,91654,2,0,P|384:256|360:280,1,65.9999979858399
352,296,91971,1,0,0:0:0:0:
344,304,92077,1,0,0:0:0:0:
168,256,92288,5,0,0:0:0:0:
264,176,92499,2,0,P|232:128|208:120,1,65.9999979858399
192,112,92816,1,0,0:0:0:0:
176,112,92922,1,0,0:0:0:0:
304,24,93133,2,0,P|352:32|376:56,1,65.9999979858399
296,152,93556,2,0,P|248:144|224:120,1,65.9999979858399
360,120,93978,2,0,P|360:184|344:200,1,65.9999979858399
344,208,94295,5,0,0:0:0:0:
328,232,94401,2,0,P|312:288|328:320,1,65.9999979858399
456,336,94823,1,0,0:0:0:0:
168,96,95246,6,0,P|144:160|176:264,1,153.999995300293
328,120,96091,2,0,P|352:192|344:216,2,76.9999976501466
200,288,96936,2,0,P|272:312|288:304,2,76.9999976501466
256,192,97570,2,0,L|256:168,4,19.2499994125366
192,48,97992,1,0,0:0:0:0:
112,176,98204,2,0,P|128:232|168:256,1,76.9999976501466
256,72,98837,6,0,L|296:72,1,38.4999988250733
294,72,99049,1,0,0:0:0:0:
248,256,99260,1,0,0:0:0:0:
128,176,99471,2,0,L|88:176,1,38.4999988250733
89,176,99683,1,0,0:0:0:0:
200,72,99894,6,0,P|264:56|304:64,1,76.9999976501466
208,144,100316,2,0,P|172:157|133:159,1,76.9999976501466
64,32,100739,1,0,0:0:0:0:
64,184,100950,1,0,0:0:0:0:
64,192,101056,1,0,0:0:0:0:
64,200,101161,2,0,P|80:256|104:280,1,76.9999976501466
240,144,101584,2,0,P|224:88|200:64,1,76.9999976501466
168,224,102006,5,0,0:0:0:0:
336,256,102218,2,0,P|360:208|352:160,2,76.9999976501466
232,176,102852,1,0,0:0:0:0:
360,48,103063,1,0,0:0:0:0:
360,208,103274,2,0,P|344:256|320:280,1,76.9999976501466
264,176,103697,2,0,P|296:136|336:136,1,76.9999976501466
488,192,104119,6,0,L|488:240,1,38.4999988250733
256,312,104542,2,0,L|208:312,1,38.4999988250733
217,312,104753,1,0,0:0:0:0:
48,192,104964,2,0,L|48:240,1,38.4999988250733
256,192,105598,5,0,0:0:0:0:
336,64,105809,2,0,P|392:120|392:144,1,76.9999976501466
400,144,106126,1,0,0:0:0:0:
408,160,106232,1,0,0:0:0:0:
328,336,106443,1,0,0:0:0:0:
264,176,106654,2,0,P|224:224|224:256,1,76.9999976501466
192,336,107077,5,0,0:0:0:0:
80,208,107288,1,0,0:0:0:0:
79,344,107499,2,0,P|113:325|139:297,1,76.9999976501466
160,264,107816,1,0,0:0:0:0:
176,224,107922,2,0,P|201:195|235:177,1,76.9999976501466
352,304,108344,1,0,0:0:0:0:
360,224,108767,6,0,P|360:144|296:80,1,153.999995300293
152,160,109612,6,0,P|152:240|216:304,1,153.999995300293
192,304,110457,2,0,P|152:256|152:208,2,76.9999976501466
272,208,111091,2,0,L|296:192,4,19.2499994125366
216,48,111513,1,0,0:0:0:0:
184,192,111725,2,0,L|184:224,7,19.2499994125366
248,192,112147,2,0,L|248:160,7,19.2499994125366
312,192,112570,2,0,L|312:224,7,19.2499994125366
376,184,112992,2,0,L|376:152,7,19.2499994125366
368,248,113415,6,0,L|336:248,7,19.2499994125366
328,184,113837,2,0,L|360:184,7,19.2499994125366
320,248,114260,2,0,L|288:248,7,19.2499994125366
264,184,114683,2,0,L|296:184,7,19.2499994125366
256,248,115105,2,0,L|224:248,7,19.2499994125366
200,184,115528,2,0,L|232:184,7,19.2499994125366
192,248,115950,2,0,L|160:248,8,19.2499994125366
130,180,116795,6,0,B|144:91|213:49|213:49|232:265|416:294|416:294,1,494.999984893799
259,328,117640,2,0,B|181:310|181:310|239:253|239:253|128:236|128:236|206:168|206:168|91:140,1,494.999984893799
252,44,118485,5,0,0:0:0:0:
323,242,118625,1,0,0:0:0:0:
133,144,118766,5,0,0:0:0:0:
357,140,118907,1,0,0:0:0:0:
195,260,119048,5,0,0:0:0:0:
252,44,119189,1,0,0:0:0:0:
381,208,119330,5,0,0:0:0:0:
146,204,119471,1,0,0:0:0:0:
348,107,119611,5,0,0:0:0:0:
211,272,119752,1,0,0:0:0:0:
101,98,119893,5,0,0:0:0:0:
297,194,120034,1,0,0:0:0:0:
320,40,120175,2,0,B|434:90|465:193|465:194|465:194|328:135|328:135|347:239|476:313,1,593.999981872559
282,309,121442,2,0,B|292:212|171:233|203:120,1,197.99999395752
208,33,121865,5,0,0:0:0:0:
34,156,122006,1,0,0:0:0:0:
174,262,122147,5,0,0:0:0:0:
112,47,122287,1,0,0:0:0:0:
34,257,122428,5,0,0:0:0:0:
224,111,122569,1,0,0:0:0:0:
216,328,122710,5,0,0:0:0:0:
360,168,122851,1,0,0:0:0:0:
488,344,122992,5,0,0:0:0:0:
286,261,123133,1,0,0:0:0:0:
401,78,123273,5,0,0:0:0:0:
392,290,123414,1,0,0:0:0:0:
301,121,123555,2,0,B|256:102|184:108|160:191|160:191|228:227|228:227|160:248|160:248|182:329|232:353|297:332,1,494.999984893799
392,312,124400,2,0,B|448:200|392:80|392:80|264:128|264:128|240:56|152:64,1,494.999984893799
152,176,125245,5,0,0:0:0:0:
368,256,125386,1,0,0:0:0:0:
120,256,125527,5,0,0:0:0:0:
328,176,125668,1,0,0:0:0:0:
216,360,125809,5,0,0:0:0:0:
224,128,125949,1,0,0:0:0:0:
112,288,126090,5,0,0:0:0:0:
328,216,126231,1,0,0:0:0:0:
112,136,126372,5,0,0:0:0:0:
344,136,126513,1,0,0:0:0:0:
136,216,126654,5,0,0:0:0:0:
216,24,126794,1,0,0:0:0:0:
232,200,126935,6,0,B|216:288|288:344|288:344|352:312|408:360|408:360|504:280|456:168,1,494.999984893799
352,96,127780,2,0,B|272:32|192:88|192:88|144:152|192:224|192:224|304:264|304:128|256:120|208:176,1,494.999984893799
245,147,128625,2,0,B|184:200|256:272|352:248|408:104|312:0|200:16|128:112|128:192|152:240,1,494.999984893799
224,320,129471,2,0,B|400:328|496:184|432:64|328:16|256:8,1,494.999984893799
400,128,130316,2,0,B|400:224|320:256|320:256|280:168|280:168|240:256|240:256|160:224|168:104,1,494.999984893799
128,96,131161,6,0,B|72:144|72:144|120:184|120:184|48:224|48:224|144:272|144:272|56:328|56:328|112:360|112:360,1,494.999984893799
236,342,132006,5,0,0:0:0:0:
261,137,132147,1,0,0:0:0:0:
384,294,132287,5,0,0:0:0:0:
161,236,132428,1,0,0:0:0:0:
372,181,132569,5,0,0:0:0:0:
154,115,132710,1,0,0:0:0:0:
155,330,132851,5,0,0:0:0:0:
295,178,132992,1,0,0:0:0:0:
86,195,133133,5,0,0:0:0:0:
295,178,133273,1,0,0:0:0:0:
144,31,133414,5,0,0:0:0:0:
175,241,133555,1,0,0:0:0:0:
295,178,133696,2,0,B|373:152|426:202|426:202|374:255|295:266|295:266|434:407|422:283|422:283|303:354|303:354,1,593.999981872559
237,336,134964,2,0,B|204:257|121:340|99:203,1,197.99999395752
108,54,135386,5,0,0:0:0:0:
205,238,135527,1,0,0:0:0:0:
240,92,135668,5,0,0:0:0:0:
336,281,135809,1,0,0:0:0:0:
361,137,135949,5,0,0:0:0:0:
484,321,136090,1,0,0:0:0:0:
320,193,136231,5,0,0:0:0:0:
247,351,136372,1,0,0:0:0:0:
213,114,136513,5,0,0:0:0:0:
133,278,136654,1,0,0:0:0:0:
41,168,136794,5,0,0:0:0:0:
255,227,136935,1,0,0:0:0:0:
124,94,137076,2,0,B|268:58|389:103|389:103|436:139|408:200|408:200|400:200|400:200|408:208|408:208|400:208|400:208|408:216|408:216|400:216|400:216|408:232|408:232|376:280,1,494.999984893799
272,336,137921,2,0,B|304:272|304:264|296:264|144:248|136:240|144:240|280:176|291:173|280:168|112:142|102:142|103:134|184:32|192:24|200:32|256:32|288:112,1,494.999984893799
418,247,138766,5,0,0:0:0:0:
371,48,138907,1,0,0:0:0:0:
269,209,139048,5,0,0:0:0:0:
462,135,139189,1,0,0:0:0:0:
256,84,139330,5,0,0:0:0:0:
341,282,139471,1,0,0:0:0:0:
126,197,139611,5,0,0:0:0:0:
225,353,139752,1,0,0:0:0:0:
30,268,139893,5,0,0:0:0:0:
236,188,140034,1,0,0:0:0:0:
123,350,140175,5,0,0:0:0:0:
125,141,140316,1,0,0:0:0:0:
208,264,140456,2,0,B|288:296|344:264|344:264|280:192|280:192|360:136|360:136|304:72|208:80,1,494.999984893799
128,208,141302,2,0,B|192:-24|32:8|-40:176|96:208|376:40,1,593.999981872559
360,120,142710,6,0,B|304:120|304:120|296:112|296:112|296:120|296:120|288:112|288:112|288:120|288:120|280:112|280:112|280:120|280:120|272:112|272:112|272:120|272:120|264:112|264:112|264:120|264:120|256:112|256:112|256:120|256:120|248:120|248:120|256:128|256:128|240:128|240:128|248:136|248:136|232:136|232:136|240:144|240:144|224:144|224:144|232:152|232:152|216:152|216:152|224:160|224:160|208:160|208:160|216:168|216:168|200:168|200:168|208:176|208:176|184:176|184:176|176:160|176:160|168:176|168:176|160:160|160:160|152:176|152:176|144:160|144:160|136:176|136:176|128:160|128:160|120:176|120:176|112:160|112:160|104:176|104:176|96:160|96:160|88:176|88:176|80:160|80:160|71:176|71:176|64:160|64:160|56:176|56:176|47:159|47:159|40:176|40:176,1,692.999978851319
80,256,143837,6,0,P|120:304|216:320,1,137.5
126,311,144259,2,0,P|185:324|261:306,1,137.5
178,234,144682,6,0,P|125:190|96:128,1,137.5
123,187,145104,2,0,P|98:123|113:57,1,137.5
237,140,145527,6,0,P|289:183|318:245,1,137.5
291,187,145949,2,0,P|315:250|300:316,1,137.5
228,250,146372,6,0,P|226:182|254:119,1,137.5
227,177,146794,2,0,P|259:117|318:85,1,137.5
339,267,147217,6,0,P|296:320|234:348,1,137.5
292,322,147639,2,0,P|229:347|163:333,1,137.5
173,117,148062,6,0,P|215:63|278:36,1,137.5
220,62,148484,2,0,P|282:36|348:50,1,137.5
288,182,148907,6,0,P|246:236|183:263,1,137.5
241,237,149329,2,0,P|179:263|113:249,1,137.5
251,154,149752,6,0,P|310:120|379:120,1,137.5,0|0,0:3|0:3,0:3:0:0:
315,121,150174,2,0,P|382:121|437:159,1,137.5,0|0,0:3|0:3,0:3:0:0:
441,263,150597,6,0,P|381:296|312:296,1,137.5,0|0,0:3|0:3,0:3:0:0:
377,296,151019,2,0,P|309:295|254:257,1,137.5,0|0,0:3|0:3,0:3:0:0:
127,256,151442,6,0,P|143:189|190:139,1,137.5,0|0,0:3|0:3,0:3:0:0:
146,186,151864,2,0,P|193:136|258:122,1,137.5,0|0,0:3|0:3,0:3:0:0:
384,144,152287,6,0,P|428:196|441:263,1,137.5,0|0,0:3|0:3,0:3:0:0:
429,200,152709,2,0,P|441:267|414:328,1,137.5,0|0,0:3|0:3,0:3:0:0:
277,212,153133,2,0,P|284:152|345:99,1,137.5
338,101,153555,2,0,P|283:126|206:103,1,137.5
108,27,153978,2,0,P|53:135|200:356,1,412.5
81,272,155668,2,0,P|175:348|421:250,1,412.5
346,212,156935,5,0,0:0:0:0:
286,134,157076,2,0,P|251:108|205:98,1,68.75
165,193,157358,2,0,P|279:328|458:316,1,343.75
359,197,158203,2,0,P|366:137|427:84,1,137.5
420,86,158625,2,0,P|365:111|288:88,1,137.5
185,90,159049,2,0,P|128:111|53:83,1,137.5
57,87,159471,2,0,P|104:123|120:202,1,137.5
222,253,159893,2,0,P|278:231|353:259,1,137.5
349,255,160315,2,0,P|302:219|286:140,1,137.5
161,231,160738,6,0,P|288:64|413:51,1,343.75
370,141,161583,2,0,P|324:159|311:187,1,68.75
331,263,161865,2,0,P|283:283|132:250,1,206.25
134,145,162428,2,0,P|152:32|163:151,1,343.75
144,218,163273,2,0,P|126:331|115:212,1,343.75
235,140,164118,6,0,P|292:103|360:100,1,137.5,0|0,0:3|0:3,0:3:0:0:
296,103,164540,2,0,P|364:100|420:135,1,137.5,0|0,0:3|0:3,0:3:0:0:
258,234,164964,6,0,P|190:244|126:221,1,137.5,0|0,0:3|0:3,0:3:0:0:
186,243,165386,2,0,P|122:218|84:164,1,137.5,0|0,0:3|0:3,0:3:0:0:
254,145,165809,6,0,P|319:163|367:211,1,137.5,0|0,0:3|0:3,0:3:0:0:
322,165,166231,2,0,P|369:213|381:279,1,137.5,0|0,0:3|0:3,0:3:0:0:
250,277,166654,2,0,P|87:204|92:46,1,343.75
169,96,167499,2,0,P|290:204|440:139,1,343.75
440,139,168344,2,0,P|279:109|185:241,1,343.75
186,239,169189,2,0,P|156:78|0:31,1,343.75
71,139,170034,2,0,P|126:163|347:29,1,343.75
256,192,170879,12,0,174259,0:0:0:0:
