osu file format v14

[General]
AudioFilename: audio.mp3
AudioLeadIn: 0
PreviewTime: 66946
Countdown: 0
SampleSet: Soft
StackLeniency: 0.7
Mode: 0
LetterboxInBreaks: 0
WidescreenStoryboard: 1

[Editor]
Bookmarks: 22612,67946,68612,87946,89279,137279,157279,158612,169279,179946,190612,198612,219112
DistanceSpacing: 1
BeatDivisor: 16
GridSize: 4
TimelineZoom: 2.799999

[Metadata]
Title:River feat. Ed Sheeran
TitleUnicode:River feat. Ed Sheeran
Artist:Eminem
ArtistUnicode:Eminem
Creator:narakucrimson
Version:Normal
Source:
Tags:english revival hip hop rap
BeatmapID:2130542
BeatmapSetID:770477

[Difficulty]
HPDrainRate:4
CircleSize:3.4
OverallDifficulty:4
ApproachRate:5
SliderMultiplier:1.7
SliderTickRate:1

[Events]
//Background and Video events
0,0,"eminem-kamikaze-review1.jpg",0,0
//Break Periods
2,169280,178613
//Storyboard Layer 0 (Background)
//Storyboard Layer 1 (Fail)
//Storyboard Layer 2 (Pass)
//Storyboard Layer 3 (Foreground)
//Storyboard Layer 4 (Overlay)
//Storyboard Sound Samples

[TimingPoints]
1280,666.666666666667,4,2,0,60,1,0
62535,-100,4,3,0,75,0,0
67785,-100,4,2,0,25,0,0
68118,-100,4,3,0,60,0,0
68613,-100,4,2,0,80,0,1
87946,-100,4,2,0,30,0,0
89280,-100,4,2,0,60,0,0
129202,-100,4,3,0,75,0,0
137035,-100,4,2,0,25,0,0
137946,-100,4,2,0,80,0,1
157280,-100,4,2,0,50,0,0
158613,-100,4,2,0,80,0,1
162946,-100,4,2,0,80,0,0
163946,-100,4,2,0,80,0,1
167613,-100,4,2,0,80,0,0
179946,-100,4,2,0,40,0,0
190613,-100,4,3,0,75,0,0
197280,-100,4,2,0,60,0,0
198613,-111.111111111111,4,2,0,30,0,0

[Colours]
Combo1 : 253,83,53
Combo2 : 77,223,84
Combo3 : 48,151,235
Combo4 : 251,146,51

[HitObjects]
188,292,22613,6,0,L|276:292,1,85,0|0,3:0|0:0,0:0:0:0:
348,252,23280,2,0,P|408:256|460:216,2,127.5,8|2|0,0:0|0:0|3:0,0:0:0:0:
320,220,24446,1,0,0:0:0:0:
292,188,24613,2,0,L|204:208,1,85,8|0,0:0|0:0,0:0:0:0:
156,140,25280,5,4,3:0:0:0:
168,56,25613,1,2,3:0:0:0:
252,52,25946,2,0,P|301:90|363:87,2,127.5,10|2|0,0:0|0:0|3:0,0:0:0:0:
216,28,27113,1,0,0:0:0:0:
172,28,27280,2,0,L|84:48,1,85,8|0,0:0|0:0,0:0:0:0:
28,108,27946,5,4,3:0:0:0:
104,148,28280,1,0,0:0:0:0:
180,188,28613,2,0,L|312:158,2,127.5,8|2|0,0:0|0:0|3:0,0:0:0:0:
138,198,29780,1,0,0:0:0:0:
97,210,29946,2,0,P|89:254|97:294,1,85,8|0,0:0|0:0,0:0:0:0:
152,357,30613,6,0,P|196:365|236:357,1,85,4|0,3:0|0:0,0:0:0:0:
296,300,31280,2,0,L|266:168,1,127.5,8|0,0:0|0:0,0:0:0:0:
260,136,31946,1,2,0:0:0:0:
344,152,32280,1,0,0:0:0:0:
428,168,32613,1,8,0:0:0:0:
512,184,32946,1,0,0:0:0:0:
484,264,33280,5,4,3:0:0:0:
344,164,33946,2,0,L|212:164,1,127.5,8|2,0:0|3:2,0:0:0:0:
264,44,34946,1,0,0:0:0:0:
264,44,35280,2,2,L|352:44,1,85,8|2,3:2|0:0,0:0:0:0:
392,56,35780,1,0,0:0:0:0:
432,68,35946,5,4,3:0:0:0:
466,145,36280,1,2,0:0:0:0:
424,220,36613,2,0,P|375:258|313:255,1,127.5,8|2,0:0|0:0,0:0:0:0:
212,176,37613,1,0,3:0:0:0:
184,256,37946,2,0,L|212:336,1,85,8|2,0:0|0:0,0:0:0:0:
300,336,38613,6,0,L|328:256,1,85,4|2,3:0|0:0,0:0:0:0:
256,208,39280,2,0,P|196:228|136:208,1,127.5,8|2,0:0|3:2,0:0:0:0:
204,100,40280,2,2,L|292:120,1,85,0|8,3:2|0:0,0:0:0:0:
336,188,40946,1,2,0:0:0:0:
336,188,41280,6,0,L|316:276,1,85,4|2,3:0|0:0,0:0:0:0:
256,328,41946,1,8,0:0:0:0:
96,268,42613,1,2,0:0:0:0:
60,192,42946,1,4,3:0:0:0:
96,116,43280,1,8,0:0:0:0:
256,156,43946,6,0,P|320:204|376:200,1,127.5,0|0,1:0|3:2,0:0:0:0:
408,192,44613,1,10,0:0:0:0:
308,96,45113,2,2,L|183:124,1,127.5,2|2,0:0|3:0,0:0:0:0:
140,196,45946,2,2,L|52:216,1,85,8|2,3:2|0:0,0:0:0:0:
8,148,46613,5,4,3:0:0:0:
40,68,46946,2,0,L|132:68,1,85,2|8,3:0|0:0,0:0:0:0:
248,40,47780,2,2,P|268:100|248:160,1,127.5,2|2,0:0|3:2,0:0:0:0:
222,192,48446,1,0,0:0:0:0:
194,224,48613,1,8,0:0:0:0:
242,293,48946,1,0,0:0:0:0:
292,360,49280,5,4,3:0:0:0:
368,320,49613,2,0,L|456:340,2,85,2|8|0,3:2|0:0|0:0,0:0:0:0:
320,252,50613,1,2,0:0:0:0:
244,292,50946,1,0,0:0:0:0:
196,224,51280,2,2,P|176:152|200:108,1,127.5,8|2,0:0|3:2,0:0:0:0:
228,76,51946,1,4,3:0:0:0:
304,116,52280,6,0,L|392:116,2,85,2|8|0,3:2|2:0|3:0,0:0:0:0:
228,156,53280,2,2,L|140:136,1,85,2|4,3:0|3:0,0:0:0:0:
72,180,53946,2,0,L|52:268,1,85,8|2,0:0|0:0,0:0:0:0:
96,336,54613,5,8,3:0:0:0:
264,372,55280,2,0,L|352:352,1,85,8|0,3:2|3:0,0:0:0:0:
432,372,55946,2,0,P|480:328|468:228,1,170,4|8,3:0|0:0,0:0:0:0:
404,288,56946,1,0,3:0:0:0:
324,320,57280,6,0,L|236:300,1,85,4|2,3:0|3:0,0:0:0:0:
224,264,57780,1,0,0:0:0:0:
212,224,57946,1,8,0:0:0:0:
268,160,58280,2,2,L|356:180,2,85,0|2|0,3:0|3:2|0:0,0:0:0:0:
242,78,59280,1,8,0:0:0:0:
298,14,59613,1,2,0:0:0:0:
298,14,59946,1,4,3:0:0:0:
168,124,60613,6,0,L|196:249,2,127.5,8|2|2,0:0|3:0|0:0,0:0:0:0:
228,64,61946,2,0,L|316:84,1,85,8|2,0:0|3:2,0:0:0:0:
384,128,62613,6,4,P|416:160|456:172,1,85,12|6,3:0|3:0,0:0:0:0:
476,252,63280,2,4,P|444:284|432:324,1,85,4|0,3:0|3:0,0:0:0:0:
352,344,63946,2,4,P|320:312|280:300,1,85,8|2,3:0|3:0,0:0:0:0:
200,288,64613,2,4,P|160:274|130:244,1,85,4|0,3:0|3:0,0:0:0:0:
136,160,65280,38,0,L|144:68,2,85,8|4|0,0:0|3:0|0:0,0:0:0:0:
212,196,66280,1,4,0:0:0:0:
288,160,66613,1,4,0:0:0:0:
212,196,67946,5,4,0:0:0:0:
332,316,68613,6,0,L|424:312,1,85,4|2,0:1|0:0,0:0:0:0:
484,260,69280,1,0,3:0:0:0:
492,220,69446,1,0,0:0:0:0:
500,180,69613,1,0,0:0:0:0:
444,116,69946,2,2,P|400:112|364:92,1,85,4|2,0:0|3:0,0:0:0:0:
284,64,70613,6,2,P|240:68|204:88,1,85,4|2,3:0|3:2,0:0:0:0:
136,140,71280,1,4,0:0:0:0:
268,248,71946,1,2,3:2:0:0:
284,332,72280,1,0,0:0:0:0:
204,360,72613,2,0,L|112:356,1,85,4|2,0:0|0:0,0:0:0:0:
56,300,73280,6,0,P|40:224|68:188,1,127.5,4|0,3:0|0:0,0:0:0:0:
100,160,73946,1,4,0:0:0:0:
176,204,74280,2,0,L|268:200,1,85,0|2,3:0|0:0,0:0:0:0:
344,196,74946,1,0,3:0:0:0:
400,260,75280,2,0,L|396:352,1,85,4|2,3:2|0:0,0:0:0:0:
316,368,75946,6,4,P|288:300|296:248,1,127.5,4|0,3:0|3:2,0:0:0:0:
312,208,76613,1,4,0:0:0:0:
432,92,77280,2,0,L|478:94,2,42.5,4|4|4,3:0|3:0|3:0,3:0:0:0:
272,172,78613,6,0,L|180:176,1,85,4|2,3:1|0:0,0:0:0:0:
160,144,79113,1,0,0:0:0:0:
136,108,79280,1,4,0:0:0:0:
188,40,79613,1,0,0:0:0:0:
272,48,79946,2,0,P|312:96|420:104,2,170,2|4|4,3:2|0:0|3:0,0:0:0:0:
196,16,81613,5,0,3:2:0:0:
148,88,81946,2,0,L|56:84,1,85,4|0,3:2|3:0,0:0:0:0:
15,156,82613,1,2,3:2:0:0:
172,216,83280,1,4,3:2:0:0:
256,196,83613,1,0,3:2:0:0:
340,216,83946,6,0,P|344:252|336:312,1,85,4|0,3:0|0:0,0:0:0:0:
304,376,84613,1,6,3:2:0:0:
172,268,85280,2,0,P|168:232|176:172,1,85,2|0,3:2|3:0,0:0:0:0:
256,164,85946,1,4,3:2:0:0:
312,228,86280,1,0,0:0:0:0:
312,228,86613,6,0,L|404:220,1,85,4|2,3:0|3:2,0:0:0:0:
448,152,87280,1,4,0:0:0:0:
404,80,87613,1,0,2:2:0:0:
456,12,87946,1,4,2:2:0:0:
207,87,89280,5,4,3:0:0:0:
216,128,89446,2,0,P|208:188|192:212,1,85
164,236,89946,2,0,L|32:206,2,127.5,8|2|0,0:0|0:0|3:0,0:0:0:0:
244,204,91280,2,0,P|252:160|244:120,1,85,8|2,0:0|0:0,0:0:0:0:
217,88,91780,1,0,0:0:0:0:
184,60,91946,6,0,P|140:52|100:60,1,85,4|2,3:0|0:0,0:0:0:0:
40,120,92613,1,8,0:0:0:0:
60,204,92946,1,0,3:0:0:0:
104,204,93113,1,2,0:0:0:0:
148,204,93280,2,2,P|192:204|228:184,1,85,0|0,3:0|3:0,0:0:0:0:
276,116,93946,1,8,0:0:0:0:
352,156,94280,1,2,0:0:0:0:
400,88,94613,5,12,3:0:0:0:
480,244,95280,2,0,L|450:376,2,127.5,8|2|0,0:0|0:0|3:0,0:0:0:0:
420,184,96613,2,2,L|332:204,1,85,8|2,3:2|0:0,0:0:0:0:
296,212,97113,1,0,0:0:0:0:
256,220,97280,5,4,3:0:0:0:
88,188,97946,2,2,L|68:276,1,85,8|2,3:2|0:0,0:0:0:0:
124,336,98613,2,2,P|163:349|203:336,2,85,2|4|8,3:2|3:0|0:0,0:0:0:0:
164,260,99613,1,2,3:0:0:0:
248,244,99946,6,0,P|300:288|360:292,1,127.5,4|0,3:0|3:2,0:0:0:0:
396,276,100613,1,8,0:0:0:0:
440,204,100946,1,2,0:0:0:0:
396,132,101280,2,0,L|308:152,1,85,2|0,0:2|3:0,0:0:0:0:
272,160,101780,1,0,0:0:0:0:
230,170,101946,1,8,3:2:0:0:
160,120,102280,1,2,0:0:0:0:
76,108,102613,6,0,P|68:152|76:192,1,85,4|2,3:0|3:2,0:0:0:0:
132,256,103280,2,0,B|172:256|172:256|212:232|212:232|252:232,2,127.5,8|2|4,3:2|0:0|3:0,0:0:0:0:
89,251,104446,1,0,0:0:0:0:
46,245,104613,1,8,3:2:0:0:
4,172,104946,1,2,0:0:0:0:
8,88,105280,6,0,P|57:50|119:53,1,127.5,4|0,3:0|3:0,0:0:0:0:
156,72,105946,1,8,0:0:0:0:
240,168,106446,2,2,P|289:206|351:203,1,127.5,2|0,0:0|3:0,0:0:0:0:
424,160,107280,1,8,3:2:0:0:
484,220,107613,1,2,0:0:0:0:
452,300,107946,6,0,L|360:300,1,85,4|2,3:0|0:0,0:0:0:0:
304,240,108613,2,0,L|324:152,1,85,8|0,3:2|3:0,0:0:0:0:
332,116,109113,1,0,0:0:0:0:
340,76,109280,1,2,0:0:0:0:
256,56,109613,1,0,0:0:0:0:
172,76,109946,2,2,L|192:164,1,85,8|2,3:2|3:0,0:0:0:0:
212,240,110613,5,4,3:0:0:0:
336,356,111280,2,0,L|468:326,2,127.5,8|2|0,0:0|0:0|3:0,0:0:0:0:
299,335,112446,1,0,0:0:0:0:
264,310,112613,2,2,P|256:266|264:226,1,85,8|2,3:2|3:2,0:0:0:0:
341,191,113280,6,2,P|382:198|424:190,1,85,4|0,3:0|3:2,0:0:0:0:
449,155,113780,1,0,0:0:0:0:
469,118,113946,1,8,0:0:0:0:
404,64,114280,1,0,0:0:0:0:
332,112,114613,2,0,P|292:134|250:133,1,85,2|4,3:2|3:0,0:0:0:0:
208,208,115280,2,0,P|230:247|229:289,1,85,8|2,3:2|3:0,0:0:0:0:
148,268,115946,6,0,P|128:176|176:128,1,170,4|8,3:0|2:0,0:0:0:0:
256,160,116946,1,0,0:0:0:0:
316,224,117280,2,2,L|296:312,1,85,2|0,2:0|3:0,0:0:0:0:
215,306,117946,2,2,L|195:218,1,85,8|2,2:0|0:0,0:0:0:0:
256,164,118613,6,0,P|336:196|372:186,1,127.5,4|2,3:0|3:2,0:0:0:0:
408,163,119280,1,8,0:0:0:0:
472,108,119613,1,0,0:0:0:0:
500,188,119946,2,0,P|478:228|479:270,1,85,2|4,3:2|3:0,0:0:0:0:
400,300,120613,2,0,P|360:278|318:279,1,85,8|4,3:2|3:0,0:0:0:0:
280,288,121113,1,0,0:0:0:0:
240,300,121280,5,4,3:2:0:0:
212,136,121946,2,0,L|300:156,1,85,8|0,3:2|3:0,0:0:0:0:
376,136,122613,1,2,3:2:0:0:
412,60,122946,1,4,3:0:0:0:
340,16,123280,2,0,P|300:38|258:37,1,85,8|2,3:2|3:0,0:0:0:0:
184,76,123946,6,0,P|160:154|180:192,1,127.5,4|0,3:0|3:2,0:0:0:0:
208,220,124613,1,8,0:0:0:0:
292,208,124946,1,0,0:0:0:0:
248,136,125280,1,2,0:0:0:0:
92,208,125946,1,8,0:0:0:0:
136,280,126280,1,2,0:0:0:0:
200,336,126613,6,0,P|276:344|320:320,1,127.5,4|0,3:2|3:0,0:0:0:0:
348,288,127280,1,8,0:0:0:0:
372,252,127446,1,2,0:0:0:0:
340,172,127780,1,0,0:0:0:0:
300,184,127946,2,0,L|217:202,1,85,2|0,3:2|3:0,0:0:0:0:
160,140,128613,2,2,L|178:57,1,85,8|2,2:0|0:0,0:0:0:0:
256,24,129280,6,4,P|288:56|328:68,1,85,12|6,3:0|3:0,0:0:0:0:
348,148,129946,2,4,P|316:180|304:220,1,85,4|0,3:0|3:0,0:0:0:0:
224,240,130613,2,4,P|192:208|152:196,1,85,8|2,3:0|3:0,0:0:0:0:
132,116,131280,2,4,P|164:84|176:44,1,85,4|0,3:0|3:0,0:0:0:0:
260,52,131946,38,4,L|356:44,1,85,8|2,3:0|3:0,0:0:0:0:
416,92,132613,2,4,P|402:131|372:161,1,85,4|0,3:0|3:0,0:0:0:0:
292,136,133280,2,4,L|148:148,2,127.5,8|2|4,3:0|3:2|0:0,0:0:0:0:
352,196,134613,2,4,P|381:225|421:239,2,85,4|2|4,3:2|3:2|0:0,0:0:0:0:
384,116,135613,1,4,0:0:0:0:
368,32,135946,1,4,0:0:0:0:
151,24,136988,6,0,L|225:20,1,74.375,4|4,2:0|0:0,0:0:0:0:
172,180,137946,6,0,L|80:184,1,85,4|2,0:1|0:0,0:0:0:0:
36,252,138613,1,0,3:0:0:0:
44,292,138780,1,0,0:0:0:0:
52,332,138946,1,0,0:0:0:0:
128,368,139280,2,2,P|172:364|208:344,1,85,4|2,0:0|3:0,0:0:0:0:
248,268,139946,6,2,P|285:248|327:244,1,85,4|2,3:0|3:2,0:0:0:0:
412,256,140613,1,4,0:0:0:0:
488,104,141280,1,2,3:2:0:0:
404,120,141613,1,0,0:0:0:0:
340,68,141946,2,0,L|248:64,1,85,4|2,0:0|0:0,0:0:0:0:
184,112,142613,6,0,P|168:180|196:228,1,127.5,4|0,3:0|0:0,0:0:0:0:
228,256,143280,1,4,0:0:0:0:
304,212,143613,2,0,L|396:216,1,85,0|2,3:0|0:0,0:0:0:0:
436,288,144280,1,0,3:0:0:0:
388,356,144613,2,0,L|296:352,1,85,4|2,3:2|0:0,0:0:0:0:
220,332,145280,6,4,P|200:272|216:212,1,127.5,4|0,3:0|3:2,0:0:0:0:
240,176,145946,1,4,0:0:0:0:
400,124,146613,2,0,L|402:78,2,42.5,4|4|4,3:0|3:0|3:0,3:0:0:0:
244,324,147946,6,0,L|336:328,1,85,4|2,3:1|0:0,0:0:0:0:
356,296,148446,1,0,0:0:0:0:
380,260,148613,1,4,0:0:0:0:
328,192,148946,1,0,0:0:0:0:
244,200,149280,2,0,P|204:248|96:256,2,170,2|4|4,3:2|0:0|3:0,0:0:0:0:
264,116,150946,5,0,3:2:0:0:
332,64,151280,2,0,L|424:60,1,85,4|0,3:2|3:0,0:0:0:0:
444,96,151780,1,0,0:0:0:0:
468,132,151946,1,2,3:2:0:0:
408,192,152280,1,0,0:0:0:0:
328,168,152613,1,4,3:2:0:0:
264,224,152946,1,0,3:2:0:0:
180,244,153280,6,0,L|84:240,1,85,4|0,3:0|0:0,0:0:0:0:
36,180,153946,1,6,3:2:0:0:
172,80,154613,2,0,L|268:84,1,85,2|0,3:2|3:0,0:0:0:0:
336,108,155280,1,4,3:2:0:0:
416,76,155613,1,0,3:0:0:0:
468,144,155946,6,0,L|460:236,1,85,0|2,3:2|3:2,0:0:0:0:
416,300,156613,1,4,0:0:0:0:
340,340,156946,1,0,2:2:0:0:
256,332,157280,1,4,2:2:0:0:
60,56,158613,5,4,3:0:0:0:
60,56,158946,1,4,3:0:0:0:
116,120,159280,2,0,L|200:120,1,85,4|0,0:0|0:0,0:0:0:0:
252,188,159946,1,4,3:0:0:0:
252,188,160280,1,4,3:0:0:0:
308,252,160613,2,0,L|392:252,1,85,4|0,0:0|0:0,0:0:0:0:
404,168,161280,5,4,3:0:0:0:
404,168,161613,1,4,3:0:0:0:
336,116,161946,2,0,P|256:140|212:132,1,127.5,4|4,0:0|3:0,0:0:0:0:
175,115,162613,1,0,0:0:0:0:
216,40,162946,2,0,P|256:54|296:40,2,85,2|2|0,3:0|2:2|0:0,0:0:0:0:
132,44,163946,5,4,3:0:0:0:
100,124,164280,1,0,0:0:0:0:
68,204,164613,2,0,P|104:268|192:268,1,170,4|4,0:0|3:0,0:0:0:0:
256,212,165613,1,4,3:0:0:0:
320,268,165946,2,0,P|401:273|432:244,1,127.5,4|0,0:0|3:2,0:0:0:0:
444,204,166613,5,2,0:0:0:0:
412,124,166946,1,0,3:2:0:0:
464,56,167280,1,4,0:0:0:0:
200,308,179946,5,4,3:0:0:0:
348,224,180613,2,0,L|484:240,2,127.5,8|2|0,0:0|0:0|0:0,0:0:0:0:
308,148,181946,1,8,0:0:0:0:
152,212,182613,6,0,L|144:304,1,85,2|0,0:0|0:0,0:0:0:0:
204,356,183280,2,0,P|272:364|324:340,2,127.5,8|2|0,0:0|3:2|3:0,0:0:0:0:
144,296,184613,2,0,L|52:304,1,85,10|0,0:0|0:0,0:0:0:0:
32,272,185113,1,0,0:0:0:0:
4,240,185280,5,4,3:0:0:0:
116,112,185946,2,0,P|152:128|196:124,1,85,8|0,0:0|0:0,0:0:0:0:
276,92,186613,2,0,P|317:87|356:103,1,85,2|0,0:0|3:0,0:0:0:0:
412,168,187280,1,8,0:0:0:0:
336,208,187613,1,0,0:0:0:0:
256,240,187946,5,2,0:0:0:0:
196,180,188280,2,0,L|212:92,1,85,0|8,0:0|0:0,0:0:0:0:
292,68,188946,2,0,L|360:125,1,85,0|2,0:0|0:0,0:0:0:0:
420,180,189613,1,0,0:0:0:0:
372,252,189946,2,0,P|356:288|360:332,1,85,8|2,0:0|0:0,0:0:0:0:
440,304,190613,5,4,0:0:0:0:
492,240,190946,1,0,0:0:0:0:
476,200,191113,1,0,0:0:0:0:
456,164,191280,2,0,L|368:172,1,85,4|2,3:0|3:2,0:0:0:0:
316,236,191946,2,0,L|228:228,1,85,4|2,3:0|3:2,0:0:0:0:
196,204,192446,1,0,0:0:0:0:
164,176,192613,1,4,3:0:0:0:
80,184,192946,1,2,3:2:0:0:
32,112,193280,6,4,P|68:60|128:44,1,127.5,4|2,3:0|3:2,0:0:0:0:
168,48,193946,1,4,3:0:0:0:
232,104,194280,1,2,3:2:0:0:
292,164,194613,2,0,L|284:252,1,85,4|2,3:0|3:2,0:0:0:0:
336,320,195280,2,0,L|424:328,1,85,4|2,3:0|3:2,0:0:0:0:
448,296,195780,1,0,0:0:0:0:
472,260,195946,5,4,3:0:0:0:
420,192,196280,2,2,P|381:208|339:203,1,85,2|2,3:0|3:2,0:2:0:0:
268,156,196946,1,0,3:0:0:0:
244,120,197112,1,0,0:0:0:0:
220,84,197280,37,4,3:0:0:0:
136,80,197613,1,0,0:0:0:0:
92,152,197946,2,2,P|87:193|103:232,1,85,2|0,0:0|0:2,0:2:0:0:
184,252,198613,38,0,L|336:244,1,152.999995330811,4|2,0:0|0:0,0:0:0:0:
420,116,199946,1,2,0:0:0:0:
488,252,200613,2,2,L|480:332,1,76.4999976654053,2|0,0:0|0:0,0:0:0:0:
416,368,201280,6,2,P|368:384|280:332,1,152.999995330811
224,196,202613,1,2,0:0:0:0:
364,132,203280,2,2,L|444:124,1,76.4999976654053,2|0,0:0|0:0,0:0:0:0:
452,48,203946,6,2,L|300:32,1,152.999995330811,4|2,0:0|0:0,0:0:0:0:
236,76,204946,1,0,0:0:0:0:
164,104,205280,2,2,L|156:184,1,76.4999976654053,2|0,0:0|0:0,0:0:0:0:
148,256,205946,1,2,0:0:0:0:
272,344,206613,6,2,P|308:344|344:328,1,76.4999976654053,2|0,0:0|0:0,0:0:0:0:
400,276,207280,2,2,P|418:244|422:205,1,76.4999976654053,2|0,0:0|0:0,0:0:0:0:
420,128,207946,1,2,0:0:0:0:
276,176,208613,1,2,0:0:0:0:
200,32,209280,6,0,P|256:44|312:32,2,114.749996498108,2|2|0,0:0|0:0|0:0,0:0:0:0:
128,8,210613,1,2,0:0:0:0:
56,144,211280,2,2,L|64:224,1,76.4999976654053,2|0,0:0|0:0,0:0:0:0:
128,264,211946,6,0,L|242:258,2,114.749996498108,2|2|0,0:0|0:0|0:0,0:0:0:0:
60,300,213280,1,2,0:0:0:0:
200,364,213946,1,2,0:0:0:0:
276,352,214280,1,0,0:0:0:0:
352,336,214613,6,0,L|364:212,1,124.312496206284,4|2,0:0|0:0,0:0:0:0:
344,136,215488,2,0,P|284:136|244:116,1,105.187496789932,0|2,0:0|0:0,0:0:0:0:
174,85,216280,1,0,0:0:0:0:
136,152,216613,2,2,P|151:186|152:224,1,76.4999976654053,2|0,0:0|0:0,0:0:0:0:
147,301,217280,6,0,P|210:344|364:322,1,239.062492704392,4|2,0:0|0:0,0:0:0:0:
363,178,218946,5,0,0:0:0:0:
431,218,219280,2,0,L|515:210,1,76.4999976654053,4|2,0:0|0:0,0:0:0:0:
