osu file format v14

[General]
AudioFilename: audio.mp3
AudioLeadIn: 0
PreviewTime: 66946
Countdown: 0
SampleSet: Soft
StackLeniency: 0.7
Mode: 0
LetterboxInBreaks: 0
WidescreenStoryboard: 0

[Editor]
Bookmarks: 22612,67946,68612,87946,89279,132612,137279,157279,158612,169279,179946,190612,198612,219112,219196
DistanceSpacing: 1.1
BeatDivisor: 16
GridSize: 4
TimelineZoom: 2.2

[Metadata]
Title:River feat. Ed Sheeran
TitleUnicode:River feat. Ed Sheeran
Artist:Eminem
ArtistUnicode:Eminem
Creator:narakucrimson
Version:Insane
Source:
Tags:english revival hip hop rap
BeatmapID:1619884
BeatmapSetID:770477

[Difficulty]
HPDrainRate:6.5
CircleSize:4.1
OverallDifficulty:8
ApproachRate:8.9
SliderMultiplier:3
SliderTickRate:1

[Events]
//Background and Video events
0,0,"eminem-kamikaze-review1.jpg",0,0
//Break Periods
2,169280,178613
//Storyboard Layer 0 (Background)
//Storyboard Layer 1 (Fail)
//Storyboard Layer 2 (Pass)
//Storyboard Layer 3 (Foreground)
//Storyboard Layer 4 (Overlay)
//Storyboard Sound Samples

[TimingPoints]
1280,666.666666666667,4,2,0,60,1,0
62535,-100,4,3,0,75,0,0
67868,-200,4,2,0,25,0,0
68035,-200,4,2,0,60,0,0
68613,-100,4,2,0,80,0,1
87946,-100,4,2,0,30,0,0
89285,-100,4,2,0,60,0,0
129202,-100,4,3,0,75,0,0
136868,-100,4,3,0,60,0,0
137035,-200,4,3,0,60,0,0
137202,-200,4,3,0,25,0,0
137368,-200,4,3,0,60,0,0
137946,-100,4,2,0,80,0,1
157280,-100,4,2,0,50,0,0
158613,-100,4,2,0,80,0,1
162946,-100,4,2,0,80,0,0
163946,-100,4,2,0,80,0,1
167613,-100,4,2,0,80,0,0
179946,-125,4,2,0,40,0,0
190613,-100,4,3,0,75,0,0
197280,-125,4,2,0,60,0,0
198613,-142.857142857143,4,2,0,30,0,0

[Colours]
Combo1 : 253,83,53
Combo2 : 77,223,84
Combo3 : 48,151,235
Combo4 : 251,146,51

[HitObjects]
368,36,22613,6,0,L|296:64,1,75,0|0,3:0|0:0,0:0:0:0:
213,63,22946,2,0,L|144:36,1,75,0|0,3:0|0:0,0:0:0:0:
80,88,23280,1,8,0:0:0:0:
24,148,23446,1,0,0:0:0:0:
56,224,23613,1,0,0:0:0:0:
56,224,23780,2,2,B|104:224|104:224|144:256|144:256|196:256,1,150,2|0,3:2|0:0,0:0:0:0:
256,200,24280,2,0,L|332:200,1,75,4|0,3:0|0:0,0:0:0:0:
472,324,24613,2,0,L|397:324,1,75,8|0,0:0|0:0,0:0:0:0:
324,280,24946,1,0,0:0:0:0:
256,324,25113,1,2,3:0:0:0:
246,326,25196,1,2,3:0:0:0:
236,328,25280,5,4,3:0:0:0:
196,256,25446,1,0,0:0:0:0:
232,180,25613,2,2,L|301:207,1,75,2|0,3:0|0:0,0:0:0:0:
460,104,25946,2,2,L|390:131,1,75,8|0,3:2|0:0,0:0:0:0:
312,104,26280,1,0,0:0:0:0:
136,40,26446,2,2,P|104:92|136:168,1,150,2|0,3:2|0:0,0:0:0:0:
212,200,26946,1,0,0:0:0:0:
289,171,27113,1,0,0:0:0:0:
200,336,27280,2,2,L|130:309,1,75,8|0,3:2|0:0,0:0:0:0:
100,232,27613,1,0,0:0:0:0:
128,156,27780,1,2,3:0:0:0:
138,154,27863,1,2,3:0:0:0:
148,152,27946,5,4,3:0:0:0:
224,184,28113,1,0,0:0:0:0:
320,251,28280,2,0,L|395:251,1,75,2|0,3:0|0:0,0:0:0:0:
212,308,28613,2,0,L|136:308,1,75,8|0,0:0|0:0,0:0:0:0:
76,252,28946,1,0,0:0:0:0:
192,156,29113,2,2,P|244:188|320:156,1,150,2|0,3:2|0:0,0:0:0:0:
380,96,29613,1,0,0:0:0:0:
457,67,29780,1,0,0:0:0:0:
512,208,29946,1,8,0:0:0:0:
435,237,30113,1,0,0:0:0:0:
356,208,30280,1,0,0:0:0:0:
280,240,30446,1,2,3:0:0:0:
270,238,30530,1,2,3:0:0:0:
260,236,30613,5,4,3:0:0:0:
220,164,30780,1,0,0:0:0:0:
360,112,30946,2,2,L|429:139,1,75,2|0,3:0|0:0,0:0:0:0:
256,68,31280,2,2,L|187:41,1,75,8|0,0:0|0:0,0:0:0:0:
112,76,31613,1,0,0:0:0:0:
124,156,31780,1,0,0:0:0:0:
264,212,31946,2,0,B|336:184,1,75,2|0,3:2|0:0,0:0:0:0:
412,156,32280,1,0,3:0:0:0:
376,340,32613,2,0,B|304:364,1,75,8|0,0:0|0:0,0:0:0:0:
216,312,32946,1,2,0:0:0:0:
112,312,33113,1,2,3:0:0:0:
102,314,33196,1,0,3:0:0:0:
92,316,33280,5,4,3:0:0:0:
44,248,33446,1,0,0:0:0:0:
92,180,33613,1,0,3:0:0:0:
140,112,33780,1,0,3:0:0:0:
220,140,33946,2,2,L|289:167,1,75,8|0,0:0|0:0,0:0:0:0:
288,320,34280,2,2,L|219:293,1,75,2|0,3:2|0:0,0:0:0:0:
84,228,34613,2,2,L|153:201,1,75,2|0,3:0|0:0,0:0:0:0:
220,152,34946,1,0,0:0:0:0:
268,84,35113,1,2,0:0:0:0:
384,232,35280,2,2,P|455:242|504:189,1,150,8|0,3:2|0:0,0:0:0:0:
452,128,35780,1,2,3:0:0:0:
442,130,35863,1,2,3:0:0:0:
432,132,35946,5,6,3:0:0:0:
352,108,36113,1,0,0:0:0:0:
276,136,36280,2,0,L|200:136,1,75,2|0,3:0|0:0,0:0:0:0:
252,280,36613,2,0,L|328:280,1,75,8|0,0:0|0:0,0:0:0:0:
468,216,36946,1,0,3:0:0:0:
458,218,37030,1,0,3:0:0:0:
448,220,37113,1,2,0:0:0:0:
247,152,37446,2,2,P|319:142|368:196,1,150,8|0,3:2|0:0,0:0:0:0:
360,280,37946,2,2,L|291:307,1,75,8|0,0:0|0:0,0:0:0:0:
168,216,38280,2,2,L|99:243,1,75,2|0,3:2|0:0,0:0:0:0:
0,92,38613,6,2,L|69:119,1,75,4|0,3:0|0:0,0:0:0:0:
144,80,38946,1,0,3:0:0:0:
216,40,39113,1,0,0:0:0:0:
356,96,39280,2,2,L|425:123,1,75,8|0,0:0|0:0,0:0:0:0:
504,152,39613,1,2,0:0:0:0:
432,284,39780,2,2,L|363:311,1,75,8|0,0:0|0:0,0:0:0:0:
284,288,40113,1,2,0:0:0:0:
272,208,40280,1,0,3:0:0:0:
260,128,40446,1,0,0:0:0:0:
112,108,40613,1,8,0:0:0:0:
124,188,40780,1,0,3:0:0:0:
136,268,40946,1,2,0:0:0:0:
124,348,41113,1,2,3:0:0:0:
114,350,41196,1,2,3:0:0:0:
104,352,41280,5,4,3:0:0:0:
24,328,41446,1,0,0:0:0:0:
136,268,41613,2,2,L|206:295,1,75,2|0,3:0|0:0,0:0:0:0:
284,268,41946,1,8,0:0:0:0:
204,144,42280,2,2,L|124:144,1,75,2|0,3:2|0:0,0:0:0:0:
308,96,42613,2,2,L|388:96,1,75,2|0,3:2|0:0,0:0:0:0:
452,144,42946,1,0,3:0:0:0:
440,224,43113,1,0,3:0:0:0:
428,304,43280,1,8,0:0:0:0:
404,312,43946,5,0,1:0:0:0:
416,232,44113,1,0,3:0:0:0:
404,152,44280,1,2,3:0:0:0:
416,72,44446,1,0,3:0:0:0:
268,40,44613,1,8,3:2:0:0:
268,40,44780,2,2,L|192:40,1,75,0|0,3:0|0:0,0:0:0:0:
12,112,45113,2,2,B|62:112|62:112|102:144|102:144|150:144,1,150,2|0,3:2|0:0,0:0:0:0:
224,184,45613,2,2,L|294:157,1,75,2|0,3:0|0:0,0:0:0:0:
184,260,45946,2,2,L|114:287,1,75,8|0,3:2|0:0,0:0:0:0:
16,192,46280,1,2,0:0:0:0:
56,120,46446,1,2,3:0:0:0:
66,122,46530,1,2,3:0:0:0:
76,124,46613,5,4,3:0:0:0:
156,140,46780,1,0,0:0:0:0:
328,64,46946,2,2,L|252:64,1,75,2|0,3:0|0:0,0:0:0:0:
220,248,47280,2,0,L|296:248,1,75,8|0,0:2|0:0,0:0:0:0:
372,220,47613,1,0,0:0:0:0:
512,308,47780,2,2,P|462:360|391:350,1,150,2|0,0:2|3:0,0:0:0:0:
416,248,48280,1,0,0:0:0:0:
308,216,48446,1,0,3:0:0:0:
298,218,48530,1,0,3:0:0:0:
288,220,48613,1,8,0:0:0:0:
200,152,48780,1,0,3:0:0:0:
96,188,48946,2,2,L|26:215,1,75,0|2,3:0|3:2,0:0:0:0:
108,356,49280,6,2,L|178:329,1,75,8|0,3:0|0:0,0:0:0:0:
256,300,49613,1,2,3:2:0:0:
336,328,49780,1,0,0:0:0:0:
488,268,49946,2,2,L|488:192,1,75,8|0,0:0|0:0,0:0:0:0:
412,164,50280,2,2,P|360:196|284:164,1,150,2|0,3:2|0:0,0:0:0:0:
140,80,50780,2,2,P|204:47|269:80,1,150,2|0,3:2|0:0,0:0:0:0:
205,132,51280,1,8,0:0:0:0:
141,184,51446,1,0,0:0:0:0:
77,236,51613,1,2,0:0:0:0:
141,288,51780,1,2,3:0:0:0:
151,290,51863,1,2,3:0:0:0:
161,292,51946,5,4,3:0:0:0:
240,308,52113,1,0,0:0:0:0:
372,200,52280,2,2,L|302:227,1,75,2|0,3:0|0:0,0:0:0:0:
140,128,52613,2,2,L|210:155,1,75,8|0,3:2|0:0,0:0:0:0:
288,128,52946,1,2,0:0:0:0:
364,96,53113,1,0,0:0:0:0:
480,196,53280,2,0,L|410:223,1,75,2|0,3:3|3:3,3:3:0:0:
332,192,53613,1,2,0:0:0:0:
256,160,53780,1,0,3:0:0:0:
180,288,53946,1,8,0:0:0:0:
256,320,54113,1,0,3:0:0:0:
332,288,54280,1,2,0:0:0:0:
452,192,54613,5,4,3:0:0:0:
452,192,54946,2,0,L|372:192,1,75,2|0,0:0|0:0,0:0:0:0:
277,106,55280,2,0,L|197:106,1,75,8|0,3:2|0:0,0:0:0:0:
124,136,55613,1,0,0:0:0:0:
156,212,55780,1,0,0:0:0:0:
124,288,55946,2,2,P|52:298|2:246,1,150,2|0,0:2|3:0,0:0:0:0:
80,220,56446,1,0,0:0:0:0:
248,264,56613,2,2,L|328:264,1,75,8|0,3:2|0:0,0:0:0:0:
360,192,56946,1,2,0:0:0:0:
323,120,57113,1,2,3:0:0:0:
313,118,57196,1,2,3:0:0:0:
303,116,57280,5,4,3:0:0:0:
224,92,57446,1,0,0:0:0:0:
148,124,57613,1,2,3:0:0:0:
256,248,57780,1,0,0:0:0:0:
332,216,57946,2,2,B|382:216|382:216|422:248|422:248|470:248,1,150,8|0,3:2|0:0,0:0:0:0:
508,176,58446,1,0,0:0:0:0:
468,104,58613,2,0,L|398:131,1,75,2|0,3:2|0:0,0:0:0:0:
320,100,58946,1,0,3:0:0:0:
244,68,59113,1,0,0:0:0:0:
92,140,59280,2,2,L|92:216,1,75,8|0,0:0|0:0,0:0:0:0:
168,252,59613,1,2,0:0:0:0:
244,216,59780,1,2,3:0:0:0:
254,218,59863,1,2,3:0:0:0:
264,220,59946,5,4,3:0:0:0:
344,236,60113,1,0,0:0:0:0:
368,316,60280,2,0,L|296:344,1,75,2|0,3:0|0:0,0:0:0:0:
160,272,60613,2,0,L|91:299,1,75,8|0,0:0|0:0,0:0:0:0:
58,223,60946,1,0,0:0:0:0:
90,147,61113,1,2,3:2:0:0:
220,184,61280,1,0,0:0:0:0:
252,108,61446,1,2,3:2:0:0:
388,28,61780,1,0,3:2:0:0:
420,104,61946,2,0,L|500:104,1,75,8|0,0:0|0:0,0:0:0:0:
460,248,62280,2,0,L|380:248,1,75,2|0,3:2|0:0,0:0:0:0:
156,332,62613,6,0,B|231:332,1,75,4|0,3:0|0:0,0:0:0:0:
168,204,62946,2,0,B|93:204,1,75,4|0,3:0|0:0,0:0:0:0:
344,180,63280,2,0,B|419:180,1,75,4|0,3:0|0:0,0:0:0:0:
356,52,63613,2,0,B|281:52,1,75,4|0,3:0|0:0,0:0:0:0:
79,173,63946,2,0,L|149:146,1,75,4|0,3:0|0:0,0:0:0:0:
211,301,64280,2,0,L|142:329,1,75,4|0,3:0|0:0,0:0:0:0:
364,240,64613,2,0,L|433:212,1,75,4|0,3:0|0:0,0:0:0:0:
371,57,64946,2,0,L|301:84,1,75,4|0,3:0|0:0,0:0:0:0:
100,268,65280,38,0,L|169:295,1,75,4|0,3:0|0:0,0:0:0:0:
412,268,65613,2,0,L|342:296,1,75,4|0,3:0|0:0,0:0:0:0:
176,192,65946,1,4,0:0:0:0:
256,192,66280,1,4,0:0:0:0:
336,192,66613,1,4,0:0:0:0:
216,316,67946,6,0,L|140:316,1,75,4|0,0:0|0:0,0:0:0:0:
40,200,68613,6,0,P|56:172|164:164,1,150,4|2,0:1|0:0,0:0:0:0:
236,200,69113,1,0,3:0:0:0:
316,184,69280,1,0,0:0:0:0:
396,168,69446,1,0,3:0:0:0:
476,148,69613,2,0,L|484:72,1,75
336,12,69946,1,4,1:2:0:0:
336,12,70280,2,0,L|344:88,1,75,2|0,3:0|0:0,0:0:0:0:
196,136,70613,6,0,L|188:60,2,75,4|0|2,3:0|0:0|0:0,0:0:0:0:
216,216,71113,1,0,0:0:0:0:
196,296,71280,1,4,3:2:0:0:
32,292,71613,1,0,0:0:0:0:
12,212,71780,1,0,3:2:0:0:
32,132,71946,1,2,3:2:0:0:
200,64,72280,2,0,L|274:71,1,75
436,16,72613,1,6,0:0:0:0:
472,216,72946,2,0,L|397:223,1,75,0|0,3:0|3:0,0:0:0:0:
228,116,73280,6,2,P|299:104|363:144,1,150,4|0,3:0|0:0,0:0:0:0:
412,216,73780,1,0,3:0:0:0:
392,296,73946,2,0,L|318:304,1,75,4|0,3:2|0:0,0:0:0:0:
208,200,74280,2,0,L|282:208,1,75,0|0,3:2|0:0,0:0:0:0:
408,124,74613,1,2,0:0:0:0:
256,36,74946,1,0,3:0:0:0:
104,124,75280,2,0,L|112:200,1,75,4|0,0:0|0:0,0:0:0:0:
252,256,75613,2,0,L|259:181,1,75,2|0,0:0|0:0,0:0:0:0:
428,168,75946,6,0,L|420:242,1,75,4|0,3:0|0:0,0:0:0:0:
264,372,76280,2,0,L|189:364,1,75,2|0,3:2|0:0,0:0:0:0:
148,240,76613,2,0,L|222:248,1,75,4|0,3:2|0:0,0:0:0:0:
308,173,76946,2,0,L|316:99,1,75,2|0,3:2|3:0,0:0:0:0:
96,48,77280,1,4,3:3:0:0:
231,174,77446,1,4,3:0:0:0:
52,228,77613,1,8,3:0:0:0:
128,288,78613,6,0,L|203:295,1,75,4|0,3:1|0:0,0:0:0:0:
236,164,78946,2,0,L|162:156,1,75,2|0,3:2|0:0,0:0:0:0:
320,88,79280,1,4,0:0:0:0:
400,72,79446,1,0,0:0:0:0:
428,204,79613,1,0,3:0:0:0:
348,188,79780,1,0,0:0:0:0:
228,252,79946,2,2,P|168:296|96:288,1,150,2|0,3:2|0:0,0:0:0:0:
44,216,80446,1,0,0:0:0:0:
48,128,80613,2,0,P|108:84|180:92,1,150,4|0,3:2|0:0,0:0:0:0:
268,288,81113,1,0,3:0:0:0:
272,296,81196,1,0,3:0:0:0:
276,304,81280,6,0,L|202:296,1,75,4|0,3:0|0:0,0:0:0:0:
156,228,81613,1,2,0:0:0:0:
176,148,81780,1,0,3:2:0:0:
44,84,81946,2,0,L|52:158,1,75,4|0,3:2|0:0,0:0:0:0:
192,156,82280,2,0,L|200:82,1,75,2|0,2:2|3:0,0:0:0:0:
201,82,82613,1,2,3:2:0:0:
409,22,82946,1,0,3:2:0:0:
261,290,83280,1,4,3:2:0:0:
469,230,83613,1,0,3:2:0:0:
336,216,83780,1,0,3:0:0:0:
326,218,83863,1,0,3:0:0:0:
316,220,83946,5,4,3:0:0:0:
236,204,84113,1,0,0:0:0:0:
156,180,84280,2,0,L|82:187,1,75,2|0,3:2|0:0,0:0:0:0:
176,32,84613,1,4,0:0:0:0:
176,32,84946,2,0,L|250:25,1,75,0|0,3:2|0:0,0:0:0:0:
308,84,85280,1,2,0:0:0:0:
288,164,85446,1,0,3:2:0:0:
308,244,85613,1,0,3:0:0:0:
168,332,85946,2,0,L|94:325,1,75,4|0,3:2|0:0,0:0:0:0:
40,260,86280,1,2,0:0:0:0:
72,184,86446,1,0,3:0:0:0:
82,186,86530,1,0,3:0:0:0:
92,188,86613,5,4,3:0:0:0:
336,232,86946,1,2,0:0:0:0:
256,260,87113,1,0,3:2:0:0:
176,232,87280,1,4,0:0:0:0:
256,72,87613,1,0,2:2:0:0:
256,72,87946,1,4,2:2:0:0:
256,20,89280,5,10,3:3:0:0:
196,156,89446,1,0,0:0:0:0:
196,156,89780,1,0,0:0:0:0:
268,196,89946,2,2,L|337:169,1,75,8|0,0:0|0:0,0:0:0:0:
436,264,90280,2,2,L|367:291,2,75,2|0|2,0:0|0:0|0:0,0:0:0:0:
496,128,90780,1,2,3:3:0:0:
366,25,91113,1,0,0:0:0:0:
294,65,91280,2,0,L|218:65,1,75,8|0,0:0|0:0,0:0:0:0:
146,25,91613,1,2,0:0:0:0:
90,85,91780,1,0,0:0:0:0:
204,196,91946,5,4,3:0:0:0:
260,136,92113,1,0,0:0:0:0:
416,196,92446,1,2,3:0:0:0:
416,196,92613,2,0,L|416:272,1,75,8|0,0:0|0:0,0:0:0:0:
268,300,92946,1,0,0:0:0:0:
268,300,93113,2,2,L|268:224,1,75,2|0,3:0|0:0,0:0:0:0:
328,124,93446,2,2,P|400:134|449:80,1,150,2|0,3:0|0:0,0:0:0:0:
372,56,93946,1,8,0:0:0:0:
256,108,94113,1,0,0:0:0:0:
140,56,94280,1,2,0:0:0:0:
24,108,94613,5,12,3:0:0:0:
128,236,94946,2,0,L|197:209,1,75,0|0,3:0|0:0,0:0:0:0:
256,348,95280,2,0,L|187:375,1,75,8|0,0:0|0:0,0:0:0:0:
106,363,95613,1,0,3:0:0:0:
26,351,95780,1,2,3:0:0:0:
0,220,95946,1,0,0:0:0:0:
80,232,96113,1,0,0:0:0:0:
160,244,96280,1,0,3:0:0:0:
344,172,96613,2,0,L|269:172,1,75,8|0,3:2|0:0,0:0:0:0:
184,76,96946,1,2,0:0:0:0:
309,50,97113,1,2,3:0:0:0:
319,52,97196,1,2,3:0:0:0:
329,54,97280,5,4,3:0:0:0:
288,192,97613,2,0,L|213:192,1,75,0|0,3:0|0:0,0:0:0:0:
356,264,97946,2,0,L|431:264,1,75,8|2,0:0|3:0,0:0:0:0:
492,208,98280,1,0,0:0:0:0:
480,128,98446,1,0,3:2:0:0:
324,88,98613,2,0,L|255:115,1,75,2|0,3:2|0:0,0:0:0:0:
256,200,98946,2,0,L|325:227,1,75,8|0,3:0|3:0,0:0:0:0:
256,384,99280,2,2,L|187:357,1,75,8|0,3:2|0:0,0:0:0:0:
204,276,99613,1,2,3:0:0:0:
214,274,99696,1,2,3:0:0:0:
224,272,99780,1,0,3:0:0:0:
288,216,99946,6,0,L|288:140,1,75,4|0,3:0|0:0,0:0:0:0:
184,109,100280,2,2,L|184:185,1,75,2|0,3:0|0:0,0:0:0:0:
108,212,100613,1,8,0:0:0:0:
28,188,100780,1,0,3:2:0:0:
28,44,100946,1,2,3:2:0:0:
108,20,101113,1,0,3:0:0:0:
184,48,101280,2,2,L|253:21,1,75,2|0,3:2|0:0,0:0:0:0:
333,44,101613,2,2,L|402:17,1,75,0|0,3:2|0:0,0:0:0:0:
500,156,101946,2,2,B|450:156|450:156|410:124|410:124|362:124,1,150,8|0,3:2|0:0,0:0:0:0:
337,204,102446,1,6,3:0:0:0:
436,284,102613,6,2,L|361:284,1,75,4|0,3:0|3:2,3:2:0:0:
192,340,102946,2,2,L|116:340,1,75,2|0,3:0|0:0,0:0:0:0:
52,176,103280,2,2,L|128:176,1,75,8|0,3:2|0:0,0:0:0:0:
256,228,103613,1,0,0:0:0:0:
385,176,103780,2,2,P|417:124|385:48,1,150,2|0,3:2|0:0,0:0:0:0:
236,56,104280,2,0,L|305:83,1,75,0|0,3:2|0:0,0:0:0:0:
412,212,104613,2,2,L|343:239,1,75,8|0,3:2|0:0,0:0:0:0:
208,132,104946,2,2,L|277:159,1,75,2|0,3:2|0:0,0:0:0:0:
124,100,105280,5,4,3:0:0:0:
42,115,105446,1,0,3:0:0:0:
72,268,105613,1,2,3:2:0:0:
154,253,105780,1,0,3:0:0:0:
236,238,105946,2,2,L|305:265,1,75,8|0,3:2|0:0,0:0:0:0:
320,108,106280,2,0,P|249:92|196:141,1,150,2|0,3:2|0:0,0:0:0:0:
236,296,106780,2,2,P|306:311|360:263,1,150,2|0,3:0|0:0,0:0:0:0:
300,204,107280,1,8,3:2:0:0:
218,189,107446,1,0,3:0:0:0:
224,64,107613,1,2,3:2:0:0:
306,79,107780,1,2,3:0:0:0:
316,77,107863,1,2,3:0:0:0:
326,75,107946,5,4,3:0:0:0:
380,140,108113,1,0,3:0:0:0:
436,204,108280,2,2,L|512:204,1,75,2|0,3:2|0:0,0:0:0:0:
436,336,108613,2,2,B|386:336|386:336|346:304|346:304|298:304,1,150,8|0,3:2|0:0,0:0:0:0:
221,336,109113,1,0,3:2:0:0:
68,232,109280,2,2,L|137:205,1,75,2|0,3:2|0:0,0:0:0:0:
204,252,109613,1,0,3:2:0:0:
204,252,109780,1,0,0:0:0:0:
368,128,109946,2,2,L|299:155,1,75,8|0,3:2|0:0,0:0:0:0:
232,108,110280,1,2,0:0:0:0:
164,60,110446,1,2,3:0:0:0:
154,62,110530,1,2,3:0:0:0:
144,64,110613,5,4,3:0:0:0:
84,120,110780,1,0,3:0:0:0:
24,176,110946,2,0,L|24:252,1,75,2|0,3:0|0:0,0:0:0:0:
184,216,111280,2,0,L|184:140,1,75,8|0,3:2|0:0,0:0:0:0:
256,100,111613,1,0,0:0:0:0:
324,144,111780,1,2,3:2:0:0:
392,100,111946,2,0,L|392:24,2,75,0|0|4,3:2|0:0|3:0,0:0:0:0:
228,124,112613,1,8,0:0:0:0:
240,44,112780,1,0,0:0:0:0:
72,24,112946,2,2,P|57:94|105:148,1,150,2|2,3:2|3:2,0:0:0:0:
268,112,113446,1,4,3:0:0:0:
268,112,113780,5,0,3:0:0:0:
348,256,113946,2,2,L|279:283,1,75,8|0,3:2|0:0,0:0:0:0:
196,264,114280,1,0,3:0:0:0:
172,184,114446,1,0,3:0:0:0:
36,220,114613,1,2,3:2:0:0:
60,300,114780,1,0,3:2:0:0:
140,324,114946,1,4,3:0:0:0:
280,240,115280,1,8,0:2:0:0:
304,160,115446,1,0,3:0:0:0:
328,80,115613,1,2,0:2:0:0:
252,44,115780,1,2,3:0:0:0:
242,46,115863,1,2,3:0:0:0:
232,48,115946,5,4,3:0:0:0:
152,24,116113,1,0,0:0:0:0:
72,52,116280,2,0,L|72:128,1,75,2|0,0:0|0:0,0:0:0:0:
220,156,116613,2,0,L|220:80,1,75,8|0,0:0|0:0,0:0:0:0:
280,24,116946,1,2,0:0:0:0:
360,48,117113,1,0,3:2:0:0:
440,72,117280,2,0,L|509:45,1,75,2|0,3:0|0:0,0:0:0:0:
504,152,117613,2,0,L|435:179,1,75,4|0,3:0|0:0,0:0:0:0:
320,92,117946,2,2,B|270:92|270:92|230:124|230:124|182:124,1,150,8|2,3:2|0:0,0:0:0:0:
60,160,118446,1,2,3:0:0:0:
50,162,118530,1,2,3:0:0:0:
40,164,118613,5,4,3:0:0:0:
12,244,118780,1,4,0:3:0:0:
144,316,118946,1,2,0:0:0:0:
173,237,119113,1,0,0:0:0:0:
204,160,119280,2,0,L|280:160,1,75,8|0,3:2|0:0,0:0:0:0:
360,304,119613,2,2,L|284:304,1,75,2|0,3:0|0:0,0:0:0:0:
148,224,119946,2,0,L|79:251,1,75,2|0,0:2|0:0,0:0:0:0:
40,176,120280,1,0,3:0:0:0:
79,101,120446,1,0,3:0:0:0:
118,26,120613,1,8,3:0:0:0:
268,56,120780,1,2,3:2:0:0:
238,206,120946,2,0,L|314:206,1,75,2|0,3:2|0:0,0:0:0:0:
512,64,121280,6,0,L|432:64,1,75,4|0,3:2|3:0,0:0:0:0:
388,132,121613,1,2,0:0:0:0:
437,200,121780,1,2,3:0:0:0:
308,280,121946,1,8,0:0:0:0:
357,348,122113,1,4,3:0:0:0:
140,248,122446,1,0,3:0:0:0:
140,248,122613,2,0,L|215:248,1,75,4|0,3:0|0:0,0:0:0:0:
264,180,122946,1,2,3:2:0:0:
216,112,123113,1,0,0:0:0:0:
413,41,123280,2,2,P|364:94|292:84,1,150,8|0,3:2|0:0,0:0:0:0:
176,28,123780,1,2,3:0:0:0:
166,30,123863,1,2,3:0:0:0:
156,32,123946,5,4,3:0:0:0:
108,100,124113,1,0,3:2:0:0:
132,180,124280,1,2,3:2:0:0:
108,260,124446,1,0,3:2:0:0:
272,312,124613,1,8,3:2:0:0:
296,232,124780,1,0,3:2:0:0:
188,104,124946,1,2,3:2:0:0:
212,184,125113,1,0,3:2:0:0:
352,52,125280,1,2,3:2:0:0:
376,132,125446,1,0,3:2:0:0:
252,16,125613,1,4,3:0:0:0:
252,16,125780,1,2,0:0:0:0:
132,136,125946,2,0,L|201:163,1,75,8|0,0:2|0:0,0:0:0:0:
336,216,126280,2,2,L|405:243,1,75,2|0,3:2|0:0,0:0:0:0:
280,332,126613,6,2,L|128:332,1,150,4|0,3:2|3:0,0:0:0:0:
84,264,127113,1,0,3:0:0:0:
48,192,127280,1,8,0:0:0:0:
184,128,127446,2,2,P|233:181|305:171,1,150,2|0,3:2|0:0,0:0:0:0:
329,77,127946,2,0,L|260:104,2,75,4|0|0,3:0|0:0|0:0,0:0:0:0:
380,200,128446,1,2,0:0:0:0:
380,200,128613,2,2,P|331:253|259:243,1,150,8|2,3:2|3:0,0:0:0:0:
176,156,129113,1,0,0:0:0:0:
0,148,129280,6,0,L|75:152,1,75,8|0,3:0|0:0,0:0:0:0:
100,292,129613,2,0,L|166:257,1,75,4|0,3:0|0:0,0:0:0:0:
258,366,129946,2,0,L|297:302,1,75,4|0,3:0|0:0,0:0:0:0:
432,352,130280,2,0,L|434:277,1,75,4|0,3:0|0:0,0:0:0:0:
256,192,130613,1,8,3:0:0:0:
512,236,130946,2,0,L|437:232,1,75,8|0,3:0|0:0,0:0:0:0:
412,92,131280,2,0,L|346:127,1,75,4|0,3:0|0:0,0:0:0:0:
254,18,131613,2,0,L|214:81,1,75,4|0,3:0|0:0,0:0:0:0:
80,32,131946,37,8,3:0:0:0:
80,32,132280,2,0,L|78:107,1,75,4|0,3:0|0:0,0:0:0:0:
200,180,132613,2,0,L|202:105,1,75,4|0,3:0|0:0,0:0:0:0:
284,268,132946,2,0,L|388:276,1,75,4|0,3:0|0:0,0:0:0:0:
216,376,133280,2,0,L|112:368,1,75,8|0,3:0|0:0,0:0:0:0:
60,324,133613,1,4,0:0:0:0:
132,192,133780,1,8,0:3:0:0:
132,192,134113,1,0,0:0:0:0:
212,236,134280,2,0,L|286:230,1,75,4|0,3:0|0:0,0:0:0:0:
488,92,134613,5,12,3:0:0:0:
464,176,134780,1,8,3:0:0:0:
296,108,134946,1,12,3:0:0:0:
320,24,135113,1,8,3:0:0:0:
180,180,135280,1,12,3:0:0:0:
96,204,135446,1,8,3:0:0:0:
212,340,135613,1,8,3:0:0:0:
296,364,135780,1,12,3:0:0:0:
444,212,135946,1,8,3:0:0:0:
360,236,136113,1,12,3:0:0:0:
248,92,136280,1,8,3:0:0:0:
332,68,136446,2,0,L|408:68,1,75,12|0,3:0|0:0,0:0:0:0:
48,316,136988,37,4,3:2:0:0:
160,44,137280,2,0,L|85:44,1,75,4|0,2:0|0:0,0:0:0:0:
8,188,137946,22,0,P|24:216|132:224,1,150,4|2,0:1|0:0,0:0:0:0:
204,188,138446,1,0,3:0:0:0:
284,204,138613,1,0,0:0:0:0:
364,220,138780,1,0,3:0:0:0:
444,240,138946,2,0,L|452:316,1,75
304,376,139280,1,4,1:2:0:0:
304,376,139613,2,0,L|312:300,1,75,2|0,3:0|0:0,0:0:0:0:
468,280,139946,6,0,L|460:356,2,75,4|0|2,3:0|0:0|0:0,0:0:0:0:
488,200,140446,1,0,0:0:0:0:
468,120,140613,1,4,3:2:0:0:
304,124,140946,1,0,0:0:0:0:
284,204,141113,1,0,3:2:0:0:
304,284,141280,1,2,3:2:0:0:
160,364,141613,2,0,L|86:357,1,75
8,208,141946,1,6,0:0:0:0:
164,264,142280,2,0,L|239:257,1,75,0|0,3:0|3:0,0:0:0:0:
386,148,142613,6,2,P|314:136|252:176,1,150,4|0,3:0|0:0,0:0:0:0:
224,252,143113,1,0,3:0:0:0:
148,284,143280,2,0,L|74:276,1,75,4|0,3:2|0:0,0:0:0:0:
120,132,143613,2,0,L|194:124,1,75,0|0,3:2|0:0,0:0:0:0:
252,184,143946,1,2,0:0:0:0:
376,76,144280,1,0,3:0:0:0:
416,236,144613,2,0,L|408:312,1,75,4|0,0:0|0:0,0:0:0:0:
240,332,144946,2,0,L|247:257,1,75,2|0,0:0|0:0,0:0:0:0:
364,100,145280,6,0,L|371:175,1,75,4|0,3:0|0:0,0:0:0:0:
148,52,145613,2,0,L|223:59,1,75,2|0,3:2|0:0,0:0:0:0:
68,248,145946,2,0,L|75:173,1,75,4|0,3:2|0:0,0:0:0:0:
216,264,146280,1,2,0:0:0:0:
216,264,146446,1,0,0:0:0:0:
352,138,146613,1,4,3:3:0:0:
395,318,146780,1,4,3:0:0:0:
216,264,146946,1,8,3:0:0:0:
288,112,147946,6,0,L|363:105,1,75,4|0,3:1|0:0,0:0:0:0:
244,24,148280,2,0,L|170:32,1,75,2|0,3:2|0:0,0:0:0:0:
124,100,148613,1,4,0:0:0:0:
148,180,148780,1,0,0:0:0:0:
64,272,148946,1,0,3:0:0:0:
88,352,149113,1,0,0:0:0:0:
280,332,149280,2,2,P|221:288|148:295,1,150,2|0,3:2|0:0,0:0:0:0:
20,148,149946,2,0,P|78:192|151:185,1,150,4|0,3:2|0:0,0:0:0:0:
244,60,150446,1,0,3:0:0:0:
240,52,150530,1,0,3:0:0:0:
236,44,150613,6,0,L|310:52,1,75,4|0,3:0|0:0,0:0:0:0:
392,32,150946,1,2,0:0:0:0:
472,12,151113,1,0,3:2:0:0:
512,156,151280,2,0,L|438:148,1,75,4|0,3:2|0:0,0:0:0:0:
364,188,151613,1,2,0:0:0:0:
404,260,151780,1,0,3:2:0:0:
368,332,151946,1,2,3:2:0:0:
124,284,152280,1,0,3:2:0:0:
416,88,152613,1,4,3:2:0:0:
172,40,152946,1,0,3:2:0:0:
88,148,153113,1,0,3:0:0:0:
98,146,153196,1,0,3:0:0:0:
108,144,153280,5,4,3:0:0:0:
188,160,153446,1,0,0:0:0:0:
268,184,153613,2,0,L|342:177,1,75,2|0,3:2|0:0,0:0:0:0:
492,320,153946,1,4,0:0:0:0:
492,320,154280,2,0,L|418:313,1,75,0|0,3:2|0:0,0:0:0:0:
332,268,154613,2,2,B|284:272|284:272|228:256|228:256|180:260,1,150,2|0,0:0|3:0,0:0:0:0:
184,259,155113,1,0,0:0:0:0:
28,316,155280,2,0,L|102:323,1,75,4|0,3:2|0:0,0:0:0:0:
180,356,155613,1,2,0:0:0:0:
256,320,155780,1,2,3:0:0:0:
266,322,155863,1,2,3:0:0:0:
276,324,155946,5,4,3:0:0:0:
232,164,156280,1,2,0:0:0:0:
316,156,156446,1,0,3:2:0:0:
400,148,156613,1,4,0:0:0:0:
256,304,156946,1,0,0:0:0:0:
112,148,157280,1,4,0:0:0:0:
40,168,158613,5,4,3:0:0:0:
40,168,158946,1,4,3:0:0:0:
180,60,159280,2,0,B|232:60|232:60|280:72|280:72|332:72,1,150,4|0,0:0|0:0,0:0:0:0:
472,256,159946,1,4,3:0:0:0:
472,256,160280,1,4,3:0:0:0:
328,148,160613,2,0,B|276:148|276:148|228:160|228:160|176:160,1,150,4|0,0:0|0:0,0:0:0:0:
41,343,161280,5,4,3:0:0:0:
41,343,161613,1,4,3:0:0:0:
188,236,161946,2,0,P|252:264|324:236,1,150,4|0,0:0|0:0,0:0:0:0:
360,156,162446,1,0,0:0:0:0:
324,76,162613,2,0,P|260:48|188:76,1,150,4|2,3:0|3:0,0:0:0:0:
312,244,163280,2,0,L|388:256,1,75,0|0,3:0|0:0,0:0:0:0:
200,244,163613,2,0,L|124:256,1,75,0|2,3:0|0:0,0:0:0:0:
256,132,163946,5,4,3:0:0:0:
84,332,164280,1,4,3:0:0:0:
84,332,164613,2,0,P|51:267|83:202,1,150,4|0,0:0|0:0,0:0:0:0:
256,372,165280,1,4,3:0:0:0:
256,372,165613,1,4,3:0:0:0:
428,202,165946,2,0,P|460:272|428:332,1,150,4|0,0:0|0:0,0:0:0:0:
132,264,166613,5,6,3:0:0:0:
380,268,166946,1,4,3:0:0:0:
256,116,167280,2,0,B|256:144|262:168|262:168|250:216|250:216|256:240|256:264,1,150,4|0,0:0|0:0,0:0:0:0:
32,332,179946,6,0,P|91:362|142:351,1,120,4|0,3:0|3:0,3:0:0:0:
140,352,180446,1,0,0:0:0:0:
140,236,180613,2,0,L|79:243,1,60,8|0,0:0|0:0,0:0:0:0:
108,116,181113,2,2,L|227:123,1,120,2|0,0:0|0:0,0:0:0:0:
304,104,181613,2,0,P|336:116|368:120,1,60,0|0,3:0|0:0,0:0:0:0:
468,180,181946,2,0,L|407:187,1,60,8|0,0:0|0:0,0:0:0:0:
352,68,182446,2,0,L|382:64,2,30,2|2|4,3:0|3:0|3:0,0:0:0:0:
280,44,182780,5,0,0:0:0:0:
232,100,182946,2,0,P|244:132|248:164,1,60,2|0,0:0|0:0,0:0:0:0:
232,232,183280,1,8,0:0:0:0:
232,232,183446,2,0,P|173:241|123:211,1,120,0|2,3:0|3:0,3:0:0:0:
172,88,184113,2,0,L|232:95,1,60,2|0,0:0|3:0,0:0:0:0:
304,64,184446,2,0,L|364:71,1,60,0|8,0:0|0:0,0:0:0:0:
436,40,184780,1,2,0:0:0:0:
496,92,184946,2,0,L|528:96,4,30,2|2|2|0|0,3:0|3:0|3:0|0:0|0:0,0:0:0:0:
376,40,185613,6,0,L|315:47,1,60,2|0,0:0|3:0,0:0:0:0:
208,12,185946,2,0,P|198:70|228:120,1,120,8|0,0:0|3:0,3:0:0:0:
352,164,186613,2,0,P|361:105|331:55,1,120,2|4,0:0|3:0,3:0:0:0:
228,120,187113,2,0,L|235:180,1,60,0|8,0:0|0:0,0:0:0:0:
144,256,187446,2,2,L|24:248,1,120,2|2,0:0|3:0,0:0:0:0:
24,248,187863,1,2,3:0:0:0:
24,248,187946,1,0,3:0:0:0:
88,372,188280,2,0,P|120:360|152:356,1,60,2|0,3:0|0:0,0:0:0:0:
212,320,188613,2,0,P|244:332|276:336,1,60,8|0,0:0|0:0,0:0:0:0:
340,308,188946,1,0,0:0:0:0:
473,340,189280,1,2,0:0:0:0:
505,208,189613,1,0,0:0:0:0:
373,175,189946,6,0,L|312:182,1,60,8|0,0:0|3:0,0:0:0:0:
260,48,190280,2,0,L|320:40,1,60,2|0,0:0|3:0,0:0:0:0:
488,116,190613,6,0,L|412:104,1,75,4|0,0:0|0:0,0:0:0:0:
312,228,190946,2,0,L|388:240,1,75,4|0,0:0|0:0,0:0:0:0:
284,362,191280,2,0,L|210:351,1,75,4|0,0:0|0:0,0:0:0:0:
56,320,191613,1,4,0:0:0:0:
56,320,191780,1,0,0:0:0:0:
136,160,191946,6,0,L|148:236,1,75,6|0,0:0|0:0,0:0:0:0:
352,112,192280,2,0,L|341:38,1,75,4|0,0:0|0:0,0:0:0:0:
272,248,192613,2,0,L|284:324,1,75,4|0,0:0|0:0,0:0:0:0:
488,200,192946,2,0,L|477:126,1,75,4|0,0:0|0:0,0:0:0:0:
248,32,193280,6,0,L|134:50,2,112.5,6|0|0,0:0|0:0|0:0,0:0:0:0:
440,176,193946,2,0,L|428:252,1,75,4|0,0:0|0:0,0:0:0:0:
200,352,194280,2,0,L|211:278,1,75,4|0,0:0|0:0,0:0:0:0:
244,52,194613,6,0,L|168:64,1,75,6|0,0:0|0:0,0:0:0:0:
48,264,194946,2,0,L|124:252,1,75,4|0,0:0|0:0,0:0:0:0:
352,192,195280,2,0,L|466:210,1,112.5,4|0,0:0|0:0,0:0:0:0:
476,200,195613,2,0,L|464:125,1,75,4|0,0:0|0:0,0:0:0:0:
220,8,195946,38,0,L|232:84,1,75,6|0,3:0|0:0,0:0:0:0:
124,260,196280,2,2,L|10:242,1,112.5,2|0,0:0|0:0,2:0:0:0:
0,252,196613,2,0,L|11:326,1,75,4|0,0:0|0:0,0:0:0:0:
300,364,196946,2,0,L|288:289,1,75,4|0,0:0|0:0,0:0:0:0:
88,96,197280,38,0,L|81:157,1,60,4|0,0:3|3:0,0:0:0:0:
156,224,197613,1,0,0:0:0:0:
256,196,197780,1,0,0:0:0:0:
256,196,197946,1,2,0:2:0:0:
328,88,198280,1,0,0:0:0:0:
385,204,198613,38,0,L|496:200,1,104.999996795654,4|0,0:0|0:0,0:0:0:0:
460,324,199280,2,0,L|349:328,1,104.999996795654,2|0,0:0|0:0,0:0:0:0:
355,328,199946,1,2,0:0:0:0:
124,304,200613,2,2,P|179:307|224:280,1,104.999996795654,2|0,0:0|0:0,0:0:0:0:
324,160,201280,6,2,P|268:156|224:184,1,104.999996795654,2|0,0:0|0:0,0:0:0:0:
148,224,201946,1,2,0:0:0:0:
68,184,202280,1,0,0:0:0:0:
48,104,202613,1,2,0:0:0:0:
48,104,202946,1,0,0:0:0:0:
160,288,203280,2,2,L|276:280,1,104.999996795654,2|0,0:0|0:0,0:0:0:0:
496,236,203946,6,2,P|440:239|396:212,1,104.999996795654,4|0,0:0|0:0,0:0:0:0:
464,152,204613,1,2,0:0:0:0:
392,96,204946,1,0,0:0:0:0:
292,224,205280,1,2,0:0:0:0:
220,168,205613,1,0,0:0:0:0:
120,296,205946,2,2,L|4:304,1,104.999996795654,2|0,0:0|0:0,0:0:0:0:
16,192,206613,6,2,P|40:146|36:94,1,104.999996795654,2|0,0:0|0:0,0:0:0:0:
176,128,207280,2,2,P|151:173|155:225,1,104.999996795654,2|0,0:0|0:0,0:0:0:0:
216,316,207946,1,2,0:0:0:0:
348,156,208446,1,0,0:0:0:0:
348,156,208613,2,0,L|288:152,2,52.4999983978272,2|0|2,0:0|0:0|0:0,0:0:0:0:
476,312,209280,6,0,P|376:308|332:272,1,157.499995193482,2|0,0:0|0:0,2:0:0:0:
260,264,209946,1,2,0:0:0:0:
208,320,210113,1,0,0:0:0:0:
136,336,210280,2,0,L|76:332,2,52.4999983978272,2|0|2,0:0|0:0|0:0,0:0:0:0:
296,300,210946,1,0,0:0:0:0:
260,136,211280,1,2,0:0:0:0:
96,172,211613,1,0,0:0:0:0:
160,336,211946,6,0,P|260:332|304:296,1,157.499995193482,2|0,0:0|0:0,2:0:0:0:
356,244,212613,2,0,L|420:248,1,52.4999983978272,2|0,0:0|0:0,0:0:0:0:
440,128,212946,2,0,L|376:132,1,52.4999983978272,2|0,0:0|0:0,0:0:0:0:
248,68,213280,1,2,0:0:0:0:
160,192,213613,1,0,0:0:0:0:
248,68,213946,1,2,0:0:0:0:
376,152,214280,2,0,L|436:148,1,52.4999983978272
484,196,214613,6,2,P|492:244|468:304,1,104.999996795654,4|0,0:0|0:0,0:0:0:0:
240,380,215155,2,2,L|124:372,1,104.999996795654,2|0,0:0|0:0,0:0:0:0:
192,204,215738,1,0,0:0:0:0:
192,204,215946,2,0,P|248:207|292:180,1,104.999996795654,2|0,0:0|0:0,0:0:0:0:
260,56,216613,2,0,P|204:53|160:80,1,104.999996795654,2|0,0:0|0:0,0:0:0:0:
163,76,217113,1,0,0:0:0:0:
120,156,217280,5,4,0:0:0:0:
280,208,217655,2,0,L|277:274,1,65.624997997284,0|2,0:0|0:0,0:0:0:0:
180,292,218155,2,0,L|184:352,1,52.4999983978272,0|2,0:0|0:0,0:0:0:0:
360,343,218780,6,0,P|368:318|368:292,1,52.4999983978272
360,220,219113,1,0,0:0:0:0:
352,148,219280,1,4,0:0:0:0:
344,76,219446,2,0,P|343:49|352:25,1,52.4999983978272,0|2,0:0|0:0,0:0:0:0:
