osu file format v14

[General]
AudioFilename: audio.mp3
AudioLeadIn: 0
PreviewTime: 66946
Countdown: 0
SampleSet: Soft
StackLeniency: 0.7
Mode: 0
LetterboxInBreaks: 0
WidescreenStoryboard: 1

[Editor]
Bookmarks: 22612,67946,68612,87946,89279,137279,157279,158612,169279,179946,190612,198612,219112
DistanceSpacing: 1.2
BeatDivisor: 16
GridSize: 4
TimelineZoom: 2.2

[Metadata]
Title:River feat. Ed Sheeran
TitleUnicode:River feat. Ed Sheeran
Artist:Eminem
ArtistUnicode:Eminem
Creator:narakucrimson
Version:Hard
Source:
Tags:english revival hip hop rap
BeatmapID:1668308
BeatmapSetID:770477

[Difficulty]
HPDrainRate:5
CircleSize:3.8
OverallDifficulty:6
ApproachRate:7
SliderMultiplier:2.6
SliderTickRate:1

[Events]
//Background and Video events
0,0,"eminem-kamikaze-review1.jpg",0,0
//Break Periods
2,169280,178613
//Storyboard Layer 0 (Background)
//Storyboard Layer 1 (Fail)
//Storyboard Layer 2 (Pass)
//Storyboard Layer 3 (Foreground)
//Storyboard Layer 4 (Overlay)
//Storyboard Sound Samples

[TimingPoints]
1280,666.666666666667,4,2,0,60,1,0
62535,-100,4,3,0,75,0,0
67868,-200,4,2,0,25,0,0
68035,-200,4,2,0,60,0,0
68613,-100,4,2,0,80,0,1
87946,-100,4,2,0,30,0,0
89280,-100,4,2,0,60,0,0
129202,-100,4,3,0,75,0,0
136868,-100,4,3,0,60,0,0
137035,-200,4,3,0,60,0,0
137202,-200,4,2,0,25,0,0
137368,-200,4,3,0,60,0,0
137946,-100,4,2,0,80,0,1
157280,-100,4,2,0,50,0,0
158613,-100,4,2,0,80,0,1
162946,-100,4,2,0,80,0,0
163946,-100,4,2,0,80,0,1
167613,-100,4,2,0,80,0,0
179946,-125,4,2,0,40,0,0
190613,-100,4,3,0,75,0,0
197280,-125,4,2,0,60,0,0
198613,-142.857142857143,4,2,0,30,0,0

[Colours]
Combo1 : 253,83,53
Combo2 : 77,223,84
Combo3 : 48,151,235
Combo4 : 251,146,51

[HitObjects]
344,52,22613,6,0,L|212:52,1,130,0|0,3:0|0:0,0:0:0:0:
112,172,23280,2,0,L|44:172,2,65,8|0|0,0:0|0:0|0:0,0:0:0:0:
144,244,23780,2,2,B|190:244|190:244|222:228|222:228|270:228,1,130,2|0,3:2|0:0,0:0:0:0:
476,340,24613,2,0,P|424:344|364:300,1,130,8|0,0:0|0:0,0:0:0:0:
348,224,25113,2,0,L|380:204,2,32.5,2|2|4,3:0|3:0|3:0,3:0:0:0:
252,100,25613,6,2,L|368:28,2,130,2|8|0,3:0|0:0|0:0,0:0:0:0:
216,172,26446,2,0,P|264:213|328:212,1,130,2|0,0:0|0:0,0:0:0:0:
392,168,26946,2,0,L|447:201,1,65,4|0,3:0|0:0,0:0:0:0:
400,316,27280,2,2,B|354:316|354:316|322:300|322:300|274:300,1,130,8|0,3:2|0:0,0:0:0:0:
124,340,27946,6,0,L|68:306,1,65,4|0,3:0|0:0,0:0:0:0:
48,232,28280,2,0,P|96:190|160:192,1,130,2|8,0:0|0:0,0:0:0:0:
304,252,28946,1,0,0:0:0:0:
376,284,29113,2,0,P|439:285|488:244,1,130,2|0,0:0|0:0,0:0:0:0:
452,176,29613,2,0,L|418:120,1,65,4|0,3:0|0:0,0:0:0:0:
324,96,29946,2,0,L|268:129,1,65,8|0,0:0|0:0,0:0:0:0:
244,224,30280,2,0,L|277:279,1,65,2|0,0:0|0:0,0:0:0:0:
392,268,30613,6,2,L|320:152,1,130,4|2,3:0|3:0,0:0:0:0:
248,144,31113,1,0,0:0:0:0:
172,168,31280,2,0,L|108:168,1,65,8|0,0:0|0:0,0:0:0:0:
44,72,31613,2,0,L|108:72,1,65,0|0,3:0|0:0,0:0:0:0:
220,100,31946,2,2,P|283:101|331:59,1,130,2|0,0:0|3:0,0:0:0:0:
468,132,32613,2,0,P|420:173|356:172,1,130,8|0,0:0|3:0,0:0:0:0:
292,128,33113,2,0,L|260:108,2,32.5,2|2|4,3:0|3:0|3:0,3:0:0:0:
260,280,33613,5,0,3:0:0:0:
104,328,33946,2,0,L|32:212,1,130,8|2,0:0|3:2,0:0:0:0:
96,92,34613,2,0,L|129:147,1,65,2|0,0:0|0:0,0:0:0:0:
176,220,34946,1,0,0:0:0:0:
176,220,35113,2,2,B|222:220|222:220|254:204|254:204|302:204,1,130,2|0,3:2|0:0,0:0:0:0:
376,236,35613,1,0,3:0:0:0:
448,204,35780,2,0,L|480:184,2,32.5,2|2|4,3:0|3:0|3:0,3:0:0:0:
276,168,36280,6,0,L|276:100,1,65,2|0,3:0|0:0,0:0:0:0:
164,132,36613,2,0,L|164:196,1,65,8|0,0:0|0:0,0:0:0:0:
232,268,36946,1,0,3:0:0:0:
148,316,37113,2,0,P|84:317|36:275,2,130,2|8|0,3:2|3:2|0:0,0:0:0:0:
220,288,37946,2,0,L|275:321,1,65,8|0,3:2|0:0,0:0:0:0:
332,232,38280,2,0,L|277:199,1,65,2|0,3:2|0:0,0:0:0:0:
332,108,38613,6,0,L|387:141,1,65,4|0,3:0|0:0,0:0:0:0:
456,180,38946,1,0,3:0:0:0:
384,308,39280,2,2,P|324:328|260:308,1,130,8|0,0:0|0:0,0:0:0:0:
204,256,39780,2,0,P|184:212|204:136,1,130,8|2,0:0|0:0,0:0:0:0:
272,96,40280,2,0,L|340:96,1,65,0|0,3:0|3:0,0:0:0:0:
392,184,40613,2,0,L|320:300,1,130,8|2,0:0|3:2,0:0:0:0:
323,294,41113,1,2,3:0:0:0:
378,382,41280,6,0,L|443:382,1,65,4|0,3:0|3:0,0:0:0:0:
496,276,41613,2,0,L|431:276,1,65,2|0,3:2|3:0,0:0:0:0:
352,276,41946,1,8,0:0:0:0:
180,200,42280,2,2,L|100:200,1,65,2|0,3:2|0:0,0:0:0:0:
168,94,42613,2,0,L|233:94,1,65,2|0,3:2|3:0,0:0:0:0:
312,96,42946,1,0,3:0:0:0:
456,36,43280,1,8,0:0:0:0:
456,36,43946,6,0,P|408:77|344:76,1,130,0|2,1:0|3:0,0:0:0:0:
272,44,44446,1,0,3:0:0:0:
200,76,44613,2,2,L|132:76,1,65,2|0,3:0|0:0,0:0:0:0:
28,200,45113,2,2,L|160:200,1,130,2|0,3:2|0:0,0:0:0:0:
230,168,45613,1,2,3:0:0:0:
280,316,45946,2,0,L|225:349,1,65,8|0,2:0|0:0,0:0:0:0:
148,364,46280,1,2,0:0:0:0:
72,348,46446,2,0,L|40:328,2,32.5,2|2|4,3:0|3:0|3:0,3:0:0:0:
240,240,46946,6,0,L|185:273,1,65,2|0,3:0|0:0,0:0:0:0:
184,156,47280,2,0,L|239:123,1,65,8|0,3:2|0:0,0:0:0:0:
304,80,47613,1,0,0:0:0:0:
352,144,47780,2,2,P|332:188|352:264,2,130,2|2|0,0:0|3:0|3:0,0:0:0:0:
420,104,48613,1,8,0:0:0:0:
472,244,48946,2,2,L|408:244,1,65,0|2,3:0|3:2,0:0:0:0:
316,180,49280,6,0,P|252:178|203:219,1,130,8|2,3:0|3:2,0:0:0:0:
164,288,49780,1,0,0:0:0:0:
84,288,49946,2,0,L|51:233,1,65,8|0,2:0|0:0,0:0:0:0:
116,188,50280,2,2,P|160:176|196:104,1,130,2|0,3:2|0:0,0:0:0:0:
116,108,50780,2,2,P|72:96|36:24,1,130,2|0,3:2|0:0,0:0:0:0:
116,28,51280,1,8,0:0:0:0:
268,56,51613,1,2,0:0:0:0:
236,208,51946,6,0,L|304:208,1,65,4|0,3:0|0:0,0:0:0:0:
308,284,52280,2,2,L|438:284,2,130,2|8|2,3:2|2:0|0:0,0:0:0:0:
140,356,53280,2,0,L|72:356,1,65,2|0,3:0|0:0,0:0:0:0:
8,316,53613,1,4,3:0:0:0:
116,212,53946,2,0,L|171:245,1,65,8|0,2:0|0:0,0:0:0:0:
240,288,54280,1,2,0:0:0:0:
440,236,54613,6,0,P|376:237|327:196,1,130,8|2,3:0|3:2,0:0:0:0:
248,44,55280,2,0,L|168:44,1,65,8|0,3:2|0:0,0:0:0:0:
116,84,55613,2,0,L|36:84,1,65,0|0,3:2|0:0,0:0:0:0:
72,180,55946,2,2,P|135:181|184:140,1,130,2|0,0:0|3:2,0:0:0:0:
328,139,56613,2,2,P|376:180|440:178,1,130,8|2,0:0|3:2,0:0:0:0:
264,84,57280,6,0,L|152:152,1,130,4|2,3:0|0:0,0:0:0:0:
228,264,57946,2,2,L|340:196,1,130,8|0,3:2|0:0,0:0:0:0:
404,236,58446,1,0,0:0:0:0:
412,312,58613,2,0,L|357:345,2,65,2|0|0,2:0|0:0|3:3,0:0:0:0:
364,168,59280,2,2,L|296:168,1,65,8|0,0:0|0:0,0:0:0:0:
228,236,59613,2,2,L|160:236,1,65,2|2,0:0|0:3,0:0:0:0:
92,304,59946,5,4,3:0:0:0:
12,172,60280,2,0,L|67:205,1,65,2|0,3:0|0:0,0:0:0:0:
164,128,60613,2,0,L|109:95,2,65,8|0|0,0:0|0:0|0:0,0:0:0:0:
232,168,61113,1,2,3:2:0:0:
328,48,61446,1,2,3:2:0:0:
488,52,61780,1,0,3:2:0:0:
488,52,61946,2,0,L|488:120,1,65,8|0,0:0|3:0,0:0:0:0:
488,196,62280,1,2,0:0:0:0:
264,200,62613,6,0,P|262:263|303:312,1,130,8|6,0:0|3:0,0:0:0:0:
436,228,63280,2,0,L|381:195,1,65,4|0,3:0|0:0,0:0:0:0:
272,208,63613,2,0,P|223:249|159:247,1,130,10|4,0:0|3:0,0:0:0:0:
92,212,64113,1,0,0:0:0:0:
72,136,64280,2,0,L|96:76,2,65,4|0|4,3:0|0:0|3:0,0:0:0:0:
128,268,64946,38,0,P|191:269|240:228,1,130,10|4,0:0|3:0,0:0:0:0:
288,168,65446,1,0,0:0:0:0:
356,204,65613,2,0,L|424:204,1,65,4|0,3:0|0:0,0:0:0:0:
464,108,65946,1,4,0:0:0:0:
456,112,66280,1,4,0:0:0:0:
448,116,66613,1,4,0:0:0:0:
232,224,67946,6,0,L|224:296,1,65,4|0,0:0|0:0,0:0:0:0:
376,242,68613,6,0,L|388:110,1,130,4|2,0:1|0:0,0:0:0:0:
328,64,69113,2,0,L|256:72,1,65,0|0,3:0|0:0,0:0:0:0:
184,32,69446,1,0,3:0:0:0:
184,32,69613,1,0,0:0:0:0:
64,184,69946,2,2,P|136:192|188:168,1,130,4|2,0:0|3:0,0:0:0:0:
300,276,70613,6,4,P|228:268|176:292,1,130,4|2,3:0|3:2,0:0:0:0:
104,260,71113,2,0,L|96:188,1,65,0|4,3:0|3:2,0:0:0:0:
200,80,71613,1,0,0:0:0:0:
248,228,71946,1,2,3:2:0:0:
96,195,72280,1,0,0:0:0:0:
200,80,72613,2,4,P|259:104|322:95,1,130,4|0,3:2|3:2,0:0:0:0:
432,188,73280,6,0,L|300:200,1,130,4|0,3:0|0:0,0:0:0:0:
180,296,73946,2,0,L|104:288,1,65,4|0,3:2|0:0,0:0:0:0:
52,216,74280,2,0,L|60:140,1,65,0|0,3:2|0:0,0:0:0:0:
132,88,74613,1,2,0:0:0:0:
256,180,74946,1,0,3:0:0:0:
380,88,75280,2,0,L|372:164,2,65,4|0|2,0:0|0:0|0:0,0:0:0:0:
448,48,75780,1,0,0:0:0:0:
492,112,75946,6,4,P|500:184|476:236,1,130,4|2,3:0|3:2,0:0:0:0:
324,208,76613,2,4,P|316:136|340:84,1,130,4|2,3:2|3:2,0:0:0:0:
468,164,77280,1,4,3:3:0:0:
468,164,77446,1,4,3:0:0:0:
468,164,77613,1,8,3:0:0:0:
316,100,78613,6,0,L|184:112,1,130,4|2,3:1|3:2,0:0:0:0:
112,88,79113,1,0,0:0:0:0:
56,144,79280,2,0,L|48:220,1,65,4|0,3:2|0:0,0:0:0:0:
152,260,79613,2,0,L|160:184,1,65,0|0,3:2|0:0,0:0:0:0:
272,172,79946,2,2,L|260:304,1,130,2|0,3:2|3:2,0:0:0:0:
432,344,80613,2,2,L|444:212,1,130,4|0,3:2|3:2,0:0:0:0:
320,120,81280,6,4,P|261:144|198:135,1,130,4|2,3:0|3:2,0:0:0:0:
128,100,81780,1,0,3:2:0:0:
188,24,81946,2,0,L|264:32,1,65,4|0,3:2|0:0,0:0:0:0:
332,108,82280,2,0,L|408:116,1,65,2|0,3:2|0:0,0:0:0:0:
476,192,82613,1,2,3:2:0:0:
332,256,82946,1,0,3:2:0:0:
268,112,83280,1,4,3:2:0:0:
124,176,83613,1,0,3:2:0:0:
56,140,83780,2,0,L|18:144,2,32.5,0|0|4,3:2|3:0|3:0,0:0:0:0:
188,56,84280,5,0,0:0:0:0:
264,120,84446,1,0,0:0:0:0:
264,120,84613,2,2,L|252:249,1,130,6|0,3:2|3:2,0:0:0:0:
308,304,85113,2,0,L|384:296,1,65,0|2,3:3|0:0,0:0:0:0:
300,160,85613,1,0,3:0:0:0:
144,144,85946,2,0,L|136:68,1,65,4|0,3:2|0:0,0:0:0:0:
224,248,86446,1,0,0:0:0:0:
316,236,86612,1,4,3:0:0:0:
476,216,86946,5,2,0:0:0:0:
332,152,87280,1,4,0:0:0:0:
348,308,87613,1,0,2:2:0:0:
476,216,87946,1,4,2:2:0:0:
256,136,89280,6,2,L|256:204,1,65,10|0,3:0|0:0,0:0:0:0:
156,320,89780,1,0,0:0:0:0:
120,252,89946,2,0,P|118:188|159:139,1,130,8|2,0:0|0:0,0:0:0:0:
236,120,90446,2,0,L|291:153,2,65,2|0|2,3:0|0:0|3:0,0:0:0:0:
104,40,91113,1,0,0:0:0:0:
180,20,91280,2,2,B|226:20|226:20|258:36|258:36|306:36,1,130,8|2,3:2|0:0,0:0:0:0:
436,124,91946,6,0,P|387:165|323:163,1,130,4|2,3:0|0:0,0:0:0:0:
248,140,92446,1,0,0:0:0:0:
200,204,92613,2,0,L|145:237,1,65,8|0,2:0|0:0,0:0:0:0:
220,372,93113,2,0,L|275:339,1,65,2|0,3:3|0:0,0:0:0:0:
356,336,93446,2,2,P|376:292|356:216,1,130,2|2,3:0|0:0,0:0:0:0:
304,156,93946,1,8,0:0:0:0:
132,204,94280,1,2,0:0:0:0:
132,204,94613,5,12,3:0:0:0:
116,48,94946,2,0,L|171:81,1,65,0|0,3:0|0:0,0:0:0:0:
252,96,95280,2,0,P|299:53|362:55,1,130,8|0,0:0|3:0,0:0:0:0:
440,92,95780,2,0,P|392:134|329:132,1,130,2|0,3:0|3:0,0:0:0:0:
252,96,96280,1,0,3:0:0:0:
104,148,96613,2,0,L|71:203,1,65,8|0,3:2|0:0,0:0:0:0:
100,304,96946,2,0,L|155:337,1,65,2|0,3:2|0:0,0:0:0:0:
256,308,97280,6,0,L|328:192,1,130,4|0,3:0|3:2,0:0:0:0:
364,132,97780,1,0,0:0:0:0:
452,204,97946,2,0,L|419:259,1,65,8|2,0:2|3:0,0:0:0:0:
376,324,98280,2,0,L|304:324,1,65
236,308,98613,2,2,P|175:329|115:308,1,130,2|4,3:2|3:0,0:0:0:0:
32,176,99280,1,8,0:0:0:0:
128,56,99613,2,0,L|148:24,2,32.5,2|2|0,3:0|3:0|3:0,3:0:0:0:
132,136,99946,6,0,P|179:177|243:175,1,130,4|0,3:0|3:0,0:0:0:0:
316,148,100446,1,0,3:0:0:0:
368,204,100613,2,0,L|448:228,1,65,8|0,0:0|0:0,0:0:0:0:
340,288,100946,2,0,L|260:264,1,65,2|0,3:2|0:0,0:0:0:0:
192,308,101280,2,0,L|112:284,1,65,2|0,3:2|0:0,0:0:0:0:
44,264,101613,1,0,3:0:0:0:
8,112,101946,1,8,0:0:0:0:
164,128,102280,2,0,L|140:208,1,65,2|0,3:2|0:0,0:0:0:0:
260,224,102613,6,0,L|284:144,1,65,4|0,3:0|0:0,0:0:0:0:
392,194,102946,2,0,L|368:274,2,65,2|0|8,3:2|0:0|0:0,0:0:0:0:
400,48,103613,1,0,0:0:0:0:
400,48,103780,2,2,L|268:88,1,130,2|0,3:2|3:2,0:0:0:0:
296,172,104280,2,0,L|358:190,1,65,4|0,3:0|0:0,0:0:0:0:
376,276,104613,2,2,L|244:316,1,130,8|2,3:2|3:2,0:0:0:0:
100,356,105280,5,4,3:0:0:0:
100,356,105446,1,0,3:0:0:0:
60,288,105613,2,0,P|57:224|98:176,2,130,2|8|0,3:2|3:2|3:0,0:0:0:0:
148,320,106446,2,2,P|189:271|185:208,1,130,2|2,3:2|3:2,0:0:0:0:
148,140,106946,2,0,P|144:76|185:28,1,130,0|8,3:2|3:2,0:0:0:0:
328,88,107613,1,2,0:0:0:0:
308,244,107946,5,4,3:0:0:0:
156,284,108280,2,0,L|84:284,1,65,2|0,3:2|0:0,0:0:0:0:
52,200,108613,2,2,B|98:200|98:200|130:184|130:184|178:184,1,130,8|0,3:2|0:0,0:0:0:0:
248,44,109280,2,0,L|185:62,2,65,2|0|4,3:2|0:0|3:0,0:0:0:0:
388,112,109946,2,0,P|339:153|276:150,1,130,8|0,3:2|3:2,0:0:0:0:
204,116,110446,1,2,3:0:0:0:
164,184,110613,5,4,3:0:0:0:
100,328,110946,2,0,L|164:328,1,65,2|0,3:0|0:0,0:0:0:0:
220,272,111280,2,0,L|284:272,1,65,8|0,2:0|0:0,0:0:0:0:
348,320,111613,1,0,0:0:0:0:
348,320,111780,2,0,P|411:322|460:282,1,130,2|2,3:2|3:2,0:0:0:0:
504,216,112280,1,0,0:0:0:0:
432,100,112613,2,2,L|360:216,2,130,8|2|4,3:2|3:2|3:0,0:0:0:0:
408,28,113446,1,4,3:0:0:0:
252,28,113780,5,0,3:0:0:0:
296,112,113946,2,0,L|359:130,1,65,8|0,3:1|0:1,0:1:0:0:
280,204,114280,2,0,L|217:186,1,65,2|0,3:2|3:0,0:0:0:0:
136,160,114613,1,2,3:2:0:0:
172,312,114946,1,4,3:0:0:0:
22,267,115280,1,8,3:2:0:0:
136,160,115613,1,2,0:2:0:0:
136,160,115780,1,0,3:0:0:0:
104,80,115946,6,0,P|152:39|216:41,1,130,4|2,3:0|3:2,0:0:0:0:
284,84,116446,1,0,0:0:0:0:
296,160,116613,2,0,L|278:223,1,65,8|0,3:2|0:0,0:0:0:0:
344,288,116946,2,0,L|407:270,1,65,2|0,3:0|0:0,0:0:0:0:
456,156,117280,2,0,L|393:174,1,65,2|0,3:0|0:0,0:0:0:0:
316,140,117613,1,4,3:0:0:0:
428,28,117946,2,2,P|468:76|466:140,1,130,8|2,3:2|3:2,0:0:0:0:
336,192,118613,6,0,L|273:210,1,65,4|4,3:0|3:0,0:0:0:0:
212,260,118946,2,0,L|149:242,1,65,2|0,3:2|3:0,0:0:0:0:
68,204,119280,2,2,P|116:163|180:165,1,130,8|2,3:2|3:2,0:0:0:0:
316,88,119946,2,0,L|252:88,2,65,2|0|4,3:2|3:2|3:0,0:0:0:0:
448,176,120613,1,8,0:0:0:0:
448,176,120946,2,0,L|430:239,1,65,0|8,3:2|3:2,0:0:0:0:
316,240,121280,6,0,L|334:177,1,65,4|0,3:2|3:2,0:0:0:0:
268,116,121613,2,0,L|205:134,1,65,2|0,3:2|3:2,0:0:0:0:
128,96,121946,1,8,0:0:0:0:
128,96,122113,1,4,3:0:0:0:
24,200,122446,1,0,3:0:0:0:
24,200,122613,2,0,L|92:200,1,65,4|0,3:0|0:0,0:0:0:0:
156,244,122946,1,2,3:2:0:0:
264,136,123280,2,2,L|195:25,1,130,8|2,3:2|3:2,0:0:0:0:
116,20,123780,1,2,3:0:0:0:
60,76,123946,6,0,L|78:139,1,65,4|0,3:0|3:2,0:0:0:0:
196,240,124446,1,0,0:0:0:0:
268,268,124613,2,0,L|331:250,1,65,8|0,3:2|3:2,0:0:0:0:
408,264,124946,2,2,P|409:327|369:376,1,130,2|2,3:2|3:2,0:0:0:0:
212,372,125613,1,4,3:0:0:0:
168,224,125946,1,8,0:0:0:0:
272,108,126280,2,2,L|335:126,1,65,2|0,3:2|3:2,0:0:0:0:
304,24,126613,6,2,P|241:23|192:63,1,130,4|2,3:2|3:2,0:0:0:0:
152,216,127280,1,8,0:0:0:0:
216,260,127446,2,2,L|352:260,1,130,2|2,3:2|3:2,0:0:0:0:
420,284,127946,2,2,L|438:221,1,65,2|0,3:2|3:2,0:0:0:0:
408,68,128446,2,2,P|359:108|295:108,1,130,2|2,3:2|3:2,0:0:0:0:
224,76,128946,2,2,L|161:94,1,65,2|0,3:0|3:2,0:0:0:0:
60,72,129280,5,8,3:0:0:0:
16,224,129613,2,0,L|84:224,1,65,4|0,3:0|0:0,0:0:0:0:
144,296,129946,2,0,L|220:296,1,65,4|0,3:0|0:0,0:0:0:0:
272,368,130280,2,0,L|336:368,1,65,4|0,3:0|0:0,0:0:0:0:
424,320,130613,2,0,P|442:258|422:197,1,130,8|4,0:0|0:0,0:0:0:0:
272,244,131280,2,0,L|196:244,1,65,4|0,3:0|0:0,0:0:0:0:
144,172,131613,2,0,L|80:172,1,65,4|0,3:0|0:0,0:0:0:0:
52,84,131946,38,0,P|112:63|174:82,1,130,8|4,0:0|0:0,0:0:0:0:
316,144,132613,2,0,L|248:152,1,65,4|0,3:0|0:0,0:0:0:0:
172,160,132946,2,0,L|180:228,1,65,4|0,3:0|0:0,0:0:0:0:
188,304,133280,2,0,L|256:296,1,65,8|0,3:0|0:0,0:0:0:0:
332,288,133613,2,0,L|324:220,1,65,4|2,3:0|0:2,0:0:0:0:
232,72,134113,1,0,0:0:0:0:
232,72,134280,2,0,L|164:80,1,65,4|0,3:0|0:0,0:0:0:0:
128,184,134613,6,0,P|164:192|196:192,1,65,4|0,0:0|0:0,0:0:0:0:
304,180,134946,2,0,P|335:187|368:188,1,65,4|0,0:0|0:0,0:0:0:0:
384,300,135280,2,0,P|348:308|316:308,1,65,4|0,0:0|0:0,0:0:0:0:
208,296,135613,2,0,P|176:303|143:304,1,65,4|0,0:0|0:0,0:0:0:0:
40,256,135946,1,4,0:0:0:0:
264,80,136988,37,4,3:2:0:0:
280,224,137280,2,0,L|288:296,1,65,4|0,0:0|0:0,0:0:0:0:
136,242,137946,22,0,L|124:110,1,130,4|2,0:1|0:0,0:0:0:0:
184,64,138446,2,0,L|256:72,1,65,0|0,3:0|0:0,0:0:0:0:
328,32,138780,1,0,3:0:0:0:
328,32,138946,1,0,0:0:0:0:
448,184,139280,2,2,P|376:192|324:168,1,130,4|2,0:0|3:0,0:0:0:0:
212,276,139946,6,4,P|284:268|336:292,1,130,4|2,3:0|3:2,0:0:0:0:
408,260,140446,2,0,L|416:188,1,65,0|4,3:0|3:2,0:0:0:0:
312,76,140946,1,0,0:0:0:0:
264,228,141280,1,2,3:2:0:0:
160,112,141613,1,0,0:0:0:0:
68,240,141946,2,4,P|127:264|190:255,1,130,4|0,3:2|3:2,0:0:0:0:
304,148,142613,6,0,L|436:160,1,130,4|0,3:0|0:0,0:0:0:0:
372,304,143280,2,0,L|296:296,1,65,4|0,3:2|0:0,0:0:0:0:
244,224,143613,2,0,L|252:148,1,65,0|0,3:2|0:0,0:0:0:0:
200,80,143946,1,2,0:0:0:0:
52,124,144280,1,0,3:0:0:0:
148,248,144613,2,0,L|140:324,2,65,4|0|2,0:0|0:0|0:0,0:0:0:0:
92,192,145113,1,0,0:0:0:0:
44,252,145280,6,4,P|36:324|60:376,1,130,4|2,3:0|3:2,0:0:0:0:
212,348,145946,2,4,P|220:276|196:224,1,130,4|2,3:2|3:2,0:0:0:0:
72,128,146613,1,4,3:3:0:0:
72,128,146780,1,4,3:0:0:0:
72,128,146946,1,8,3:0:0:0:
196,100,147946,6,0,L|328:112,1,130,4|2,3:1|3:2,0:0:0:0:
400,88,148446,1,0,0:0:0:0:
456,144,148613,2,0,L|464:220,1,65,4|0,3:2|0:0,0:0:0:0:
360,260,148946,2,0,L|352:184,1,65,0|0,3:2|0:0,0:0:0:0:
240,172,149280,2,2,L|252:304,1,130,2|0,3:2|3:2,0:0:0:0:
80,344,149946,2,2,L|68:212,1,130,4|0,3:2|3:2,0:0:0:0:
192,120,150613,6,4,P|251:144|314:135,1,130,4|2,3:0|3:2,0:0:0:0:
384,100,151113,1,0,3:2:0:0:
324,24,151280,2,0,L|248:32,1,65,4|0,3:2|0:0,0:0:0:0:
188,92,151613,2,0,L|112:84,1,65,2|0,3:2|0:0,0:0:0:0:
36,72,151946,1,2,3:2:0:0:
104,212,152280,1,0,3:2:0:0:
252,160,152613,1,4,3:2:0:0:
320,300,152946,1,0,3:2:0:0:
388,264,153113,2,0,L|426:268,2,32.5,0|0|4,3:2|3:0|3:0,0:0:0:0:
328,120,153613,5,0,0:0:0:0:
252,184,153780,1,0,0:0:0:0:
252,184,153946,2,2,L|264:316,1,130,6|0,3:2|3:2,0:0:0:0:
208,368,154446,2,0,L|132:360,1,65,0|2,3:3|0:0,0:0:0:0:
216,224,154946,1,0,3:0:0:0:
372,208,155280,2,0,L|380:132,1,65,4|0,3:2|0:0,0:0:0:0:
287,309,155780,1,0,0:0:0:0:
195,297,155946,1,4,3:0:0:0:
40,280,156280,5,2,0:0:0:0:
184,216,156613,1,4,0:0:0:0:
168,372,156946,1,0,2:2:0:0:
40,280,157280,1,4,2:2:0:0:
164,164,158613,5,4,3:0:0:0:
164,164,158946,1,4,3:0:0:0:
72,292,159280,2,0,B|120:332|120:332|188:324,1,130,4|0,0:0|0:0,0:0:0:0:
348,340,159946,1,4,3:0:0:0:
348,340,160280,1,4,3:0:0:0:
428,204,160613,2,0,B|380:164|380:164|312:172,1,130,4|0,0:0|0:0,0:0:0:0:
168,196,161280,5,4,3:0:0:0:
168,196,161613,1,4,3:0:0:0:
196,44,161946,2,0,P|268:24|316:44,1,130,4|0,0:0|0:0,0:0:0:0:
316,200,162613,2,0,P|244:220|196:200,1,130,4|2,3:0|3:0,0:0:0:0:
132,344,163280,2,0,L|200:348,1,65,0|0,3:0|0:0,0:0:0:0:
268,312,163613,2,0,L|336:316,1,65,0|2,3:0|3:0,0:0:0:0:
404,348,163946,6,0,P|460:324|488:264,1,130,4|4,3:0|3:0,0:0:0:0:
380,152,164613,2,0,P|324:176|296:236,1,130,4|0,0:0|0:0,0:0:0:0:
295,236,165280,1,4,3:0:0:0:
432,212,165613,1,4,3:0:0:0:
348,320,165946,1,4,0:0:0:0:
208,292,166280,1,0,3:0:0:0:
192,160,166613,6,2,B|220:148|256:156|256:156|292:164|320:152,1,130,2|0,3:2|0:0,0:0:0:0:
448,100,167280,1,4,0:0:0:0:
264,308,179946,6,0,P|320:308|360:280,1,104,4|0,3:0|3:0,3:0:0:0:
428,204,180613,2,0,L|488:208,1,52,8|0,0:0|0:0,0:0:0:0:
424,116,181113,2,2,P|337:121|288:76,1,156,2|0,0:0|3:0,0:0:0:0:
200,136,181946,2,0,L|204:196,1,52,8|0,0:0|0:0,0:0:0:0:
132,264,182446,1,0,0:0:0:0:
132,264,182613,6,0,L|16:256,1,104,2|0,0:0|0:0,0:0:0:0:
140,368,183280,1,8,0:0:0:0:
140,368,183446,2,2,P|187:351|224:312,1,104,0|2,0:0|3:2,0:0:0:0:
300,236,184113,2,0,L|360:240,1,52,2|0,0:0|0:0,0:0:0:0:
364,128,184613,2,0,L|304:132,1,52,10|0,0:0|0:0,0:0:0:0:
284,28,185113,1,2,3:0:0:0:
288,32,185280,6,0,L|404:40,1,104,4|0,3:0|0:0,0:0:0:0:
476,100,185946,2,0,P|488:148|468:200,1,104,8|0,0:0|0:0,0:0:0:0:
380,244,186613,2,0,P|368:196|388:144,1,104,2|0,0:0|0:0,0:0:0:0:
328,64,187280,1,8,0:0:0:0:
328,64,187446,2,0,P|252:92|184:64,1,156,4|2,3:0|0:0,0:0:0:0:
92,28,188280,5,0,0:0:0:0:
55,121,188613,1,8,0:0:0:0:
148,158,188946,1,0,0:0:0:0:
185,65,189280,1,2,0:0:0:0:
92,28,189613,1,0,0:0:0:0:
152,152,189946,38,0,L|156:216,1,52,8|0,0:0|3:0,0:0:0:0:
260,224,190280,2,0,L|256:160,1,52,2|0,0:0|3:0,0:0:0:0:
352,132,190613,22,4,P|411:156|474:147,1,130,4|2,3:0|3:2,0:0:0:0:
360,40,191280,2,0,L|284:48,1,65,4|0,3:0|0:0,0:0:0:0:
220,116,191613,2,0,L|144:108,1,65,2|0,3:2|0:0,0:0:0:0:
228,212,191946,6,0,L|360:200,1,130,4|2,3:0|3:2,0:0:0:0:
300,352,192613,2,0,L|224:344,1,65,4|0,3:0|0:0,0:0:0:0:
168,264,192946,2,0,L|176:188,1,65,2|0,3:2|0:0,0:0:0:0:
84,240,193280,6,4,P|60:299|69:362,1,130,4|2,3:0|3:2,0:0:0:0:
244,384,193946,2,4,P|268:325|259:262,1,130,4|2,3:0|3:2,0:0:0:0:
136,152,194613,2,0,L|68:152,1,65,4|0,3:0|0:0,0:0:0:0:
160,56,194946,2,0,L|224:56,1,65,4|0,0:0|0:0,0:0:0:0:
316,136,195280,2,0,L|304:268,1,130,4|2,3:0|3:2,0:0:0:0:
440,252,195946,6,0,L|446:187,1,65,6|0,3:0|0:0,0:0:0:0:
364,132,196280,2,2,P|305:156|242:147,1,130,2|2,3:0|3:2,0:2:0:0:
136,28,196946,2,0,L|200:34,1,65,4|0,3:0|0:0,0:0:0:0:
288,32,197280,21,4,3:0:0:0:
228,124,197613,1,0,0:0:0:0:
296,204,197946,1,2,0:2:0:0:
236,296,198280,1,0,0:0:0:0:
140,248,198613,38,0,P|127:159|177:85,1,181.999994445801,4|2,0:0|0:0,0:0:0:0:
260,36,199613,1,0,0:0:0:0:
260,36,199946,1,2,0:0:0:0:
384,172,200613,2,2,L|488:160,1,90.9999972229005,2|0,0:0|0:0,0:0:0:0:
444,268,201280,6,2,L|340:280,1,90.9999972229005,2|0,0:0|0:0,0:0:0:0:
248,248,201946,1,2,0:0:0:0:
184,160,202280,1,0,0:0:0:0:
184,160,202613,1,2,0:0:0:0:
332,52,203280,2,2,L|320:156,1,90.9999972229005,2|0,0:0|0:0,0:0:0:0:
256,236,203946,6,2,P|208:252|104:184,1,181.999994445801,4|2,0:0|0:0,0:0:0:0:
96,96,204946,1,0,0:0:0:0:
184,64,205280,2,2,L|196:168,1,90.9999972229005,2|0,0:0|0:0,0:0:0:0:
256,224,205946,1,2,0:0:0:0:
404,332,206613,6,2,P|356:336|308:316,1,90.9999972229005,2|0,0:0|0:0,0:0:0:0:
240,276,207280,2,2,P|197:261|152:265,1,90.9999972229005,2|0,0:0|0:0,0:0:0:0:
68,304,207946,1,2,0:0:0:0:
120,148,208446,1,0,0:0:0:0:
120,148,208613,2,2,L|224:160,1,90.9999972229005,2|0,0:0|0:0,0:0:0:0:
332,248,209280,6,0,P|236:288|180:248,1,181.999994445801,2|2,0:0|0:0,0:0:0:0:
256,168,210280,2,0,B|260:136|260:136|252:108|252:108|256:76,2,90.9999972229005,0|2|0,0:0|0:0|0:0,0:0:0:0:
204,264,211280,1,2,0:0:0:0:
308,264,211613,1,0,0:0:0:0:
380,348,211946,6,0,P|456:320|476:228,1,181.999994445801,2|2,0:0|0:0,2:0:0:0:
396,180,212946,1,0,0:0:0:0:
344,100,213280,1,2,0:0:0:0:
132,156,213946,1,2,0:0:0:0:
184,236,214280,1,0,0:0:0:0:
272,220,214613,6,2,P|332:216|364:228,1,90.9999972229005,4|0,0:0|0:0,0:0:0:0:
412,176,215155,2,2,P|399:132|405:87,1,90.9999972229005,2|0,0:0|0:0,0:0:0:0:
340,32,215738,1,0,0:0:0:0:
340,32,215946,2,2,L|236:20,1,90.9999972229005,2|0,0:0|0:0,0:0:0:0:
196,100,216613,2,2,L|105:110,1,90.9999972229005,2|0,0:0|0:0,0:0:0:0:
16,84,217280,5,4,0:0:0:0:
40,176,217655,2,0,L|34:234,1,56.8749982643128,0|2,0:0|0:0,0:0:0:0:
112,272,218155,2,0,L|116:320,1,45.4999986114502,0|2,0:0|0:0,0:0:0:0:
272,264,218780,5,0,0:0:0:0:
272,264,218946,1,0,0:0:0:0:
272,264,219113,1,0,0:0:0:0:
272,264,219280,2,0,L|284:168,1,90.9999972229005,4|2,0:0|0:0,0:0:0:0:
