osu file format v14

[General]
AudioFilename: audio.mp3
AudioLeadIn: 0
PreviewTime:33784
Countdown: 0
SampleSet: Soft
StackLeniency: 0.6
Mode: 0
LetterboxInBreaks: 0
WidescreenStoryboard: 1

[Editor]
Bookmarks: 33830,56962,80095,103228,126360,149493
DistanceSpacing: 1
BeatDivisor: 4
GridSize: 32
TimelineZoom: 3.299999

[Metadata]
Title:Premonition (Intro)
TitleUnicode:Premonition (Intro)
Artist:Eminem
ArtistUnicode:Eminem
Creator:hehe
Version:Normal
Source:
Tags:tatemae allihoppa sherrycherry loreley anishina kodoku handsome marshall bruce mathers iii slim shady EMINƎM english rap hip-hop hiphop music to be murdered by dr. dre
BeatmapID:3472915
BeatmapSetID:1698774

[Difficulty]
HPDrainRate:3
CircleSize:3.4
OverallDifficulty:4
ApproachRate:5
SliderMultiplier:1
SliderTickRate:1

[Events]
//Background and Video events
0,0,"2806270.jpg",0,0
//Break Periods
//Storyboard Layer 0 (Background)
//Storyboard Layer 1 (Fail)
//Storyboard Layer 2 (Pass)
//Storyboard Layer 3 (Foreground)
//Storyboard Layer 4 (Overlay)
//Storyboard Sound Samples

[TimingPoints]
33829,361.44578313253,4,2,1,70,1,0
33830,-100,4,2,1,70,0,0
56961,-100,4,2,1,80,0,0
80094,-100,4,2,1,90,0,0
103226,-100,4,2,1,100,0,0

[Colours]
Combo1 : 198,0,5
Combo2 : 255,88,70

[HitObjects]
0,237,33828,6,0,P|43:212|91:201,1,100,6|0,1:0|1:0,0:0:0:0:
183,240,34551,2,0,L|292:257,1,100,8|0,1:0|1:0,0:0:0:0:
319,289,35094,2,0,L|354:195,1,100,8|8,1:0|1:0,0:0:0:0:
403,187,35636,2,0,L|395:132,2,50,2|2|14,1:0|1:0|1:0,0:0:0:0:
486,242,36359,1,0,1:0:0:0:
456,337,36720,6,0,L|335:318,1,100,6|0,1:0|1:0,0:0:0:0:
277,382,37443,1,8,1:0:0:0:
277,382,37624,1,8,1:0:0:0:
193,327,37985,2,0,P|185:273|195:214,1,100,8|8,1:0|1:0,0:0:0:0:
186,178,38527,2,0,L|246:164,2,50,2|2|14,1:0|1:0|1:0,0:0:0:0:
99,127,39250,1,0,1:0:0:0:
173,60,39612,6,0,L|289:86,1,100,6|0,1:0|1:0,0:0:0:0:
354,27,40335,2,0,P|402:67|425:117,1,100,8|0,1:0|1:0,0:0:0:0:
468,110,40877,2,0,P|456:166|459:220,1,100,8|8,1:0|1:0,0:0:0:0:
500,233,41419,2,0,L|511:288,2,50,2|2|14,1:0|1:0|1:0,0:0:0:0:
414,285,42142,1,0,1:0:0:0:
322,325,42503,6,0,L|330:209,1,100,6|0,1:0|1:0,0:0:0:0:
414,174,43226,1,8,1:0:0:0:
414,174,43407,1,8,1:0:0:0:
416,74,43768,2,0,B|367:57|367:57|303:68,1,100,8|8,1:0|1:0,0:0:0:0:
270,55,44310,2,0,L|281:-1,2,50,2|2|14,1:0|1:0|1:0,0:0:0:0:
191,116,45033,1,0,1:0:0:0:
133,34,45395,6,0,P|76:38|32:76,1,100,6|0,1:0|1:0,0:0:0:0:
8,156,46118,2,0,L|41:259,1,100,8|0,1:0|1:0,0:0:0:0:
88,244,46660,2,0,L|191:292,1,100,8|8,1:0|1:0,0:0:0:0:
203,329,47202,2,0,L|256:314,2,50,2|2|14,1:0|1:0|1:0,0:0:0:0:
115,377,47925,1,0,1:0:0:0:
23,338,48286,6,0,B|11:312|11:312|37:231,1,100,6|0,1:0|1:0,0:0:0:0:
72,152,49009,1,8,1:0:0:0:
72,152,49190,1,8,1:0:0:0:
151,212,49551,2,0,P|209:193|256:187,1,100,8|8,1:0|1:0,0:0:0:0:
281,150,50094,2,0,L|345:163,2,50,2|2|14,1:0|1:0|1:0,0:0:0:0:
218,72,50816,1,0,1:0:0:0:
306,25,51178,6,0,L|427:10,1,100,6|0,1:0|1:0,0:0:0:0:
487,69,51901,2,0,P|496:116|476:182,1,100,8|0,1:0|1:0,0:0:0:0:
434,163,52443,2,0,L|411:281,1,100,8|8,1:0|1:0,0:0:0:0:
448,298,52985,2,0,L|509:277,2,50,2|2|14,1:0|1:0|1:0,0:0:0:0:
388,378,53708,1,0,1:0:0:0:
332,295,54069,6,0,P|270:310|233:345,1,100,6|0,1:0|1:0,0:0:0:0:
149,368,54792,1,8,1:0:0:0:
149,368,54973,1,8,1:0:0:0:
53,338,55335,2,0,L|66:231,1,100,8|8,1:0|1:0,0:0:0:0:
42,193,55877,5,2,1:0:0:0:
64,95,56238,1,14,1:0:0:0:
158,61,56600,1,0,1:0:0:0:
241,115,56961,6,0,L|346:92,1,100,6|0,1:0|1:0,0:0:0:0:
400,14,57684,1,8,1:0:0:0:
479,73,58045,1,0,1:0:0:0:
479,73,58226,2,0,L|472:176,1,100,8|8,1:0|1:0,0:0:0:0:
428,197,58768,2,0,L|453:249,2,50,2|2|14,1:0|1:0|1:0,0:0:0:0:
340,245,59491,1,0,1:0:0:0:
353,344,59853,6,0,L|244:364,1,100,6|0,1:0|1:0,0:0:0:0:
199,278,60575,1,8,1:0:0:0:
199,278,60756,2,0,L|92:266,1,100,8|8,1:0|1:0,0:0:0:0:
44,183,61479,1,8,1:0:0:0:
44,183,61660,2,0,L|29:129,2,50,2|2|14,1:0|1:0|1:0,0:0:0:0:
144,185,62383,1,0,1:0:0:0:
141,85,62744,6,0,P|191:52|253:47,1,100,6|0,1:0|1:0,0:0:0:0:
319,89,63467,1,8,1:0:0:0:
399,29,63828,1,0,1:0:0:0:
399,29,64009,2,0,L|457:122,1,100,8|8,1:0|1:0,0:0:0:0:
420,152,64551,2,0,L|400:213,2,50,2|2|14,1:0|1:0|1:0,0:0:0:0:
504,205,65274,1,0,1:0:0:0:
448,288,65636,6,0,L|347:332,1,100,6|0,1:0|1:0,0:0:0:0:
264,359,66359,1,8,1:0:0:0:
264,359,66539,2,0,L|279:257,1,100,8|8,1:0|1:0,0:0:0:0:
231,171,67262,1,8,1:0:0:0:
231,171,67443,2,0,L|226:114,2,50,2|2|14,1:0|1:0|1:0,0:0:0:0:
160,241,68166,1,0,1:0:0:0:
69,199,68527,6,0,P|78:144|68:85,1,100,6|0,1:0|1:0,0:0:0:0:
39,62,69069,1,0,1:0:0:0:
39,62,69250,2,0,L|154:41,1,100,8|0,1:0|1:0,0:0:0:0:
172,7,69792,2,0,L|280:18,1,100,8|8,1:0|1:0,0:0:0:0:
295,61,70335,2,0,L|358:49,2,50,2|2|14,1:0|1:0|1:0,0:0:0:0:
249,150,71057,1,0,1:0:0:0:
327,212,71419,6,0,P|312:259|316:324,1,100,6|0,1:0|1:0,0:0:0:0:
235,372,72142,1,8,1:0:0:0:
235,372,72322,2,0,P|202:335|179:274,1,100,8|8,1:0|1:0,0:0:0:0:
91,247,73045,1,8,1:0:0:0:
91,247,73226,2,0,L|79:302,2,50,2|2|14,1:0|1:0|1:0,0:0:0:0:
63,150,73949,1,0,1:0:0:0:
150,101,74310,6,0,L|264:110,1,100,6|0,1:0|1:0,0:0:0:0:
328,46,75033,1,8,1:0:0:0:
421,82,75395,1,0,1:0:0:0:
421,82,75575,2,0,P|451:132|452:183,1,100,8|8,1:0|1:0,0:0:0:0:
417,206,76118,2,0,L|433:257,2,50,2|2|14,1:0|1:0|1:0,0:0:0:0:
317,191,76841,1,0,1:0:0:0:
305,290,77202,6,0,L|195:306,1,100,6|0,1:0|1:0,0:0:0:0:
199,204,77925,1,8,1:0:0:0:
199,204,78106,2,0,P|157:180|135:125,1,100,8|8,1:0|1:0,0:0:0:0:
51,80,78828,1,8,1:0:0:0:
51,80,79009,2,0,L|36:22,2,50,2|2|14,1:0|1:0|1:0,0:0:0:0:
13,172,79732,2,0,L|11:227,1,50,0|0,1:0|1:0,0:0:0:0:
53,248,80094,5,6,1:0:0:0:
11,338,80455,1,0,1:0:0:0:
100,382,80816,1,8,1:0:0:0:
146,293,81178,1,0,1:0:0:0:
146,293,81359,2,0,L|248:280,1,100,8|8,1:0|1:0,0:0:0:0:
281,314,81901,2,0,L|340:321,1,50,2|2,1:0|1:0,0:0:0:0:
380,325,82262,2,0,L|361:221,1,100,14|0,1:0|1:0,0:0:0:0:
317,136,82985,5,6,1:0:0:0:
379,57,83347,1,0,1:0:0:0:
286,19,83708,1,8,1:0:0:0:
286,19,83889,2,0,L|189:43,1,100,8|8,1:0|1:0,0:0:0:0:
92,15,84612,1,8,1:0:0:0:
92,15,84792,2,0,L|59:70,1,50,2|2,1:0|1:0,0:0:0:0:
17,68,85154,2,0,L|39:184,1,100,14|0,1:0|1:0,0:0:0:0:
6,262,85877,6,0,P|42:297|72:362,1,100,6|0,1:0|1:0,0:0:0:0:
160,372,86600,1,8,1:0:0:0:
160,372,86780,1,0,1:0:0:0:
233,303,87142,2,0,L|353:295,1,100,8|8,1:0|1:0,0:0:0:0:
372,326,87684,2,0,L|352:379,2,50,2|2|14,1:0|1:0|1:0,0:0:0:0:
466,291,88407,1,0,1:0:0:0:
408,209,88768,6,0,L|393:107,1,100,6|0,1:0|1:0,0:0:0:0:
332,30,89491,1,8,1:0:0:0:
332,30,89672,1,8,1:0:0:0:
248,84,90033,1,8,1:0:0:0:
157,41,90395,1,8,1:0:0:0:
157,41,90575,2,0,L|141:92,1,50,2|2,1:0|1:0,0:0:0:0:
100,117,90937,2,0,B|116:146|116:146|200:164,1,100,14|0,1:0|1:0,0:0:0:0:
255,227,91660,5,6,1:0:0:0:
322,153,92021,1,0,1:0:0:0:
398,217,92383,1,8,1:0:0:0:
398,217,92563,2,0,L|384:330,1,100,0|8,1:0|1:0,0:0:0:0:
288,338,93286,1,8,1:0:0:0:
288,338,93467,2,0,L|231:358,1,50,2|2,1:0|1:0,0:0:0:0:
220,308,93828,2,0,L|117:291,1,100,14|0,1:0|1:0,0:0:0:0:
43,355,94551,6,0,B|20:278|20:278|32:247,1,100,6|0,1:0|1:0,0:0:0:0:
100,191,95274,1,8,1:0:0:0:
100,191,95455,1,8,1:0:0:0:
36,114,95816,1,8,1:0:0:0:
108,44,96178,1,8,1:0:0:0:
108,44,96359,2,0,L|176:28,1,50,2|2,1:0|1:0,0:0:0:0:
193,67,96720,2,0,L|306:80,1,100,14|0,1:0|1:0,0:0:0:0:
372,18,97443,6,0,L|475:5,1,100,6|0,1:0|1:0,0:0:0:0:
501,101,98166,2,0,P|485:156|433:178,1,100,8|0,1:0|1:0,0:0:0:0:
425,219,98708,2,0,L|323:205,1,100,8|8,1:0|1:0,0:0:0:0:
290,241,99250,2,0,L|239:254,2,50,2|2|14,1:0|1:0|1:0,0:0:0:0:
364,307,99973,1,0,1:0:0:0:
279,360,100335,6,0,L|168:344,1,100,6|0,1:0|1:0,0:0:0:0:
84,373,101057,1,8,1:0:0:0:
84,373,101238,2,0,P|64:318|78:262,1,100,8|8,1:0|1:0,0:0:0:0:
148,215,101961,1,8,1:0:0:0:
148,215,102142,2,0,L|134:161,1,50,2|2,1:0|1:0,0:0:0:0:
88,148,102503,1,14,1:0:0:0:
145,65,102865,1,0,1:0:0:0:
223,126,103226,6,0,L|340:117,1,100,6|0,1:0|1:0,0:0:0:0:
368,29,103949,1,8,1:0:0:0:
453,80,104310,1,0,1:0:0:0:
453,80,104491,2,0,L|489:182,1,100,8|8,1:0|1:0,0:0:0:0:
447,206,105033,1,2,1:0:0:0:
408,238,105214,1,2,1:0:0:0:
370,271,105395,2,0,L|268:261,1,100,14|0,1:0|1:0,0:0:0:0:
194,326,106118,6,0,L|98:358,1,100,6|0,1:0|1:0,0:0:0:0:
20,294,106841,1,8,1:0:0:0:
20,294,107021,1,8,1:0:0:0:
79,213,107383,2,0,L|67:99,1,100,8|8,1:0|1:0,0:0:0:0:
37,74,107925,1,2,1:0:0:0:
84,56,108106,1,2,1:0:0:0:
130,39,108286,2,0,L|241:62,1,100,14|0,1:0|1:0,0:0:0:0:
321,23,109009,6,0,B|345:68|345:68|337:131,1,100,6|0,1:0|1:0,0:0:0:0:
415,180,109732,1,8,1:0:0:0:
383,275,110094,1,0,1:0:0:0:
383,275,110274,2,0,L|280:255,1,100,8|8,1:0|1:0,0:0:0:0:
235,262,110816,1,2,1:0:0:0:
185,268,110997,1,2,1:0:0:0:
135,274,111178,2,0,L|167:163,1,100,14|0,1:0|1:0,0:0:0:0:
259,153,111901,6,0,L|248:42,1,100,6|0,1:0|1:0,0:0:0:0:
158,11,112624,1,8,1:0:0:0:
158,11,112804,1,8,1:0:0:0:
64,47,113166,2,0,B|41:69|41:69|27:152,1,100,8|8,1:0|1:0,0:0:0:0:
26,186,113708,1,2,1:0:0:0:
71,207,113889,1,2,1:0:0:0:
116,228,114069,2,0,L|149:338,1,100,14|0,1:0|1:0,0:0:0:0:
244,320,114792,6,0,L|348:348,1,100,6|0,1:0|1:0,0:0:0:0:
436,373,115515,1,8,1:0:0:0:
503,298,115877,1,0,1:0:0:0:
503,298,116057,2,0,L|470:195,1,100,8|8,1:0|1:0,0:0:0:0:
489,155,116600,1,2,1:0:0:0:
495,105,116780,1,2,1:0:0:0:
502,55,116961,2,0,L|402:27,1,100,14|0,1:0|1:0,0:0:0:0:
351,111,117684,6,0,B|292:112|292:112|251:138,1,100,6|0,1:0|1:0,0:0:0:0:
275,232,118407,1,8,1:0:0:0:
275,232,118588,1,8,1:0:0:0:
180,264,118949,2,0,L|157:152,1,100,8|8,1:0|1:0,0:0:0:0:
110,159,119491,1,2,1:0:0:0:
124,111,119672,1,2,1:0:0:0:
139,63,119853,2,0,L|29:29,1,100,14|0,1:0|1:0,0:0:0:0:
17,129,120575,6,0,B|26:211|26:211|42:227,1,100,6|0,1:0|1:0,0:0:0:0:
22,322,121298,1,8,1:0:0:0:
120,339,121660,1,0,1:0:0:0:
120,339,121841,2,0,L|231:312,1,100,8|8,1:0|1:0,0:0:0:0:
254,348,122383,1,2,1:0:0:0:
303,355,122563,1,2,1:0:0:0:
352,362,122744,2,0,L|462:376|462:376,1,100,14|0,1:0|1:0,0:0:0:0:
508,292,123467,6,0,L|485:189,1,100,6|0,1:0|1:0,0:0:0:0:
387,213,124190,1,8,1:0:0:0:
387,213,124371,1,8,1:0:0:0:
334,128,124732,2,0,L|374:15,1,100,8|8,1:0|1:0,0:0:0:0:
318,22,125274,1,2,1:0:0:0:
268,16,125455,1,2,1:0:0:0:
218,10,125636,2,0,L|185:114,1,100,14|0,1:0|1:0,0:0:0:0:
92,135,126359,5,6,1:0:0:0:
79,234,126720,1,0,1:0:0:0:
167,281,127082,1,8,1:0:0:0:
250,224,127443,1,0,1:0:0:0:
250,224,127624,2,0,L|364:243,1,100,8|8,1:0|1:0,0:0:0:0:
383,275,128166,1,2,1:0:0:0:
423,245,128347,1,2,1:0:0:0:
463,216,128527,2,0,B|496:255|496:255|501:310,1,100,14|0,1:0|1:0,0:0:0:0:
420,363,129250,5,6,1:0:0:0:
328,322,129612,1,0,1:0:0:0:
244,377,129973,1,8,1:0:0:0:
244,377,130154,1,8,1:0:0:0:
175,304,130515,2,0,L|189:201,1,100,8|8,1:0|1:0,0:0:0:0:
225,171,131057,1,2,1:0:0:0:
205,124,131238,1,2,1:0:0:0:
185,77,131419,2,0,L|286:44,1,100,14|0,1:0|1:0,0:0:0:0:
376,71,132142,5,6,1:0:0:0:
470,37,132503,1,0,1:0:0:0:
497,133,132865,1,8,1:0:0:0:
400,160,133226,1,0,1:0:0:0:
400,160,133407,2,0,L|388:263,1,100,8|8,1:0|1:0,0:0:0:0:
414,302,133949,1,2,1:0:0:0:
365,315,134130,1,2,1:0:0:0:
317,329,134310,2,0,L|208:310,1,100,14|0,1:0|1:0,0:0:0:0:
139,373,135033,5,6,1:0:0:0:
62,308,135395,1,0,1:0:0:0:
89,212,135756,1,8,1:0:0:0:
89,212,135937,1,8,1:0:0:0:
181,174,136298,2,0,L|204:65,1,100,8|8,1:0|1:0,0:0:0:0:
180,30,136841,1,2,1:0:0:0:
229,21,137021,1,2,1:0:0:0:
278,12,137202,2,0,L|387:48,1,100,14|0,1:0|1:0,0:0:0:0:
472,34,137925,5,6,1:0:0:0:
507,127,138286,1,0,1:0:0:0:
415,168,138648,1,8,1:0:0:0:
441,264,139009,1,0,1:0:0:0:
441,264,139190,2,0,L|465:377,1,100,8|8,1:0|1:0,0:0:0:0:
411,361,139732,1,2,1:0:0:0:
362,347,139913,1,2,1:0:0:0:
313,333,140094,2,0,L|209:360,1,100,14|0,1:0|1:0,0:0:0:0:
168,270,140816,5,6,1:0:0:0:
77,312,141178,1,0,1:0:0:0:
17,231,141539,1,8,1:0:0:0:
17,231,141720,1,8,1:0:0:0:
68,145,142082,2,0,L|53:37,1,100,8|8,1:0|1:0,0:0:0:0:
98,22,142624,1,2,1:0:0:0:
147,28,142804,1,2,1:0:0:0:
196,34,142985,2,0,L|303:21,1,100,14|0,1:0|1:0,0:0:0:0:
353,103,143708,5,6,1:0:0:0:
271,160,144069,1,0,1:0:0:0:
296,256,144431,1,8,1:0:0:0:
389,291,144792,1,0,1:0:0:0:
389,291,144973,2,0,L|496:306,1,100,8|8,1:0|1:0,0:0:0:0:
474,256,145515,1,2,1:0:0:0:
461,207,145696,1,2,1:0:0:0:
451,157,145877,2,0,L|470:43,1,100,14|0,1:0|1:0,0:0:0:0:
377,14,146600,5,6,1:0:0:0:
292,66,146961,1,0,1:0:0:0:
208,120,147322,1,8,1:0:0:0:
208,120,147503,1,8,1:0:0:0:
250,210,147865,2,0,L|258:319,1,100,8|8,1:0|1:0,0:0:0:0:
209,324,148407,1,2,1:0:0:0:
161,338,148588,1,2,1:0:0:0:
113,353,148768,2,0,L|11:303,1,100,14|0,1:0|1:0,0:0:0:0:
54,213,149491,6,0,B|48:158|48:158|21:107,1,100,6|0,1:0|1:0,0:0:0:0:
54,22,150214,1,8,1:0:0:0:
146,60,150575,1,0,1:0:0:0:
146,60,150756,2,0,L|261:44,1,100,8|8,1:0|1:0,0:0:0:0:
282,12,151298,1,2,1:0:0:0:
328,30,151479,1,2,1:0:0:0:
373,50,151660,2,0,L|411:158,1,100,14|0,1:0|1:0,0:0:0:0:
506,148,152383,6,0,L|497:258,1,100,6|0,1:0|1:0,0:0:0:0:
398,260,153106,1,8,1:0:0:0:
398,260,153286,1,8,1:0:0:0:
339,341,153648,2,0,B|318:353|318:353|225:331,1,100,8|8,1:0|1:0,0:0:0:0:
197,352,154190,1,2,1:0:0:0:
162,316,154371,1,2,1:0:0:0:
127,280,154551,1,14,1:0:0:0:
184,197,154913,1,0,1:0:0:0:
111,128,155274,5,6,1:0:0:0:
270,7,155997,2,0,L|366:59,1,100,8|0,1:0|1:0,0:0:0:0:
368,104,156539,2,0,L|490:122,1,100,8|8,1:0|1:0,0:0:0:0:
477,167,157082,1,2,1:0:0:0:
488,215,157262,1,2,1:0:0:0:
499,263,157443,2,0,L|474:378,1,100,14|0,1:0|1:0,0:0:0:0:
379,344,158166,6,0,B|358:326|358:326|274:311,1,100,6|0,1:0|1:0,0:0:0:0:
209,377,158889,1,8,1:0:0:0:
209,377,159069,1,8,1:0:0:0:
119,331,159431,2,0,L|15:353,1,100,8|8,1:0|1:0,0:0:0:0:
35,303,159973,1,2,1:0:0:0:
50,255,160154,1,2,1:0:0:0:
65,207,160335,1,14,1:0:0:0:
160,176,160696,1,0,1:0:0:0:
161,276,161057,5,6,1:0:0:0:
356,318,161780,2,0,L|369:206,1,100,8|0,1:0|1:0,0:0:0:0:
417,211,162322,2,0,L|491:127,1,100,8|8,1:0|1:0,0:0:0:0:
484,85,162865,1,2,1:0:0:0:
442,57,163045,1,2,1:0:0:0:
398,32,163226,2,0,L|300:62,1,100,14|0,1:0|1:0,0:0:0:0:
207,29,163949,5,6,1:0:0:0:
115,69,164310,1,0,1:0:0:0:
103,168,164672,1,8,1:0:0:0:
103,168,164853,1,8,1:0:0:0:
180,231,165214,1,8,1:0:0:0:
266,180,165575,1,8,1:0:0:0:
266,180,165756,2,0,L|278:117,2,50,2|2|6,1:0|1:0|1:0,0:0:0:0:
457,237,166841,5,6,1:0:0:0:
384,305,167202,1,0,1:0:0:0:
291,343,167563,1,8,1:0:0:0:
192,326,167925,1,0,1:0:0:0:
192,326,168106,1,8,1:0:0:0:
186,231,168467,1,8,1:0:0:0:
186,231,168648,2,0,L|165:172,1,50,2|2,1:0|1:0,0:0:0:0:
121,167,169009,2,0,L|129:60,1,100,14|0,1:0|1:0,0:0:0:0:
205,2,169732,5,6,1:0:0:0:
297,41,170094,1,0,1:0:0:0:
214,94,170455,1,8,1:0:0:0:
214,94,170636,1,8,1:0:0:0:
300,145,170997,1,8,1:0:0:0:
215,194,171359,1,8,1:0:0:0:
215,194,171539,2,0,L|225:253,1,50,2|2,1:0|1:0,0:0:0:0:
273,242,171901,2,0,L|258:350,1,100,14|0,1:0|1:0,0:0:0:0:
214,363,172443,1,0,1:0:0:0:
214,363,172624,1,2,1:0:0:0:
