osu file format v14

[General]
AudioFilename: audio.mp3
AudioLeadIn: 0
PreviewTime:33784
Countdown: 0
SampleSet: Soft
StackLeniency: 0.6
Mode: 0
LetterboxInBreaks: 0
WidescreenStoryboard: 1

[Editor]
Bookmarks:33830,56962,80095,103228,126360,149493,172625
DistanceSpacing: 1
BeatDivisor: 4
GridSize: 32
TimelineZoom: 3.299999

[Metadata]
Title:Premonition (Intro)
TitleUnicode:Premonition (Intro)
Artist:Eminem
ArtistUnicode:Eminem
Creator:hehe
Version:Hard
Source:
Tags:tatemae allihoppa sherrycherry loreley anishina kodoku handsome marshall bruce mathers iii slim shady EMINƎM english rap hip-hop hiphop music to be murdered by dr. dre
BeatmapID:3472914
BeatmapSetID:1698774

[Difficulty]
HPDrainRate:4
CircleSize:3.6
OverallDifficulty:6
ApproachRate:7.5
SliderMultiplier:1.4
SliderTickRate:1

[Events]
//Background and Video events
0,0,"2806270.jpg",0,0
//Break Periods
//Storyboard Layer 0 (Background)
//Storyboard Layer 1 (Fail)
//Storyboard Layer 2 (Pass)
//Storyboard Layer 3 (Foreground)
//Storyboard Layer 4 (Overlay)
//Storyboard Sound Samples

[TimingPoints]
33829,361.44578313253,4,2,1,70,1,0
33830,-100,4,2,1,70,0,0
56961,-100,4,2,1,80,0,0
80094,-100,4,2,1,90,0,0
103226,-83.3333333333333,4,2,1,100,0,0

[Colours]
Combo1 : 198,0,5
Combo2 : 255,88,70

[HitObjects]
87,258,33828,6,0,B|145:268|145:268|163:285|163:285|232:298,1,140,6|0,1:0|1:0,0:0:0:0:
277,355,34371,1,0,1:0:0:0:
277,355,34551,2,0,P|299:317|302:278,1,70,8|0,1:0|1:0,0:0:0:0:
380,255,34913,1,0,1:0:0:0:
380,255,35094,2,0,L|366:172,1,70,8|0,1:0|1:0,0:0:0:0:
292,150,35455,1,8,1:0:0:0:
292,150,35636,5,2,1:0:0:0:
230,206,35816,1,2,1:0:0:0:
175,142,35997,2,0,B|160:127|160:127|34:162,1,140,14|0,1:0|1:0,0:0:0:0:
4,85,36539,1,0,1:0:0:0:
53,16,36720,6,0,L|203:32,1,140,6|0,1:0|1:0,0:0:0:0:
271,3,37262,1,0,1:0:0:0:
271,3,37443,1,8,1:0:0:0:
347,37,37624,2,0,P|356:89|348:117,1,70,8|0,1:0|1:0,0:0:0:0:
271,126,37985,2,0,P|262:178|270:206,1,70,8|0,1:0|1:0,0:0:0:0:
336,240,38347,1,8,1:0:0:0:
336,240,38527,5,2,1:0:0:0:
413,206,38708,1,2,1:0:0:0:
451,280,38889,2,0,B|459:213|459:213|467:202|467:202|475:134,1,140,14|0,1:0|1:0,0:0:0:0:
510,67,39431,1,0,1:0:0:0:
445,12,39612,6,0,B|412:5|412:5|343:46|343:46|336:78,1,140,6|0,1:0|1:0,0:0:0:0:
398,129,40154,1,0,1:0:0:0:
398,129,40335,2,0,L|386:207,1,70,8|0,1:0|1:0,0:0:0:0:
306,220,40696,1,0,1:0:0:0:
306,220,40877,2,0,B|271:208|271:208|230:220,1,70,8|0,1:0|1:0,0:0:0:0:
180,276,41238,1,8,1:0:0:0:
180,276,41419,5,2,1:0:0:0:
110,228,41600,1,2,1:0:0:0:
65,298,41780,2,0,B|50:183|50:183|24:158,1,140,14|0,1:0|1:0,0:0:0:0:
38,82,42322,1,0,1:0:0:0:
117,53,42503,6,0,B|179:188,1,140,6|0,1:0|1:0,0:0:0:0:
257,161,43045,1,0,1:0:0:0:
257,161,43226,1,8,1:0:0:0:
310,225,43407,2,0,L|302:304,1,70,8|0,1:0|1:0,0:0:0:0:
382,182,43768,2,0,L|371:105,1,70,8|0,1:0|1:0,0:0:0:0:
313,51,44130,1,8,1:0:0:0:
313,51,44310,5,2,1:0:0:0:
389,15,44491,1,2,1:0:0:0:
462,55,44672,2,0,B|454:86|454:86|475:203,1,140,14|0,1:0|1:0,0:0:0:0:
418,256,45214,1,0,1:0:0:0:
474,318,45395,6,0,B|439:366|439:366|420:368|420:368|361:330,1,140,6|0,1:0|1:0,0:0:0:0:
288,355,45937,1,0,1:0:0:0:
288,355,46118,2,0,L|211:371,1,70,8|0,1:0|1:0,0:0:0:0:
141,338,46479,1,0,1:0:0:0:
141,338,46660,2,0,P|147:290|141:257,1,70,8|0,1:0|1:0,0:0:0:0:
175,190,47021,1,8,1:0:0:0:
175,190,47202,5,2,1:0:0:0:
242,240,47383,1,2,1:0:0:0:
288,170,47563,2,0,B|279:128|279:128|239:84|239:84|229:36,1,140,14|0,1:0|1:0,0:0:0:0:
156,7,48106,1,0,1:0:0:0:
72,11,48286,6,0,L|51:166,1,140,6|0,1:0|1:0,0:0:0:0:
8,220,48828,1,0,1:0:0:0:
8,220,49009,1,8,1:0:0:0:
81,261,49190,2,0,L|154:231,1,70,8|0,1:0|1:0,0:0:0:0:
29,337,49551,2,0,L|104:349,1,70,8|0,1:0|1:0,0:0:0:0:
175,381,49913,1,8,1:0:0:0:
175,381,50094,5,2,1:0:0:0:
222,311,50274,1,2,1:0:0:0:
297,348,50455,2,0,B|320:320|320:320|397:312|397:312|428:330,1,140,14|0,1:0|1:0,0:0:0:0:
486,376,50997,1,0,1:0:0:0:
498,292,51178,6,0,B|475:189|475:189|509:160,1,140,6|0,1:0|1:0,0:0:0:0:
457,95,51720,1,0,1:0:0:0:
457,95,51901,2,0,L|356:89,1,70,8|0,1:0|1:0,0:0:0:0:
347,22,52262,1,0,1:0:0:0:
347,22,52443,2,0,P|310:58|301:87,1,70,8|0,1:0|1:0,0:0:0:0:
227,110,52804,1,8,1:0:0:0:
227,110,52985,5,2,1:0:0:0:
270,181,53166,1,2,1:0:0:0:
201,229,53347,2,0,B|179:212|179:212|57:229,1,140,14|0,1:0|1:0,0:0:0:0:
20,158,53889,1,0,1:0:0:0:
83,103,54069,6,0,B|91:43|91:43|110:34|110:34|180:69,1,140,6|0,1:0|1:0,0:0:0:0:
241,30,54612,1,0,1:0:0:0:
262,110,54792,5,8,1:0:0:0:
262,110,54973,1,8,1:0:0:0:
420,54,55335,1,8,1:0:0:0:
479,210,55696,1,8,1:0:0:0:
479,210,55877,6,0,L|405:227,1,70,2|2,1:0|1:0,0:0:0:0:
359,292,56238,2,0,B|250:262|250:262|211:266,1,140,14|0,1:0|1:0,0:0:0:0:
165,326,56780,1,0,1:0:0:0:
86,296,56961,6,0,L|76:144,1,140,6|0,1:0|1:0,0:0:0:0:
16,98,57503,1,0,1:0:0:0:
16,98,57684,1,8,1:0:0:0:
166,22,58045,2,0,L|262:33,1,70,0|8,1:0|1:0,0:0:0:0:
304,79,58407,2,0,L|237:133,1,70,0|8,1:0|1:0,0:0:0:0:
171,153,58768,5,2,1:0:0:0:
218,222,58949,1,2,1:0:0:0:
149,270,59130,2,0,B|212:264|212:264|232:278|232:278|305:296,1,140,14|0,1:0|1:0,0:0:0:0:
339,352,59672,1,0,1:0:0:0:
421,333,59853,6,0,B|439:230|439:230|415:194,1,140,6|0,1:0|1:0,0:0:0:0:
335,191,60395,1,0,1:0:0:0:
335,191,60575,2,0,L|348:108,1,70,8|8,1:0|1:0,0:0:0:0:
433,117,60937,1,0,1:0:0:0:
433,117,61117,2,0,L|420:34,1,70,8|0,1:0|1:0,0:0:0:0:
344,15,61479,1,8,1:0:0:0:
344,15,61660,5,2,1:0:0:0:
284,74,61841,1,2,1:0:0:0:
214,27,62021,2,0,B|181:36|181:36|136:143,1,140,14|0,1:0|1:0,0:0:0:0:
57,150,62563,1,0,1:0:0:0:
92,226,62744,6,0,B|116:279|116:279|136:297|136:297|163:356,1,140,6|0,1:0|1:0,0:0:0:0:
235,311,63286,1,0,1:0:0:0:
294,369,63467,1,8,1:0:0:0:
374,345,63648,1,0,1:0:0:0:
450,379,63828,1,0,1:0:0:0:
494,307,64009,2,0,L|467:219,1,70,8|0,1:0|1:0,0:0:0:0:
391,219,64371,1,8,1:0:0:0:
391,219,64551,5,2,1:0:0:0:
403,135,64732,1,2,1:0:0:0:
321,113,64913,2,0,B|266:135|266:135|243:122|243:122|241:57,1,140,14|0,1:0|1:0,0:0:0:0:
317,31,65455,1,0,1:0:0:0:
399,14,65636,6,0,L|480:160,1,140,6|0,1:0|1:0,0:0:0:0:
316,211,66359,2,0,L|306:286,1,70,8|8,1:0|1:0,0:0:0:0:
229,313,66720,2,0,L|219:238,1,70,0|8,1:0|1:0,0:0:0:0:
146,315,67082,2,0,L|136:390,1,70,0|8,1:0|1:0,0:0:0:0:
82,260,67443,5,2,1:0:0:0:
130,191,67624,1,2,1:0:0:0:
57,149,67804,2,0,B|32:139|32:139|20:54|20:54|51:27,1,140,14|0,1:0|1:0,0:0:0:0:
122,16,68347,1,0,1:0:0:0:
163,88,68527,6,0,L|320:120,1,140,6|0,1:0|1:0,0:0:0:0:
358,55,69069,1,0,1:0:0:0:
358,55,69160,1,0,0:0:0:0:
358,55,69250,1,8,1:0:0:0:
431,96,69431,2,0,P|448:133|446:183,1,70,0|0,1:0|1:0,0:0:0:0:
369,185,69792,2,0,P|354:223|318:257,1,70,8|0,1:0|1:0,0:0:0:0:
353,327,70154,1,8,1:0:0:0:
353,327,70335,5,2,1:0:0:0:
422,373,70515,1,2,1:0:0:0:
485,317,70696,2,0,B|498:258|498:258|495:232|495:232|506:176,1,140,14|0,1:0|1:0,0:0:0:0:
438,128,71238,1,0,1:0:0:0:
508,82,71419,6,0,L|362:63,1,140,6|0,1:0|1:0,0:0:0:0:
208,13,72142,2,0,L|189:90,1,70,8|8,1:0|1:0,0:0:0:0:
202,121,72413,1,0,0:0:0:0:
202,121,72503,1,0,1:0:0:0:
128,161,72684,1,8,1:0:0:0:
173,231,72865,2,0,L|260:252,1,70,0|8,1:0|1:0,0:0:0:0:
107,288,73226,5,2,1:0:0:0:
67,362,73407,1,2,1:0:0:0:
3,306,73588,2,0,P|11:260|39:229,1,70,14|0,1:0|1:0,0:0:0:0:
29,157,73949,2,0,P|72:140|113:149,1,70,0|0,1:0|1:0,0:0:0:0:
155,83,74310,6,0,B|188:99|188:99|309:75,1,140,6|0,1:0|1:0,0:0:0:0:
341,12,74853,1,0,1:0:0:0:
341,12,75033,2,0,L|431:25,1,70,8|0,1:0|1:0,0:0:0:0:
454,99,75395,1,0,1:0:0:0:
454,99,75575,2,0,L|364:112,1,70,8|0,1:0|1:0,0:0:0:0:
328,171,75937,1,8,1:0:0:0:
328,171,76118,5,2,1:0:0:0:
313,253,76298,1,2,1:0:0:0:
395,269,76479,2,0,B|404:303|404:303|467:331|467:331|501:315,1,140,14|0,1:0|1:0,0:0:0:0:
475,235,77021,1,0,1:0:0:0:
489,152,77202,6,0,L|407:32,1,140,6|0,1:0|1:0,0:0:0:0:
326,24,77744,1,0,1:0:0:0:
326,24,77925,1,8,1:0:0:0:
280,94,78106,2,0,L|193:107,1,70,8|0,1:0|1:0,0:0:0:0:
130,14,78467,2,0,L|217:27,1,70,8|0,1:0|1:0,0:0:0:0:
60,63,78828,1,8,1:0:0:0:
60,63,79009,5,2,1:0:0:0:
10,131,79190,1,2,1:0:0:0:
82,174,79371,1,14,1:0:0:0:
248,152,79732,2,0,L|262:68,1,70,0|0,1:0|1:0,0:0:0:0:
330,36,80094,5,6,1:0:0:0:
356,115,80274,1,0,1:0:0:0:
425,66,80455,1,0,1:0:0:0:
497,108,80636,1,0,1:0:0:0:
489,191,80816,1,8,1:0:0:0:
322,213,81178,5,0,1:0:0:0:
322,213,81359,2,0,L|335:297,1,70,8|0,1:0|1:0,0:0:0:0:
272,341,81720,1,8,1:0:0:0:
272,341,81810,1,0,0:0:0:0:
272,341,81901,1,2,1:0:0:0:
199,298,82082,1,2,1:0:0:0:
125,337,82262,2,0,L|31:357,1,70,14|0,1:0|1:0,0:0:0:0:
21,274,82624,2,0,B|37:217|37:217|53:203|53:203|82:119,1,140,0|6,1:0|1:0,0:0:0:0:
10,89,83166,5,0,1:0:0:0:
10,89,83347,2,0,P|45:52|88:42,1,70,0|0,1:0|1:0,0:0:0:0:
140,75,83708,1,8,1:0:0:0:
209,28,83889,2,0,L|303:65,1,70,8|0,1:0|1:0,0:0:0:0:
350,17,84250,1,8,1:0:0:0:
350,17,84431,2,0,L|370:91,1,70,0|8,1:0|1:0,0:0:0:0:
314,149,84792,5,2,1:0:0:0:
363,216,84973,1,2,1:0:0:0:
445,199,85154,2,0,L|469:289,1,70,14|0,1:0|1:0,0:0:0:0:
510,336,85515,2,0,B|412:373|412:373|371:362,1,140,0|6,1:0|1:0,0:0:0:0:
337,290,86057,5,0,1:0:0:0:
337,290,86238,2,0,P|281:306|253:333,1,70,0|0,1:0|1:0,0:0:0:0:
221,380,86600,1,8,1:0:0:0:
160,322,86780,2,0,L|144:235,1,70,0|0,1:0|1:0,0:0:0:0:
226,223,87142,2,0,L|238:142,1,70,8|0,1:0|1:0,0:0:0:0:
313,119,87503,1,8,1:0:0:0:
313,119,87684,5,2,1:0:0:0:
294,36,87865,1,2,1:0:0:0:
211,23,88045,2,0,L|143:64,1,70,14|0,1:0|1:0,0:0:0:0:
68,39,88407,2,0,B|74:88|74:88|120:188,1,140,0|6,1:0|1:0,0:0:0:0:
29,189,88949,5,0,1:0:0:0:
18,272,89130,1,0,1:0:0:0:
101,266,89310,1,0,1:0:0:0:
140,340,89491,2,0,L|222:368,1,70,8|8,1:0|1:0,0:0:0:0:
258,295,89853,1,0,1:0:0:0:
258,295,90033,2,0,L|351:266,1,70,8|0,1:0|1:0,0:0:0:0:
382,336,90395,1,8,1:0:0:0:
382,336,90575,5,2,1:0:0:0:
454,378,90756,1,2,1:0:0:0:
507,312,90937,2,0,L|495:213,1,70,14|0,1:0|1:0,0:0:0:0:
419,213,91298,2,0,B|381:166|381:166|357:162|357:162|301:192,1,140,0|6,1:0|1:0,0:0:0:0:
247,129,91841,5,0,1:0:0:0:
247,129,92021,2,0,L|154:152,1,70,0|0,1:0|1:0,0:0:0:0:
185,230,92383,2,0,L|35:204,1,140,8|0,1:0|1:0,0:0:0:0:
3,278,92925,2,0,P|41:301|67:342,1,70,8|0,1:0|1:0,0:0:0:0:
114,381,93286,1,8,1:0:0:0:
114,381,93467,5,2,1:0:0:0:
164,313,93648,1,2,1:0:0:0:
244,336,93828,2,0,L|325:348,1,70,14|0,1:0|1:0,0:0:0:0:
368,282,94190,2,0,B|364:246|364:246|322:193|322:193|274:192,1,140,0|6,1:0|1:0,0:0:0:0:
237,123,94732,6,0,L|254:39,1,70,0|0,1:0|1:0,0:0:0:0:
174,17,95094,1,0,1:0:0:0:
174,17,95184,1,0,0:0:0:0:
174,17,95274,1,8,1:0:0:0:
99,56,95455,2,0,L|86:142,1,70,8|0,1:0|1:0,0:0:0:0:
27,183,95816,2,0,L|44:261,1,70,8|0,1:0|1:0,0:0:0:0:
126,247,96178,1,8,1:0:0:0:
126,247,96359,5,2,1:0:0:0:
106,328,96539,1,2,1:0:0:0:
181,365,96720,2,0,B|205:345|205:345|342:368,2,140,14|0|6,1:0|1:0|1:0,0:0:0:0:
96,375,97624,5,0,1:0:0:0:
34,317,97804,1,0,1:0:0:0:
93,257,97985,1,0,1:0:0:0:
39,191,98166,2,0,P|37:157|6:104,1,70,8|0,1:0|1:0,0:0:0:0:
101,91,98527,1,0,1:0:0:0:
101,91,98708,2,0,P|137:70|193:77,1,70,8|0,1:0|1:0,0:0:0:0:
221,130,99069,1,8,1:0:0:0:
221,130,99250,5,2,1:0:0:0:
278,68,99431,1,2,1:0:0:0:
355,101,99612,2,0,L|385:191,1,70,14|0,1:0|1:0,0:0:0:0:
310,218,99973,2,0,B|291:244|291:244|268:363,1,140,0|6,1:0|1:0,0:0:0:0:
435,383,100696,6,0,L|509:353,1,70,0|0,1:0|1:0,0:0:0:0:
433,292,101057,1,8,1:0:0:0:
433,292,101238,2,0,L|419:207,1,70,8|0,1:0|1:0,0:0:0:0:
484,165,101600,2,0,L|496:87,1,70,8|0,1:0|1:0,0:0:0:0:
442,29,101961,1,8,1:0:0:0:
442,29,102142,5,2,1:0:0:0:
393,97,102322,1,2,1:0:0:0:
323,50,102503,2,0,L|231:33,1,70,14|2,1:0|1:3,0:0:0:0:
199,136,102865,2,0,L|291:119,1,70,0|2,1:0|1:3,0:0:0:0:
144,67,103226,5,6,1:0:0:0:
144,67,103407,1,0,1:0:0:0:
64,38,103588,2,0,P|47:75|56:138,1,83.9999974365235,0|0,1:0|1:0,0:0:0:0:
7,191,103949,5,8,1:0:0:0:
91,192,104130,1,0,1:0:0:0:
150,250,104310,1,0,1:0:0:0:
153,334,104491,1,8,1:0:0:0:
234,356,104672,2,0,L|243:254,1,83.9999974365235,0|8,1:0|1:0,0:0:0:0:
325,273,105033,2,0,L|316:171,1,83.9999974365235,2|2,1:0|1:0,0:0:0:0:
398,316,105395,5,14,1:0:0:0:
473,280,105575,1,0,1:0:0:0:
500,200,105756,1,0,1:0:0:0:
461,125,105937,1,0,1:0:0:0:
490,46,106118,2,0,L|383:24,1,83.9999974365235,6|0,1:0|1:0,0:0:0:0:
347,87,106479,2,0,L|240:109,1,83.9999974365235,0|0,1:0|1:0,0:0:0:0:
220,31,106841,5,8,1:0:0:0:
137,15,107021,1,8,1:0:0:0:
81,77,107202,1,0,1:0:0:0:
103,158,107383,1,8,1:0:0:0:
48,221,107563,2,0,L|33:316,1,83.9999974365235,0|8,1:0|1:0,0:0:0:0:
122,280,107925,2,0,L|139:373,1,83.9999974365235,2|2,1:0|1:0,0:0:0:0:
186,220,108286,5,14,1:0:0:0:
186,220,108377,1,0,0:0:0:0:
186,220,108467,1,0,1:0:0:0:
237,286,108648,1,0,1:0:0:0:
318,265,108828,1,0,1:0:0:0:
338,183,109009,2,0,L|314:94,1,83.9999974365235,6|0,1:0|1:0,0:0:0:0:
385,53,109371,2,0,L|471:101,1,83.9999974365235,0|0,1:0|1:0,0:0:0:0:
439,175,109732,5,8,1:0:0:0:
499,233,109913,1,0,1:0:0:0:
476,314,110094,1,0,1:0:0:0:
392,321,110274,1,8,1:0:0:0:
329,377,110455,2,0,L|235:359,1,83.9999974365235,0|8,1:0|1:0,0:0:0:0:
236,277,110816,2,0,L|128:300,1,83.9999974365235,2|2,1:0|1:0,0:0:0:0:
280,200,111178,5,14,1:0:0:0:
315,123,111359,1,0,1:0:0:0:
263,56,111539,1,0,1:0:0:0:
180,69,111720,1,0,1:0:0:0:
110,21,111901,2,0,L|7:9,1,83.9999974365235,6|0,1:0|1:0,0:0:0:0:
0,113,112262,2,0,L|103:101,1,83.9999974365235,0|0,1:0|1:0,0:0:0:0:
164,126,112624,5,8,1:0:0:0:
107,188,112804,1,8,1:0:0:0:
86,269,112985,1,0,1:0:0:0:
109,350,113166,1,8,1:0:0:0:
191,366,113347,2,0,L|200:262,1,83.9999974365235,0|8,1:0|1:0,0:0:0:0:
282,280,113708,2,0,L|266:168,1,83.9999974365235,2|2,1:0|1:0,0:0:0:0:
188,174,114069,5,14,1:0:0:0:
155,96,114250,1,0,1:0:0:0:
211,33,114431,1,0,1:0:0:0:
289,56,114612,1,0,1:0:0:0:
369,55,114792,2,0,L|452:-16,1,83.9999974365235,6|0,1:0|1:0,0:0:0:0:
503,37,115154,2,0,L|462:131,1,83.9999974365235,0|0,1:0|1:0,0:0:0:0:
505,193,115515,5,8,1:0:0:0:
421,192,115696,1,0,1:0:0:0:
362,134,115876,1,0,1:0:0:0:
359,50,116057,1,8,1:0:0:0:
278,28,116238,2,0,L|269:130,1,83.9999974365235,0|8,1:0|1:0,0:0:0:0:
187,111,116599,2,0,L|196:213,1,83.9999974365235,2|2,1:0|1:0,0:0:0:0:
114,68,116961,5,14,1:0:0:0:
39,104,117141,1,0,1:0:0:0:
12,184,117322,1,0,1:0:0:0:
51,259,117503,1,0,1:0:0:0:
22,338,117684,2,0,L|129:360,1,83.9999974365235,6|0,1:0|1:0,0:0:0:0:
165,297,118045,2,0,L|272:275,1,83.9999974365235,0|0,1:0|1:0,0:0:0:0:
292,353,118407,5,8,1:0:0:0:
375,369,118587,1,8,1:0:0:0:
431,307,118768,1,0,1:0:0:0:
409,226,118949,1,8,1:0:0:0:
464,163,119129,2,0,L|479:68,1,83.9999974365235,0|8,1:0|1:0,0:0:0:0:
390,104,119491,2,0,L|373:11,1,83.9999974365235,2|2,1:0|1:0,0:0:0:0:
326,158,119853,5,14,1:0:0:0:
278,87,120033,1,0,1:0:0:0:
195,75,120214,1,0,1:0:0:0:
129,129,120395,1,0,1:0:0:0:
174,201,120575,2,0,L|198:290,1,83.9999974365235,6|0,1:0|1:0,0:0:0:0:
127,331,120937,2,0,L|41:283,1,83.9999974365235,0|0,1:0|1:0,0:0:0:0:
73,209,121298,5,8,1:0:0:0:
13,151,121479,1,0,1:0:0:0:
36,70,121660,1,0,1:0:0:0:
120,63,121840,1,8,1:0:0:0:
183,7,122021,2,0,L|277:25,1,83.9999974365235,0|8,1:0|1:0,0:0:0:0:
276,107,122382,2,0,L|384:84,1,83.9999974365235,2|2,1:0|1:0,0:0:0:0:
223,187,122744,5,14,1:0:0:0:
223,187,122835,1,0,0:0:0:0:
223,187,122925,1,0,1:0:0:0:
172,253,123105,1,0,1:0:0:0:
192,334,123286,1,0,1:0:0:0:
271,360,123467,2,0,L|385:332,1,83.9999974365235,6|0,1:0|1:0,0:0:0:0:
512,308,123828,2,0,L|415:294,1,83.9999974365235,0|0,1:0|1:0,0:0:0:0:
348,258,124190,5,8,1:0:0:0:
405,196,124370,1,8,1:0:0:0:
426,115,124551,1,0,1:0:0:0:
403,34,124732,1,8,1:0:0:0:
321,18,124913,2,0,L|312:122,1,83.9999974365235,0|8,1:0|1:0,0:0:0:0:
230,104,125274,2,0,L|246:216,1,83.9999974365235,2|2,1:0|1:0,0:0:0:0:
324,210,125635,5,14,1:0:0:0:
357,288,125816,1,0,1:0:0:0:
301,351,125997,1,0,1:0:0:0:
223,328,126178,1,0,1:0:0:0:
148,367,126359,2,0,L|130:268,1,83.9999974365235,6|0,1:0|1:0,0:0:0:0:
50,303,126720,2,0,L|54:180,1,83.9999974365235,0|0,1:0|1:0,0:0:0:0:
7,147,127082,5,8,1:0:0:0:
7,147,127262,1,0,1:0:0:0:
54,77,127443,1,0,1:0:0:0:
54,77,127624,1,8,1:0:0:0:
125,119,127804,2,0,L|224:138,1,83.9999974365235,0|8,1:0|1:0,0:0:0:0:
274,83,128166,5,2,1:0:0:0:
313,157,128347,1,2,1:0:0:0:
273,230,128527,1,14,1:0:0:0:
304,308,128708,1,0,1:0:0:0:
386,323,128889,1,0,1:0:0:0:
451,270,129069,1,0,1:0:0:0:
422,190,129250,2,0,L|441:97,1,83.9999974365235,6|0,1:0|1:0,0:0:0:0:
354,105,129612,2,0,L|336:6,1,83.9999974365235,0|0,1:0|1:0,0:0:0:0:
298,167,129973,5,8,1:0:0:0:
219,137,130154,1,8,1:0:0:0:
206,53,130335,1,0,1:0:0:0:
132,12,130515,1,8,1:0:0:0:
63,60,130696,1,0,1:0:0:0:
48,142,130877,1,8,1:0:0:0:
124,175,131057,2,0,L|141:276,1,83.9999974365235,2|2,1:0|1:0,0:0:0:0:
51,249,131419,6,0,B|24:319|24:319|31:342|31:342|121:373,1,167.999994873047,14|0,1:0|1:0,0:0:0:0:
173,331,131961,1,0,1:0:0:0:
249,367,132142,2,0,P|290:362|320:334,1,83.9999974365235,6|0,1:0|1:0,0:0:0:0:
276,263,132503,2,0,P|301:230|303:189,1,83.9999974365235,0|0,1:0|1:0,0:0:0:0:
225,157,132865,5,8,1:0:0:0:
212,74,133045,1,0,1:0:0:0:
283,30,133226,1,0,1:0:0:0:
355,72,133407,1,8,1:0:0:0:
433,40,133588,2,0,L|464:134,1,83.9999974365235,0|8,1:0|1:0,0:0:0:0:
410,188,133949,2,0,L|491:257,1,83.9999974365235,2|2,1:0|1:0,0:0:0:0:
491,324,134310,5,14,1:0:0:0:
422,373,134491,1,0,1:0:0:0:
341,347,134672,1,0,1:0:0:0:
341,262,134853,1,0,1:0:0:0:
257,272,135033,2,0,L|240:170,1,83.9999974365235,6|0,1:0|1:0,0:0:0:0:
159,203,135395,2,0,L|176:103,1,83.9999974365235,0|0,1:0|1:0,0:0:0:0:
239,68,135756,5,8,1:0:0:0:
176,12,135937,1,8,1:0:0:0:
92,7,136118,1,0,1:0:0:0:
24,56,136298,1,8,1:0:0:0:
73,124,136479,2,0,L|163:112,1,83.9999974365235,0|8,1:0|1:0,0:0:0:0:
198,186,136841,2,0,L|311:198,1,83.9999974365235,2|2,1:0|1:0,0:0:0:0:
338,133,137202,5,14,1:0:0:0:
406,182,137383,1,0,1:0:0:0:
422,264,137563,1,0,1:0:0:0:
379,336,137744,1,0,1:0:0:0:
325,271,137925,2,0,L|234:262,1,83.9999974365235,6|0,1:0|1:0,0:0:0:0:
238,349,138286,2,0,L|136:366,1,83.9999974365235,0|0,1:0|1:0,0:0:0:0:
83,306,138648,5,8,1:0:0:0:
83,306,138738,1,0,0:0:0:0:
83,306,138828,1,0,1:0:0:0:
17,251,139009,1,0,1:0:0:0:
71,187,139190,1,8,1:0:0:0:
16,122,139371,2,0,L|21:20,1,83.9999974365235,0|8,1:0|1:0,0:0:0:0:
102,21,139732,2,0,L|146:115,1,83.9999974365235,2|2,1:0|1:0,0:0:0:0:
220,113,140094,5,14,1:0:0:0:
250,190,140274,1,0,1:0:0:0:
332,207,140455,1,0,1:0:0:0:
391,147,140636,1,0,1:0:0:0:
362,68,140816,2,0,L|472:39,1,83.9999974365235,6|0,1:0|1:0,0:0:0:0:
291,22,141178,2,0,L|181:-7,1,83.9999974365235,0|0,1:0|1:0,0:0:0:0:
151,61,141539,5,8,1:0:0:0:
157,144,141720,1,8,1:0:0:0:
204,213,141901,1,0,1:0:0:0:
283,240,142082,1,8,1:0:0:0:
340,301,142262,2,0,L|323:388,1,83.9999974365235,0|8,1:0|1:0,0:0:0:0:
435,340,142624,2,0,L|418:253,1,83.9999974365235,2|2,1:0|1:0,0:0:0:0:
483,203,142985,5,14,1:0:0:0:
467,120,143166,1,0,1:0:0:0:
384,104,143347,1,0,1:0:0:0:
343,177,143527,1,0,1:0:0:0:
343,177,143708,2,0,L|241:163,1,83.9999974365235,6|0,1:0|1:0,0:0:0:0:
202,227,144069,5,0,1:0:0:0:
119,209,144250,1,0,1:0:0:0:
137,126,144431,1,8,1:0:0:0:
64,83,144612,1,0,1:0:0:0:
64,83,144792,2,0,L|136:15,1,83.9999974365235,0|8,1:0|1:0,0:0:0:0:
207,43,145154,5,0,1:0:0:0:
283,7,145335,1,8,1:0:0:0:
355,48,145515,1,2,1:0:0:0:
346,131,145696,1,2,1:0:0:0:
418,173,145877,2,0,L|451:268,1,83.9999974365235,14|0,1:0|1:0,0:0:0:0:
361,261,146238,2,0,L|357:360,1,83.9999974365235,0|0,1:0|1:0,0:0:0:0:
287,212,146600,5,6,1:0:0:0:
287,212,146780,1,0,1:0:0:0:
234,277,146961,2,0,B|168:298|168:298|137:294|137:294|38:327,1,167.999994873047,0|8,1:0|1:0,0:0:0:0:
12,257,147503,1,8,1:0:0:0:
69,195,147684,2,0,L|81:98,1,83.9999974365235,0|8,1:0|1:0,0:0:0:0:
30,43,148045,5,0,1:0:0:0:
110,17,148226,1,8,1:0:0:0:
168,77,148407,1,2,1:0:0:0:
252,77,148588,1,2,1:0:0:0:
263,159,148768,1,14,1:0:0:0:
335,201,148949,1,0,1:0:0:0:
328,284,149130,1,0,1:0:0:0:
381,348,149310,1,0,1:0:0:0:
459,318,149491,6,0,L|479:215,1,83.9999974365235,6|0,1:0|1:0,0:0:0:0:
415,177,149853,2,0,L|315:206,1,83.9999974365235,0|0,1:0|1:0,0:0:0:0:
278,137,150214,1,8,1:0:0:0:
200,170,150395,1,0,1:0:0:0:
137,114,150575,1,0,1:0:0:0:
162,33,150756,1,8,1:0:0:0:
83,3,150937,6,0,L|23:72,1,83.9999974365235,0|8,1:0|1:0,0:0:0:0:
56,145,151298,1,2,1:0:0:0:
13,217,151479,1,2,1:0:0:0:
47,293,151660,1,14,1:0:0:0:
131,294,151841,1,0,1:0:0:0:
163,370,152021,2,0,L|264:338,1,83.9999974365235,0|0,1:0|1:0,0:0:0:0:
320,379,152383,5,6,1:0:0:0:
348,300,152563,1,0,1:0:0:0:
361,216,152744,1,0,1:0:0:0:
351,132,152925,1,0,1:0:0:0:
311,57,153106,1,8,1:0:0:0:
311,57,153196,1,0,0:0:0:0:
311,57,153286,1,8,1:0:0:0:
250,115,153467,2,0,L|152:142,1,83.9999974365235,0|8,1:0|1:0,0:0:0:0:
148,218,153828,5,0,1:0:0:0:
67,192,154009,1,8,1:0:0:0:
52,109,154190,1,2,1:0:0:0:
109,47,154371,1,2,1:0:0:0:
181,89,154551,2,0,L|365:109,2,167.999994873047,14|0|6,1:0|1:0|1:0,0:0:0:0:
119,147,155455,5,0,1:0:0:0:
188,194,155636,1,0,1:0:0:0:
148,267,155816,1,0,1:0:0:0:
217,313,155997,2,0,L|330:340,1,83.9999974365235,8|0,1:0|1:0,0:0:0:0:
366,281,156359,1,0,1:0:0:0:
366,281,156539,2,0,L|462:260,1,83.9999974365235,8|0,1:0|1:0,0:0:0:0:
493,191,156901,5,8,1:0:0:0:
484,107,157082,1,2,1:0:0:0:
402,126,157262,1,2,1:0:0:0:
386,43,157443,2,0,B|242:22|242:22|210:41,1,167.999994873047,14|0,1:0|1:0,0:0:0:0:
241,115,157985,1,0,1:0:0:0:
157,124,158166,6,0,L|121:200,1,83.9999974365235,6|0,1:0|1:0,0:0:0:0:
201,224,158527,2,0,L|208:334,1,83.9999974365235,0|0,1:0|1:0,0:0:0:0:
273,359,158889,1,8,1:0:0:0:
330,298,159069,1,8,1:0:0:0:
407,330,159250,1,0,1:0:0:0:
484,298,159431,6,0,L|497:192,1,83.9999974365235,8|0,1:0|1:0,0:0:0:0:
428,162,159792,1,8,1:0:0:0:
428,162,159973,1,2,1:0:0:0:
354,202,160154,1,2,1:0:0:0:
322,123,160335,2,0,B|286:101|286:101|198:125|198:125|181:166,2,167.999994873047,14|0|6,1:0|1:0|1:0,0:0:0:0:
391,75,161238,5,0,1:0:0:0:
391,75,161328,1,0,0:0:0:0:
391,75,161419,1,0,1:0:0:0:
469,43,161600,1,0,1:0:0:0:
501,119,161780,2,0,L|471:227,1,83.9999974365235,8|0,1:0|1:0,0:0:0:0:
398,173,162142,2,0,L|298:187,1,83.9999974365235,0|8,1:0|1:0,0:0:0:0:
270,256,162503,1,0,1:0:0:0:
199,210,162684,5,8,1:0:0:0:
199,210,162865,2,0,L|208:123,1,83.9999974365235,2|2,1:0|1:0,0:0:0:0:
127,254,163226,2,0,L|141:358,1,83.9999974365235,14|0,1:0|1:0,0:0:0:0:
64,198,163588,1,0,1:0:0:0:
82,116,163768,1,0,1:0:0:0:
32,47,163949,5,6,1:0:0:0:
32,47,164130,2,0,L|117:30,1,83.9999974365235,0|0,1:0|1:0,0:0:0:0:
186,73,164491,1,0,1:0:0:0:
258,30,164672,1,8,1:0:0:0:
332,69,164853,1,8,1:0:0:0:
337,152,165033,1,0,1:0:0:0:
266,197,165214,1,8,1:0:0:0:
238,276,165395,6,0,L|230:373,1,83.9999974365235,0|8,1:0|1:0,0:0:0:0:
326,384,165756,2,0,L|315:269,1,83.9999974365235,2|2,1:0|1:0,0:0:0:0:
402,322,166118,2,0,B|450:194|450:194|491:175,2,167.999994873047,14|0|6,1:0|1:0|1:0,0:0:0:0:
320,302,167021,5,0,1:0:0:0:
320,302,167112,1,0,0:0:0:0:
320,302,167202,1,0,1:0:0:0:
253,353,167383,1,0,1:0:0:0:
194,292,167563,1,8,1:0:0:0:
122,335,167744,2,0,L|21:326,1,83.9999974365235,0|0,1:0|1:0,0:0:0:0:
0,252,168106,2,0,L|106:230,1,83.9999974365235,8|0,1:0|1:0,0:0:0:0:
136,170,168467,5,8,1:0:0:0:
210,209,168648,1,2,1:0:0:0:
282,167,168828,1,2,1:0:0:0:
281,82,169009,1,14,1:0:0:0:
352,37,169190,1,0,1:0:0:0:
352,37,169371,2,0,L|461:54,1,83.9999974365235,0|0,1:0|1:0,0:0:0:0:
494,110,169732,5,6,1:0:0:0:
425,158,169913,1,0,1:0:0:0:
480,222,170094,1,0,1:0:0:0:
449,300,170274,1,0,1:0:0:0:
365,293,170455,1,8,1:0:0:0:
298,344,170636,6,0,L|191:362,1,83.9999974365235,8|0,1:0|1:0,0:0:0:0:
237,269,170997,2,0,L|131:259,1,83.9999974365235,8|0,1:0|1:0,0:0:0:0:
76,295,171359,1,8,1:0:0:0:
31,223,171539,1,2,1:0:0:0:
81,155,171720,1,2,1:0:0:0:
162,175,171901,1,14,1:0:0:0:
321,42,172262,5,0,1:0:0:0:
339,146,172443,1,0,1:0:0:0:
421,79,172624,1,0,1:0:0:0:
