osu file format v14

[General]
AudioFilename: audio.mp3
AudioLeadIn: 0
PreviewTime: 138154
Countdown: 0
SampleSet: Normal
StackLeniency: 0.7
Mode: 1
LetterboxInBreaks: 0
WidescreenStoryboard: 0

[Editor]
DistanceSpacing: 0.4
BeatDivisor: 4
GridSize: 32
TimelineZoom: 2.1

[Metadata]
Title:Lucky You feat. Joyner Lucas
TitleUnicode:Lucky You feat. Joyner Lucas
Artist:Eminem
ArtistUnicode:Eminem
Creator:Stefan
Version:Lucky Oni
Source:
Tags:marshall bruce mathers kamikaze rap trap english thenutritiousguy tng
BeatmapID:2316898
BeatmapSetID:890922

[Difficulty]
HPDrainRate:5
CircleSize:5
OverallDifficulty:5
ApproachRate:5
SliderMultiplier:1.4
SliderTickRate:1

[Events]
//Background and Video events
0,0,"__doremy_sweet_hakurei_reimu_kirisame_marisa_komeiji_koishi_rumia_and_others_touhou_drawn_by_koto_inari__6ab21b268d1c37430dff5c3a9e3f8396.png",0,60
//Break Periods
//Storyboard Layer 0 (Background)
//Storyboard Layer 1 (Fail)
//Storyboard Layer 2 (Pass)
//Storyboard Layer 3 (Foreground)
//Storyboard Layer 4 (Overlay)
//Storyboard Sound Samples

[TimingPoints]
134,392.103044680142,4,1,0,45,1,0
37383,-90.9090909090909,4,1,0,45,0,0
37775,-100,4,1,0,45,0,0
78162,-80,4,1,0,45,0,0
78554,-100,4,1,0,45,0,0
87769,-95.2380952380951,4,1,0,45,0,0
87867,-90.9090909090909,4,1,0,45,0,0
87965,-86.9565217391303,4,1,0,45,0,1
100120,-89.2857142857143,4,1,0,45,0,1
100218,-91.743119266055,4,1,0,45,0,1
100316,-94.3396226415094,4,1,0,45,0,1
100414,-97.0873786407767,4,1,0,45,0,1
100512,-100,4,1,0,45,0,0
103257,-79.9999999999999,4,1,0,45,0,0
103649,-100,4,1,0,45,0,0
112667,-86.9565217391304,4,1,0,45,0,0
113059,-117.647058823529,4,1,0,45,0,0
138154,-100,4,1,0,45,0,0
187951,-80,4,1,0,45,0,0
188147,-86.9565217391304,4,1,0,45,0,1
213438,-86.9565217391304,4,1,0,45,0,0
220299,-100,4,1,0,45,0,0
232259,-90.9090909090909,4,1,0,45,0,0

[HitObjects]
256,192,11504,5,0,0:0:0:0:
256,192,11701,1,0,0:0:0:0:
256,192,11897,1,8,0:0:0:0:
256,192,12093,1,0,0:0:0:0:
256,192,12289,1,8,0:0:0:0:
256,192,12485,1,0,0:0:0:0:
256,192,12681,1,8,0:0:0:0:
256,192,13073,1,0,0:0:0:0:
256,192,13269,1,8,0:0:0:0:
256,192,13465,1,0,0:0:0:0:
256,192,13857,1,8,0:0:0:0:
256,192,14249,1,8,0:0:0:0:
256,192,14445,1,0,0:0:0:0:
256,192,14641,1,8,0:0:0:0:
256,192,14837,1,8,0:0:0:0:
256,192,15033,1,0,0:0:0:0:
256,192,15229,1,8,0:0:0:0:
256,192,15426,1,0,0:0:0:0:
256,192,15622,1,8,0:0:0:0:
256,192,15818,1,0,0:0:0:0:
256,192,16210,1,0,0:0:0:0:
256,192,16406,1,0,0:0:0:0:
256,192,16602,1,8,0:0:0:0:
256,192,16798,1,8,0:0:0:0:
256,192,16994,1,0,0:0:0:0:
256,192,17190,1,8,0:0:0:0:
256,192,17386,1,0,0:0:0:0:
256,192,17582,1,0,0:0:0:0:
256,192,17778,1,8,0:0:0:0:
256,192,17974,1,0,0:0:0:0:
256,192,18170,1,8,0:0:0:0:
256,192,18366,1,0,0:0:0:0:
256,192,18562,1,8,0:0:0:0:
256,192,18758,1,0,0:0:0:0:
256,192,18954,1,8,0:0:0:0:
256,192,19150,1,8,0:0:0:0:
256,192,19347,1,0,0:0:0:0:
256,192,19543,1,8,0:0:0:0:
256,192,19739,1,0,0:0:0:0:
256,192,19935,1,0,0:0:0:0:
256,192,20131,1,8,0:0:0:0:
256,192,20327,1,0,0:0:0:0:
256,192,20523,1,8,0:0:0:0:
256,192,20719,1,0,0:0:0:0:
256,192,20915,1,8,0:0:0:0:
256,192,21307,1,8,0:0:0:0:
256,192,21503,1,0,0:0:0:0:
256,192,21699,1,8,0:0:0:0:
256,192,21895,1,0,0:0:0:0:
256,192,22091,1,8,0:0:0:0:
256,192,22287,1,8,0:0:0:0:
256,192,22483,1,0,0:0:0:0:
256,192,22679,1,0,0:0:0:0:
256,192,22875,1,8,0:0:0:0:
256,192,23072,1,0,0:0:0:0:
256,192,23170,1,0,0:0:0:0:
256,192,23268,1,8,0:0:0:0:
256,192,23464,1,0,0:0:0:0:
256,192,23660,1,8,0:0:0:0:
256,192,23856,1,0,0:0:0:0:
256,192,24052,1,8,0:0:0:0:
256,192,24248,1,0,0:0:0:0:
256,192,24444,1,8,0:0:0:0:
256,192,24640,1,8,0:0:0:0:
256,192,24836,1,0,0:0:0:0:
256,192,24967,1,8,0:0:0:0:
256,192,25228,1,8,0:0:0:0:
256,192,25359,1,0,0:0:0:0:
256,192,25620,1,8,0:0:0:0:
256,192,25816,1,0,0:0:0:0:
256,192,26012,1,8,0:0:0:0:
256,192,26404,1,8,0:0:0:0:
256,192,26600,1,8,0:0:0:0:
256,192,26797,1,0,0:0:0:0:
256,192,27189,1,8,0:0:0:0:
256,192,27385,1,0,0:0:0:0:
256,192,27581,1,8,0:0:0:0:
256,192,27777,1,8,0:0:0:0:
256,192,27973,1,0,0:0:0:0:
256,192,28169,1,0,0:0:0:0:
256,192,28365,1,8,0:0:0:0:
256,192,28757,1,8,0:0:0:0:
256,192,29149,1,8,0:0:0:0:
256,192,29345,1,0,0:0:0:0:
256,192,29541,1,8,0:0:0:0:
256,192,29737,1,0,0:0:0:0:
256,192,29933,1,0,0:0:0:0:
256,192,30325,1,0,0:0:0:0:
256,192,30521,1,0,0:0:0:0:
256,192,30718,1,8,0:0:0:0:
256,192,30914,1,0,0:0:0:0:
256,192,31110,1,8,0:0:0:0:
256,192,31306,1,0,0:0:0:0:
256,192,31502,1,8,0:0:0:0:
256,192,31894,1,0,0:0:0:0:
256,192,32090,1,8,0:0:0:0:
256,192,32286,1,8,0:0:0:0:
256,192,32482,1,0,0:0:0:0:
256,192,32678,1,8,0:0:0:0:
256,192,32874,1,0,0:0:0:0:
256,192,33070,1,8,0:0:0:0:
256,192,33462,1,8,0:0:0:0:
256,192,33658,1,8,0:0:0:0:
256,192,33854,1,8,0:0:0:0:
256,192,34246,1,0,0:0:0:0:
256,192,34443,1,8,0:0:0:0:
256,192,34639,1,8,0:0:0:0:
256,192,35031,1,8,0:0:0:0:
256,192,35227,1,0,0:0:0:0:
256,192,35423,1,8,0:0:0:0:
256,192,35815,1,8,0:0:0:0:
256,192,36011,1,0,0:0:0:0:
256,192,36207,1,0,0:0:0:0:
256,192,36599,1,8,0:0:0:0:
256,192,36795,1,8,0:0:0:0:
256,192,36991,1,8,0:0:0:0:
256,192,37383,1,12,0:0:0:0:
256,192,37775,1,12,0:0:0:0:
256,192,37906,1,0,0:0:0:0:
256,192,38037,1,0,0:0:0:0:
256,192,38167,1,0,0:0:0:0:
256,192,38560,1,8,0:0:0:0:
256,192,38952,1,8,0:0:0:0:
256,192,39082,1,0,0:0:0:0:
256,192,39213,1,0,0:0:0:0:
256,192,39344,1,8,0:0:0:0:
256,192,39540,1,0,0:0:0:0:
256,192,39736,1,8,0:0:0:0:
256,192,40128,1,8,0:0:0:0:
256,192,40259,1,8,0:0:0:0:
256,192,40389,1,0,0:0:0:0:
256,192,40520,1,8,0:0:0:0:
256,192,40912,1,8,0:0:0:0:
256,192,41043,1,0,0:0:0:0:
256,192,41174,1,8,0:0:0:0:
256,192,41304,1,0,0:0:0:0:
256,192,41696,1,8,0:0:0:0:
256,192,41892,1,0,0:0:0:0:
256,192,42089,1,0,0:0:0:0:
256,192,42219,1,8,0:0:0:0:
256,192,42350,1,0,0:0:0:0:
256,192,42481,1,8,0:0:0:0:
256,192,42677,1,0,0:0:0:0:
256,192,42873,1,8,0:0:0:0:
256,192,43265,1,8,0:0:0:0:
256,192,43396,1,0,0:0:0:0:
256,192,43526,1,0,0:0:0:0:
256,192,43657,1,8,0:0:0:0:
256,192,44049,1,8,0:0:0:0:
256,192,44180,1,8,0:0:0:0:
256,192,44310,1,0,0:0:0:0:
256,192,44441,1,0,0:0:0:0:
256,192,44833,1,8,0:0:0:0:
256,192,45225,1,0,0:0:0:0:
256,192,45356,1,0,0:0:0:0:
256,192,45487,1,8,0:0:0:0:
256,192,45617,1,8,0:0:0:0:
256,192,45814,1,0,0:0:0:0:
256,192,46010,1,8,0:0:0:0:
256,192,46402,1,8,0:0:0:0:
256,192,46532,1,8,0:0:0:0:
256,192,46663,1,0,0:0:0:0:
256,192,46794,1,0,0:0:0:0:
256,192,47186,1,8,0:0:0:0:
256,192,47317,1,8,0:0:0:0:
256,192,47447,1,8,0:0:0:0:
256,192,47578,1,0,0:0:0:0:
256,192,47970,1,8,0:0:0:0:
256,192,48362,1,8,0:0:0:0:
256,192,48493,1,8,0:0:0:0:
256,192,48624,1,8,0:0:0:0:
256,192,48754,1,0,0:0:0:0:
256,192,48950,1,0,0:0:0:0:
256,192,49146,1,8,0:0:0:0:
256,192,49538,1,8,0:0:0:0:
256,192,49669,1,0,0:0:0:0:
256,192,49800,1,0,0:0:0:0:
256,192,49931,1,8,0:0:0:0:
256,192,50323,1,8,0:0:0:0:
256,192,50453,1,0,0:0:0:0:
256,192,50584,1,8,0:0:0:0:
256,192,50715,1,0,0:0:0:0:
256,192,50845,1,0,0:0:0:0:
256,192,50976,1,8,0:0:0:0:
256,192,51107,1,8,0:0:0:0:
256,192,51238,1,0,0:0:0:0:
256,192,51368,1,8,0:0:0:0:
256,192,51499,1,0,0:0:0:0:
256,192,51695,1,0,0:0:0:0:
256,192,51793,1,0,0:0:0:0:
256,192,51891,1,8,0:0:0:0:
256,192,52022,1,0,0:0:0:0:
256,192,52153,1,0,0:0:0:0:
256,192,52283,1,8,0:0:0:0:
256,192,52414,1,0,0:0:0:0:
256,192,52545,1,0,0:0:0:0:
256,192,52675,1,8,0:0:0:0:
256,192,52871,1,0,0:0:0:0:
256,192,53067,1,8,0:0:0:0:
256,192,53165,1,0,0:0:0:0:
256,192,53263,1,0,0:0:0:0:
256,192,53460,1,8,0:0:0:0:
256,192,53590,1,0,0:0:0:0:
256,192,53721,1,0,0:0:0:0:
256,192,53852,1,8,0:0:0:0:
256,192,53982,1,0,0:0:0:0:
256,192,54113,1,0,0:0:0:0:
256,192,54244,1,8,0:0:0:0:
256,192,54374,1,0,0:0:0:0:
256,192,54505,1,0,0:0:0:0:
256,192,54636,1,0,0:0:0:0:
256,192,54832,1,0,0:0:0:0:
256,192,54930,1,0,0:0:0:0:
256,192,55028,1,8,0:0:0:0:
256,192,55159,1,0,0:0:0:0:
256,192,55289,1,8,0:0:0:0:
256,192,55420,1,8,0:0:0:0:
256,192,55551,1,0,0:0:0:0:
256,192,55681,1,0,0:0:0:0:
256,192,55812,1,8,0:0:0:0:
256,192,56008,1,0,0:0:0:0:
256,192,56204,1,8,0:0:0:0:
256,192,56302,1,0,0:0:0:0:
256,192,56400,1,0,0:0:0:0:
256,192,56596,1,8,0:0:0:0:
256,192,56727,1,0,0:0:0:0:
256,192,56858,1,8,0:0:0:0:
256,192,56988,1,0,0:0:0:0:
256,192,57119,1,0,0:0:0:0:
256,192,57250,1,0,0:0:0:0:
256,192,57381,1,8,0:0:0:0:
256,192,57511,1,8,0:0:0:0:
256,192,57642,1,0,0:0:0:0:
256,192,57773,1,0,0:0:0:0:
256,192,57903,1,8,0:0:0:0:
256,192,58034,1,0,0:0:0:0:
256,192,58165,1,8,0:0:0:0:
256,192,58295,1,0,0:0:0:0:
256,192,58426,1,0,0:0:0:0:
256,192,58557,1,8,0:0:0:0:
256,192,58688,1,0,0:0:0:0:
256,192,58818,1,8,0:0:0:0:
256,192,58949,1,8,0:0:0:0:
256,192,59080,1,0,0:0:0:0:
256,192,59210,1,8,0:0:0:0:
256,192,59341,1,8,0:0:0:0:
256,192,59472,1,0,0:0:0:0:
256,192,59602,1,0,0:0:0:0:
256,192,59733,1,8,0:0:0:0:
256,192,59929,1,0,0:0:0:0:
256,192,60027,1,0,0:0:0:0:
256,192,60125,1,8,0:0:0:0:
256,192,60256,1,0,0:0:0:0:
256,192,60387,1,0,0:0:0:0:
256,192,60517,1,8,0:0:0:0:
256,192,60713,1,0,0:0:0:0:
256,192,60811,1,0,0:0:0:0:
256,192,60909,1,8,0:0:0:0:
256,192,61040,1,0,0:0:0:0:
256,192,61171,1,0,0:0:0:0:
256,192,61302,1,8,0:0:0:0:
256,192,61432,1,0,0:0:0:0:
256,192,61563,1,0,0:0:0:0:
256,192,61694,1,8,0:0:0:0:
256,192,61824,1,0,0:0:0:0:
256,192,61955,1,0,0:0:0:0:
256,192,62086,1,8,0:0:0:0:
256,192,62282,1,0,0:0:0:0:
256,192,62380,1,0,0:0:0:0:
256,192,62478,1,8,0:0:0:0:
256,192,62609,1,8,0:0:0:0:
256,192,62739,1,0,0:0:0:0:
256,192,62870,1,8,0:0:0:0:
256,192,63001,1,0,0:0:0:0:
256,192,63131,1,0,0:0:0:0:
256,192,63262,1,8,0:0:0:0:
256,192,63654,1,8,0:0:0:0:
256,192,63785,1,0,0:0:0:0:
256,192,63916,1,0,0:0:0:0:
256,192,64046,1,8,0:0:0:0:
256,192,64177,1,8,0:0:0:0:
256,192,64308,1,0,0:0:0:0:
256,192,64438,1,8,0:0:0:0:
256,192,64569,1,0,0:0:0:0:
256,192,64700,1,0,0:0:0:0:
256,192,64831,1,8,0:0:0:0:
256,192,64961,1,0,0:0:0:0:
256,192,65092,1,0,0:0:0:0:
256,192,65223,1,8,0:0:0:0:
256,192,65419,1,0,0:0:0:0:
256,192,65615,1,8,0:0:0:0:
256,192,65745,1,0,0:0:0:0:
256,192,65876,1,0,0:0:0:0:
256,192,66007,1,8,0:0:0:0:
256,192,66138,1,0,0:0:0:0:
256,192,66268,1,0,0:0:0:0:
256,192,66399,1,8,0:0:0:0:
256,192,66660,1,0,0:0:0:0:
256,192,66791,1,8,0:0:0:0:
256,192,66922,1,0,0:0:0:0:
256,192,67052,1,8,0:0:0:0:
256,192,67183,1,0,0:0:0:0:
256,192,67314,1,0,0:0:0:0:
256,192,67445,1,0,0:0:0:0:
256,192,67575,1,8,0:0:0:0:
256,192,67706,1,8,0:0:0:0:
256,192,67837,1,0,0:0:0:0:
256,192,67967,1,8,0:0:0:0:
256,192,68098,1,0,0:0:0:0:
256,192,68229,1,0,0:0:0:0:
256,192,68359,1,8,0:0:0:0:
256,192,68555,1,0,0:0:0:0:
256,192,68752,1,8,0:0:0:0:
256,192,68850,1,0,0:0:0:0:
256,192,68948,1,0,0:0:0:0:
256,192,69046,1,0,0:0:0:0:
256,192,69144,1,8,0:0:0:0:
256,192,69340,1,8,0:0:0:0:
256,192,69438,1,0,0:0:0:0:
256,192,69536,1,8,0:0:0:0:
256,192,69666,1,0,0:0:0:0:
256,192,69797,1,0,0:0:0:0:
256,192,69928,1,8,0:0:0:0:
256,192,70059,1,0,0:0:0:0:
256,192,70189,1,0,0:0:0:0:
256,192,70320,1,8,0:0:0:0:
256,192,70451,1,8,0:0:0:0:
256,192,70581,1,0,0:0:0:0:
256,192,70712,1,8,0:0:0:0:
256,192,70843,1,0,0:0:0:0:
256,192,70973,1,0,0:0:0:0:
256,192,71104,1,8,0:0:0:0:
256,192,71235,1,0,0:0:0:0:
256,192,71366,1,0,0:0:0:0:
256,192,71496,1,8,0:0:0:0:
256,192,71888,1,8,0:0:0:0:
256,192,72019,1,0,0:0:0:0:
256,192,72150,1,0,0:0:0:0:
256,192,72280,1,8,0:0:0:0:
256,192,72411,1,0,0:0:0:0:
256,192,72542,1,0,0:0:0:0:
256,192,72673,1,8,0:0:0:0:
256,192,72803,1,0,0:0:0:0:
256,192,72934,1,0,0:0:0:0:
256,192,73065,1,8,0:0:0:0:
256,192,73195,1,8,0:0:0:0:
256,192,73326,1,0,0:0:0:0:
256,192,73457,1,8,0:0:0:0:
256,192,73587,1,0,0:0:0:0:
256,192,73718,1,0,0:0:0:0:
256,192,73849,1,8,0:0:0:0:
256,192,73980,1,0,0:0:0:0:
256,192,74110,1,0,0:0:0:0:
256,192,74241,1,8,0:0:0:0:
256,192,74372,1,8,0:0:0:0:
256,192,74502,1,0,0:0:0:0:
256,192,74633,1,8,0:0:0:0:
256,192,74829,1,0,0:0:0:0:
256,192,75025,1,8,0:0:0:0:
256,192,75417,1,8,0:0:0:0:
256,192,75548,1,0,0:0:0:0:
256,192,75679,1,0,0:0:0:0:
256,192,75809,1,8,0:0:0:0:
256,192,75940,1,8,0:0:0:0:
256,192,76071,1,0,0:0:0:0:
256,192,76201,1,8,0:0:0:0:
256,192,76398,1,8,0:0:0:0:
256,192,76594,1,0,0:0:0:0:
256,192,76790,1,0,0:0:0:0:
256,192,76888,1,0,0:0:0:0:
256,192,76986,1,8,0:0:0:0:
256,192,77116,1,8,0:0:0:0:
256,192,77247,1,0,0:0:0:0:
256,192,77378,1,8,0:0:0:0:
256,192,77509,1,8,0:0:0:0:
256,192,77639,1,0,0:0:0:0:
256,192,77770,1,8,0:0:0:0:
256,192,77966,1,0,0:0:0:0:
256,192,78162,1,8,0:0:0:0:
256,192,78293,1,0,0:0:0:0:
256,192,78554,1,8,0:0:0:0:
256,192,78685,1,0,0:0:0:0:
256,192,78816,1,0,0:0:0:0:
256,192,78946,1,8,0:0:0:0:
256,192,79077,1,8,0:0:0:0:
256,192,79208,1,0,0:0:0:0:
256,192,79338,1,8,0:0:0:0:
256,192,79534,1,0,0:0:0:0:
256,192,79730,1,8,0:0:0:0:
256,192,79926,1,0,0:0:0:0:
256,192,80024,1,0,0:0:0:0:
256,192,80123,1,8,0:0:0:0:
256,192,80253,1,8,0:0:0:0:
256,192,80384,1,0,0:0:0:0:
256,192,80515,1,8,0:0:0:0:
256,192,80645,1,0,0:0:0:0:
256,192,80776,1,0,0:0:0:0:
256,192,80907,1,8,0:0:0:0:
256,192,81103,1,0,0:0:0:0:
256,192,81299,1,8,0:0:0:0:
256,192,81691,1,8,0:0:0:0:
256,192,81822,1,8,0:0:0:0:
256,192,81952,1,0,0:0:0:0:
256,192,82083,1,8,0:0:0:0:
256,192,82214,1,0,0:0:0:0:
256,192,82344,1,0,0:0:0:0:
256,192,82475,1,8,0:0:0:0:
256,192,82606,1,0,0:0:0:0:
256,192,82737,1,8,0:0:0:0:
256,192,82867,1,8,0:0:0:0:
256,192,82998,1,0,0:0:0:0:
256,192,83129,1,0,0:0:0:0:
256,192,83259,1,8,0:0:0:0:
256,192,83390,1,8,0:0:0:0:
256,192,83521,1,0,0:0:0:0:
256,192,83651,1,8,0:0:0:0:
256,192,83782,1,8,0:0:0:0:
256,192,83913,1,0,0:0:0:0:
256,192,84044,1,8,0:0:0:0:
256,192,84240,1,0,0:0:0:0:
256,192,84436,1,8,0:0:0:0:
256,192,84534,1,0,0:0:0:0:
256,192,84632,1,0,0:0:0:0:
256,192,84828,1,8,0:0:0:0:
256,192,84958,1,8,0:0:0:0:
256,192,85089,1,0,0:0:0:0:
256,192,85220,1,8,0:0:0:0:
256,192,85351,1,8,0:0:0:0:
256,192,85481,1,0,0:0:0:0:
256,192,85612,1,8,0:0:0:0:
256,192,85743,1,0,0:0:0:0:
256,192,85873,1,0,0:0:0:0:
256,192,86004,1,0,0:0:0:0:
256,192,86135,1,0,0:0:0:0:
256,192,86265,1,8,0:0:0:0:
256,192,86396,1,0,0:0:0:0:
256,192,86527,1,8,0:0:0:0:
256,192,86658,1,0,0:0:0:0:
256,192,86788,1,8,0:0:0:0:
256,192,86919,1,8,0:0:0:0:
256,192,87050,1,0,0:0:0:0:
256,192,87180,1,8,0:0:0:0:
256,192,87376,1,0,0:0:0:0:
256,192,87572,1,8,0:0:0:0:
256,192,87769,1,8,0:0:0:0:
256,192,87867,1,8,0:0:0:0:
256,192,87965,1,0,0:0:0:0:
256,192,88063,1,8,0:0:0:0:
256,192,88161,1,0,0:0:0:0:
256,192,88259,1,8,0:0:0:0:
256,192,88357,1,8,0:0:0:0:
256,192,88455,1,0,0:0:0:0:
256,192,88553,1,8,0:0:0:0:
256,192,88651,1,0,0:0:0:0:
256,192,88749,1,8,0:0:0:0:
256,192,88847,1,8,0:0:0:0:
256,192,88945,1,0,0:0:0:0:
256,192,89043,1,8,0:0:0:0:
256,192,89141,1,8,0:0:0:0:
256,192,89239,1,0,0:0:0:0:
256,192,89337,1,8,0:0:0:0:
256,192,89435,1,0,0:0:0:0:
256,192,89533,1,8,0:0:0:0:
256,192,89631,1,8,0:0:0:0:
256,192,89729,1,0,0:0:0:0:
256,192,89827,1,8,0:0:0:0:
256,192,89925,1,0,0:0:0:0:
256,192,90023,1,0,0:0:0:0:
256,192,90121,1,8,0:0:0:0:
256,192,90219,1,0,0:0:0:0:
256,192,90317,1,8,0:0:0:0:
256,192,90513,1,8,0:0:0:0:
256,192,90709,1,0,0:0:0:0:
256,192,90807,1,0,0:0:0:0:
256,192,90905,1,8,0:0:0:0:
256,192,91003,1,0,0:0:0:0:
256,192,91101,1,8,0:0:0:0:
256,192,91199,1,8,0:0:0:0:
256,192,91297,1,0,0:0:0:0:
256,192,91395,1,8,0:0:0:0:
256,192,91494,1,8,0:0:0:0:
256,192,91592,1,0,0:0:0:0:
256,192,91690,1,8,0:0:0:0:
256,192,91788,1,0,0:0:0:0:
256,192,91886,1,8,0:0:0:0:
256,192,92082,1,0,0:0:0:0:
256,192,92278,1,0,0:0:0:0:
256,192,92474,1,8,0:0:0:0:
256,192,92572,1,0,0:0:0:0:
256,192,92670,1,8,0:0:0:0:
256,192,92768,1,8,0:0:0:0:
256,192,92866,1,0,0:0:0:0:
256,192,92964,1,8,0:0:0:0:
256,192,93062,1,8,0:0:0:0:
256,192,93160,1,0,0:0:0:0:
256,192,93258,1,8,0:0:0:0:
256,192,93356,1,0,0:0:0:0:
256,192,93454,1,8,0:0:0:0:
256,192,93650,1,0,0:0:0:0:
256,192,93846,1,0,0:0:0:0:
256,192,93944,1,0,0:0:0:0:
256,192,94042,1,8,0:0:0:0:
256,192,94140,1,8,0:0:0:0:
256,192,94238,1,0,0:0:0:0:
256,192,94336,1,8,0:0:0:0:
256,192,94434,1,8,0:0:0:0:
256,192,94532,1,0,0:0:0:0:
256,192,94630,1,8,0:0:0:0:
256,192,94728,1,0,0:0:0:0:
256,192,94826,1,8,0:0:0:0:
256,192,94924,1,0,0:0:0:0:
256,192,95022,1,0,0:0:0:0:
256,192,95120,1,8,0:0:0:0:
256,192,95218,1,8,0:0:0:0:
256,192,95317,1,0,0:0:0:0:
256,192,95415,1,8,0:0:0:0:
256,192,95513,1,0,0:0:0:0:
256,192,95611,1,8,0:0:0:0:
256,192,95709,1,0,0:0:0:0:
256,192,95807,1,0,0:0:0:0:
256,192,95905,1,8,0:0:0:0:
256,192,96003,1,8,0:0:0:0:
256,192,96101,1,0,0:0:0:0:
256,192,96199,1,8,0:0:0:0:
256,192,96297,1,8,0:0:0:0:
256,192,96395,1,0,0:0:0:0:
256,192,96493,1,8,0:0:0:0:
256,192,96591,1,0,0:0:0:0:
256,192,96787,1,0,0:0:0:0:
256,192,96983,1,8,0:0:0:0:
256,192,97081,1,8,0:0:0:0:
256,192,97179,1,0,0:0:0:0:
256,192,97277,1,8,0:0:0:0:
256,192,97375,1,0,0:0:0:0:
256,192,97473,1,8,0:0:0:0:
256,192,97571,1,8,0:0:0:0:
256,192,97669,1,0,0:0:0:0:
256,192,97767,1,8,0:0:0:0:
256,192,97865,1,0,0:0:0:0:
256,192,97963,1,8,0:0:0:0:
256,192,98061,1,8,0:0:0:0:
256,192,98159,1,0,0:0:0:0:
256,192,98355,1,0,0:0:0:0:
256,192,98551,1,8,0:0:0:0:
256,192,98649,1,0,0:0:0:0:
256,192,98747,1,8,0:0:0:0:
256,192,98845,1,0,0:0:0:0:
256,192,98943,1,0,0:0:0:0:
256,192,99041,1,8,0:0:0:0:
256,192,99140,1,8,0:0:0:0:
256,192,99238,1,0,0:0:0:0:
256,192,99336,1,8,0:0:0:0:
256,192,99434,1,0,0:0:0:0:
256,192,99532,1,0,0:0:0:0:
256,192,99630,1,8,0:0:0:0:
256,192,99728,1,0,0:0:0:0:
256,192,99924,1,0,0:0:0:0:
256,192,100120,1,8,0:0:0:0:
256,192,100218,1,8,0:0:0:0:
256,192,100316,1,0,0:0:0:0:
256,192,100414,1,0,0:0:0:0:
256,192,100512,1,8,0:0:0:0:
256,192,100708,1,0,0:0:0:0:
256,192,100806,1,8,0:0:0:0:
256,192,101002,1,0,0:0:0:0:
256,192,101100,1,8,0:0:0:0:
256,192,101198,1,0,0:0:0:0:
256,192,101296,1,8,0:0:0:0:
256,192,101427,1,0,0:0:0:0:
256,192,101623,1,8,0:0:0:0:
256,192,101786,1,0,0:0:0:0:
256,192,101884,1,8,0:0:0:0:
256,192,101982,1,8,0:0:0:0:
256,192,102080,1,0,0:0:0:0:
256,192,102276,1,8,0:0:0:0:
256,192,102374,1,0,0:0:0:0:
256,192,102472,1,8,0:0:0:0:
256,192,102668,1,0,0:0:0:0:
256,192,102864,1,8,0:0:0:0:
256,192,103257,1,12,0:0:0:0:
256,192,103649,1,0,0:0:0:0:
256,192,103779,1,8,0:0:0:0:
256,192,103975,1,0,0:0:0:0:
256,192,104237,1,8,0:0:0:0:
256,192,104335,1,0,0:0:0:0:
256,192,104433,1,8,0:0:0:0:
256,192,104694,1,0,0:0:0:0:
256,192,104923,1,0,0:0:0:0:
256,192,105119,1,0,0:0:0:0:
256,192,105217,1,8,0:0:0:0:
256,192,105413,1,0,0:0:0:0:
256,192,105511,1,0,0:0:0:0:
256,192,105609,1,8,0:0:0:0:
256,192,105707,1,0,0:0:0:0:
256,192,105805,1,8,0:0:0:0:
256,192,106001,1,8,0:0:0:0:
256,192,106197,1,0,0:0:0:0:
256,192,106393,1,12,0:0:0:0:
256,192,106589,1,0,0:0:0:0:
256,192,106688,1,0,0:0:0:0:
256,192,106786,1,8,0:0:0:0:
256,192,106982,1,0,0:0:0:0:
256,192,107080,1,8,0:0:0:0:
256,192,107276,1,0,0:0:0:0:
256,192,107374,1,8,0:0:0:0:
256,192,107472,1,0,0:0:0:0:
256,192,107570,1,8,0:0:0:0:
256,192,107766,1,0,0:0:0:0:
256,192,107896,1,8,0:0:0:0:
256,192,108060,1,0,0:0:0:0:
256,192,108158,1,8,0:0:0:0:
256,192,108256,1,8,0:0:0:0:
256,192,108354,1,0,0:0:0:0:
256,192,108550,1,0,0:0:0:0:
256,192,108648,1,8,0:0:0:0:
256,192,108746,1,0,0:0:0:0:
256,192,108942,1,0,0:0:0:0:
256,192,109138,1,8,0:0:0:0:
256,192,109530,1,12,0:0:0:0:
256,192,109922,1,8,0:0:0:0:
256,192,110118,1,0,0:0:0:0:
256,192,110216,1,8,0:0:0:0:
256,192,110511,1,0,0:0:0:0:
256,192,110609,1,0,0:0:0:0:
256,192,110707,1,8,0:0:0:0:
256,192,111033,1,8,0:0:0:0:
256,192,111295,1,8,0:0:0:0:
256,192,111393,1,8,0:0:0:0:
256,192,111491,1,0,0:0:0:0:
256,192,111687,1,0,0:0:0:0:
256,192,111785,1,8,0:0:0:0:
256,192,111981,1,8,0:0:0:0:
256,192,112079,1,0,0:0:0:0:
256,192,112275,1,0,0:0:0:0:
256,192,112667,1,12,0:0:0:0:
256,192,113059,1,0,0:0:0:0:
256,192,113451,1,0,0:0:0:0:
256,192,113647,1,0,0:0:0:0:
256,192,113843,1,8,0:0:0:0:
256,192,114235,1,0,0:0:0:0:
256,192,114628,1,0,0:0:0:0:
256,192,114824,1,8,0:0:0:0:
256,192,115020,1,0,0:0:0:0:
256,192,115216,1,0,0:0:0:0:
256,192,115412,1,8,0:0:0:0:
256,192,115608,1,0,0:0:0:0:
256,192,115804,1,0,0:0:0:0:
256,192,116196,1,0,0:0:0:0:
256,192,116588,1,0,0:0:0:0:
256,192,116784,1,0,0:0:0:0:
256,192,116980,1,8,0:0:0:0:
256,192,117176,1,0,0:0:0:0:
256,192,117372,1,0,0:0:0:0:
256,192,117568,1,0,0:0:0:0:
256,192,117764,1,0,0:0:0:0:
256,192,117960,1,8,0:0:0:0:
256,192,118157,1,0,0:0:0:0:
256,192,118549,1,8,0:0:0:0:
256,192,118745,1,0,0:0:0:0:
256,192,118941,1,0,0:0:0:0:
256,192,119137,1,0,0:0:0:0:
256,192,119333,1,0,0:0:0:0:
256,192,119725,1,0,0:0:0:0:
256,192,119921,1,0,0:0:0:0:
256,192,120117,1,8,0:0:0:0:
256,192,120509,1,0,0:0:0:0:
256,192,120705,1,0,0:0:0:0:
256,192,120901,1,0,0:0:0:0:
256,192,121097,1,8,0:0:0:0:
256,192,121293,1,0,0:0:0:0:
256,192,121489,1,0,0:0:0:0:
256,192,121685,1,8,0:0:0:0:
256,192,122078,1,0,0:0:0:0:
256,192,122274,1,0,0:0:0:0:
256,192,122470,1,0,0:0:0:0:
256,192,122666,1,0,0:0:0:0:
256,192,122862,1,0,0:0:0:0:
256,192,123254,1,8,0:0:0:0:
256,192,123646,1,0,0:0:0:0:
256,192,123842,1,0,0:0:0:0:
256,192,124038,1,0,0:0:0:0:
256,192,124234,1,8,0:0:0:0:
256,192,124430,1,0,0:0:0:0:
256,192,124822,1,8,0:0:0:0:
256,192,125214,1,0,0:0:0:0:
256,192,125410,1,0,0:0:0:0:
256,192,125606,1,0,0:0:0:0:
256,192,125705,1,0,0:0:0:0:
256,192,125999,1,0,0:0:0:0:
256,192,126195,1,0,0:0:0:0:
256,192,126391,1,8,0:0:0:0:
256,192,126783,1,0,0:0:0:0:
256,192,126979,1,0,0:0:0:0:
256,192,127175,1,0,0:0:0:0:
256,192,127371,1,8,0:0:0:0:
256,192,127567,1,0,0:0:0:0:
256,192,127763,1,0,0:0:0:0:
256,192,127959,1,8,0:0:0:0:
256,192,128351,1,0,0:0:0:0:
256,192,128547,1,0,0:0:0:0:
256,192,128743,1,0,0:0:0:0:
256,192,129135,1,0,0:0:0:0:
256,192,129331,1,0,0:0:0:0:
256,192,129528,1,8,0:0:0:0:
256,192,129724,1,0,0:0:0:0:
256,192,129920,1,0,0:0:0:0:
256,192,130312,1,0,0:0:0:0:
256,192,130508,1,8,0:0:0:0:
256,192,130704,1,0,0:0:0:0:
256,192,131096,1,8,0:0:0:0:
256,192,131488,1,0,0:0:0:0:
256,192,131684,1,0,0:0:0:0:
256,192,131880,1,0,0:0:0:0:
256,192,132272,1,0,0:0:0:0:
256,192,132468,1,0,0:0:0:0:
256,192,132664,1,8,0:0:0:0:
256,192,132860,1,0,0:0:0:0:
256,192,133056,1,0,0:0:0:0:
256,192,133252,1,0,0:0:0:0:
256,192,133449,1,0,0:0:0:0:
256,192,133645,1,8,0:0:0:0:
256,192,133841,1,0,0:0:0:0:
256,192,134037,1,0,0:0:0:0:
256,192,134233,1,8,0:0:0:0:
256,192,134625,1,0,0:0:0:0:
256,192,134821,1,0,0:0:0:0:
256,192,135017,1,0,0:0:0:0:
256,192,135409,1,0,0:0:0:0:
256,192,135605,1,0,0:0:0:0:
256,192,135801,1,8,0:0:0:0:
256,192,136193,1,0,0:0:0:0:
256,192,136389,1,0,0:0:0:0:
256,192,136585,1,0,0:0:0:0:
256,192,136781,1,8,0:0:0:0:
256,192,136977,1,0,0:0:0:0:
256,192,137174,1,0,0:0:0:0:
256,192,137370,1,0,0:0:0:0:
256,192,137762,1,4,0:0:0:0:
256,192,138154,1,8,0:0:0:0:
256,192,138284,1,0,0:0:0:0:
256,192,138415,1,0,0:0:0:0:
256,192,138546,1,8,0:0:0:0:
256,192,138677,1,0,0:0:0:0:
256,192,138807,1,0,0:0:0:0:
256,192,138938,1,8,0:0:0:0:
256,192,139134,1,0,0:0:0:0:
256,192,139722,1,8,0:0:0:0:
256,192,139853,1,0,0:0:0:0:
256,192,139984,1,0,0:0:0:0:
256,192,140114,1,8,0:0:0:0:
256,192,140245,1,0,0:0:0:0:
256,192,140376,1,0,0:0:0:0:
256,192,140506,1,8,0:0:0:0:
256,192,140637,1,0,0:0:0:0:
256,192,141291,1,0,0:0:0:0:
256,192,141421,1,8,0:0:0:0:
256,192,141552,1,0,0:0:0:0:
256,192,141683,1,8,0:0:0:0:
256,192,141813,1,0,0:0:0:0:
256,192,141944,1,0,0:0:0:0:
256,192,142075,1,8,0:0:0:0:
256,192,142206,1,8,0:0:0:0:
256,192,142336,1,0,0:0:0:0:
256,192,142467,1,0,0:0:0:0:
256,192,142598,1,8,0:0:0:0:
256,192,142728,1,0,0:0:0:0:
256,192,142859,1,8,0:0:0:0:
256,192,142990,1,8,0:0:0:0:
256,192,143120,1,0,0:0:0:0:
256,192,143251,1,8,0:0:0:0:
256,192,143382,1,0,0:0:0:0:
256,192,143513,1,0,0:0:0:0:
256,192,143643,1,8,0:0:0:0:
256,192,143774,1,0,0:0:0:0:
256,192,144297,1,8,0:0:0:0:
256,192,144427,1,0,0:0:0:0:
256,192,144558,1,0,0:0:0:0:
256,192,144689,1,0,0:0:0:0:
256,192,144820,1,8,0:0:0:0:
256,192,144950,1,0,0:0:0:0:
256,192,145081,1,8,0:0:0:0:
256,192,145212,1,8,0:0:0:0:
256,192,145342,1,0,0:0:0:0:
256,192,145473,1,0,0:0:0:0:
256,192,145604,1,8,0:0:0:0:
256,192,145734,1,8,0:0:0:0:
256,192,145865,1,0,0:0:0:0:
256,192,145996,1,8,0:0:0:0:
256,192,146127,1,0,0:0:0:0:
256,192,146257,1,0,0:0:0:0:
256,192,146388,1,8,0:0:0:0:
256,192,146519,1,0,0:0:0:0:
256,192,146649,1,0,0:0:0:0:
256,192,146780,1,8,0:0:0:0:
256,192,146911,1,0,0:0:0:0:
256,192,147172,1,8,0:0:0:0:
256,192,147303,1,0,0:0:0:0:
256,192,147434,1,0,0:0:0:0:
256,192,147564,1,8,0:0:0:0:
256,192,147695,1,8,0:0:0:0:
256,192,147826,1,0,0:0:0:0:
256,192,147956,1,8,0:0:0:0:
256,192,148087,1,0,0:0:0:0:
256,192,148218,1,8,0:0:0:0:
256,192,148348,1,8,0:0:0:0:
256,192,148479,1,8,0:0:0:0:
256,192,148610,1,0,0:0:0:0:
256,192,148741,1,8,0:0:0:0:
256,192,148871,1,0,0:0:0:0:
256,192,149002,1,0,0:0:0:0:
256,192,149133,1,8,0:0:0:0:
256,192,149263,1,0,0:0:0:0:
256,192,149394,1,0,0:0:0:0:
256,192,149525,1,8,0:0:0:0:
256,192,149655,1,8,0:0:0:0:
256,192,149786,1,0,0:0:0:0:
256,192,149917,1,8,0:0:0:0:
256,192,150048,1,0,0:0:0:0:
256,192,150178,1,0,0:0:0:0:
256,192,150309,1,8,0:0:0:0:
256,192,150440,1,8,0:0:0:0:
256,192,150570,1,0,0:0:0:0:
256,192,150701,1,8,0:0:0:0:
256,192,150832,1,0,0:0:0:0:
256,192,150962,1,0,0:0:0:0:
256,192,151093,1,8,0:0:0:0:
256,192,151224,1,0,0:0:0:0:
256,192,151355,1,0,0:0:0:0:
256,192,151485,1,8,0:0:0:0:
256,192,151616,1,0,0:0:0:0:
256,192,151747,1,8,0:0:0:0:
256,192,151877,1,8,0:0:0:0:
256,192,152008,1,0,0:0:0:0:
256,192,152073,1,0,0:0:0:0:
256,192,152139,1,0,0:0:0:0:
256,192,152269,1,8,0:0:0:0:
256,192,152400,1,8,0:0:0:0:
256,192,152531,1,0,0:0:0:0:
256,192,152662,1,8,0:0:0:0:
256,192,152792,1,0,0:0:0:0:
256,192,152923,1,8,0:0:0:0:
256,192,153054,1,8,0:0:0:0:
256,192,153184,1,0,0:0:0:0:
256,192,153315,1,0,0:0:0:0:
256,192,153446,1,8,0:0:0:0:
256,192,153576,1,0,0:0:0:0:
256,192,153642,1,0,0:0:0:0:
256,192,153707,1,0,0:0:0:0:
256,192,153838,1,8,0:0:0:0:
256,192,153969,1,0,0:0:0:0:
256,192,154099,1,0,0:0:0:0:
256,192,154230,1,8,0:0:0:0:
256,192,154361,1,0,0:0:0:0:
256,192,154491,1,0,0:0:0:0:
256,192,154622,1,8,0:0:0:0:
256,192,154753,1,8,0:0:0:0:
256,192,154884,1,0,0:0:0:0:
256,192,155014,1,8,0:0:0:0:
256,192,155145,1,0,0:0:0:0:
256,192,155276,1,8,0:0:0:0:
256,192,155406,1,8,0:0:0:0:
256,192,155537,1,8,0:0:0:0:
256,192,155668,1,0,0:0:0:0:
256,192,155798,1,8,0:0:0:0:
256,192,155929,1,0,0:0:0:0:
256,192,156060,1,0,0:0:0:0:
256,192,156191,1,8,0:0:0:0:
256,192,156321,1,0,0:0:0:0:
256,192,156452,1,0,0:0:0:0:
256,192,156583,1,8,0:0:0:0:
256,192,156713,1,8,0:0:0:0:
256,192,156844,1,0,0:0:0:0:
256,192,156975,1,8,0:0:0:0:
256,192,157105,1,8,0:0:0:0:
256,192,157236,1,0,0:0:0:0:
256,192,157367,1,8,0:0:0:0:
256,192,157498,1,0,0:0:0:0:
256,192,157628,1,8,0:0:0:0:
256,192,157759,1,8,0:0:0:0:
256,192,157890,1,0,0:0:0:0:
256,192,158020,1,0,0:0:0:0:
256,192,158151,1,8,0:0:0:0:
256,192,158282,1,0,0:0:0:0:
256,192,158412,1,8,0:0:0:0:
256,192,158543,1,8,0:0:0:0:
256,192,158674,1,8,0:0:0:0:
256,192,158805,1,0,0:0:0:0:
256,192,158935,1,8,0:0:0:0:
256,192,159066,1,0,0:0:0:0:
256,192,159197,1,8,0:0:0:0:
256,192,159327,1,8,0:0:0:0:
256,192,159458,1,0,0:0:0:0:
256,192,159589,1,8,0:0:0:0:
256,192,159719,1,8,0:0:0:0:
256,192,159850,1,8,0:0:0:0:
256,192,159981,1,0,0:0:0:0:
256,192,160112,1,8,0:0:0:0:
256,192,160242,1,0,0:0:0:0:
256,192,160373,1,0,0:0:0:0:
256,192,160504,1,8,0:0:0:0:
256,192,160634,1,8,0:0:0:0:
256,192,160765,1,0,0:0:0:0:
256,192,160896,1,8,0:0:0:0:
256,192,161026,1,0,0:0:0:0:
256,192,161157,1,0,0:0:0:0:
256,192,161288,1,8,0:0:0:0:
256,192,161419,1,8,0:0:0:0:
256,192,161549,1,0,0:0:0:0:
256,192,161680,1,8,0:0:0:0:
256,192,161811,1,8,0:0:0:0:
256,192,161941,1,0,0:0:0:0:
256,192,162072,1,8,0:0:0:0:
256,192,162203,1,8,0:0:0:0:
256,192,162333,1,0,0:0:0:0:
256,192,162464,1,8,0:0:0:0:
256,192,162595,1,0,0:0:0:0:
256,192,162726,1,8,0:0:0:0:
256,192,162856,1,8,0:0:0:0:
256,192,162987,1,0,0:0:0:0:
256,192,163118,1,8,0:0:0:0:
256,192,163248,1,8,0:0:0:0:
256,192,163379,1,8,0:0:0:0:
256,192,163510,1,0,0:0:0:0:
256,192,163640,1,8,0:0:0:0:
256,192,163771,1,0,0:0:0:0:
256,192,163902,1,8,0:0:0:0:
256,192,164033,1,8,0:0:0:0:
256,192,164163,1,0,0:0:0:0:
256,192,164294,1,0,0:0:0:0:
256,192,164425,1,8,0:0:0:0:
256,192,164555,1,0,0:0:0:0:
256,192,164686,1,0,0:0:0:0:
256,192,164817,1,8,0:0:0:0:
256,192,164947,1,8,0:0:0:0:
256,192,165078,1,0,0:0:0:0:
256,192,165209,1,8,0:0:0:0:
256,192,165340,1,0,0:0:0:0:
256,192,165470,1,0,0:0:0:0:
256,192,165601,1,8,0:0:0:0:
256,192,165732,1,8,0:0:0:0:
256,192,165862,1,0,0:0:0:0:
256,192,165993,1,8,0:0:0:0:
256,192,166058,1,0,0:0:0:0:
256,192,166124,1,0,0:0:0:0:
256,192,166254,1,0,0:0:0:0:
256,192,166385,1,8,0:0:0:0:
256,192,166516,1,8,0:0:0:0:
256,192,166647,1,0,0:0:0:0:
256,192,166777,1,8,0:0:0:0:
256,192,166908,1,0,0:0:0:0:
256,192,166973,1,0,0:0:0:0:
256,192,167039,1,0,0:0:0:0:
256,192,167169,1,8,0:0:0:0:
256,192,167300,1,0,0:0:0:0:
256,192,167431,1,0,0:0:0:0:
256,192,167562,1,8,0:0:0:0:
256,192,167692,1,0,0:0:0:0:
256,192,167823,1,0,0:0:0:0:
256,192,167954,1,8,0:0:0:0:
256,192,168084,1,8,0:0:0:0:
256,192,168150,1,0,0:0:0:0:
256,192,168215,1,0,0:0:0:0:
256,192,168346,1,8,0:0:0:0:
256,192,168476,1,0,0:0:0:0:
256,192,168607,1,8,0:0:0:0:
256,192,168738,1,0,0:0:0:0:
256,192,168869,1,8,0:0:0:0:
256,192,168999,1,0,0:0:0:0:
256,192,169130,1,8,0:0:0:0:
256,192,169261,1,8,0:0:0:0:
256,192,169391,1,8,0:0:0:0:
256,192,169522,1,0,0:0:0:0:
256,192,169718,1,0,0:0:0:0:
256,192,169816,1,8,0:0:0:0:
256,192,169914,1,0,0:0:0:0:
256,192,170110,1,0,0:0:0:0:
256,192,170306,1,8,0:0:0:0:
256,192,170600,1,0,0:0:0:0:
256,192,170698,1,8,0:0:0:0:
256,192,170894,1,0,0:0:0:0:
256,192,171090,1,0,0:0:0:0:
256,192,171286,1,8,0:0:0:0:
256,192,171385,1,0,0:0:0:0:
256,192,171483,1,8,0:0:0:0:
256,192,171679,1,0,0:0:0:0:
256,192,171777,1,0,0:0:0:0:
256,192,171875,1,8,0:0:0:0:
256,192,172071,1,0,0:0:0:0:
256,192,172365,1,0,0:0:0:0:
256,192,172463,1,8,0:0:0:0:
256,192,172659,1,0,0:0:0:0:
256,192,172855,1,0,0:0:0:0:
256,192,172953,1,0,0:0:0:0:
256,192,173051,1,8,0:0:0:0:
256,192,173247,1,8,0:0:0:0:
256,192,173443,1,0,0:0:0:0:
256,192,173639,1,8,0:0:0:0:
256,192,173737,1,0,0:0:0:0:
256,192,173835,1,8,0:0:0:0:
256,192,174031,1,0,0:0:0:0:
256,192,174129,1,0,0:0:0:0:
256,192,174227,1,8,0:0:0:0:
256,192,174423,1,0,0:0:0:0:
256,192,174717,1,0,0:0:0:0:
256,192,174815,1,8,0:0:0:0:
256,192,175011,1,0,0:0:0:0:
256,192,175208,1,8,0:0:0:0:
256,192,175306,1,0,0:0:0:0:
256,192,175404,1,8,0:0:0:0:
256,192,175502,1,0,0:0:0:0:
256,192,175600,1,8,0:0:0:0:
256,192,175796,1,0,0:0:0:0:
256,192,175992,1,8,0:0:0:0:
256,192,176090,1,0,0:0:0:0:
256,192,176188,1,8,0:0:0:0:
256,192,176384,1,0,0:0:0:0:
256,192,176580,1,8,0:0:0:0:
256,192,176776,1,8,0:0:0:0:
256,192,176972,1,0,0:0:0:0:
256,192,177070,1,8,0:0:0:0:
256,192,177168,1,0,0:0:0:0:
256,192,177364,1,8,0:0:0:0:
256,192,177560,1,0,0:0:0:0:
256,192,177756,1,8,0:0:0:0:
256,192,177952,1,0,0:0:0:0:
256,192,178148,1,8,0:0:0:0:
256,192,178344,1,0,0:0:0:0:
256,192,178442,1,0,0:0:0:0:
256,192,178540,1,8,0:0:0:0:
256,192,178638,1,0,0:0:0:0:
256,192,178736,1,8,0:0:0:0:
256,192,178932,1,0,0:0:0:0:
256,192,179129,1,0,0:0:0:0:
256,192,179521,1,8,0:0:0:0:
256,192,179619,1,0,0:0:0:0:
256,192,179717,1,8,0:0:0:0:
256,192,179913,1,0,0:0:0:0:
256,192,180109,1,0,0:0:0:0:
256,192,180305,1,8,0:0:0:0:
256,192,180403,1,0,0:0:0:0:
256,192,180501,1,8,0:0:0:0:
256,192,180697,1,0,0:0:0:0:
256,192,180893,1,8,0:0:0:0:
256,192,181089,1,0,0:0:0:0:
256,192,181285,1,8,0:0:0:0:
256,192,181481,1,0,0:0:0:0:
256,192,181677,1,0,0:0:0:0:
256,192,181775,1,8,0:0:0:0:
256,192,181873,1,0,0:0:0:0:
256,192,182069,1,8,0:0:0:0:
256,192,182363,1,0,0:0:0:0:
256,192,182461,1,8,0:0:0:0:
256,192,182559,1,0,0:0:0:0:
256,192,182657,1,8,0:0:0:0:
256,192,182755,1,0,0:0:0:0:
256,192,182854,1,8,0:0:0:0:
256,192,183050,1,0,0:0:0:0:
256,192,183246,1,0,0:0:0:0:
256,192,183442,1,0,0:0:0:0:
256,192,183638,1,8,0:0:0:0:
256,192,183834,1,0,0:0:0:0:
256,192,184030,1,0,0:0:0:0:
256,192,184128,1,8,0:0:0:0:
256,192,184226,1,0,0:0:0:0:
256,192,184422,1,8,0:0:0:0:
256,192,184618,1,8,0:0:0:0:
256,192,184814,1,0,0:0:0:0:
256,192,185010,1,0,0:0:0:0:
256,192,185206,1,8,0:0:0:0:
256,192,185402,1,0,0:0:0:0:
256,192,185500,1,0,0:0:0:0:
256,192,185598,1,8,0:0:0:0:
256,192,185794,1,8,0:0:0:0:
256,192,185990,1,0,0:0:0:0:
256,192,186186,1,8,0:0:0:0:
256,192,186382,1,8,0:0:0:0:
256,192,186578,1,0,0:0:0:0:
256,192,186677,1,8,0:0:0:0:
256,192,186775,1,8,0:0:0:0:
256,192,186971,1,8,0:0:0:0:
256,192,187167,1,0,0:0:0:0:
256,192,187265,1,8,0:0:0:0:
256,192,187363,1,0,0:0:0:0:
256,192,187559,1,8,0:0:0:0:
256,192,187951,1,12,0:0:0:0:
288,96,188147,1,8,0:0:0:0:
320,96,188245,1,0,0:0:0:0:
288,96,188343,1,8,0:0:0:0:
288,96,188441,1,0,0:0:0:0:
288,96,188539,1,0,0:0:0:0:
288,96,188637,1,8,0:0:0:0:
288,96,188735,1,8,0:0:0:0:
288,96,188833,1,8,0:0:0:0:
288,96,188931,1,0,0:0:0:0:
288,96,189029,1,8,0:0:0:0:
288,96,189127,1,8,0:0:0:0:
288,96,189225,1,0,0:0:0:0:
288,96,189323,1,8,0:0:0:0:
288,96,189421,1,0,0:0:0:0:
288,96,189519,1,0,0:0:0:0:
288,96,189617,1,8,0:0:0:0:
288,96,189715,1,0,0:0:0:0:
288,96,189813,1,0,0:0:0:0:
288,96,189911,1,8,0:0:0:0:
288,96,190009,1,0,0:0:0:0:
288,96,190107,1,8,0:0:0:0:
288,96,190205,1,8,0:0:0:0:
288,96,190303,1,0,0:0:0:0:
288,96,190402,1,0,0:0:0:0:
288,96,190500,1,0,0:0:0:0:
288,96,190598,1,8,0:0:0:0:
288,96,190696,1,8,0:0:0:0:
288,96,190892,1,0,0:0:0:0:
288,96,191088,1,8,0:0:0:0:
288,96,191218,1,8,0:0:0:0:
288,96,191284,1,8,0:0:0:0:
288,96,191382,1,0,0:0:0:0:
288,96,191480,1,0,0:0:0:0:
288,96,191676,1,0,0:0:0:0:
288,96,191774,1,8,0:0:0:0:
288,96,191872,1,0,0:0:0:0:
288,96,191970,1,0,0:0:0:0:
288,96,192068,1,8,0:0:0:0:
288,96,192166,1,0,0:0:0:0:
288,96,192264,1,8,0:0:0:0:
288,96,192362,1,8,0:0:0:0:
288,96,192460,1,0,0:0:0:0:
288,96,192558,1,8,0:0:0:0:
288,96,192656,1,8,0:0:0:0:
288,96,192754,1,0,0:0:0:0:
288,96,192852,1,8,0:0:0:0:
288,96,192950,1,0,0:0:0:0:
288,96,193048,1,8,0:0:0:0:
288,96,193146,1,0,0:0:0:0:
288,96,193244,1,0,0:0:0:0:
288,96,193342,1,8,0:0:0:0:
288,96,193440,1,8,0:0:0:0:
288,96,193538,1,0,0:0:0:0:
288,96,193636,1,8,0:0:0:0:
288,96,193734,1,0,0:0:0:0:
288,96,193832,1,8,0:0:0:0:
288,96,194028,1,0,0:0:0:0:
288,96,194225,1,0,0:0:0:0:
288,96,194421,1,8,0:0:0:0:
288,96,194519,1,0,0:0:0:0:
288,96,194617,1,8,0:0:0:0:
288,96,194715,1,0,0:0:0:0:
288,96,194813,1,0,0:0:0:0:
288,96,194911,1,8,0:0:0:0:
288,96,195009,1,0,0:0:0:0:
288,96,195107,1,8,0:0:0:0:
288,96,195205,1,8,0:0:0:0:
288,96,195303,1,0,0:0:0:0:
288,96,195401,1,8,0:0:0:0:
288,96,195499,1,0,0:0:0:0:
288,96,195597,1,8,0:0:0:0:
288,96,195695,1,0,0:0:0:0:
288,96,195793,1,8,0:0:0:0:
288,96,195891,1,0,0:0:0:0:
288,96,195989,1,8,0:0:0:0:
288,96,196087,1,8,0:0:0:0:
288,96,196185,1,0,0:0:0:0:
288,96,196283,1,0,0:0:0:0:
288,96,196381,1,8,0:0:0:0:
288,96,196479,1,0,0:0:0:0:
288,96,196577,1,8,0:0:0:0:
288,96,196675,1,8,0:0:0:0:
288,96,196773,1,0,0:0:0:0:
288,96,196871,1,8,0:0:0:0:
288,96,196969,1,8,0:0:0:0:
288,96,197067,1,0,0:0:0:0:
288,96,197165,1,0,0:0:0:0:
288,96,197263,1,8,0:0:0:0:
288,96,197361,1,0,0:0:0:0:
288,96,197459,1,0,0:0:0:0:
288,96,197557,1,8,0:0:0:0:
288,96,197655,1,0,0:0:0:0:
288,96,197753,1,8,0:0:0:0:
288,96,197851,1,0,0:0:0:0:
288,96,197949,1,8,0:0:0:0:
288,96,198048,1,8,0:0:0:0:
288,96,198146,1,0,0:0:0:0:
288,96,198244,1,0,0:0:0:0:
288,96,198342,1,8,0:0:0:0:
288,96,198440,1,0,0:0:0:0:
288,96,198538,1,8,0:0:0:0:
288,96,198636,1,0,0:0:0:0:
288,96,198734,1,0,0:0:0:0:
288,96,198832,1,8,0:0:0:0:
288,96,198930,1,0,0:0:0:0:
288,96,199028,1,0,0:0:0:0:
288,96,199126,1,8,0:0:0:0:
288,96,199224,1,8,0:0:0:0:
288,96,199322,1,0,0:0:0:0:
288,96,199420,1,8,0:0:0:0:
288,96,199518,1,0,0:0:0:0:
288,96,199616,1,8,0:0:0:0:
288,96,199714,1,8,0:0:0:0:
288,96,199812,1,0,0:0:0:0:
288,96,199910,1,8,0:0:0:0:
288,96,200008,1,0,0:0:0:0:
288,96,200106,1,8,0:0:0:0:
288,96,200204,1,0,0:0:0:0:
288,96,200302,1,0,0:0:0:0:
288,96,200400,1,8,0:0:0:0:
288,96,200498,1,0,0:0:0:0:
288,96,200596,1,8,0:0:0:0:
288,96,200694,1,0,0:0:0:0:
288,96,200792,1,8,0:0:0:0:
288,96,200890,1,8,0:0:0:0:
288,96,200988,1,0,0:0:0:0:
288,96,201086,1,0,0:0:0:0:
288,96,201184,1,8,0:0:0:0:
288,96,201282,1,8,0:0:0:0:
288,96,201380,1,0,0:0:0:0:
288,96,201478,1,8,0:0:0:0:
288,96,201576,1,0,0:0:0:0:
288,96,201674,1,8,0:0:0:0:
288,96,201772,1,8,0:0:0:0:
288,96,201871,1,0,0:0:0:0:
288,96,201969,1,8,0:0:0:0:
288,96,202067,1,0,0:0:0:0:
288,96,202165,1,8,0:0:0:0:
288,96,202263,1,8,0:0:0:0:
288,96,202361,1,0,0:0:0:0:
288,96,202459,1,8,0:0:0:0:
288,96,202557,1,0,0:0:0:0:
288,96,202655,1,8,0:0:0:0:
288,96,202753,1,0,0:0:0:0:
288,96,202851,1,8,0:0:0:0:
288,96,202949,1,0,0:0:0:0:
288,96,203047,1,8,0:0:0:0:
288,96,203145,1,8,0:0:0:0:
288,96,203243,1,0,0:0:0:0:
288,96,203341,1,0,0:0:0:0:
288,96,203439,1,8,0:0:0:0:
288,96,203537,1,8,0:0:0:0:
288,96,203635,1,0,0:0:0:0:
288,96,203733,1,0,0:0:0:0:
288,96,203831,1,0,0:0:0:0:
288,96,203929,1,8,0:0:0:0:
288,96,204027,1,0,0:0:0:0:
288,96,204125,1,8,0:0:0:0:
288,96,204223,1,0,0:0:0:0:
288,96,204321,1,0,0:0:0:0:
288,96,204419,1,8,0:0:0:0:
288,96,204517,1,8,0:0:0:0:
288,96,204615,1,0,0:0:0:0:
288,96,204713,1,0,0:0:0:0:
288,96,204811,1,8,0:0:0:0:
288,96,204909,1,0,0:0:0:0:
288,96,205007,1,0,0:0:0:0:
288,96,205105,1,8,0:0:0:0:
288,96,205203,1,0,0:0:0:0:
288,96,205301,1,8,0:0:0:0:
288,96,205399,1,8,0:0:0:0:
288,96,205497,1,0,0:0:0:0:
288,96,205595,1,8,0:0:0:0:
288,96,205694,1,0,0:0:0:0:
288,96,205792,1,8,0:0:0:0:
288,96,205890,1,0,0:0:0:0:
288,96,205988,1,8,0:0:0:0:
288,96,206086,1,8,0:0:0:0:
288,96,206184,1,0,0:0:0:0:
288,96,206282,1,0,0:0:0:0:
288,96,206380,1,8,0:0:0:0:
288,96,206478,1,0,0:0:0:0:
288,96,206576,1,0,0:0:0:0:
288,96,206674,1,8,0:0:0:0:
288,96,206772,1,8,0:0:0:0:
288,96,206870,1,0,0:0:0:0:
288,96,206968,1,8,0:0:0:0:
288,96,207066,1,0,0:0:0:0:
288,96,207164,1,8,0:0:0:0:
288,96,207262,1,8,0:0:0:0:
288,96,207360,1,0,0:0:0:0:
288,96,207458,1,0,0:0:0:0:
288,96,207556,1,8,0:0:0:0:
288,96,207654,1,0,0:0:0:0:
288,96,207752,1,8,0:0:0:0:
288,96,207850,1,8,0:0:0:0:
288,96,207948,1,8,0:0:0:0:
288,96,208046,1,0,0:0:0:0:
288,96,208144,1,8,0:0:0:0:
288,96,208242,1,8,0:0:0:0:
288,96,208340,1,0,0:0:0:0:
288,96,208438,1,8,0:0:0:0:
288,96,208536,1,0,0:0:0:0:
288,96,208634,1,0,0:0:0:0:
288,96,208732,1,8,0:0:0:0:
288,96,208830,1,0,0:0:0:0:
288,96,208928,1,8,0:0:0:0:
288,96,209026,1,0,0:0:0:0:
288,96,209124,1,8,0:0:0:0:
288,96,209222,1,0,0:0:0:0:
288,96,209320,1,0,0:0:0:0:
288,96,209419,1,0,0:0:0:0:
288,96,209517,1,8,0:0:0:0:
288,96,209615,1,0,0:0:0:0:
288,96,209713,1,0,0:0:0:0:
288,96,209811,1,8,0:0:0:0:
288,96,209909,1,8,0:0:0:0:
288,96,210007,1,0,0:0:0:0:
288,96,210105,1,0,0:0:0:0:
288,96,210203,1,8,0:0:0:0:
288,96,210301,1,0,0:0:0:0:
288,96,210399,1,0,0:0:0:0:
288,96,210497,1,8,0:0:0:0:
288,96,210595,1,0,0:0:0:0:
288,96,210693,1,8,0:0:0:0:
288,96,210791,1,0,0:0:0:0:
288,96,210889,1,8,0:0:0:0:
288,96,210987,1,8,0:0:0:0:
288,96,211085,1,8,0:0:0:0:
288,96,211183,1,0,0:0:0:0:
288,96,211281,1,8,0:0:0:0:
288,96,211379,1,0,0:0:0:0:
288,96,211477,1,8,0:0:0:0:
288,96,211575,1,8,0:0:0:0:
288,96,211673,1,0,0:0:0:0:
288,96,211771,1,0,0:0:0:0:
288,96,211869,1,8,0:0:0:0:
288,96,211967,1,0,0:0:0:0:
288,96,212065,1,8,0:0:0:0:
288,96,212163,1,0,0:0:0:0:
288,96,212261,1,8,0:0:0:0:
288,96,212359,1,0,0:0:0:0:
288,96,212457,1,8,0:0:0:0:
288,96,212555,1,8,0:0:0:0:
288,96,212653,1,0,0:0:0:0:
288,96,212751,1,8,0:0:0:0:
288,96,212849,1,8,0:0:0:0:
288,96,212947,1,0,0:0:0:0:
288,96,213045,1,8,0:0:0:0:
288,96,213143,1,0,0:0:0:0:
288,96,213242,1,8,0:0:0:0:
288,96,213340,1,0,0:0:0:0:
288,96,213438,1,8,0:0:0:0:
288,96,213536,1,8,0:0:0:0:
288,96,213634,1,0,0:0:0:0:
288,96,213732,1,0,0:0:0:0:
288,96,213830,1,8,0:0:0:0:
288,96,213928,1,0,0:0:0:0:
288,96,214026,1,8,0:0:0:0:
288,96,214124,1,8,0:0:0:0:
288,96,214222,1,0,0:0:0:0:
288,96,214418,1,0,0:0:0:0:
288,96,214614,1,0,0:0:0:0:
288,96,214810,1,0,0:0:0:0:
288,96,215006,1,8,0:0:0:0:
288,96,215202,1,8,0:0:0:0:
288,96,215300,1,0,0:0:0:0:
288,96,215398,1,8,0:0:0:0:
288,96,215594,1,0,0:0:0:0:
288,96,215790,1,8,0:0:0:0:
288,96,215986,1,0,0:0:0:0:
288,96,216182,1,8,0:0:0:0:
288,96,216378,1,0,0:0:0:0:
288,96,216574,1,0,0:0:0:0:
288,96,216868,1,0,0:0:0:0:
288,96,216966,1,8,0:0:0:0:
288,96,217163,1,0,0:0:0:0:
288,96,217359,1,8,0:0:0:0:
288,96,217555,1,0,0:0:0:0:
288,96,217751,1,8,0:0:0:0:
288,96,217947,1,0,0:0:0:0:
288,96,218143,1,8,0:0:0:0:
288,96,218339,1,0,0:0:0:0:
288,96,218437,1,0,0:0:0:0:
288,96,218535,1,8,0:0:0:0:
288,96,218731,1,0,0:0:0:0:
288,96,218927,1,8,0:0:0:0:
288,96,219025,1,8,0:0:0:0:
288,96,219123,1,0,0:0:0:0:
288,96,219221,1,0,0:0:0:0:
288,96,219319,1,8,0:0:0:0:
288,96,219515,1,0,0:0:0:0:
288,96,219711,1,8,0:0:0:0:
288,96,220299,1,0,0:0:0:0:
288,96,220397,1,0,0:0:0:0:
288,96,220495,1,8,0:0:0:0:
288,96,220691,1,0,0:0:0:0:
288,96,220789,1,8,0:0:0:0:
288,96,221084,1,0,0:0:0:0:
288,96,221280,1,8,0:0:0:0:
288,96,221476,1,0,0:0:0:0:
288,96,221574,1,8,0:0:0:0:
288,96,221868,1,0,0:0:0:0:
288,96,222064,1,8,0:0:0:0:
288,96,222260,1,0,0:0:0:0:
288,96,222358,1,8,0:0:0:0:
288,96,222554,1,0,0:0:0:0:
288,96,222652,1,8,0:0:0:0:
288,96,222750,1,0,0:0:0:0:
288,96,222848,1,8,0:0:0:0:
288,96,223044,1,0,0:0:0:0:
288,96,223142,1,8,0:0:0:0:
288,96,223338,1,0,0:0:0:0:
288,96,223436,1,0,0:0:0:0:
288,96,223632,1,8,0:0:0:0:
288,96,223828,1,0,0:0:0:0:
288,96,223926,1,8,0:0:0:0:
288,96,224220,1,0,0:0:0:0:
288,96,224416,1,8,0:0:0:0:
288,96,224612,1,0,0:0:0:0:
288,96,224711,1,8,0:0:0:0:
288,96,225005,1,0,0:0:0:0:
288,96,225201,1,8,0:0:0:0:
288,96,225495,1,0,0:0:0:0:
288,96,225789,1,0,0:0:0:0:
288,96,225887,1,0,0:0:0:0:
288,96,225985,1,8,0:0:0:0:
288,96,226181,1,0,0:0:0:0:
288,96,226279,1,8,0:0:0:0:
288,96,226573,1,0,0:0:0:0:
288,96,226671,1,0,0:0:0:0:
288,96,226769,1,8,0:0:0:0:
288,96,226965,1,0,0:0:0:0:
288,96,227063,1,8,0:0:0:0:
288,96,227259,1,0,0:0:0:0:
288,96,227357,1,0,0:0:0:0:
288,96,227455,1,0,0:0:0:0:
288,96,227553,1,8,0:0:0:0:
288,96,227749,1,0,0:0:0:0:
288,96,227847,1,8,0:0:0:0:
288,96,228043,1,0,0:0:0:0:
288,96,228141,1,0,0:0:0:0:
288,96,228337,1,8,0:0:0:0:
288,96,228632,1,0,0:0:0:0:
288,96,228926,1,0,0:0:0:0:
288,96,229024,1,0,0:0:0:0:
288,96,229122,1,8,0:0:0:0:
288,96,229318,1,0,0:0:0:0:
288,96,229416,1,8,0:0:0:0:
288,96,229612,1,0,0:0:0:0:
288,96,229710,1,8,0:0:0:0:
288,96,229808,1,0,0:0:0:0:
288,96,229906,1,8,0:0:0:0:
288,96,230200,1,0,0:0:0:0:
288,96,230396,1,0,0:0:0:0:
288,96,230494,1,8,0:0:0:0:
288,96,230690,1,0,0:0:0:0:
288,96,230821,1,8,0:0:0:0:
288,96,231017,1,0,0:0:0:0:
288,96,231213,1,0,0:0:0:0:
288,96,231376,1,0,0:0:0:0:
288,96,231474,1,8,0:0:0:0:
288,96,231768,1,0,0:0:0:0:
288,96,232062,1,0,0:0:0:0:
256,192,232259,1,12,0:0:0:0:
256,192,232389,1,0,0:0:0:0:
256,192,232520,1,0,0:0:0:0:
256,192,232651,1,0,0:0:0:0:
256,192,233043,1,8,0:0:0:0:
256,192,233435,1,8,0:0:0:0:
256,192,233566,1,0,0:0:0:0:
256,192,233696,1,0,0:0:0:0:
256,192,233827,1,8,0:0:0:0:
256,192,234023,1,0,0:0:0:0:
256,192,234219,1,8,0:0:0:0:
256,192,234611,1,8,0:0:0:0:
256,192,234742,1,8,0:0:0:0:
256,192,234873,1,0,0:0:0:0:
256,192,235003,1,8,0:0:0:0:
256,192,235395,1,8,0:0:0:0:
256,192,235526,1,0,0:0:0:0:
256,192,235657,1,8,0:0:0:0:
256,192,235787,1,0,0:0:0:0:
256,192,236180,1,8,0:0:0:0:
256,192,236376,1,0,0:0:0:0:
256,192,236572,1,0,0:0:0:0:
256,192,236702,1,8,0:0:0:0:
256,192,236833,1,0,0:0:0:0:
256,192,236964,1,8,0:0:0:0:
256,192,237160,1,0,0:0:0:0:
256,192,237356,1,8,0:0:0:0:
256,192,237748,1,8,0:0:0:0:
256,192,237879,1,0,0:0:0:0:
256,192,238009,1,0,0:0:0:0:
256,192,238140,1,8,0:0:0:0:
256,192,238532,1,8,0:0:0:0:
256,192,238663,1,8,0:0:0:0:
256,192,238794,1,0,0:0:0:0:
256,192,238924,1,0,0:0:0:0:
256,192,239316,1,8,0:0:0:0:
256,192,239708,1,0,0:0:0:0:
256,192,239839,1,0,0:0:0:0:
256,192,239970,1,8,0:0:0:0:
256,192,240101,1,8,0:0:0:0:
256,192,240297,1,0,0:0:0:0:
256,192,240493,1,8,0:0:0:0:
256,192,240885,1,8,0:0:0:0:
256,192,241015,1,8,0:0:0:0:
256,192,241146,1,0,0:0:0:0:
256,192,241277,1,0,0:0:0:0:
256,192,241669,1,8,0:0:0:0:
256,192,241800,1,8,0:0:0:0:
256,192,241930,1,8,0:0:0:0:
256,192,242061,1,0,0:0:0:0:
256,192,242453,1,8,0:0:0:0:
256,192,242845,1,8,0:0:0:0:
256,192,242976,1,8,0:0:0:0:
256,192,243107,1,8,0:0:0:0:
256,192,243237,1,0,0:0:0:0:
256,192,243433,1,0,0:0:0:0:
256,192,243629,1,8,0:0:0:0:
256,192,244022,1,8,0:0:0:0:
256,192,244152,1,0,0:0:0:0:
256,192,244283,1,0,0:0:0:0:
256,192,244414,1,8,0:0:0:0:
