osu file format v14

[General]
AudioFilename: audio.mp3
AudioLeadIn: 0
PreviewTime: 138154
Countdown: 0
SampleSet: None
StackLeniency: 0.7
Mode: 1
LetterboxInBreaks: 0
WidescreenStoryboard: 1

[Editor]
DistanceSpacing: 0.4
BeatDivisor: 7
GridSize: 32
TimelineZoom: 2.1

[Metadata]
Title:Lucky You feat. Joyner Lucas
TitleUnicode:Lucky You feat. Joyner Lucas
Artist:Eminem
ArtistUnicode:Eminem
Creator:Stefan
Version:Lucky Oni (test)
Source:
Tags:marshall bruce mathers kamikaze rap trap english thenutritiousguy tng
BeatmapID:2707058
BeatmapSetID:890922

[Difficulty]
HPDrainRate:5
CircleSize:5
OverallDifficulty:5
ApproachRate:5
SliderMultiplier:1.4
SliderTickRate:1

[Events]
//Background and Video events
0,0,"__doremy_sweet_hakurei_reimu_kirisame_marisa_komeiji_koishi_rumia_and_others_touhou_drawn_by_koto_inari__6ab21b268d1c37430dff5c3a9e3f8396.png",0,60
//Break Periods
//Storyboard Layer 0 (Background)
//Storyboard Layer 1 (Fail)
//Storyboard Layer 2 (Pass)
//Storyboard Layer 3 (Foreground)
//Storyboard Layer 4 (Overlay)
//Storyboard Sound Samples

[TimingPoints]
124,392.105607110182,4,1,0,45,1,0
37383,-90.9090909090909,4,1,0,45,0,0
37775,-100,4,1,0,45,0,0
78162,-80,4,1,0,45,0,0
78554,-100,4,1,0,45,0,0
87769,-95.2380952380951,4,1,0,45,0,0
87867,-90.9090909090909,4,1,0,45,0,0
87965,-86.9565217391303,4,1,0,45,0,1
100120,-89.2857142857143,4,1,0,45,0,1
100218,-91.743119266055,4,1,0,45,0,1
100316,-94.3396226415094,4,1,0,45,0,1
100414,-97.0873786407767,4,1,0,45,0,1
100512,-100,4,1,0,45,0,0
103257,-79.9999999999999,4,1,0,45,0,0
103649,-100,4,1,0,45,0,0
112667,-86.9565217391304,4,1,0,45,0,0
113059,-117.647058823529,4,1,0,45,0,0
138154,-100,4,1,0,45,0,0
187951,-80,4,1,0,45,0,0
188147,-86.9565217391304,4,1,0,45,0,1
213438,-86.9565217391304,4,1,0,45,0,0
220299,-100,4,1,0,45,0,0
232259,-90.9090909090909,4,1,0,45,0,0

[HitObjects]
256,192,11495,5,0,0:0:0:0:
256,192,11691,1,0,0:0:0:0:
256,192,11887,1,8,0:0:0:0:
256,192,12083,1,0,0:0:0:0:
256,192,12279,1,8,0:0:0:0:
256,192,12475,1,0,0:0:0:0:
256,192,12671,1,8,0:0:0:0:
256,192,13063,1,0,0:0:0:0:
256,192,13259,1,8,0:0:0:0:
256,192,13455,1,0,0:0:0:0:
256,192,13847,1,8,0:0:0:0:
256,192,14239,1,8,0:0:0:0:
256,192,14435,1,0,0:0:0:0:
256,192,14631,1,8,0:0:0:0:
256,192,14827,1,8,0:0:0:0:
256,192,15023,1,0,0:0:0:0:
256,192,15219,1,8,0:0:0:0:
256,192,15416,1,0,0:0:0:0:
256,192,15612,1,8,0:0:0:0:
256,192,15808,1,0,0:0:0:0:
256,192,16200,1,0,0:0:0:0:
256,192,16396,1,0,0:0:0:0:
256,192,16592,1,8,0:0:0:0:
256,192,16788,1,8,0:0:0:0:
256,192,16984,1,0,0:0:0:0:
256,192,17180,1,8,0:0:0:0:
256,192,17376,1,0,0:0:0:0:
256,192,17572,1,0,0:0:0:0:
256,192,17768,1,8,0:0:0:0:
256,192,17964,1,0,0:0:0:0:
256,192,18160,1,8,0:0:0:0:
256,192,18356,1,0,0:0:0:0:
256,192,18552,1,8,0:0:0:0:
256,192,18748,1,0,0:0:0:0:
256,192,18944,1,8,0:0:0:0:
256,192,19140,1,8,0:0:0:0:
256,192,19337,1,0,0:0:0:0:
256,192,19533,1,8,0:0:0:0:
256,192,19729,1,0,0:0:0:0:
256,192,19925,1,0,0:0:0:0:
256,192,20121,1,8,0:0:0:0:
256,192,20317,1,0,0:0:0:0:
256,192,20513,1,8,0:0:0:0:
256,192,20709,1,0,0:0:0:0:
256,192,20905,1,8,0:0:0:0:
256,192,21297,1,8,0:0:0:0:
256,192,21493,1,0,0:0:0:0:
256,192,21689,1,8,0:0:0:0:
256,192,21885,1,0,0:0:0:0:
256,192,22081,1,8,0:0:0:0:
256,192,22277,1,8,0:0:0:0:
256,192,22473,1,0,0:0:0:0:
256,192,22669,1,0,0:0:0:0:
256,192,22865,1,8,0:0:0:0:
256,192,23062,1,0,0:0:0:0:
256,192,23160,1,0,0:0:0:0:
256,192,23258,1,8,0:0:0:0:
256,192,23454,1,0,0:0:0:0:
256,192,23650,1,8,0:0:0:0:
256,192,23846,1,0,0:0:0:0:
256,192,24042,1,8,0:0:0:0:
256,192,24238,1,0,0:0:0:0:
256,192,24434,1,8,0:0:0:0:
256,192,24630,1,8,0:0:0:0:
256,192,24826,1,0,0:0:0:0:
256,192,24957,1,8,0:0:0:0:
256,192,25218,1,8,0:0:0:0:
256,192,25349,1,0,0:0:0:0:
256,192,25610,1,8,0:0:0:0:
256,192,25806,1,0,0:0:0:0:
256,192,26002,1,8,0:0:0:0:
256,192,26394,1,8,0:0:0:0:
256,192,26590,1,8,0:0:0:0:
256,192,26787,1,0,0:0:0:0:
256,192,27179,1,8,0:0:0:0:
256,192,27375,1,0,0:0:0:0:
256,192,27571,1,8,0:0:0:0:
256,192,27767,1,8,0:0:0:0:
256,192,27963,1,0,0:0:0:0:
256,192,28159,1,0,0:0:0:0:
256,192,28355,1,8,0:0:0:0:
256,192,28747,1,8,0:0:0:0:
256,192,29139,1,8,0:0:0:0:
256,192,29335,1,0,0:0:0:0:
256,192,29531,1,8,0:0:0:0:
256,192,29727,1,0,0:0:0:0:
256,192,29923,1,0,0:0:0:0:
256,192,30315,1,0,0:0:0:0:
256,192,30511,1,0,0:0:0:0:
256,192,30708,1,8,0:0:0:0:
256,192,30904,1,0,0:0:0:0:
256,192,31100,1,8,0:0:0:0:
256,192,31296,1,0,0:0:0:0:
256,192,31492,1,8,0:0:0:0:
256,192,31884,1,0,0:0:0:0:
256,192,32080,1,8,0:0:0:0:
256,192,32276,1,8,0:0:0:0:
256,192,32472,1,0,0:0:0:0:
256,192,32668,1,8,0:0:0:0:
256,192,32864,1,0,0:0:0:0:
256,192,33060,1,8,0:0:0:0:
256,192,33452,1,8,0:0:0:0:
256,192,33648,1,8,0:0:0:0:
256,192,33844,1,8,0:0:0:0:
256,192,34236,1,0,0:0:0:0:
256,192,34433,1,8,0:0:0:0:
256,192,34629,1,8,0:0:0:0:
256,192,35021,1,8,0:0:0:0:
256,192,35217,1,0,0:0:0:0:
256,192,35413,1,8,0:0:0:0:
256,192,35805,1,8,0:0:0:0:
256,192,36001,1,0,0:0:0:0:
256,192,36197,1,0,0:0:0:0:
256,192,36589,1,8,0:0:0:0:
256,192,36785,1,8,0:0:0:0:
256,192,36981,1,8,0:0:0:0:
256,192,37373,1,12,0:0:0:0:
256,192,37765,1,8,0:0:0:0:
256,192,37896,1,0,0:0:0:0:
256,192,38027,1,0,0:0:0:0:
256,192,38157,1,0,0:0:0:0:
256,192,38550,1,8,0:0:0:0:
256,192,38942,1,8,0:0:0:0:
256,192,39072,1,0,0:0:0:0:
256,192,39203,1,0,0:0:0:0:
256,192,39334,1,8,0:0:0:0:
256,192,39530,1,0,0:0:0:0:
256,192,39726,1,8,0:0:0:0:
256,192,40118,1,8,0:0:0:0:
256,192,40249,1,8,0:0:0:0:
256,192,40379,1,0,0:0:0:0:
256,192,40510,1,8,0:0:0:0:
256,192,40902,1,8,0:0:0:0:
256,192,41033,1,0,0:0:0:0:
256,192,41164,1,8,0:0:0:0:
256,192,41294,1,0,0:0:0:0:
256,192,41686,1,8,0:0:0:0:
256,192,41882,1,0,0:0:0:0:
256,192,42079,1,0,0:0:0:0:
256,192,42209,1,8,0:0:0:0:
256,192,42340,1,0,0:0:0:0:
256,192,42471,1,8,0:0:0:0:
256,192,42667,1,0,0:0:0:0:
256,192,42863,1,8,0:0:0:0:
256,192,43255,1,8,0:0:0:0:
256,192,43386,1,0,0:0:0:0:
256,192,43516,1,0,0:0:0:0:
256,192,43647,1,8,0:0:0:0:
256,192,44039,1,8,0:0:0:0:
256,192,44170,1,8,0:0:0:0:
256,192,44300,1,0,0:0:0:0:
256,192,44431,1,0,0:0:0:0:
256,192,44823,1,8,0:0:0:0:
256,192,45215,1,0,0:0:0:0:
256,192,45346,1,0,0:0:0:0:
256,192,45477,1,8,0:0:0:0:
256,192,45607,1,8,0:0:0:0:
256,192,45804,1,0,0:0:0:0:
256,192,46000,1,8,0:0:0:0:
256,192,46392,1,8,0:0:0:0:
256,192,46522,1,8,0:0:0:0:
256,192,46653,1,0,0:0:0:0:
256,192,46784,1,0,0:0:0:0:
256,192,47176,1,8,0:0:0:0:
256,192,47307,1,8,0:0:0:0:
256,192,47437,1,8,0:0:0:0:
256,192,47568,1,0,0:0:0:0:
256,192,47960,1,8,0:0:0:0:
256,192,48352,1,8,0:0:0:0:
256,192,48483,1,8,0:0:0:0:
256,192,48614,1,8,0:0:0:0:
256,192,48744,1,0,0:0:0:0:
256,192,48940,1,0,0:0:0:0:
256,192,49136,1,8,0:0:0:0:
256,192,49528,1,8,0:0:0:0:
256,192,49659,1,0,0:0:0:0:
256,192,49790,1,0,0:0:0:0:
256,192,49921,1,8,0:0:0:0:
256,192,50313,1,8,0:0:0:0:
256,192,50443,1,0,0:0:0:0:
256,192,50574,1,8,0:0:0:0:
256,192,50705,1,0,0:0:0:0:
256,192,50835,1,0,0:0:0:0:
256,192,50966,1,8,0:0:0:0:
256,192,51097,1,8,0:0:0:0:
256,192,51265,1,0,0:0:0:0:
256,192,51377,1,8,0:0:0:0:
256,192,51489,1,0,0:0:0:0:
256,192,51685,1,0,0:0:0:0:
256,192,51783,1,0,0:0:0:0:
256,192,51881,1,8,0:0:0:0:
256,192,52049,1,0,0:0:0:0:
256,192,52162,1,0,0:0:0:0:
256,192,52273,1,8,0:0:0:0:
256,192,52404,1,0,0:0:0:0:
256,192,52535,1,0,0:0:0:0:
256,192,52665,1,8,0:0:0:0:
256,192,52861,1,0,0:0:0:0:
256,192,53057,1,8,0:0:0:0:
256,192,53155,1,0,0:0:0:0:
256,192,53253,1,0,0:0:0:0:
256,192,53450,1,8,0:0:0:0:
256,192,53618,1,0,0:0:0:0:
256,192,53730,1,0,0:0:0:0:
256,192,53842,1,8,0:0:0:0:
256,192,53972,1,0,0:0:0:0:
256,192,54103,1,0,0:0:0:0:
256,192,54234,1,8,0:0:0:0:
256,192,54402,1,0,0:0:0:0:
256,192,54514,1,0,0:0:0:0:
256,192,54626,1,8,0:0:0:0:
256,192,54822,1,0,0:0:0:0:
256,192,54920,1,0,0:0:0:0:
256,192,55018,1,8,0:0:0:0:
256,192,55186,1,8,0:0:0:0:
256,192,55298,1,8,0:0:0:0:
256,192,55410,1,0,0:0:0:0:
256,192,55541,1,0,0:0:0:0:
256,192,55671,1,0,0:0:0:0:
256,192,55802,1,8,0:0:0:0:
256,192,55998,1,0,0:0:0:0:
256,192,56194,1,8,0:0:0:0:
256,192,56292,1,0,0:0:0:0:
256,192,56390,1,0,0:0:0:0:
256,192,56586,1,8,0:0:0:0:
256,192,56755,1,0,0:0:0:0:
256,192,56867,1,8,0:0:0:0:
256,192,56978,1,0,0:0:0:0:
256,192,57147,1,0,0:0:0:0:
256,192,57259,1,0,0:0:0:0:
256,192,57371,1,8,0:0:0:0:
256,192,57539,1,8,0:0:0:0:
256,192,57651,1,8,0:0:0:0:
256,192,57763,1,0,0:0:0:0:
256,192,57931,1,8,0:0:0:0:
256,192,58043,1,0,0:0:0:0:
256,192,58155,1,8,0:0:0:0:
256,192,58323,1,0,0:0:0:0:
256,192,58435,1,0,0:0:0:0:
256,192,58547,1,8,0:0:0:0:
256,192,58715,1,8,0:0:0:0:
256,192,58827,1,0,0:0:0:0:
256,192,58939,1,8,0:0:0:0:
256,192,59070,1,0,0:0:0:0:
256,192,59200,1,0,0:0:0:0:
256,192,59331,1,8,0:0:0:0:
256,192,59462,1,0,0:0:0:0:
256,192,59592,1,0,0:0:0:0:
256,192,59723,1,8,0:0:0:0:
256,192,59892,1,0,0:0:0:0:
256,192,60004,1,0,0:0:0:0:
256,192,60115,1,8,0:0:0:0:
256,192,60284,1,0,0:0:0:0:
256,192,60396,1,0,0:0:0:0:
256,192,60507,1,8,0:0:0:0:
256,192,60703,1,0,0:0:0:0:
256,192,60801,1,0,0:0:0:0:
256,192,60899,1,8,0:0:0:0:
256,192,61030,1,0,0:0:0:0:
256,192,61161,1,0,0:0:0:0:
256,192,61292,1,8,0:0:0:0:
256,192,61460,1,0,0:0:0:0:
256,192,61572,1,0,0:0:0:0:
256,192,61684,1,8,0:0:0:0:
256,192,61814,1,8,0:0:0:0:
256,192,61945,1,0,0:0:0:0:
256,192,62076,1,8,0:0:0:0:
256,192,62272,1,0,0:0:0:0:
256,192,62370,1,0,0:0:0:0:
256,192,62468,1,8,0:0:0:0:
256,192,62636,1,8,0:0:0:0:
256,192,62748,1,0,0:0:0:0:
256,192,62860,1,8,0:0:0:0:
256,192,63028,1,0,0:0:0:0:
256,192,63140,1,0,0:0:0:0:
256,192,63252,1,8,0:0:0:0:
256,192,63644,1,8,0:0:0:0:
256,192,63775,1,0,0:0:0:0:
256,192,63906,1,0,0:0:0:0:
256,192,64036,1,8,0:0:0:0:
256,192,64167,1,8,0:0:0:0:
256,192,64298,1,0,0:0:0:0:
256,192,64428,1,8,0:0:0:0:
256,192,64559,1,0,0:0:0:0:
256,192,64690,1,0,0:0:0:0:
256,192,64821,1,8,0:0:0:0:
256,192,64951,1,0,0:0:0:0:
256,192,65082,1,0,0:0:0:0:
256,192,65213,1,8,0:0:0:0:
256,192,65409,1,0,0:0:0:0:
256,192,65605,1,8,0:0:0:0:
256,192,65735,1,0,0:0:0:0:
256,192,65866,1,0,0:0:0:0:
256,192,65997,1,8,0:0:0:0:
256,192,66128,1,0,0:0:0:0:
256,192,66258,1,0,0:0:0:0:
256,192,66389,1,8,0:0:0:0:
256,192,66781,1,8,0:0:0:0:
256,192,66949,1,0,0:0:0:0:
256,192,67062,1,8,0:0:0:0:
256,192,67173,1,0,0:0:0:0:
256,192,67342,1,0,0:0:0:0:
256,192,67454,1,0,0:0:0:0:
256,192,67565,1,8,0:0:0:0:
256,192,67734,1,0,0:0:0:0:
256,192,67846,1,0,0:0:0:0:
256,192,67957,1,8,0:0:0:0:
256,192,68126,1,0,0:0:0:0:
256,192,68238,1,0,0:0:0:0:
256,192,68349,1,8,0:0:0:0:
256,192,68545,1,0,0:0:0:0:
256,192,68742,1,8,0:0:0:0:
256,192,68840,1,0,0:0:0:0:
256,192,68938,1,0,0:0:0:0:
256,192,69036,1,0,0:0:0:0:
256,192,69134,1,8,0:0:0:0:
256,192,69330,1,8,0:0:0:0:
256,192,69428,1,0,0:0:0:0:
256,192,69526,1,8,0:0:0:0:
256,192,69656,1,0,0:0:0:0:
256,192,69787,1,0,0:0:0:0:
256,192,69918,1,8,0:0:0:0:
256,192,70086,1,0,0:0:0:0:
256,192,70198,1,0,0:0:0:0:
256,192,70310,1,8,0:0:0:0:
256,192,70441,1,8,0:0:0:0:
256,192,70571,1,0,0:0:0:0:
256,192,70702,1,8,0:0:0:0:
256,192,70871,1,0,0:0:0:0:
256,192,70983,1,0,0:0:0:0:
256,192,71094,1,8,0:0:0:0:
256,192,71225,1,0,0:0:0:0:
256,192,71356,1,0,0:0:0:0:
256,192,71486,1,8,0:0:0:0:
256,192,71878,1,8,0:0:0:0:
256,192,72009,1,0,0:0:0:0:
256,192,72140,1,0,0:0:0:0:
256,192,72270,1,8,0:0:0:0:
256,192,72439,1,0,0:0:0:0:
256,192,72551,1,0,0:0:0:0:
256,192,72663,1,8,0:0:0:0:
256,192,72831,1,0,0:0:0:0:
256,192,72943,1,0,0:0:0:0:
256,192,73055,1,8,0:0:0:0:
256,192,73185,1,8,0:0:0:0:
256,192,73316,1,0,0:0:0:0:
256,192,73447,1,8,0:0:0:0:
256,192,73577,1,0,0:0:0:0:
256,192,73708,1,0,0:0:0:0:
256,192,73839,1,8,0:0:0:0:
256,192,73970,1,0,0:0:0:0:
256,192,74100,1,0,0:0:0:0:
256,192,74231,1,8,0:0:0:0:
256,192,74362,1,8,0:0:0:0:
256,192,74492,1,0,0:0:0:0:
256,192,74623,1,8,0:0:0:0:
256,192,74819,1,0,0:0:0:0:
256,192,75015,1,8,0:0:0:0:
256,192,75407,1,8,0:0:0:0:
256,192,75538,1,0,0:0:0:0:
256,192,75669,1,0,0:0:0:0:
256,192,75799,1,8,0:0:0:0:
256,192,75930,1,8,0:0:0:0:
256,192,76061,1,0,0:0:0:0:
256,192,76191,1,8,0:0:0:0:
256,192,76360,1,8,0:0:0:0:
256,192,76584,1,0,0:0:0:0:
256,192,76780,1,0,0:0:0:0:
256,192,76878,1,0,0:0:0:0:
256,192,76976,1,8,0:0:0:0:
256,192,77106,1,8,0:0:0:0:
256,192,77237,1,0,0:0:0:0:
256,192,77368,1,8,0:0:0:0:
256,192,77499,1,8,0:0:0:0:
256,192,77629,1,0,0:0:0:0:
256,192,77760,1,8,0:0:0:0:
256,192,77928,1,0,0:0:0:0:
256,192,78152,1,8,0:0:0:0:
256,192,78265,1,0,0:0:0:0:
256,192,78544,1,8,0:0:0:0:
256,192,78675,1,0,0:0:0:0:
256,192,78806,1,0,0:0:0:0:
256,192,78936,1,8,0:0:0:0:
256,192,79067,1,8,0:0:0:0:
256,192,79198,1,0,0:0:0:0:
256,192,79328,1,8,0:0:0:0:
256,192,79497,1,0,0:0:0:0:
256,192,79720,1,8,0:0:0:0:
256,192,79916,1,0,0:0:0:0:
256,192,80014,1,0,0:0:0:0:
256,192,80113,1,8,0:0:0:0:
256,192,80243,1,8,0:0:0:0:
256,192,80374,1,0,0:0:0:0:
256,192,80505,1,8,0:0:0:0:
256,192,80635,1,0,0:0:0:0:
256,192,80766,1,0,0:0:0:0:
256,192,80897,1,8,0:0:0:0:
256,192,81093,1,0,0:0:0:0:
256,192,81289,1,8,0:0:0:0:
256,192,81681,1,8,0:0:0:0:
256,192,81812,1,8,0:0:0:0:
256,192,81942,1,0,0:0:0:0:
256,192,82073,1,8,0:0:0:0:
256,192,82204,1,0,0:0:0:0:
256,192,82334,1,0,0:0:0:0:
256,192,82465,1,8,0:0:0:0:
256,192,82596,1,0,0:0:0:0:
256,192,82727,1,8,0:0:0:0:
256,192,82857,1,8,0:0:0:0:
256,192,82988,1,0,0:0:0:0:
256,192,83119,1,0,0:0:0:0:
256,192,83249,1,8,0:0:0:0:
256,192,83380,1,8,0:0:0:0:
256,192,83511,1,0,0:0:0:0:
256,192,83641,1,8,0:0:0:0:
256,192,83772,1,8,0:0:0:0:
256,192,83903,1,0,0:0:0:0:
256,192,84034,1,8,0:0:0:0:
256,192,84230,1,0,0:0:0:0:
256,192,84426,1,8,0:0:0:0:
256,192,84524,1,0,0:0:0:0:
256,192,84622,1,0,0:0:0:0:
256,192,84818,1,8,0:0:0:0:
256,192,84948,1,8,0:0:0:0:
256,192,85079,1,0,0:0:0:0:
256,192,85210,1,8,0:0:0:0:
256,192,85341,1,8,0:0:0:0:
256,192,85471,1,0,0:0:0:0:
256,192,85602,1,8,0:0:0:0:
256,192,85733,1,0,0:0:0:0:
256,192,85863,1,0,0:0:0:0:
256,192,85994,1,0,0:0:0:0:
256,192,86125,1,0,0:0:0:0:
256,192,86255,1,8,0:0:0:0:
256,192,86386,1,0,0:0:0:0:
256,192,86517,1,8,0:0:0:0:
256,192,86648,1,0,0:0:0:0:
256,192,86778,1,8,0:0:0:0:
256,192,86909,1,8,0:0:0:0:
256,192,87040,1,0,0:0:0:0:
256,192,87170,1,8,0:0:0:0:
256,192,87366,1,0,0:0:0:0:
256,192,87562,1,8,0:0:0:0:
256,192,87759,1,8,0:0:0:0:
256,192,87857,1,8,0:0:0:0:
256,192,87955,1,0,0:0:0:0:
256,192,88053,1,8,0:0:0:0:
256,192,88151,1,0,0:0:0:0:
256,192,88249,1,8,0:0:0:0:
256,192,88347,1,8,0:0:0:0:
256,192,88445,1,0,0:0:0:0:
256,192,88543,1,8,0:0:0:0:
256,192,88641,1,0,0:0:0:0:
256,192,88739,1,8,0:0:0:0:
256,192,88837,1,8,0:0:0:0:
256,192,88935,1,0,0:0:0:0:
256,192,89033,1,8,0:0:0:0:
256,192,89131,1,8,0:0:0:0:
256,192,89229,1,0,0:0:0:0:
256,192,89327,1,8,0:0:0:0:
256,192,89425,1,0,0:0:0:0:
256,192,89523,1,8,0:0:0:0:
256,192,89621,1,8,0:0:0:0:
256,192,89719,1,0,0:0:0:0:
256,192,89817,1,8,0:0:0:0:
256,192,89915,1,0,0:0:0:0:
256,192,90013,1,0,0:0:0:0:
256,192,90111,1,8,0:0:0:0:
256,192,90209,1,0,0:0:0:0:
256,192,90307,1,8,0:0:0:0:
256,192,90503,1,8,0:0:0:0:
256,192,90699,1,0,0:0:0:0:
256,192,90797,1,0,0:0:0:0:
256,192,90895,1,8,0:0:0:0:
256,192,90993,1,0,0:0:0:0:
256,192,91091,1,8,0:0:0:0:
256,192,91189,1,8,0:0:0:0:
256,192,91287,1,0,0:0:0:0:
256,192,91385,1,8,0:0:0:0:
256,192,91484,1,8,0:0:0:0:
256,192,91582,1,0,0:0:0:0:
256,192,91680,1,8,0:0:0:0:
256,192,91778,1,0,0:0:0:0:
256,192,91876,1,8,0:0:0:0:
256,192,92072,1,0,0:0:0:0:
256,192,92268,1,0,0:0:0:0:
256,192,92464,1,8,0:0:0:0:
256,192,92562,1,0,0:0:0:0:
256,192,92660,1,8,0:0:0:0:
256,192,92758,1,8,0:0:0:0:
256,192,92856,1,0,0:0:0:0:
256,192,92954,1,8,0:0:0:0:
256,192,93052,1,8,0:0:0:0:
256,192,93150,1,0,0:0:0:0:
256,192,93248,1,8,0:0:0:0:
256,192,93346,1,0,0:0:0:0:
256,192,93444,1,8,0:0:0:0:
256,192,93640,1,0,0:0:0:0:
256,192,93836,1,0,0:0:0:0:
256,192,93934,1,0,0:0:0:0:
256,192,94032,1,8,0:0:0:0:
256,192,94130,1,8,0:0:0:0:
256,192,94228,1,0,0:0:0:0:
256,192,94326,1,8,0:0:0:0:
256,192,94424,1,8,0:0:0:0:
256,192,94522,1,0,0:0:0:0:
256,192,94620,1,8,0:0:0:0:
256,192,94718,1,0,0:0:0:0:
256,192,94816,1,8,0:0:0:0:
256,192,94914,1,0,0:0:0:0:
256,192,95012,1,0,0:0:0:0:
256,192,95110,1,8,0:0:0:0:
256,192,95208,1,8,0:0:0:0:
256,192,95307,1,0,0:0:0:0:
256,192,95405,1,8,0:0:0:0:
256,192,95503,1,0,0:0:0:0:
256,192,95601,1,8,0:0:0:0:
256,192,95699,1,0,0:0:0:0:
256,192,95797,1,0,0:0:0:0:
256,192,95895,1,8,0:0:0:0:
256,192,95993,1,8,0:0:0:0:
256,192,96091,1,0,0:0:0:0:
256,192,96189,1,8,0:0:0:0:
256,192,96287,1,8,0:0:0:0:
256,192,96385,1,0,0:0:0:0:
256,192,96483,1,8,0:0:0:0:
256,192,96581,1,0,0:0:0:0:
256,192,96777,1,0,0:0:0:0:
256,192,96973,1,8,0:0:0:0:
256,192,97071,1,8,0:0:0:0:
256,192,97169,1,0,0:0:0:0:
256,192,97267,1,8,0:0:0:0:
256,192,97365,1,0,0:0:0:0:
256,192,97463,1,8,0:0:0:0:
256,192,97561,1,8,0:0:0:0:
256,192,97659,1,0,0:0:0:0:
256,192,97757,1,8,0:0:0:0:
256,192,97855,1,0,0:0:0:0:
256,192,97953,1,8,0:0:0:0:
256,192,98051,1,8,0:0:0:0:
256,192,98149,1,0,0:0:0:0:
256,192,98345,1,0,0:0:0:0:
256,192,98541,1,8,0:0:0:0:
256,192,98639,1,0,0:0:0:0:
256,192,98737,1,8,0:0:0:0:
256,192,98835,1,0,0:0:0:0:
256,192,98933,1,0,0:0:0:0:
256,192,99031,1,8,0:0:0:0:
256,192,99130,1,8,0:0:0:0:
256,192,99228,1,0,0:0:0:0:
256,192,99326,1,8,0:0:0:0:
256,192,99424,1,0,0:0:0:0:
256,192,99522,1,0,0:0:0:0:
256,192,99620,1,8,0:0:0:0:
256,192,99718,1,0,0:0:0:0:
256,192,99914,1,0,0:0:0:0:
256,192,100110,1,8,0:0:0:0:
256,192,100208,1,8,0:0:0:0:
256,192,100306,1,0,0:0:0:0:
256,192,100404,1,0,0:0:0:0:
256,192,100502,1,8,0:0:0:0:
256,192,100698,1,0,0:0:0:0:
256,192,100796,1,8,0:0:0:0:
256,192,100992,1,0,0:0:0:0:
256,192,101090,1,8,0:0:0:0:
256,192,101188,1,0,0:0:0:0:
256,192,101286,1,8,0:0:0:0:
256,192,101417,1,0,0:0:0:0:
256,192,101613,1,8,0:0:0:0:
256,192,101776,1,0,0:0:0:0:
256,192,101874,1,8,0:0:0:0:
256,192,101972,1,8,0:0:0:0:
256,192,102070,1,0,0:0:0:0:
256,192,102266,1,8,0:0:0:0:
256,192,102364,1,0,0:0:0:0:
256,192,102462,1,8,0:0:0:0:
256,192,102658,1,0,0:0:0:0:
256,192,102854,1,8,0:0:0:0:
256,192,103247,1,12,0:0:0:0:
256,192,103639,1,0,0:0:0:0:
256,192,103769,1,8,0:0:0:0:
256,192,103965,1,0,0:0:0:0:
256,192,104227,1,8,0:0:0:0:
256,192,104325,1,0,0:0:0:0:
256,192,104423,1,8,0:0:0:0:
256,192,104684,1,0,0:0:0:0:
256,192,104913,1,0,0:0:0:0:
256,192,105109,1,0,0:0:0:0:
256,192,105207,1,8,0:0:0:0:
256,192,105403,1,0,0:0:0:0:
256,192,105501,1,0,0:0:0:0:
256,192,105599,1,8,0:0:0:0:
256,192,105697,1,0,0:0:0:0:
256,192,105795,1,8,0:0:0:0:
256,192,105991,1,8,0:0:0:0:
256,192,106187,1,0,0:0:0:0:
256,192,106383,1,12,0:0:0:0:
256,192,106579,1,0,0:0:0:0:
256,192,106678,1,0,0:0:0:0:
256,192,106776,1,8,0:0:0:0:
256,192,106972,1,0,0:0:0:0:
256,192,107070,1,8,0:0:0:0:
256,192,107266,1,0,0:0:0:0:
256,192,107364,1,8,0:0:0:0:
256,192,107462,1,0,0:0:0:0:
256,192,107560,1,8,0:0:0:0:
256,192,107756,1,0,0:0:0:0:
256,192,107886,1,8,0:0:0:0:
256,192,108050,1,0,0:0:0:0:
256,192,108148,1,8,0:0:0:0:
256,192,108246,1,8,0:0:0:0:
256,192,108344,1,0,0:0:0:0:
256,192,108540,1,0,0:0:0:0:
256,192,108638,1,8,0:0:0:0:
256,192,108736,1,0,0:0:0:0:
256,192,108932,1,0,0:0:0:0:
256,192,109128,1,8,0:0:0:0:
256,192,109520,1,12,0:0:0:0:
256,192,109912,1,8,0:0:0:0:
256,192,110108,1,0,0:0:0:0:
256,192,110206,1,8,0:0:0:0:
256,192,110501,1,0,0:0:0:0:
256,192,110599,1,0,0:0:0:0:
256,192,110697,1,8,0:0:0:0:
256,192,111023,1,8,0:0:0:0:
256,192,111285,1,8,0:0:0:0:
256,192,111383,1,8,0:0:0:0:
256,192,111481,1,0,0:0:0:0:
256,192,111677,1,0,0:0:0:0:
256,192,111775,1,8,0:0:0:0:
256,192,111971,1,8,0:0:0:0:
256,192,112069,1,0,0:0:0:0:
256,192,112265,1,0,0:0:0:0:
256,192,112657,1,12,0:0:0:0:
256,192,113049,1,0,0:0:0:0:
256,192,113441,1,0,0:0:0:0:
256,192,113637,1,0,0:0:0:0:
256,192,113833,1,8,0:0:0:0:
256,192,114225,1,0,0:0:0:0:
256,192,114618,1,0,0:0:0:0:
256,192,114814,1,8,0:0:0:0:
256,192,115010,1,0,0:0:0:0:
256,192,115206,1,0,0:0:0:0:
256,192,115402,1,8,0:0:0:0:
256,192,115598,1,0,0:0:0:0:
256,192,115794,1,0,0:0:0:0:
256,192,116186,1,0,0:0:0:0:
256,192,116578,1,0,0:0:0:0:
256,192,116774,1,0,0:0:0:0:
256,192,116970,1,8,0:0:0:0:
256,192,117166,1,0,0:0:0:0:
256,192,117362,1,0,0:0:0:0:
256,192,117558,1,0,0:0:0:0:
256,192,117754,1,0,0:0:0:0:
256,192,117950,1,8,0:0:0:0:
256,192,118147,1,0,0:0:0:0:
256,192,118539,1,8,0:0:0:0:
256,192,118735,1,0,0:0:0:0:
256,192,118931,1,0,0:0:0:0:
256,192,119127,1,0,0:0:0:0:
256,192,119323,1,0,0:0:0:0:
256,192,119715,1,0,0:0:0:0:
256,192,119911,1,0,0:0:0:0:
256,192,120107,1,8,0:0:0:0:
256,192,120499,1,0,0:0:0:0:
256,192,120695,1,0,0:0:0:0:
256,192,120891,1,0,0:0:0:0:
256,192,121087,1,8,0:0:0:0:
256,192,121283,1,0,0:0:0:0:
256,192,121479,1,0,0:0:0:0:
256,192,121675,1,8,0:0:0:0:
256,192,122068,1,0,0:0:0:0:
256,192,122264,1,0,0:0:0:0:
256,192,122460,1,0,0:0:0:0:
256,192,122656,1,0,0:0:0:0:
256,192,122852,1,0,0:0:0:0:
256,192,123244,1,8,0:0:0:0:
256,192,123636,1,0,0:0:0:0:
256,192,123832,1,0,0:0:0:0:
256,192,124028,1,0,0:0:0:0:
256,192,124224,1,8,0:0:0:0:
256,192,124420,1,0,0:0:0:0:
256,192,124812,1,8,0:0:0:0:
256,192,125204,1,0,0:0:0:0:
256,192,125400,1,0,0:0:0:0:
256,192,125596,1,0,0:0:0:0:
256,192,125695,1,0,0:0:0:0:
256,192,125989,1,0,0:0:0:0:
256,192,126185,1,0,0:0:0:0:
256,192,126381,1,8,0:0:0:0:
256,192,126773,1,0,0:0:0:0:
256,192,126969,1,0,0:0:0:0:
256,192,127165,1,0,0:0:0:0:
256,192,127361,1,8,0:0:0:0:
256,192,127557,1,0,0:0:0:0:
256,192,127753,1,0,0:0:0:0:
256,192,127949,1,8,0:0:0:0:
256,192,128341,1,0,0:0:0:0:
256,192,128537,1,0,0:0:0:0:
256,192,128733,1,0,0:0:0:0:
256,192,129125,1,0,0:0:0:0:
256,192,129321,1,0,0:0:0:0:
256,192,129518,1,8,0:0:0:0:
256,192,129714,1,0,0:0:0:0:
256,192,129910,1,0,0:0:0:0:
256,192,130302,1,0,0:0:0:0:
256,192,130498,1,8,0:0:0:0:
256,192,130694,1,0,0:0:0:0:
256,192,131086,1,8,0:0:0:0:
256,192,131478,1,0,0:0:0:0:
256,192,131674,1,0,0:0:0:0:
256,192,131870,1,0,0:0:0:0:
256,192,132262,1,0,0:0:0:0:
256,192,132458,1,0,0:0:0:0:
256,192,132654,1,8,0:0:0:0:
256,192,132850,1,0,0:0:0:0:
256,192,133046,1,0,0:0:0:0:
256,192,133242,1,0,0:0:0:0:
256,192,133439,1,0,0:0:0:0:
256,192,133635,1,8,0:0:0:0:
256,192,133831,1,0,0:0:0:0:
256,192,134027,1,0,0:0:0:0:
256,192,134223,1,8,0:0:0:0:
256,192,134615,1,0,0:0:0:0:
256,192,134811,1,0,0:0:0:0:
256,192,135007,1,0,0:0:0:0:
256,192,135399,1,0,0:0:0:0:
256,192,135595,1,0,0:0:0:0:
256,192,135791,1,8,0:0:0:0:
256,192,136183,1,0,0:0:0:0:
256,192,136379,1,0,0:0:0:0:
256,192,136575,1,0,0:0:0:0:
256,192,136771,1,8,0:0:0:0:
256,192,136967,1,0,0:0:0:0:
256,192,137164,1,0,0:0:0:0:
256,192,137360,1,0,0:0:0:0:
256,192,137752,1,4,0:0:0:0:
256,192,138144,1,8,0:0:0:0:
256,192,138274,1,0,0:0:0:0:
256,192,138405,1,0,0:0:0:0:
256,192,138536,1,8,0:0:0:0:
256,192,138667,1,0,0:0:0:0:
256,192,138797,1,0,0:0:0:0:
256,192,138928,1,8,0:0:0:0:
256,192,139124,1,0,0:0:0:0:
256,192,139712,1,8,0:0:0:0:
256,192,139843,1,0,0:0:0:0:
256,192,139974,1,0,0:0:0:0:
256,192,140104,1,8,0:0:0:0:
256,192,140235,1,0,0:0:0:0:
256,192,140366,1,0,0:0:0:0:
256,192,140496,1,8,0:0:0:0:
256,192,140627,1,0,0:0:0:0:
256,192,141281,1,0,0:0:0:0:
256,192,141411,1,8,0:0:0:0:
256,192,141542,1,0,0:0:0:0:
256,192,141673,1,8,0:0:0:0:
256,192,141803,1,0,0:0:0:0:
256,192,141934,1,0,0:0:0:0:
256,192,142065,1,8,0:0:0:0:
256,192,142196,1,8,0:0:0:0:
256,192,142326,1,0,0:0:0:0:
256,192,142457,1,0,0:0:0:0:
256,192,142588,1,8,0:0:0:0:
256,192,142718,1,0,0:0:0:0:
256,192,142849,1,8,0:0:0:0:
256,192,142980,1,8,0:0:0:0:
256,192,143110,1,0,0:0:0:0:
256,192,143241,1,8,0:0:0:0:
256,192,143372,1,0,0:0:0:0:
256,192,143503,1,0,0:0:0:0:
256,192,143633,1,8,0:0:0:0:
256,192,143764,1,0,0:0:0:0:
256,192,144287,1,8,0:0:0:0:
256,192,144417,1,0,0:0:0:0:
256,192,144548,1,0,0:0:0:0:
256,192,144679,1,0,0:0:0:0:
256,192,144810,1,8,0:0:0:0:
256,192,144940,1,0,0:0:0:0:
256,192,145071,1,8,0:0:0:0:
256,192,145202,1,8,0:0:0:0:
256,192,145332,1,0,0:0:0:0:
256,192,145463,1,0,0:0:0:0:
256,192,145594,1,8,0:0:0:0:
256,192,145724,1,8,0:0:0:0:
256,192,145855,1,0,0:0:0:0:
256,192,145986,1,8,0:0:0:0:
256,192,146117,1,0,0:0:0:0:
256,192,146247,1,0,0:0:0:0:
256,192,146378,1,8,0:0:0:0:
256,192,146509,1,0,0:0:0:0:
256,192,146639,1,0,0:0:0:0:
256,192,146770,1,8,0:0:0:0:
256,192,146901,1,0,0:0:0:0:
256,192,147162,1,8,0:0:0:0:
256,192,147293,1,0,0:0:0:0:
256,192,147424,1,0,0:0:0:0:
256,192,147554,1,8,0:0:0:0:
256,192,147685,1,8,0:0:0:0:
256,192,147816,1,0,0:0:0:0:
256,192,147946,1,8,0:0:0:0:
256,192,148077,1,0,0:0:0:0:
256,192,148208,1,8,0:0:0:0:
256,192,148338,1,8,0:0:0:0:
256,192,148469,1,8,0:0:0:0:
256,192,148600,1,0,0:0:0:0:
256,192,148731,1,8,0:0:0:0:
256,192,148861,1,0,0:0:0:0:
256,192,148992,1,0,0:0:0:0:
256,192,149123,1,8,0:0:0:0:
256,192,149253,1,0,0:0:0:0:
256,192,149384,1,0,0:0:0:0:
256,192,149515,1,8,0:0:0:0:
256,192,149645,1,8,0:0:0:0:
256,192,149776,1,0,0:0:0:0:
256,192,149907,1,8,0:0:0:0:
256,192,150038,1,0,0:0:0:0:
256,192,150168,1,0,0:0:0:0:
256,192,150299,1,8,0:0:0:0:
256,192,150430,1,8,0:0:0:0:
256,192,150560,1,0,0:0:0:0:
256,192,150691,1,8,0:0:0:0:
256,192,150822,1,0,0:0:0:0:
256,192,150952,1,0,0:0:0:0:
256,192,151083,1,8,0:0:0:0:
256,192,151214,1,0,0:0:0:0:
256,192,151345,1,0,0:0:0:0:
256,192,151475,1,8,0:0:0:0:
256,192,151606,1,0,0:0:0:0:
256,192,151737,1,8,0:0:0:0:
256,192,151867,1,8,0:0:0:0:
256,192,151998,1,0,0:0:0:0:
256,192,152063,1,0,0:0:0:0:
256,192,152129,1,0,0:0:0:0:
256,192,152259,1,8,0:0:0:0:
256,192,152390,1,8,0:0:0:0:
256,192,152521,1,0,0:0:0:0:
256,192,152652,1,8,0:0:0:0:
256,192,152782,1,0,0:0:0:0:
256,192,152913,1,8,0:0:0:0:
256,192,153044,1,8,0:0:0:0:
256,192,153174,1,0,0:0:0:0:
256,192,153305,1,0,0:0:0:0:
256,192,153436,1,8,0:0:0:0:
256,192,153566,1,0,0:0:0:0:
256,192,153632,1,0,0:0:0:0:
256,192,153697,1,0,0:0:0:0:
256,192,153828,1,8,0:0:0:0:
256,192,153959,1,0,0:0:0:0:
256,192,154089,1,0,0:0:0:0:
256,192,154220,1,8,0:0:0:0:
256,192,154351,1,0,0:0:0:0:
256,192,154481,1,0,0:0:0:0:
256,192,154612,1,8,0:0:0:0:
256,192,154743,1,8,0:0:0:0:
256,192,154874,1,0,0:0:0:0:
256,192,155004,1,8,0:0:0:0:
256,192,155135,1,0,0:0:0:0:
256,192,155266,1,8,0:0:0:0:
256,192,155396,1,8,0:0:0:0:
256,192,155527,1,8,0:0:0:0:
256,192,155658,1,0,0:0:0:0:
256,192,155788,1,8,0:0:0:0:
256,192,155919,1,0,0:0:0:0:
256,192,156050,1,0,0:0:0:0:
256,192,156181,1,8,0:0:0:0:
256,192,156311,1,0,0:0:0:0:
256,192,156442,1,0,0:0:0:0:
256,192,156573,1,8,0:0:0:0:
256,192,156703,1,8,0:0:0:0:
256,192,156834,1,0,0:0:0:0:
256,192,156965,1,8,0:0:0:0:
256,192,157095,1,8,0:0:0:0:
256,192,157226,1,0,0:0:0:0:
256,192,157357,1,8,0:0:0:0:
256,192,157488,1,0,0:0:0:0:
256,192,157618,1,8,0:0:0:0:
256,192,157749,1,8,0:0:0:0:
256,192,157880,1,0,0:0:0:0:
256,192,158010,1,0,0:0:0:0:
256,192,158141,1,8,0:0:0:0:
256,192,158272,1,0,0:0:0:0:
256,192,158402,1,8,0:0:0:0:
256,192,158533,1,8,0:0:0:0:
256,192,158664,1,8,0:0:0:0:
256,192,158795,1,0,0:0:0:0:
256,192,158925,1,8,0:0:0:0:
256,192,159056,1,0,0:0:0:0:
256,192,159187,1,8,0:0:0:0:
256,192,159317,1,8,0:0:0:0:
256,192,159448,1,0,0:0:0:0:
256,192,159579,1,8,0:0:0:0:
256,192,159709,1,8,0:0:0:0:
256,192,159840,1,8,0:0:0:0:
256,192,159971,1,0,0:0:0:0:
256,192,160102,1,8,0:0:0:0:
256,192,160232,1,0,0:0:0:0:
256,192,160363,1,0,0:0:0:0:
256,192,160494,1,8,0:0:0:0:
256,192,160624,1,8,0:0:0:0:
256,192,160755,1,0,0:0:0:0:
256,192,160886,1,8,0:0:0:0:
256,192,161016,1,0,0:0:0:0:
256,192,161147,1,0,0:0:0:0:
256,192,161278,1,8,0:0:0:0:
256,192,161409,1,8,0:0:0:0:
256,192,161539,1,0,0:0:0:0:
256,192,161670,1,8,0:0:0:0:
256,192,161801,1,8,0:0:0:0:
256,192,161931,1,0,0:0:0:0:
256,192,162062,1,8,0:0:0:0:
256,192,162193,1,8,0:0:0:0:
256,192,162323,1,0,0:0:0:0:
256,192,162454,1,8,0:0:0:0:
256,192,162585,1,0,0:0:0:0:
256,192,162716,1,8,0:0:0:0:
256,192,162846,1,8,0:0:0:0:
256,192,162977,1,0,0:0:0:0:
256,192,163108,1,8,0:0:0:0:
256,192,163238,1,8,0:0:0:0:
256,192,163369,1,8,0:0:0:0:
256,192,163500,1,0,0:0:0:0:
256,192,163630,1,8,0:0:0:0:
256,192,163761,1,0,0:0:0:0:
256,192,163892,1,8,0:0:0:0:
256,192,164023,1,8,0:0:0:0:
256,192,164153,1,0,0:0:0:0:
256,192,164284,1,0,0:0:0:0:
256,192,164415,1,8,0:0:0:0:
256,192,164545,1,0,0:0:0:0:
256,192,164676,1,0,0:0:0:0:
256,192,164807,1,8,0:0:0:0:
256,192,164937,1,8,0:0:0:0:
256,192,165068,1,0,0:0:0:0:
256,192,165199,1,8,0:0:0:0:
256,192,165330,1,0,0:0:0:0:
256,192,165460,1,0,0:0:0:0:
256,192,165591,1,8,0:0:0:0:
256,192,165722,1,8,0:0:0:0:
256,192,165852,1,0,0:0:0:0:
256,192,165983,1,8,0:0:0:0:
256,192,166048,1,0,0:0:0:0:
256,192,166114,1,0,0:0:0:0:
256,192,166244,1,0,0:0:0:0:
256,192,166375,1,8,0:0:0:0:
256,192,166506,1,8,0:0:0:0:
256,192,166637,1,0,0:0:0:0:
256,192,166767,1,8,0:0:0:0:
256,192,166898,1,0,0:0:0:0:
256,192,166963,1,0,0:0:0:0:
256,192,167029,1,0,0:0:0:0:
256,192,167159,1,8,0:0:0:0:
256,192,167290,1,0,0:0:0:0:
256,192,167421,1,0,0:0:0:0:
256,192,167552,1,8,0:0:0:0:
256,192,167682,1,0,0:0:0:0:
256,192,167813,1,0,0:0:0:0:
256,192,167944,1,8,0:0:0:0:
256,192,168074,1,8,0:0:0:0:
256,192,168140,1,0,0:0:0:0:
256,192,168205,1,0,0:0:0:0:
256,192,168336,1,8,0:0:0:0:
256,192,168466,1,0,0:0:0:0:
256,192,168597,1,8,0:0:0:0:
256,192,168728,1,0,0:0:0:0:
256,192,168859,1,8,0:0:0:0:
256,192,168989,1,0,0:0:0:0:
256,192,169120,1,8,0:0:0:0:
256,192,169251,1,8,0:0:0:0:
256,192,169381,1,8,0:0:0:0:
256,192,169512,1,0,0:0:0:0:
256,192,169708,1,0,0:0:0:0:
256,192,169806,1,8,0:0:0:0:
256,192,169904,1,0,0:0:0:0:
256,192,170100,1,0,0:0:0:0:
256,192,170296,1,8,0:0:0:0:
256,192,170590,1,0,0:0:0:0:
256,192,170688,1,8,0:0:0:0:
256,192,170884,1,0,0:0:0:0:
256,192,171080,1,0,0:0:0:0:
256,192,171276,1,8,0:0:0:0:
256,192,171375,1,0,0:0:0:0:
256,192,171473,1,8,0:0:0:0:
256,192,171669,1,0,0:0:0:0:
256,192,171767,1,0,0:0:0:0:
256,192,171865,1,8,0:0:0:0:
256,192,172061,1,0,0:0:0:0:
256,192,172355,1,0,0:0:0:0:
256,192,172453,1,8,0:0:0:0:
256,192,172649,1,0,0:0:0:0:
256,192,172845,1,0,0:0:0:0:
256,192,172943,1,0,0:0:0:0:
256,192,173041,1,8,0:0:0:0:
256,192,173237,1,8,0:0:0:0:
256,192,173433,1,0,0:0:0:0:
256,192,173629,1,8,0:0:0:0:
256,192,173727,1,0,0:0:0:0:
256,192,173825,1,8,0:0:0:0:
256,192,174021,1,0,0:0:0:0:
256,192,174119,1,0,0:0:0:0:
256,192,174217,1,8,0:0:0:0:
256,192,174413,1,0,0:0:0:0:
256,192,174707,1,0,0:0:0:0:
256,192,174805,1,8,0:0:0:0:
256,192,175001,1,0,0:0:0:0:
256,192,175198,1,8,0:0:0:0:
256,192,175296,1,0,0:0:0:0:
256,192,175394,1,8,0:0:0:0:
256,192,175492,1,0,0:0:0:0:
256,192,175590,1,8,0:0:0:0:
256,192,175786,1,0,0:0:0:0:
256,192,175982,1,8,0:0:0:0:
256,192,176080,1,0,0:0:0:0:
256,192,176178,1,8,0:0:0:0:
256,192,176374,1,0,0:0:0:0:
256,192,176570,1,8,0:0:0:0:
256,192,176766,1,8,0:0:0:0:
256,192,176962,1,0,0:0:0:0:
256,192,177060,1,8,0:0:0:0:
256,192,177158,1,0,0:0:0:0:
256,192,177354,1,8,0:0:0:0:
256,192,177550,1,0,0:0:0:0:
256,192,177746,1,8,0:0:0:0:
256,192,177942,1,0,0:0:0:0:
256,192,178138,1,8,0:0:0:0:
256,192,178334,1,0,0:0:0:0:
256,192,178432,1,0,0:0:0:0:
256,192,178530,1,8,0:0:0:0:
256,192,178628,1,0,0:0:0:0:
256,192,178726,1,8,0:0:0:0:
256,192,178922,1,0,0:0:0:0:
256,192,179119,1,0,0:0:0:0:
256,192,179511,1,8,0:0:0:0:
256,192,179609,1,0,0:0:0:0:
256,192,179707,1,8,0:0:0:0:
256,192,179903,1,0,0:0:0:0:
256,192,180099,1,0,0:0:0:0:
256,192,180295,1,8,0:0:0:0:
256,192,180393,1,0,0:0:0:0:
256,192,180491,1,8,0:0:0:0:
256,192,180687,1,0,0:0:0:0:
256,192,180883,1,8,0:0:0:0:
256,192,181079,1,0,0:0:0:0:
256,192,181275,1,8,0:0:0:0:
256,192,181471,1,0,0:0:0:0:
256,192,181667,1,0,0:0:0:0:
256,192,181765,1,8,0:0:0:0:
256,192,181863,1,0,0:0:0:0:
256,192,182059,1,8,0:0:0:0:
256,192,182353,1,0,0:0:0:0:
256,192,182451,1,8,0:0:0:0:
256,192,182549,1,0,0:0:0:0:
256,192,182647,1,8,0:0:0:0:
256,192,182745,1,0,0:0:0:0:
256,192,182844,1,8,0:0:0:0:
256,192,183040,1,0,0:0:0:0:
256,192,183236,1,0,0:0:0:0:
256,192,183432,1,0,0:0:0:0:
256,192,183628,1,8,0:0:0:0:
256,192,183824,1,0,0:0:0:0:
256,192,184020,1,0,0:0:0:0:
256,192,184118,1,8,0:0:0:0:
256,192,184216,1,0,0:0:0:0:
256,192,184412,1,8,0:0:0:0:
256,192,184608,1,8,0:0:0:0:
256,192,184804,1,0,0:0:0:0:
256,192,185000,1,0,0:0:0:0:
256,192,185196,1,8,0:0:0:0:
256,192,185392,1,0,0:0:0:0:
256,192,185490,1,0,0:0:0:0:
256,192,185588,1,8,0:0:0:0:
256,192,185784,1,8,0:0:0:0:
256,192,185980,1,0,0:0:0:0:
256,192,186176,1,8,0:0:0:0:
256,192,186372,1,8,0:0:0:0:
256,192,186568,1,0,0:0:0:0:
256,192,186667,1,8,0:0:0:0:
256,192,186765,1,8,0:0:0:0:
256,192,186961,1,8,0:0:0:0:
256,192,187157,1,0,0:0:0:0:
256,192,187255,1,8,0:0:0:0:
256,192,187353,1,0,0:0:0:0:
256,192,187549,1,8,0:0:0:0:
256,192,187941,1,12,0:0:0:0:
288,96,188137,1,8,0:0:0:0:
320,96,188235,1,0,0:0:0:0:
288,96,188333,1,8,0:0:0:0:
288,96,188431,1,0,0:0:0:0:
288,96,188529,1,0,0:0:0:0:
288,96,188627,1,8,0:0:0:0:
288,96,188725,1,8,0:0:0:0:
288,96,188823,1,8,0:0:0:0:
288,96,188921,1,0,0:0:0:0:
288,96,189019,1,8,0:0:0:0:
288,96,189117,1,8,0:0:0:0:
288,96,189215,1,0,0:0:0:0:
288,96,189313,1,8,0:0:0:0:
288,96,189411,1,0,0:0:0:0:
288,96,189509,1,0,0:0:0:0:
288,96,189607,1,8,0:0:0:0:
288,96,189705,1,0,0:0:0:0:
288,96,189803,1,0,0:0:0:0:
288,96,189901,1,8,0:0:0:0:
288,96,189999,1,0,0:0:0:0:
288,96,190097,1,8,0:0:0:0:
288,96,190195,1,8,0:0:0:0:
288,96,190293,1,0,0:0:0:0:
288,96,190392,1,0,0:0:0:0:
288,96,190490,1,0,0:0:0:0:
288,96,190588,1,8,0:0:0:0:
288,96,190686,1,8,0:0:0:0:
288,96,190882,1,0,0:0:0:0:
288,96,191078,1,8,0:0:0:0:
288,96,191208,1,8,0:0:0:0:
288,96,191274,1,8,0:0:0:0:
288,96,191372,1,0,0:0:0:0:
288,96,191470,1,0,0:0:0:0:
288,96,191666,1,0,0:0:0:0:
288,96,191764,1,8,0:0:0:0:
288,96,191862,1,0,0:0:0:0:
288,96,191960,1,0,0:0:0:0:
288,96,192058,1,8,0:0:0:0:
288,96,192156,1,0,0:0:0:0:
288,96,192254,1,8,0:0:0:0:
288,96,192352,1,8,0:0:0:0:
288,96,192450,1,0,0:0:0:0:
288,96,192548,1,8,0:0:0:0:
288,96,192646,1,8,0:0:0:0:
288,96,192744,1,0,0:0:0:0:
288,96,192842,1,8,0:0:0:0:
288,96,192940,1,0,0:0:0:0:
288,96,193038,1,8,0:0:0:0:
288,96,193136,1,0,0:0:0:0:
288,96,193234,1,0,0:0:0:0:
288,96,193332,1,8,0:0:0:0:
288,96,193430,1,8,0:0:0:0:
288,96,193528,1,0,0:0:0:0:
288,96,193626,1,8,0:0:0:0:
288,96,193724,1,0,0:0:0:0:
288,96,193822,1,8,0:0:0:0:
288,96,194018,1,0,0:0:0:0:
288,96,194215,1,0,0:0:0:0:
288,96,194411,1,8,0:0:0:0:
288,96,194509,1,0,0:0:0:0:
288,96,194607,1,8,0:0:0:0:
288,96,194705,1,0,0:0:0:0:
288,96,194803,1,0,0:0:0:0:
288,96,194901,1,8,0:0:0:0:
288,96,194999,1,0,0:0:0:0:
288,96,195097,1,8,0:0:0:0:
288,96,195195,1,8,0:0:0:0:
288,96,195293,1,0,0:0:0:0:
288,96,195391,1,8,0:0:0:0:
288,96,195489,1,0,0:0:0:0:
288,96,195587,1,8,0:0:0:0:
288,96,195685,1,0,0:0:0:0:
288,96,195783,1,8,0:0:0:0:
288,96,195881,1,0,0:0:0:0:
288,96,195979,1,8,0:0:0:0:
288,96,196077,1,8,0:0:0:0:
288,96,196175,1,0,0:0:0:0:
288,96,196273,1,0,0:0:0:0:
288,96,196371,1,8,0:0:0:0:
288,96,196469,1,0,0:0:0:0:
288,96,196567,1,8,0:0:0:0:
288,96,196665,1,8,0:0:0:0:
288,96,196763,1,0,0:0:0:0:
288,96,196861,1,8,0:0:0:0:
288,96,196959,1,8,0:0:0:0:
288,96,197057,1,0,0:0:0:0:
288,96,197155,1,0,0:0:0:0:
288,96,197253,1,8,0:0:0:0:
288,96,197351,1,0,0:0:0:0:
288,96,197449,1,0,0:0:0:0:
288,96,197547,1,8,0:0:0:0:
288,96,197645,1,0,0:0:0:0:
288,96,197743,1,8,0:0:0:0:
288,96,197841,1,0,0:0:0:0:
288,96,197939,1,8,0:0:0:0:
288,96,198038,1,8,0:0:0:0:
288,96,198136,1,0,0:0:0:0:
288,96,198234,1,0,0:0:0:0:
288,96,198332,1,8,0:0:0:0:
288,96,198430,1,0,0:0:0:0:
288,96,198528,1,8,0:0:0:0:
288,96,198626,1,0,0:0:0:0:
288,96,198724,1,0,0:0:0:0:
288,96,198822,1,8,0:0:0:0:
288,96,198920,1,0,0:0:0:0:
288,96,199018,1,0,0:0:0:0:
288,96,199116,1,8,0:0:0:0:
288,96,199214,1,8,0:0:0:0:
288,96,199312,1,0,0:0:0:0:
288,96,199410,1,8,0:0:0:0:
288,96,199508,1,0,0:0:0:0:
288,96,199606,1,8,0:0:0:0:
288,96,199704,1,8,0:0:0:0:
288,96,199802,1,0,0:0:0:0:
288,96,199900,1,8,0:0:0:0:
288,96,199998,1,0,0:0:0:0:
288,96,200096,1,8,0:0:0:0:
288,96,200194,1,0,0:0:0:0:
288,96,200292,1,0,0:0:0:0:
288,96,200390,1,8,0:0:0:0:
288,96,200488,1,0,0:0:0:0:
288,96,200586,1,8,0:0:0:0:
288,96,200684,1,0,0:0:0:0:
288,96,200782,1,8,0:0:0:0:
288,96,200880,1,8,0:0:0:0:
288,96,200978,1,0,0:0:0:0:
288,96,201076,1,0,0:0:0:0:
288,96,201174,1,8,0:0:0:0:
288,96,201272,1,8,0:0:0:0:
288,96,201370,1,0,0:0:0:0:
288,96,201468,1,8,0:0:0:0:
288,96,201566,1,0,0:0:0:0:
288,96,201664,1,8,0:0:0:0:
288,96,201762,1,8,0:0:0:0:
288,96,201861,1,0,0:0:0:0:
288,96,201959,1,8,0:0:0:0:
288,96,202057,1,0,0:0:0:0:
288,96,202155,1,8,0:0:0:0:
288,96,202253,1,8,0:0:0:0:
288,96,202351,1,0,0:0:0:0:
288,96,202449,1,8,0:0:0:0:
288,96,202547,1,0,0:0:0:0:
288,96,202645,1,8,0:0:0:0:
288,96,202743,1,0,0:0:0:0:
288,96,202841,1,8,0:0:0:0:
288,96,202939,1,0,0:0:0:0:
288,96,203037,1,8,0:0:0:0:
288,96,203135,1,8,0:0:0:0:
288,96,203233,1,0,0:0:0:0:
288,96,203331,1,0,0:0:0:0:
288,96,203429,1,8,0:0:0:0:
288,96,203527,1,8,0:0:0:0:
288,96,203625,1,0,0:0:0:0:
288,96,203723,1,0,0:0:0:0:
288,96,203821,1,0,0:0:0:0:
288,96,203919,1,8,0:0:0:0:
288,96,204017,1,0,0:0:0:0:
288,96,204115,1,8,0:0:0:0:
288,96,204213,1,0,0:0:0:0:
288,96,204311,1,0,0:0:0:0:
288,96,204409,1,8,0:0:0:0:
288,96,204507,1,8,0:0:0:0:
288,96,204605,1,0,0:0:0:0:
288,96,204703,1,0,0:0:0:0:
288,96,204801,1,8,0:0:0:0:
288,96,204899,1,0,0:0:0:0:
288,96,204997,1,0,0:0:0:0:
288,96,205095,1,8,0:0:0:0:
288,96,205193,1,0,0:0:0:0:
288,96,205291,1,8,0:0:0:0:
288,96,205389,1,8,0:0:0:0:
288,96,205487,1,0,0:0:0:0:
288,96,205585,1,8,0:0:0:0:
288,96,205684,1,0,0:0:0:0:
288,96,205782,1,8,0:0:0:0:
288,96,205880,1,0,0:0:0:0:
288,96,205978,1,8,0:0:0:0:
288,96,206076,1,8,0:0:0:0:
288,96,206174,1,0,0:0:0:0:
288,96,206272,1,0,0:0:0:0:
288,96,206370,1,8,0:0:0:0:
288,96,206468,1,0,0:0:0:0:
288,96,206566,1,0,0:0:0:0:
288,96,206664,1,8,0:0:0:0:
288,96,206762,1,8,0:0:0:0:
288,96,206860,1,0,0:0:0:0:
288,96,206958,1,8,0:0:0:0:
288,96,207056,1,0,0:0:0:0:
288,96,207154,1,8,0:0:0:0:
288,96,207252,1,8,0:0:0:0:
288,96,207350,1,0,0:0:0:0:
288,96,207448,1,0,0:0:0:0:
288,96,207546,1,8,0:0:0:0:
288,96,207644,1,0,0:0:0:0:
288,96,207742,1,8,0:0:0:0:
288,96,207840,1,8,0:0:0:0:
288,96,207938,1,8,0:0:0:0:
288,96,208036,1,0,0:0:0:0:
288,96,208134,1,8,0:0:0:0:
288,96,208232,1,8,0:0:0:0:
288,96,208330,1,0,0:0:0:0:
288,96,208428,1,8,0:0:0:0:
288,96,208526,1,0,0:0:0:0:
288,96,208624,1,0,0:0:0:0:
288,96,208722,1,8,0:0:0:0:
288,96,208820,1,0,0:0:0:0:
288,96,208918,1,8,0:0:0:0:
288,96,209016,1,0,0:0:0:0:
288,96,209114,1,8,0:0:0:0:
288,96,209212,1,0,0:0:0:0:
288,96,209310,1,0,0:0:0:0:
288,96,209409,1,0,0:0:0:0:
288,96,209507,1,8,0:0:0:0:
288,96,209605,1,0,0:0:0:0:
288,96,209703,1,0,0:0:0:0:
288,96,209801,1,8,0:0:0:0:
288,96,209899,1,8,0:0:0:0:
288,96,209997,1,0,0:0:0:0:
288,96,210095,1,0,0:0:0:0:
288,96,210193,1,8,0:0:0:0:
288,96,210291,1,0,0:0:0:0:
288,96,210389,1,0,0:0:0:0:
288,96,210487,1,8,0:0:0:0:
288,96,210585,1,0,0:0:0:0:
288,96,210683,1,8,0:0:0:0:
288,96,210781,1,0,0:0:0:0:
288,96,210879,1,8,0:0:0:0:
288,96,210977,1,8,0:0:0:0:
288,96,211075,1,8,0:0:0:0:
288,96,211173,1,0,0:0:0:0:
288,96,211271,1,8,0:0:0:0:
288,96,211369,1,0,0:0:0:0:
288,96,211467,1,8,0:0:0:0:
288,96,211565,1,8,0:0:0:0:
288,96,211663,1,0,0:0:0:0:
288,96,211761,1,0,0:0:0:0:
288,96,211859,1,8,0:0:0:0:
288,96,211957,1,0,0:0:0:0:
288,96,212055,1,8,0:0:0:0:
288,96,212153,1,0,0:0:0:0:
288,96,212251,1,8,0:0:0:0:
288,96,212349,1,0,0:0:0:0:
288,96,212447,1,8,0:0:0:0:
288,96,212545,1,8,0:0:0:0:
288,96,212643,1,0,0:0:0:0:
288,96,212741,1,8,0:0:0:0:
288,96,212839,1,8,0:0:0:0:
288,96,212937,1,0,0:0:0:0:
288,96,213035,1,8,0:0:0:0:
288,96,213133,1,0,0:0:0:0:
288,96,213232,1,8,0:0:0:0:
288,96,213330,1,0,0:0:0:0:
288,96,213428,1,8,0:0:0:0:
288,96,213526,1,8,0:0:0:0:
288,96,213624,1,0,0:0:0:0:
288,96,213722,1,0,0:0:0:0:
288,96,213820,1,8,0:0:0:0:
288,96,213918,1,0,0:0:0:0:
288,96,214016,1,8,0:0:0:0:
288,96,214114,1,8,0:0:0:0:
288,96,214212,1,0,0:0:0:0:
288,96,214408,1,0,0:0:0:0:
288,96,214604,1,0,0:0:0:0:
288,96,214800,1,0,0:0:0:0:
288,96,214996,1,8,0:0:0:0:
288,96,215192,1,8,0:0:0:0:
288,96,215290,1,0,0:0:0:0:
288,96,215388,1,8,0:0:0:0:
288,96,215584,1,0,0:0:0:0:
288,96,215780,1,8,0:0:0:0:
288,96,215976,1,0,0:0:0:0:
288,96,216172,1,8,0:0:0:0:
288,96,216368,1,0,0:0:0:0:
288,96,216564,1,0,0:0:0:0:
288,96,216858,1,0,0:0:0:0:
288,96,216956,1,8,0:0:0:0:
288,96,217153,1,0,0:0:0:0:
288,96,217349,1,8,0:0:0:0:
288,96,217545,1,0,0:0:0:0:
288,96,217741,1,8,0:0:0:0:
288,96,217937,1,0,0:0:0:0:
288,96,218133,1,8,0:0:0:0:
288,96,218329,1,0,0:0:0:0:
288,96,218427,1,0,0:0:0:0:
288,96,218525,1,8,0:0:0:0:
288,96,218721,1,0,0:0:0:0:
288,96,218917,1,8,0:0:0:0:
288,96,219015,1,8,0:0:0:0:
288,96,219113,1,0,0:0:0:0:
288,96,219211,1,0,0:0:0:0:
288,96,219309,1,8,0:0:0:0:
288,96,219505,1,0,0:0:0:0:
288,96,219701,1,8,0:0:0:0:
288,96,220289,1,0,0:0:0:0:
288,96,220387,1,0,0:0:0:0:
288,96,220485,1,8,0:0:0:0:
288,96,220681,1,0,0:0:0:0:
288,96,220779,1,8,0:0:0:0:
288,96,221074,1,0,0:0:0:0:
288,96,221270,1,8,0:0:0:0:
288,96,221466,1,0,0:0:0:0:
288,96,221564,1,8,0:0:0:0:
288,96,221858,1,0,0:0:0:0:
288,96,222054,1,8,0:0:0:0:
288,96,222250,1,0,0:0:0:0:
288,96,222348,1,8,0:0:0:0:
288,96,222544,1,0,0:0:0:0:
288,96,222642,1,8,0:0:0:0:
288,96,222740,1,0,0:0:0:0:
288,96,222838,1,8,0:0:0:0:
288,96,223034,1,0,0:0:0:0:
288,96,223132,1,8,0:0:0:0:
288,96,223328,1,0,0:0:0:0:
288,96,223426,1,0,0:0:0:0:
288,96,223622,1,8,0:0:0:0:
288,96,223818,1,0,0:0:0:0:
288,96,223916,1,8,0:0:0:0:
288,96,224212,1,0,0:0:0:0:
288,96,224406,1,8,0:0:0:0:
288,96,224602,1,0,0:0:0:0:
288,96,224701,1,8,0:0:0:0:
288,96,224995,1,0,0:0:0:0:
288,96,225191,1,8,0:0:0:0:
288,96,225485,1,0,0:0:0:0:
288,96,225779,1,0,0:0:0:0:
288,96,225877,1,0,0:0:0:0:
288,96,225975,1,8,0:0:0:0:
288,96,226171,1,0,0:0:0:0:
288,96,226269,1,8,0:0:0:0:
288,96,226563,1,0,0:0:0:0:
288,96,226661,1,0,0:0:0:0:
288,96,226759,1,8,0:0:0:0:
288,96,226955,1,0,0:0:0:0:
288,96,227053,1,8,0:0:0:0:
288,96,227249,1,0,0:0:0:0:
288,96,227347,1,0,0:0:0:0:
288,96,227445,1,0,0:0:0:0:
288,96,227543,1,8,0:0:0:0:
288,96,227739,1,0,0:0:0:0:
288,96,227837,1,8,0:0:0:0:
288,96,228033,1,0,0:0:0:0:
288,96,228131,1,0,0:0:0:0:
288,96,228327,1,8,0:0:0:0:
288,96,228622,1,0,0:0:0:0:
288,96,228916,1,0,0:0:0:0:
288,96,229014,1,0,0:0:0:0:
288,96,229112,1,8,0:0:0:0:
288,96,229308,1,0,0:0:0:0:
288,96,229406,1,8,0:0:0:0:
288,96,229602,1,0,0:0:0:0:
288,96,229700,1,8,0:0:0:0:
288,96,229798,1,0,0:0:0:0:
288,96,229896,1,8,0:0:0:0:
288,96,230190,1,0,0:0:0:0:
288,96,230386,1,0,0:0:0:0:
288,96,230484,1,8,0:0:0:0:
288,96,230680,1,0,0:0:0:0:
288,96,230811,1,8,0:0:0:0:
288,96,231007,1,0,0:0:0:0:
288,96,231203,1,0,0:0:0:0:
288,96,231366,1,0,0:0:0:0:
288,96,231464,1,8,0:0:0:0:
288,96,231758,1,0,0:0:0:0:
288,96,232052,1,0,0:0:0:0:
256,192,232249,1,12,0:0:0:0:
256,192,232379,1,0,0:0:0:0:
256,192,232510,1,0,0:0:0:0:
256,192,232641,1,0,0:0:0:0:
256,192,233033,1,8,0:0:0:0:
256,192,233425,1,8,0:0:0:0:
256,192,233556,1,0,0:0:0:0:
256,192,233686,1,0,0:0:0:0:
256,192,233817,1,8,0:0:0:0:
256,192,234013,1,0,0:0:0:0:
256,192,234209,1,8,0:0:0:0:
256,192,234601,1,8,0:0:0:0:
256,192,234732,1,8,0:0:0:0:
256,192,234863,1,0,0:0:0:0:
256,192,234993,1,8,0:0:0:0:
256,192,235385,1,8,0:0:0:0:
256,192,235516,1,0,0:0:0:0:
256,192,235647,1,8,0:0:0:0:
256,192,235777,1,0,0:0:0:0:
256,192,236170,1,8,0:0:0:0:
256,192,236366,1,0,0:0:0:0:
256,192,236562,1,0,0:0:0:0:
256,192,236692,1,8,0:0:0:0:
256,192,236823,1,0,0:0:0:0:
256,192,236954,1,8,0:0:0:0:
256,192,237150,1,0,0:0:0:0:
256,192,237346,1,8,0:0:0:0:
256,192,237738,1,8,0:0:0:0:
256,192,237869,1,0,0:0:0:0:
256,192,237999,1,0,0:0:0:0:
256,192,238130,1,8,0:0:0:0:
256,192,238522,1,8,0:0:0:0:
256,192,238653,1,8,0:0:0:0:
256,192,238784,1,0,0:0:0:0:
256,192,238914,1,0,0:0:0:0:
256,192,239306,1,8,0:0:0:0:
256,192,239698,1,0,0:0:0:0:
256,192,239829,1,0,0:0:0:0:
256,192,239960,1,8,0:0:0:0:
256,192,240091,1,8,0:0:0:0:
256,192,240287,1,0,0:0:0:0:
256,192,240483,1,8,0:0:0:0:
256,192,240875,1,8,0:0:0:0:
256,192,241005,1,8,0:0:0:0:
256,192,241136,1,0,0:0:0:0:
256,192,241267,1,0,0:0:0:0:
256,192,241659,1,8,0:0:0:0:
256,192,241790,1,8,0:0:0:0:
256,192,241920,1,8,0:0:0:0:
256,192,242051,1,0,0:0:0:0:
256,192,242443,1,8,0:0:0:0:
256,192,242835,1,8,0:0:0:0:
256,192,242966,1,8,0:0:0:0:
256,192,243097,1,8,0:0:0:0:
256,192,243227,1,0,0:0:0:0:
256,192,243423,1,0,0:0:0:0:
256,192,243619,1,8,0:0:0:0:
256,192,244012,1,8,0:0:0:0:
256,192,244142,1,0,0:0:0:0:
256,192,244273,1,0,0:0:0:0:
256,192,244404,1,8,0:0:0:0:
