osu file format v14

[General]
AudioFilename: audio.mp3
AudioLeadIn: 0
PreviewTime: 69393
Countdown: 0
SampleSet: Soft
StackLeniency: 0.7
Mode: 0
LetterboxInBreaks: 0
WidescreenStoryboard: 1

[Editor]
DistanceSpacing: 5.2
BeatDivisor: 8
GridSize: 4
TimelineZoom: 3.4

[Metadata]
Title:Love The Way You Lie feat. Rihanna
TitleUnicode:Love The Way You Lie feat. Rihanna
Artist:Eminem
ArtistUnicode:Eminem
Creator:greenhue
Version:pain
Source:
Tags:english slim shady hiphop hip-hop hip hop western pop rap recovery
BeatmapID:2679146
BeatmapSetID:1275243

[Difficulty]
HPDrainRate:5
CircleSize:3
OverallDifficulty:8
ApproachRate:8.5
SliderMultiplier:1.8
SliderTickRate:1

[Events]
//Background and Video events
0,0,"chal smile.jpg",0,0
//Break Periods
//Storyboard Layer 0 (Background)
//Storyboard Layer 1 (Fail)
//Storyboard Layer 2 (Pass)
//Storyboard Layer 3 (Foreground)
//Storyboard Layer 4 (Overlay)
//Storyboard Sound Samples

[TimingPoints]
220,705.882352941176,4,2,1,55,1,0
1278,674.157303370786,4,2,1,55,1,0
2626,714.285714285713,4,2,1,55,1,0
4054,689.655172413792,4,2,1,55,1,0
5433,689.655172413792,4,2,1,55,1,0
8076,689.655172413792,4,2,1,55,1,0
8246,666.666666666666,4,2,1,55,1,0
9524,697.67441860465,4,2,1,55,1,0
10570,722.891566265059,4,2,1,55,1,0
11292,697.67441860465,4,2,1,55,1,0
12338,705.882352941176,4,2,1,55,1,0
14279,-98.0392156862745,4,2,1,55,0,0
14455,681.818181818181,4,2,1,55,1,0
14625,-100,4,2,1,55,0,0
15136,666.666666666666,4,2,1,55,1,0
16135,769.230769230768,4,2,1,55,1,0
16904,576.923076923077,4,2,1,55,1,0
17192,731.707317073171,4,2,1,55,1,0
17557,-96.6183574879227,4,2,1,55,0,0
17923,681.818181818182,4,2,1,55,1,0
18263,-100,4,2,1,55,0,0
19116,-102.040816326531,4,2,1,55,0,0
19286,705.882352941176,4,2,1,55,1,0
19638,-100,4,2,1,55,0,0
19815,-99.009900990099,4,2,1,55,0,0
19991,697.674418604651,4,2,1,55,1,0
20688,681.818181818182,4,2,1,55,1,0
22051,731.707317073171,4,2,1,55,1,0
22782,631.578947368421,4,2,1,55,1,0
22939,-100,4,2,1,5,0,0
23097,769.230769230769,4,2,1,55,1,0
23481,810.810810810811,4,2,1,55,1,0
23481,-333.333333333333,4,2,1,55,0,0
25102,705.882352941176,4,2,1,55,1,0
26072,869.565217391304,4,2,1,55,1,0
26290,689.655172413793,4,2,1,55,1,0
26290,-50,4,2,1,69,0,0
67669,-58.8235294117647,4,2,1,69,0,0
69652,-58.8235294117647,4,2,1,5,0,0
69738,-58.8235294117647,4,2,1,69,0,0
70083,-250,4,2,1,69,0,0
70341,-250,4,2,1,5,0,0
70422,689.655172413793,4,2,1,75,1,1
70422,-34.4827586206897,4,2,1,75,0,1
71112,-43.4782608695652,4,2,1,75,0,1
73181,-34.4827586206897,4,2,1,75,0,1
73526,-43.4782608695652,4,2,1,75,0,1
75940,-34.4827586206897,4,2,1,75,0,1
76285,-43.4782608695652,4,2,1,75,0,1
78698,-34.4827586206897,4,2,1,75,0,1
79043,-43.4782608695652,4,2,1,75,0,1
81112,-250,4,2,1,75,0,1
81457,-34.4827586206897,4,2,1,75,0,1
81802,-43.4782608695652,4,2,1,75,0,1
84216,-34.4827586206897,4,2,1,75,0,1
84905,-43.4782608695652,4,2,1,75,0,1
89733,-34.4827586206897,4,2,1,75,0,1
90078,-43.4782608695652,4,2,1,75,0,1
92496,689.655172413793,4,2,1,69,1,0
92496,-62.5,4,2,1,69,0,0
103530,-50,4,2,1,69,0,0
144909,-58.8235294117647,4,2,1,69,0,0
147323,-250,4,2,1,69,0,0
147582,-250,4,2,1,5,0,0
147664,689.655172413793,4,2,1,75,1,1
147664,-34.4827586206897,4,2,1,75,0,1
148009,-43.4782608695652,4,2,1,75,0,1
150422,-34.4827586206897,4,2,1,75,0,1
150940,-43.4782608695652,4,2,1,75,0,1
153181,-34.4827586206897,4,2,1,75,0,1
153871,-43.4782608695652,4,2,1,75,0,1
158353,-250,4,2,1,75,0,1
158698,-34.4827586206897,4,2,1,75,0,1
159388,-43.4782608695652,4,2,1,75,0,1
161457,-34.4827586206897,4,2,1,75,0,1
161802,-43.4782608695652,4,2,1,75,0,1
164216,-34.4827586206897,4,2,1,75,0,1
164733,-43.4782608695652,4,2,1,75,0,1
166968,-34.4827586206897,4,2,1,75,0,1
167664,-43.4782608695652,4,2,1,75,0,1
169738,689.655172413793,4,2,1,69,1,0
169738,-62.5,4,2,1,69,0,0
180767,-50,4,2,1,69,0,0
222151,-62.5,4,2,1,69,0,0
226634,-58.8235294117647,4,2,1,69,0,0
226893,-58.8235294117647,4,2,1,5,0,0
226979,-58.8235294117647,4,2,1,69,0,0
227324,-250,4,2,1,69,0,0
227577,-250,4,2,1,5,0,0
227664,689.655172413793,4,2,1,75,1,1
227664,-34.4827586206897,4,2,1,75,0,1
228009,-43.4782608695652,4,2,1,75,0,1
230422,-34.4827586206897,4,2,1,75,0,1
230767,-43.4782608695652,4,2,1,75,0,1
233181,-34.4827586206897,4,2,1,75,0,1
233526,-43.4782608695652,4,2,1,75,0,1
235940,-34.4827586206897,4,2,1,75,0,1
236284,-43.4782608695652,4,2,1,75,0,1
238353,-250,4,2,1,75,0,1
238698,-34.4827586206897,4,2,1,75,0,1
239388,-43.4782608695652,4,2,1,75,0,1
241457,-34.4827586206897,4,2,1,75,0,1
241974,-43.4782608695652,4,2,1,75,0,1
244216,-34.4827586206897,4,2,1,75,0,1
244560,-43.4782608695652,4,2,1,75,0,1
246974,-34.4827586206897,4,2,1,75,0,1
247319,-43.4782608695652,4,2,1,50,0,1
249732,-62.5,4,2,1,65,0,0

[Colours]
Combo1 : 220,126,95
Combo2 : 240,170,170
Combo3 : 214,214,214
Combo4 : 242,17,17

[HitObjects]
397,381,1278,6,0,P|393:321|380:187,1,180,2|2,0:0|0:0,0:0:0:0:
298,182,2289,1,2,0:0:0:0:
378,75,2626,2,0,P|446:72|521:66,2,135,2|2|2,0:0|0:0|0:0,0:0:0:0:
268,9,4054,2,0,B|150:-1|206:55|91:42,1,180
21,0,5088,1,0,0:0:0:0:
61,206,5433,5,2,0:0:0:0:
0,109,5777,2,0,P|63:122|159:133,1,135,2|0,0:0|0:0,0:0:0:0:
146,146,6467,2,0,P|250:130|344:117,1,180,2|0,0:0|0:0,0:0:0:0:
401,172,7329,2,0,P|420:228|342:246,1,135,2|0,0:0|0:0,0:0:0:0:
285,221,8076,1,2,0:0:0:0:
284,211,8579,1,2,0:0:0:0:
256,360,8746,2,0,P|185:342|101:334,1,135,2|0,0:0|0:0,0:0:0:0:
66,272,9412,1,2,0:0:0:0:
83,272,11292,5,2,0:0:0:0:
83,272,11640,2,0,P|88:216|93:169,1,90,2|2,0:0|0:0,0:0:0:0:
240,71,12338,6,0,P|156:81|24:93,1,180,2|2,0:0|0:0,0:0:0:0:
11,26,13396,1,2,0:0:0:0:
181,165,13749,2,0,P|235:171|285:177,1,90,2|0,0:0|0:0,0:0:0:0:
358,159,14279,2,0,P|364:118|324:109,1,90,2|0,0:0|0:0,0:0:0:0:
257,253,14795,1,2,0:0:0:0:
254,266,15136,2,0,B|368:244|320:312|447:293,1,180
479,227,16135,1,0,0:0:0:0:
297,347,16519,6,0,P|218:351|192:366,1,90,2|0,0:0|0:0,0:0:0:0:
76,245,17557,2,0,P|156:216|237:155,1,180,2|2,0:0|0:0,0:0:0:0:
229,70,18434,2,0,P|160:59|179:126,1,135,2|0,0:0|0:0,0:0:0:0:
232,160,19116,2,0,P|289:158|388:144,1,135,2|0,0:0|0:0,0:0:0:0:
366,148,19815,2,0,P|352:217|346:301,1,135,2|0,0:0|0:0,0:0:0:0:
394,358,20514,1,2,0:0:0:0:
256,192,22051,12,0,22939,0:0:0:0:
343,304,23097,5,2,0:0:0:0:
279,363,23289,1,0,0:0:0:0:
279,363,23481,6,0,P|219:361|182:367,1,94.4999971160889,2|0,0:0|0:0,0:0:0:0:
95,267,25102,5,2,0:0:0:0:
95,267,25278,2,0,P|104:294|105:338,1,45,2|0,0:0|0:0,0:0:0:0:
52,172,25631,1,2,0:0:0:0:
203,229,25807,1,2,0:0:0:0:
147,146,25984,1,2,0:0:0:0:
147,146,26290,6,0,P|183:134|249:124,1,90,4|0,1:0|0:0,0:0:0:0:
301,5,26634,2,0,P|386:38|479:41,1,180,2|8,3:0|0:0,0:0:0:0:
473,41,27152,1,0,3:0:0:0:
338,129,27324,2,0,P|338:172|350:233,1,90,0|8,0:0|0:0,0:0:0:0:
247,189,27669,1,2,3:0:0:0:
429,154,27841,1,2,0:0:0:0:
282,277,28014,2,0,P|311:315|357:343,1,90,2|0,3:0|0:0,0:0:0:0:
222,88,28358,2,0,P|214:189|173:270,1,180,8|0,0:0|0:0,0:0:0:0:
181,260,28876,1,0,0:0:0:0:
34,162,29048,5,4,1:0:0:0:
0,278,29221,2,0,P|61:254|101:253,1,90,0|2,0:0|3:0,0:0:0:0:
245,384,29565,2,0,P|196:371|157:342,1,90,0|8,0:0|0:0,0:0:0:0:
130,165,29910,1,0,3:0:0:0:
130,165,30083,1,0,0:0:0:0:
77,347,30255,1,8,0:0:0:0:
30,170,30427,2,0,P|46:123|50:78,1,90,2|2,3:0|0:0,0:0:0:0:
101,259,30772,1,2,3:0:0:0:
101,259,30945,1,0,0:0:0:0:
160,88,31117,2,0,P|151:37|138:0,1,90,8|8,0:0|2:1,0:0:0:0:
292,277,31462,2,0,P|229:288|198:233,1,135,2|0,3:0|0:0,0:0:0:0:
207,206,31807,5,4,1:0:0:0:
321,363,31979,2,0,P|372:328|391:289,1,90,0|2,0:0|3:0,0:0:0:0:
341,84,32324,2,0,P|300:127|372:209,1,180,0|0,0:0|3:0,0:0:0:0:
442,186,32841,2,0,P|449:132|454:85,1,90,0|8,0:0|0:0,0:0:0:0:
216,87,33186,2,0,P|173:100|126:105,2,90,2|2|2,3:0|0:0|3:0,0:0:0:0:
279,12,33703,1,0,0:0:0:0:
105,211,33876,2,0,P|65:184|33:155,1,90,8|2,0:0|2:3,0:0:0:0:
300,253,34221,2,0,P|222:239|170:293,1,135
168,289,34565,5,4,1:0:0:0:
370,372,34738,1,0,0:0:0:0:
211,362,34910,1,2,3:0:0:0:
405,295,35083,1,0,0:0:0:0:
292,337,35255,1,8,0:0:0:0:
451,363,35427,1,0,3:0:0:0:
332,171,35600,2,0,P|329:215|326:260,1,90,0|8,0:0|0:0,0:0:0:0:
419,64,35945,2,0,L|433:176,1,90,2|2,3:0|0:0,0:0:0:0:
441,164,36290,1,2,3:0:0:0:
487,18,36462,1,0,0:0:0:0:
333,156,36634,2,0,P|247:143|176:138,1,135,8|0,0:0|0:0,0:0:0:0:
187,147,36979,1,2,3:0:0:0:
280,48,37152,1,0,1:0:0:0:
241,308,37324,5,4,1:0:0:0:
106,245,37496,2,0,P|150:237|195:232,1,90,0|2,0:0|3:0,0:0:0:0:
103,154,37841,1,0,0:0:0:0:
445,236,38014,2,0,P|364:227|339:326,1,180,8|0,0:0|0:0,0:0:0:0:
388,382,38531,1,8,0:0:0:0:
443,246,38703,1,2,3:0:0:0:
283,384,38876,1,2,0:0:0:0:
283,384,39221,1,0,0:0:0:0:
470,333,39393,1,8,0:0:0:0:
326,196,39565,1,2,2:3:0:0:
357,303,39738,1,0,0:0:0:0:
441,150,39910,1,0,0:0:0:0:
233,259,40083,6,0,P|188:265|143:272,1,90,4|0,1:0|0:0,0:0:0:0:
350,315,40427,1,2,3:0:0:0:
161,179,40600,1,0,0:0:0:0:
161,179,40772,1,8,0:0:0:0:
108,341,40945,1,0,3:0:0:0:
65,227,41117,1,0,0:0:0:0:
113,352,41290,1,8,0:0:0:0:
60,215,41462,2,0,L|73:126,2,90,2|2|2,3:0|0:0|3:0,0:0:0:0:
60,215,41979,1,0,0:0:0:0:
241,187,42152,1,8,0:0:0:0:
158,90,42324,1,8,2:1:0:0:
7,315,42496,6,0,P|103:301|205:285,1,180,2|4,3:0|1:0,0:0:0:0:
205,305,43014,1,0,0:0:0:0:
157,207,43186,1,2,3:0:0:0:
375,224,43358,2,0,P|301:259|335:334,1,180,0|0,0:0|3:0,0:0:0:0:
489,350,43876,2,0,P|446:343|422:301,1,90,0|8,0:0|0:0,0:0:0:0:
487,27,44221,2,0,P|472:152|452:283,1,180,2|2,3:0|3:0,0:0:0:0:
363,146,44738,1,0,0:0:0:0:
507,120,44910,1,8,0:0:0:0:
390,7,45083,1,2,2:3:0:0:
240,148,45255,6,0,P|161:122|217:41,1,180,0|4,0:0|1:0,0:0:0:0:
274,21,45772,1,0,0:0:0:0:
278,33,46117,1,0,0:0:0:0:
176,273,46290,1,8,0:0:0:0:
284,229,46462,1,0,3:0:0:0:
93,193,46634,2,0,P|46:199|4:205,1,90,0|8,0:0|0:0,0:0:0:0:
287,245,46979,2,0,L|393:261,2,90,2|2|2,3:0|0:0|3:0,0:0:0:0:
157,117,47496,1,0,0:0:0:0:
144,342,47669,1,8,0:0:0:0:
195,195,47841,1,8,2:1:0:0:
145,354,48014,1,2,3:0:0:0:
125,247,48186,1,0,1:0:0:0:
338,365,48358,6,0,B|455:384|395:313|530:344,1,180,4|2,1:0|3:0,0:0:0:0:
510,339,48876,1,0,0:0:0:0:
373,274,49048,2,0,P|368:226|364:182,1,90,8|0,0:0|3:0,0:0:0:0:
442,142,49393,1,0,0:0:0:0:
283,247,49565,1,8,0:0:0:0:
451,134,49738,2,0,P|454:92|459:33,2,90,2|2|2,3:0|0:0|3:0,0:0:0:0:
451,134,50427,2,0,P|341:125|260:117,1,180,8|0,0:0|0:0,0:0:0:0:
271,118,50945,1,0,0:0:0:0:
424,236,51117,6,0,P|469:228|529:219,1,90,4|0,1:0|0:0,0:0:0:0:
366,98,51462,1,2,3:0:0:0:
329,213,51634,1,0,0:0:0:0:
240,43,51807,2,0,P|192:46|130:52,2,90,8|0|0,0:0|3:0|0:0,0:0:0:0:
323,0,52324,1,8,0:0:0:0:
144,236,52496,2,0,P|161:170|217:189,1,135,2|0,3:0|0:0,0:0:0:0:
226,206,52841,1,2,3:0:0:0:
205,297,53014,1,0,0:0:0:0:
63,152,53186,1,8,0:0:0:0:
63,152,53358,1,8,2:1:0:0:
21,327,53531,2,0,P|62:321|131:314,1,90,2|0,3:0|1:0,0:0:0:0:
150,221,53876,5,4,1:0:0:0:
173,384,54048,1,0,0:0:0:0:
173,384,54221,1,2,3:0:0:0:
208,150,54393,2,0,P|290:163|322:273,1,180,0|0,0:0|3:0,0:0:0:0:
280,315,54910,2,0,P|226:306|175:299,1,90,0|8,0:0|0:0,0:0:0:0:
352,384,55255,1,2,3:0:0:0:
352,384,55427,1,2,0:0:0:0:
341,238,55600,1,2,3:0:0:0:
396,310,55772,1,0,0:0:0:0:
252,236,55945,1,8,0:0:0:0:
379,151,56117,1,2,2:3:0:0:
269,327,56290,6,0,P|168:306|91:294,1,180,0|4,0:0|1:0,0:0:0:0:
11,260,56807,1,0,0:0:0:0:
61,373,56979,1,2,3:0:0:0:
119,88,57152,2,0,P|196:110|173:187,1,180,0|0,0:0|3:0,0:0:0:0:
87,178,57669,1,0,0:0:0:0:
330,146,57841,1,8,0:0:0:0:
272,217,58014,2,0,P|279:264|290:316,2,90,2|2|2,3:0|0:0|3:0,0:0:0:0:
272,217,58531,1,0,0:0:0:0:
359,262,58703,1,10,0:0:0:0:
434,136,58876,1,10,2:2:0:0:
445,133,58962,1,2,0:0:0:0:
466,135,59048,1,2,3:2:0:0:
492,149,59134,1,2,0:0:0:0:
512,191,59221,1,2,1:2:0:0:
503,251,59307,1,2,0:0:0:0:
439,285,59393,6,0,P|393:277|343:274,2,90,4|0|2,1:0|0:0|3:0,0:0:0:0:
209,89,59910,2,0,P|240:166|322:152,1,180,0|0,0:0|3:0,0:0:0:0:
322,152,60427,1,0,0:0:0:0:
322,54,60600,1,8,0:0:0:0:
219,187,60772,2,0,P|225:231|229:276,2,90,2|2|2,3:0|0:0|3:0,0:0:0:0:
128,151,61289,1,0,0:0:0:0:
311,243,61462,1,8,0:0:0:0:
225,290,61634,1,2,2:3:0:0:
209,89,61807,2,0,P|205:48|198:-22,1,90
58,240,62152,6,0,B|143:234|130:282|179:305|240:286,1,180,4|2,1:0|3:0,0:0:0:0:
237,379,62669,1,0,0:0:0:0:
308,224,62841,2,0,P|340:203|400:201,1,90,8|0,0:0|3:0,0:0:0:0:
221,377,63186,2,0,P|171:373|110:368,1,90,0|8,0:0|0:0,0:0:0:0:
208,205,63531,1,2,3:0:0:0:
318,334,63703,1,2,0:0:0:0:
305,221,63876,1,2,3:0:0:0:
230,373,64048,1,0,0:0:0:0:
103,270,64221,1,8,0:0:0:0:
237,281,64393,1,8,2:1:0:0:
388,287,64565,2,0,P|432:290|505:300,1,90,2|0,3:0|1:0,0:0:0:0:
290,139,64910,5,4,1:0:0:0:
360,82,65083,2,0,P|368:126|374:170,1,90,0|2,0:0|3:0,0:0:0:0:
499,16,65427,2,0,P|418:7|304:-7,1,180,0|0,0:0|3:0,0:0:0:0:
253,46,65945,1,0,0:0:0:0:
253,46,66117,1,8,0:0:0:0:
458,100,66290,1,2,3:0:0:0:
458,100,66462,1,2,0:0:0:0:
335,164,66634,1,2,3:0:0:0:
336,73,66807,1,0,0:0:0:0:
253,204,66979,1,8,0:0:0:0:
434,186,67152,1,2,2:3:0:0:
487,330,67324,6,0,P|447:286|273:302,1,180,0|4,0:0|1:0,0:0:0:0:
248,323,67841,1,0,0:0:0:0:
248,323,68014,1,2,3:0:0:0:
232,205,68186,1,0,0:0:0:0:
157,284,68358,2,0,P|114:288|71:287,1,76.5000014591217,8|0,0:0|3:0,0:0:0:0:
185,138,68703,2,0,P|149:161|149:198,1,76.5000014591217,0|8,0:0|0:0,0:0:0:0:
307,261,69048,1,2,3:0:0:0:
310,273,69393,6,0,L|437:265,1,114.750002188683,2|0,3:0|0:0,0:0:0:0:
433,256,69738,2,0,L|421:335,1,76.5000014591217,2|0,0:0|0:0,0:0:0:0:
471,160,70083,2,0,L|469:133,1,27,2|0,0:0|0:0,0:0:0:0:
471,160,70422,6,2,P|323:142|196:127,1,261.000007965088,6|2,1:2|0:3,0:0:0:0:
211,129,70940,1,0,0:0:0:0:
305,9,71112,2,0,L|326:110,1,103.500001974106,10|0,0:2|0:0,0:0:0:0:
396,35,71457,1,2,3:0:0:0:
396,35,71629,1,8,0:0:0:0:
268,232,71802,2,0,P|177:226|201:139,1,207.000003948212,2|0,0:0|0:0,0:0:0:0:
376,220,72319,2,0,P|364:273|347:343,1,103.500001974106,2|8,0:0|0:0,0:0:0:0:
322,135,72664,1,2,0:3:0:0:
512,190,72836,2,0,P|468:149|429:112,1,103.500001974106,2|2,0:0|0:3,0:0:0:0:
186,383,73181,6,0,P|292:359|472:338,1,261.000007965088,4|2,1:2|0:3,0:0:0:0:
442,339,73698,1,2,0:0:0:0:
272,342,73871,1,8,0:0:0:0:
272,342,74043,1,0,0:0:0:0:
279,238,74216,1,2,0:3:0:0:
357,384,74388,1,8,0:0:0:0:
268,232,74560,2,0,P|285:142|297:94,1,103.500001974106,2|0,0:0|0:0,0:0:0:0:
62,329,74905,2,0,P|89:273|191:307,1,155.250002961159,2|0,0:0|0:0,0:0:0:0:
180,290,75250,1,8,0:0:0:0:
12,214,75422,1,2,0:3:0:0:
93,124,75595,2,0,P|99:177|107:226,1,103.500001974106,2|2,0:0|0:3,0:0:0:0:
273,123,75940,6,0,P|162:110|6:90,1,261.000007965088,4|2,1:0|3:0,0:0:0:0:
188,0,76457,2,0,P|181:49|211:110,1,103.500001974106,2|8,0:0|0:0,0:0:0:0:
288,130,76802,1,0,0:0:0:0:
283,34,76974,1,2,3:0:0:0:
93,124,77147,2,0,P|127:208|255:246,1,207.000003948212,10|0,0:0|0:0,0:0:0:0:
310,224,77664,1,2,0:0:0:0:
132,248,77836,2,0,P|100:298|93:348,1,103.500001974106,2|8,0:0|0:0,0:0:0:0:
21,242,78181,1,2,3:0:0:0:
55,154,78353,1,2,0:0:0:0:
55,154,78526,1,2,0:3:0:0:
184,339,78698,6,0,P|350:315|460:305,1,261.000007965088,4|2,1:0|3:0,0:0:0:0:
510,356,79216,1,0,0:0:0:0:
381,182,79388,2,0,P|387:229|372:287,1,103.500001974106,8|0,0:0|0:0,0:0:0:0:
471,187,79733,1,2,0:0:0:0:
197,250,79905,2,0,P|250:239|307:228,1,103.500001974106,8|0,0:0|0:0,0:0:0:0:
485,184,80250,1,2,3:0:0:0:
277,40,80422,2,0,P|292:92|308:142,1,103.500001974106,2|0,0:0|0:0,0:0:0:0:
325,384,80767,2,0,P|340:332|356:282,1,103.500001974106,10|0,0:0|0:0,0:0:0:0:
375,54,81112,2,0,L|385:80,1,27,2|0,3:0|0:0,0:0:0:0:
385,78,81457,6,2,B|233:55|272:138|127:123,1,261.000007965088,6|2,1:2|0:3,0:0:0:0:
134,123,81974,1,0,0:0:0:0:
40,1,82147,2,0,P|45:51|49:106,1,103.500001974106,10|0,0:2|0:0,0:0:0:0:
156,31,82491,1,2,3:0:0:0:
40,111,82664,1,8,0:0:0:0:
118,327,82836,2,0,P|112:206|32:227,1,207.000003948212,2|0,0:0|0:0,0:0:0:0:
14,329,83353,2,0,P|62:322|119:316,1,103.500001974106,2|8,0:0|0:0,0:0:0:0:
204,359,83698,1,2,0:3:0:0:
204,359,83871,1,2,0:0:0:0:
406,325,84043,1,2,0:3:0:0:
301,384,84216,6,0,P|317:280|335:114,1,261.000007965088,4|2,1:2|0:3,0:0:0:0:
268,67,84733,1,2,0:0:0:0:
410,230,84905,2,0,P|466:223|533:216,2,103.500001974106,8|0|2,0:0|0:0|0:3,0:0:0:0:
243,160,85422,1,8,0:0:0:0:
389,39,85595,2,0,P|443:41|507:39,1,103.500001974106,2|0,0:0|0:0,0:0:0:0:
257,149,85940,2,0,B|166:142|166:142|80:134,1,155.250002961159,2|0,0:0|0:0,0:0:0:0:
102,136,86285,2,0,P|105:181|113:259,1,103.500001974106,8|2,0:0|0:3,0:0:0:0:
185,59,86629,1,2,0:0:0:0:
185,59,86802,1,2,0:3:0:0:
212,239,86974,6,0,P|201:310|193:353,1,103.500001974106,4|0,1:0|0:0,0:0:0:0:
286,299,87319,1,2,3:0:0:0:
362,157,87491,2,0,P|364:208|381:382,1,207.000003948212,2|0,0:0|0:0,0:0:0:0:
286,282,88009,1,2,3:0:0:0:
475,58,88181,2,0,P|429:110|292:83,1,207.000003948212,10|0,0:0|0:0,0:0:0:0:
302,94,88698,1,2,0:0:0:0:
65,77,88871,2,0,P|133:5|231:24,1,207.000003948212,2|2,0:0|3:0,0:0:0:0:
231,24,89388,1,2,0:0:0:0:
93,0,89560,1,2,0:3:0:0:
287,190,89733,6,0,P|120:201|16:210,1,261.000007965088,4|2,1:0|3:0,0:0:0:0:
26,209,90250,1,0,0:0:0:0:
109,325,90422,2,0,P|118:274|127:211,1,103.500001974106,8|0,0:0|0:0,0:0:0:0:
158,59,90767,1,2,0:3:0:0:
67,100,90940,1,8,0:0:0:0:
238,275,91112,2,0,B|369:287|309:220|443:231,1,207.000003948212,2|2,0:0|0:0,0:0:0:0:
497,164,91629,2,0,P|489:109|483:59,2,103.500001974106,2|8|2,0:0|0:0|3:0,0:0:0:0:
506,282,92147,1,2,0:0:0:0:
425,225,92319,1,2,0:3:0:0:
303,367,92496,5,0,1:0:0:0:
303,367,92840,1,2,0:0:0:0:
167,330,93185,1,0,3:0:0:0:
167,330,93357,1,0,0:0:0:0:
167,330,93702,1,0,0:0:0:0:
167,330,93875,1,0,3:0:0:0:
167,330,94047,1,0,0:0:0:0:
167,330,94220,1,0,3:0:0:0:
66,363,94564,1,2,0:0:0:0:
66,363,94737,1,0,0:0:0:0:
44,135,95254,5,0,1:0:0:0:
44,135,95426,1,0,0:0:0:0:
44,135,95599,1,2,0:0:0:0:
128,168,95944,1,0,3:0:0:0:
128,168,96116,1,0,0:0:0:0:
209,74,96461,1,0,0:0:0:0:
209,74,96633,2,0,P|251:65|290:46,2,72,0|0|0,3:0|0:0|3:0,0:0:0:0:
209,74,97323,2,0,P|342:93|369:100,1,144,2|0,0:0|0:0,0:0:0:0:
362,180,97840,1,0,0:0:0:0:
428,68,98013,5,0,1:0:0:0:
428,68,98358,1,2,0:0:0:0:
482,216,98703,1,0,3:0:0:0:
482,216,98875,1,0,0:0:0:0:
482,216,99220,1,0,0:0:0:0:
482,216,99393,1,0,3:0:0:0:
482,216,99565,1,0,0:0:0:0:
482,216,99738,1,0,3:0:0:0:
408,285,100082,1,2,0:0:0:0:
408,285,100255,1,0,0:0:0:0:
408,285,100771,5,0,1:0:0:0:
408,285,101116,1,0,3:0:0:0:
341,198,101461,1,8,0:0:0:0:
341,198,101633,1,8,0:0:0:0:
341,198,101806,1,8,0:0:0:0:
341,198,101978,1,8,0:0:0:0:
356,319,102151,1,8,0:0:0:0:
362,214,102323,1,8,0:0:0:0:
267,265,102495,1,8,0:0:0:0:
443,254,102668,1,8,0:0:0:0:
261,358,102840,1,0,1:0:0:0:
269,116,103013,1,0,1:0:0:0:
267,140,103185,1,0,1:0:0:0:
265,163,103357,1,0,1:0:0:0:
44,222,103530,6,0,P|130:227|226:236,1,180,4|2,1:0|3:0,0:0:0:0:
142,101,104047,2,0,P|145:151|150:210,1,90,0|8,0:0|0:0,0:0:0:0:
217,54,104392,1,2,3:0:0:0:
217,54,104478,1,2,0:0:0:0:
217,54,104564,1,2,0:0:0:0:
56,134,104737,1,8,0:0:0:0:
265,140,104909,2,0,P|373:125|455:114,1,180,2|2,3:0|3:0,0:0:0:0:
443,115,105426,1,0,0:0:0:0:
334,45,105599,1,8,0:0:0:0:
334,45,105771,1,2,2:3:0:0:
363,312,105944,1,0,0:0:0:0:
452,235,106116,6,0,P|379:229|257:221,1,180
272,221,106633,2,0,P|279:274|286:336,1,90,2|0,3:0|0:0,0:0:0:0:
102,295,106978,1,8,0:0:0:0:
102,295,107151,1,0,3:0:0:0:
274,326,107323,1,0,0:0:0:0:
85,289,107495,1,8,0:0:0:0:
189,383,107668,2,0,P|187:330|186:268,1,90,2|2,3:0|0:0,0:0:0:0:
136,134,108013,1,2,3:0:0:0:
200,205,108185,1,0,0:0:0:0:
188,58,108357,1,8,0:0:0:0:
111,215,108530,1,8,2:1:0:0:
127,125,108702,1,2,3:0:0:0:
186,293,108875,1,0,1:0:0:0:
284,117,109047,6,0,P|321:166|424:128,1,180,4|2,1:0|3:0,0:0:0:0:
420,134,109564,1,0,0:0:0:0:
359,269,109737,2,0,P|355:326|369:357,2,90,8|0|0,0:0|3:0|0:0,0:0:0:0:
434,230,110254,1,8,0:0:0:0:
265,351,110426,2,0,P|173:324|76:304,1,180,2|2,3:0|3:0,0:0:0:0:
21,359,110944,1,0,0:0:0:0:
147,228,111116,1,8,0:0:0:0:
147,228,111288,1,2,2:3:0:0:
41,137,111461,2,0,P|47:186|51:232,1,90
115,49,111806,5,4,1:0:0:0:
115,49,111978,1,0,0:0:0:0:
20,48,112151,1,2,3:0:0:0:
131,138,112323,1,0,0:0:0:0:
200,20,112495,1,8,0:0:0:0:
126,149,112668,1,0,3:0:0:0:
207,6,112840,1,0,0:0:0:0:
279,215,113013,1,8,0:0:0:0:
322,111,113185,2,0,P|275:116|216:120,2,90,2|2|2,3:0|0:0|3:0,0:0:0:0:
322,111,113875,1,8,0:0:0:0:
406,76,114047,2,0,L|457:-5,1,90,8|2,2:1|3:0,0:0:0:0:
324,23,114392,1,0,1:0:0:0:
504,115,114564,6,0,P|485:248|479:327,1,180,4|2,1:0|3:0,0:0:0:0:
486,294,115082,1,0,0:0:0:0:
335,157,115254,1,8,0:0:0:0:
301,249,115426,2,0,P|348:254|408:225,1,90,0|0,3:0|0:0,0:0:0:0:
464,190,115771,1,8,0:0:0:0:
285,342,115944,2,0,P|234:324|199:297,2,90,2|2|2,3:0|0:0|3:0,0:0:0:0:
381,341,116461,1,0,0:0:0:0:
299,238,116633,1,8,0:0:0:0:
174,384,116806,1,2,2:3:0:0:
174,384,116978,1,0,0:0:0:0:
81,144,117151,1,0,0:0:0:0:
10,237,117323,6,0,P|152:215|209:204,1,180,4|2,1:0|3:0,0:0:0:0:
187,208,117840,1,0,0:0:0:0:
84,344,118013,2,0,P|95:286|105:233,2,90,8|0|0,0:0|3:0|0:0,0:0:0:0:
88,339,118530,1,8,0:0:0:0:
169,115,118702,2,0,P|269:130|369:144,1,180,2|2,3:0|3:0,0:0:0:0:
419,94,119220,1,0,0:0:0:0:
285,225,119392,1,8,0:0:0:0:
285,225,119564,1,8,2:1:0:0:
285,225,119909,1,0,1:0:0:0:
512,322,120082,6,0,P|502:246|412:231,1,180,4|2,1:0|3:0,0:0:0:0:
341,295,120599,1,0,0:0:0:0:
347,141,120771,2,0,P|341:92|335:26,2,90,8|0|0,0:0|3:0|0:0,0:0:0:0:
408,243,121288,1,8,0:0:0:0:
242,93,121461,2,0,P|173:103|96:116,1,135,2|0,3:0|0:0,0:0:0:0:
99,124,121806,2,0,P|98:55|99:34,1,90,2|0,3:0|0:0,0:0:0:0:
187,188,122151,1,8,0:0:0:0:
187,188,122323,1,2,2:3:0:0:
181,22,122495,1,0,0:0:0:0:
247,102,122668,1,0,0:0:0:0:
11,162,122840,6,0,P|19:235|26:306,1,135,4|0,1:0|0:0,0:0:0:0:
30,320,123185,1,2,3:0:0:0:
68,224,123357,1,0,0:0:0:0:
101,384,123530,1,8,0:0:0:0:
162,297,123702,2,0,P|207:297|252:302,2,90,0|0|8,3:0|0:0|0:0,0:0:0:0:
226,214,124220,1,2,3:0:0:0:
226,214,124392,1,2,0:0:0:0:
210,384,124564,1,2,3:0:0:0:
210,384,124737,1,0,0:0:0:0:
329,258,124909,2,0,P|375:265|436:267,1,90,8|8,0:0|2:1,0:0:0:0:
503,254,125254,1,2,3:0:0:0:
472,352,125426,1,0,1:0:0:0:
351,164,125599,6,0,P|270:141|225:213,1,180,4|2,1:0|3:0,0:0:0:0:
225,213,126116,1,0,0:0:0:0:
136,117,126288,1,8,0:0:0:0:
111,230,126461,1,0,3:0:0:0:
111,230,126806,1,8,0:0:0:0:
27,148,126978,1,2,3:0:0:0:
208,187,127151,1,2,0:0:0:0:
81,326,127323,1,2,3:0:0:0:
81,326,127668,1,8,0:0:0:0:
196,311,127840,1,2,2:3:0:0:
315,296,128013,1,0,0:0:0:0:
266,383,128185,1,0,0:0:0:0:
342,195,128357,6,0,P|332:133|325:79,1,90,4|0,1:0|0:0,0:0:0:0:
368,380,128702,1,2,3:0:0:0:
368,380,128875,1,0,0:0:0:0:
419,154,129047,2,0,P|429:92|436:38,1,90,8|0,0:0|3:0,0:0:0:0:
307,276,129392,2,0,P|247:264|152:248,1,135
161,264,129737,1,2,3:0:0:0:
242,176,129909,1,2,0:0:0:0:
203,344,130082,1,2,3:0:0:0:
148,149,130254,1,0,0:0:0:0:
166,244,130426,1,8,0:0:0:0:
219,88,130599,1,8,2:1:0:0:
76,213,130771,1,2,3:0:0:0:
76,213,130944,1,0,1:0:0:0:
0,12,131116,6,0,P|39:62|157:28,1,180,4|2,1:0|3:0,0:0:0:0:
144,45,131633,1,0,0:0:0:0:
333,131,131806,2,0,P|326:183|320:242,2,90,8|0|0,0:0|3:0|0:0,0:0:0:0:
401,71,132323,1,8,0:0:0:0:
307,223,132495,2,0,P|311:262|318:333,1,90,2|2,3:0|0:0,0:0:0:0:
425,196,132840,1,2,3:0:0:0:
425,196,133013,1,0,0:0:0:0:
225,150,133185,2,0,P|158:158|96:161,2,90,8|2|0,0:0|2:3|0:0,0:0:0:0:
303,219,133702,1,0,0:0:0:0:
242,16,133875,6,0,P|306:25|304:153,1,180,4|2,1:0|3:0,0:0:0:0:
332,130,134392,1,0,0:0:0:0:
475,24,134564,2,0,P|437:58|421:99,1,90,8|0,0:0|3:0,0:0:0:0:
512,116,134909,1,0,0:0:0:0:
346,16,135082,1,8,0:0:0:0:
512,116,135254,2,0,P|510:160|505:228,1,90,2|2,3:0|0:0,0:0:0:0:
325,215,135599,2,0,P|374:206|428:197,1,90,2|0,3:0|0:0,0:0:0:0:
349,120,135944,1,10,0:0:0:0:
165,191,136116,1,10,2:2:0:0:
176,188,136202,1,2,0:0:0:0:
197,190,136288,1,2,3:2:0:0:
223,204,136374,1,2,0:0:0:0:
243,246,136461,1,2,1:2:0:0:
234,306,136547,1,2,0:0:0:0:
170,340,136633,6,0,P|112:334|75:329,2,90,4|0|2,1:0|0:0|3:0,0:0:0:0:
170,340,137323,2,0,P|162:253|155:149,1,180,8|0,0:0|0:0,0:0:0:0:
155,160,137840,1,8,0:0:0:0:
89,62,138013,2,0,P|43:65|-18:70,2,90,2|2|2,3:0|0:0|3:0,0:0:0:0:
89,62,138702,1,8,0:0:0:0:
187,56,138875,1,2,2:3:0:0:
284,47,139047,2,0,L|392:34,1,90
67,163,139392,6,0,P|135:172|281:194,1,180,4|2,1:0|3:0,0:0:0:0:
245,188,139909,1,0,0:0:0:0:
287,359,140082,2,0,P|300:310|307:247,2,90,8|0|0,0:0|3:0|0:0,0:0:0:0:
378,341,140599,1,8,0:0:0:0:
206,276,140771,2,0,P|170:282|117:290,1,90,2|2,3:0|0:0,0:0:0:0:
393,246,141116,1,2,3:0:0:0:
393,246,141461,1,8,0:0:0:0:
378,154,141633,1,8,2:1:0:0:
484,281,141806,1,2,3:0:0:0:
374,140,141978,1,0,1:0:0:0:
269,355,142151,6,0,P|281:254|289:148,1,180,4|2,1:0|3:0,0:0:0:0:
235,114,142668,1,0,0:0:0:0:
168,227,142840,1,8,0:0:0:0:
240,100,143013,1,0,3:0:0:0:
189,320,143185,1,0,0:0:0:0:
149,136,143357,1,8,0:0:0:0:
20,305,143530,2,0,L|129:291,2,90,2|2|2,3:0|0:0|3:0,0:0:0:0:
59,214,144047,1,0,0:0:0:0:
128,377,144220,1,8,0:0:0:0:
128,377,144392,1,2,2:3:0:0:
247,261,144564,1,0,0:0:0:0:
247,261,144737,1,0,0:0:0:0:
312,308,144909,6,0,P|363:304|408:299,1,76.5000014591217,4|0,1:0|0:0,0:0:0:0:
255,378,145254,1,2,3:0:0:0:
255,378,145427,1,0,0:0:0:0:
388,291,145599,2,0,P|439:287|484:282,1,76.5000014591217,8|0,0:0|3:0,0:0:0:0:
344,220,145944,1,0,0:0:0:0:
395,384,146116,1,8,0:0:0:0:
395,384,146633,5,2,3:0:0:0:
464,284,146978,2,0,P|451:228|445:191,1,76.5000014591217,2|0,0:0|0:0,0:0:0:0:
484,85,147323,2,0,L|496:60,1,27,2|0,0:0|0:0,0:0:0:0:
477,24,147664,6,2,L|184:11,1,261.000007965088,6|2,1:2|0:3,0:0:0:0:
136,0,148181,1,0,0:0:0:0:
250,98,148353,2,0,P|239:151|233:206,1,103.500001974106,10|0,0:2|0:0,0:0:0:0:
159,130,148698,1,2,3:0:0:0:
159,130,148871,1,8,0:0:0:0:
421,232,149043,2,0,P|444:144|353:139,1,207.000003948212,2|0,0:0|0:0,0:0:0:0:
403,327,149560,1,2,0:0:0:0:
328,242,149733,2,0,P|322:293|315:344,1,103.500001974106,8|2,0:0|0:3,0:0:0:0:
259,129,150078,2,0,P|253:77|245:26,1,103.500001974106,2|2,0:0|0:3,0:0:0:0:
159,256,150422,6,0,P|34:243|82:149,1,261.000007965088,4|2,1:2|0:3,0:0:0:0:
69,153,150940,1,2,0:0:0:0:
49,315,151112,1,8,0:0:0:0:
49,315,151285,1,0,0:0:0:0:
162,242,151457,1,2,0:3:0:0:
0,218,151629,1,8,0:0:0:0:
156,347,151802,2,0,P|210:338|272:327,1,103.500001974106,2|0,0:0|0:0,0:0:0:0:
272,122,152147,2,0,P|264:182|255:241,1,103.500001974106,2|0,0:0|0:0,0:0:0:0:
428,341,152491,2,0,P|388:310|333:271,2,103.500001974106,8|2|2,0:0|0:3|0:0,0:0:0:0:
325,380,153009,1,2,0:3:0:0:
512,86,153181,6,0,P|455:211|368:173,1,261.000007965088,4|2,1:0|3:0,0:0:0:0:
368,173,153698,1,2,0:0:0:0:
137,123,153871,2,0,P|248:110|365:96,1,207.000003948212,0|2,0:0|3:0,0:0:0:0:
222,0,154388,2,0,P|229:49|199:110,1,103.500001974106,10|0,0:0|0:0,0:0:0:0:
121,126,154733,1,0,0:0:0:0:
131,37,154905,1,2,0:0:0:0:
288,181,155078,2,0,P|265:281|243:387,1,207.000003948212,2|2,0:0|3:0,0:0:0:0:
128,264,155595,2,0,P|178:276|240:297,1,103.500001974106,2|2,0:0|0:3,0:0:0:0:
496,322,155940,6,0,P|408:218|366:261,1,207.000003948212,4|2,1:0|3:0,0:0:0:0:
348,316,156457,1,0,0:0:0:0:
373,118,156629,1,8,0:0:0:0:
373,118,156802,1,0,0:0:0:0:
398,234,156974,1,2,0:0:0:0:
344,4,157147,1,8,0:0:0:0:
172,65,157319,2,0,P|226:72|289:80,2,103.500001974106,0|2|2,0:0|3:0|0:0,0:0:0:0:
106,0,157836,1,0,0:0:0:0:
109,281,158009,1,10,0:0:0:0:
109,281,158353,2,0,L|99:254,1,27,2|0,3:0|0:0,0:0:0:0:
93,237,158698,6,2,P|262:252|489:280,1,391.500011947632,6|0,1:2|0:0,0:0:0:0:
276,114,159388,2,0,P|280:155|286:216,1,103.500001974106,10|0,0:2|0:0,0:0:0:0:
295,348,159733,1,2,3:0:0:0:
295,348,159905,1,8,0:0:0:0:
383,179,160078,2,0,P|405:124|432:57,2,103.500001974106,2|0|0,0:0|0:0|0:0,0:0:0:0:
495,176,160595,1,2,0:0:0:0:
333,24,160767,2,0,P|251:38|179:35,1,155.250002961159,8|0,0:0|0:0,0:0:0:0:
168,34,161112,2,0,P|181:86|191:142,1,103.500001974106,2|2,0:0|0:3,0:0:0:0:
49,307,161457,6,0,P|158:330|124:210,1,261.000007965088,4|2,1:2|0:3,0:0:0:0:
146,217,161974,1,2,0:0:0:0:
261,367,162147,1,8,0:0:0:0:
261,367,162319,1,0,0:0:0:0:
337,221,162491,1,2,0:3:0:0:
258,348,162664,1,8,0:0:0:0:
239,161,162836,2,0,P|234:101|230:55,1,103.500001974106,2|0,0:0|0:0,0:0:0:0:
36,153,163181,2,0,L|157:105,1,103.500001974106,2|0,0:0|0:0,0:0:0:0:
93,33,163526,1,8,0:0:0:0:
93,33,163698,1,2,0:3:0:0:
157,201,163871,2,0,P|152:269|146:324,1,103.500001974106,2|2,0:0|0:3,0:0:0:0:
181,0,164216,6,0,P|237:92|379:53,1,261.000007965088,4|2,1:0|3:0,0:0:0:0:
231,120,164733,2,0,P|242:199|261:223,2,103.500001974106,2|8|0,0:0|0:0|0:0,0:0:0:0:
276,3,165250,1,2,3:0:0:0:
342,190,165422,2,0,P|393:212|458:207,2,103.500001974106,10|0|0,0:0|0:0|0:0,0:0:0:0:
279,17,165940,1,2,0:0:0:0:
162,236,166112,2,0,P|65:251|3:170,1,207.000003948212,2|2,0:0|3:0,0:0:0:0:
3,172,166629,1,2,0:0:0:0:
178,133,166802,1,2,0:3:0:0:
82,81,166974,6,0,P|93:174|118:364,1,261.000007965088,4|2,1:0|3:0,0:0:0:0:
115,340,167491,1,0,0:0:0:0:
411,183,167664,2,0,P|271:210|192:216,1,207.000003948212,8|2,0:0|0:3,0:0:0:0:
206,215,168181,1,8,0:0:0:0:
298,18,168353,2,0,P|288:68|279:119,1,103.500001974106,2|0,0:0|0:0,0:0:0:0:
356,278,168698,1,2,0:0:0:0:
186,125,168871,2,0,P|103:125|124:225,1,207.000003948212,2|2,0:0|3:0,0:0:0:0:
206,215,169388,1,2,0:0:0:0:
206,215,169560,1,2,0:3:0:0:
209,17,169738,5,0,1:0:0:0:
209,17,170083,1,2,0:0:0:0:
345,54,170428,1,0,3:0:0:0:
345,54,170600,1,0,0:0:0:0:
345,54,170945,1,0,0:0:0:0:
345,54,171118,1,0,3:0:0:0:
345,54,171290,1,0,0:0:0:0:
345,54,171463,1,0,3:0:0:0:
446,21,171807,1,2,0:0:0:0:
446,21,171980,1,0,0:0:0:0:
468,249,172497,5,0,1:0:0:0:
468,249,172669,1,0,0:0:0:0:
468,249,172842,1,2,0:0:0:0:
384,216,173187,1,0,3:0:0:0:
384,216,173359,1,0,0:0:0:0:
303,310,173704,1,0,0:0:0:0:
303,310,173876,2,0,P|261:319|222:338,2,72,0|0|0,3:0|0:0|3:0,0:0:0:0:
303,310,174565,2,0,P|170:291|143:284,1,144,2|0,0:0|0:0,0:0:0:0:
150,204,175083,1,0,0:0:0:0:
69,325,175255,5,0,1:0:0:0:
84,316,175600,1,2,0:0:0:0:
30,168,175945,1,0,3:0:0:0:
30,168,176117,1,0,0:0:0:0:
30,168,176462,1,0,0:0:0:0:
30,168,176634,1,0,3:0:0:0:
30,168,176807,1,0,0:0:0:0:
30,168,176979,1,0,3:0:0:0:
104,99,177324,1,2,0:0:0:0:
104,99,177496,1,0,0:0:0:0:
104,99,178014,5,0,1:0:0:0:
104,99,178358,1,0,0:0:0:0:
192,255,178703,2,0,L|287:248,1,72,8|8,0:0|0:0,0:0:0:0:
218,173,179049,1,8,0:0:0:0:
218,173,179221,1,8,0:0:0:0:
218,173,179393,1,8,0:0:0:0:
170,341,179565,1,8,0:0:0:0:
103,264,179738,1,8,0:0:0:0:
274,248,179910,1,8,0:0:0:0:
165,90,180083,1,0,1:0:0:0:
192,255,180255,1,0,1:0:0:0:
192,255,180427,1,0,1:0:0:0:
81,153,180600,1,0,1:0:0:0:
313,19,180772,6,0,P|226:17|111:4,1,180,4|2,1:0|3:0,0:0:0:0:
133,7,181289,1,0,0:0:0:0:
320,34,181462,2,0,P|366:27|431:16,1,90,8|0,0:0|3:0,0:0:0:0:
221,46,181807,1,0,0:0:0:0:
385,114,181979,1,8,0:0:0:0:
285,208,182152,2,0,P|290:160|296:93,2,90,2|2|2,3:0|0:0|3:0,0:0:0:0:
341,283,182669,1,0,0:0:0:0:
201,145,182841,2,0,P|110:137|63:228,1,180,8|0,0:0|0:0,0:0:0:0:
62,202,183358,1,0,0:0:0:0:
11,33,183531,6,0,P|106:51|102:60,1,135,4|0,1:0|0:0,0:0:0:0:
107,40,183876,2,0,P|96:87|87:145,1,90,2|0,3:0|0:0,0:0:0:0:
190,120,184221,1,8,0:0:0:0:
190,120,184393,1,0,3:0:0:0:
151,216,184565,1,0,0:0:0:0:
192,100,184738,1,8,0:0:0:0:
148,229,184910,2,0,P|139:272|129:321,2,90,2|2|2,3:0|0:0|3:0,0:0:0:0:
219,300,185427,1,0,0:0:0:0:
10,157,185600,2,0,P|57:152|105:149,1,90,8|8,0:0|2:1,0:0:0:0:
296,203,185945,2,0,P|304:272|318:350,1,135,2|0,3:0|0:0,0:0:0:0:
321,352,186289,6,0,P|366:347|410:345,1,90,4|0,1:0|0:0,0:0:0:0:
217,282,186634,1,2,3:0:0:0:
217,282,186807,1,0,0:0:0:0:
396,179,186979,1,8,0:0:0:0:
292,187,187152,1,0,3:0:0:0:
189,190,187324,1,0,0:0:0:0:
353,259,187496,1,8,0:0:0:0:
233,110,187669,2,0,P|236:61|238:19,2,90,2|2|2,3:0|0:0|3:0,0:0:0:0:
233,110,188186,1,2,0:0:0:0:
233,110,188272,1,2,0:0:0:0:
233,110,188358,1,10,0:0:0:0:
230,13,188531,1,2,2:3:0:0:
2,93,188703,2,0,P|76:84|137:77,1,135,2|0,0:0|0:0,0:0:0:0:
146,90,189048,5,4,1:0:0:0:
63,45,189221,1,0,0:0:0:0:
84,169,189393,2,0,P|78:207|70:263,2,90,2|0|8,3:0|0:0|0:0,0:0:0:0:
60,33,189910,1,0,3:0:0:0:
81,159,190083,1,0,0:0:0:0:
159,0,190255,1,8,0:0:0:0:
184,185,190427,2,0,P|190:223|198:279,2,90,2|2|2,3:0|0:0|3:0,0:0:0:0:
181,183,191117,1,8,0:0:0:0:
120,317,191289,1,8,2:1:0:0:
364,229,191462,2,0,P|317:224|268:216,1,90,2|0,3:0|1:0,0:0:0:0:
297,310,191807,5,4,1:0:0:0:
445,6,191979,2,0,P|452:95|459:185,1,180,2|0,0:0|0:0,0:0:0:0:
471,291,192496,2,0,P|475:336|481:387,2,90,8|0|0,0:0|3:0|0:0,0:0:0:0:
471,291,193014,1,8,0:0:0:0:
490,107,193186,1,2,3:0:0:0:
395,126,193358,1,2,0:0:0:0:
295,139,193531,1,2,3:0:0:0:
360,212,193703,1,0,0:0:0:0:
327,48,193876,2,0,P|251:38|116:26,1,180,8|0,0:0|0:0,0:0:0:0:
148,28,194393,1,0,0:0:0:0:
39,128,194565,6,0,L|137:111,1,90,4|0,1:0|0:0,0:0:0:0:
230,78,194910,1,2,3:0:0:0:
102,211,195083,1,0,0:0:0:0:
102,211,195255,1,8,0:0:0:0:
65,35,195427,1,0,3:0:0:0:
136,121,195600,1,0,0:0:0:0:
210,194,195772,1,8,0:0:0:0:
41,276,195945,2,0,P|35:321|30:366,2,90,2|2|2,3:0|0:0|3:0,0:0:0:0:
41,276,196462,1,0,0:0:0:0:
316,267,196634,2,0,P|227:281|139:301,1,180,8|2,0:0|3:0,0:0:0:0:
139,301,197152,1,0,1:0:0:0:
303,354,197324,5,4,1:0:0:0:
230,253,197496,1,0,0:0:0:0:
195,384,197669,1,2,3:0:0:0:
195,384,197841,1,0,0:0:0:0:
232,238,198014,2,0,L|246:134,1,90,8|0,0:0|3:0,0:0:0:0:
154,165,198358,1,0,0:0:0:0:
325,140,198531,1,8,0:0:0:0:
143,167,198703,2,0,P|98:173|54:178,1,90,2|2,3:0|0:0,0:0:0:0:
99,87,199048,1,2,3:0:0:0:
144,249,199221,1,0,0:0:0:0:
203,3,199393,2,0,P|269:-13|341:27,1,135,8|0,0:0|0:0,0:0:0:0:
344,43,199738,1,0,0:0:0:0:
344,43,199910,1,0,0:0:0:0:
182,145,200083,5,4,1:0:0:0:
251,74,200255,1,0,0:0:0:0:
313,229,200427,1,2,3:0:0:0:
328,136,200600,1,0,0:0:0:0:
217,266,200772,1,8,0:0:0:0:
403,201,200945,1,0,3:0:0:0:
204,273,201117,1,0,0:0:0:0:
382,285,201289,1,8,0:0:0:0:
221,176,201462,2,0,P|163:185|121:194,2,90,2|2|2,3:0|0:0|3:0,0:0:0:0:
221,176,202152,1,8,0:0:0:0:
42,93,202324,1,8,2:1:0:0:
42,93,202496,2,0,P|86:97|154:106,1,90,2|0,3:0|1:0,0:0:0:0:
336,20,202841,6,0,P|258:8|267:85,1,180,4|2,1:0|3:0,0:0:0:0:
354,101,203358,2,0,P|398:95|449:90,1,90,0|8,0:0|0:0,0:0:0:0:
394,184,203703,1,0,3:0:0:0:
394,184,203876,1,0,0:0:0:0:
439,7,204048,1,8,0:0:0:0:
399,196,204221,2,0,P|405:287|409:383,1,180,2|2,3:0|3:0,0:0:0:0:
408,375,204738,1,0,0:0:0:0:
321,239,204910,2,0,P|287:202|250:168,1,90,8|2,0:0|2:3,0:0:0:0:
455,289,205255,1,0,0:0:0:0:
455,295,205600,6,0,B|345:274|378:344|274:335,1,180,4|2,1:0|3:0,0:0:0:0:
286,335,206117,1,0,0:0:0:0:
164,167,206289,1,8,0:0:0:0:
170,267,206462,1,0,3:0:0:0:
178,358,206634,1,0,0:0:0:0:
178,358,206807,1,8,0:0:0:0:
85,219,206979,2,0,P|52:187|18:157,1,90,2|2,3:0|0:0,0:0:0:0:
170,267,207324,1,2,3:0:0:0:
170,267,207496,1,0,0:0:0:0:
241,200,207669,2,0,P|274:168|308:138,1,90,8|8,0:0|2:1,0:0:0:0:
79,320,208014,1,2,3:0:0:0:
79,320,208358,6,0,P|165:309|267:299,1,180,4|2,1:0|3:0,0:0:0:0:
257,299,208876,1,0,0:0:0:0:
362,203,209048,2,0,P|354:250|345:296,2,90,8|0|0,0:0|3:0|0:0,0:0:0:0:
442,265,209565,1,8,0:0:0:0:
270,213,209738,1,2,3:0:0:0:
452,268,209910,1,2,0:0:0:0:
253,213,210083,1,2,3:0:0:0:
469,159,210255,1,0,0:0:0:0:
297,43,210427,2,0,P|302:88|307:133,2,90,8|2|0,0:0|2:3|0:0,0:0:0:0:
297,43,211117,6,0,P|228:35|110:25,1,180,4|2,1:0|3:0,0:0:0:0:
43,74,211634,1,0,0:0:0:0:
185,51,211807,1,8,0:0:0:0:
59,160,211979,1,0,3:0:0:0:
154,170,212152,1,0,0:0:0:0:
33,65,212324,1,8,0:0:0:0:
160,179,212496,2,0,P|149:222|139:285,2,90,2|2|2,3:0|0:0|3:0,0:0:0:0:
248,127,213014,1,0,0:0:0:0:
57,243,213186,1,10,0:0:0:0:
295,213,213358,1,10,2:2:0:0:
284,210,213444,1,2,0:0:0:0:
263,212,213530,1,2,3:2:0:0:
237,226,213616,1,2,0:0:0:0:
217,268,213703,1,2,1:2:0:0:
226,328,213789,1,2,0:0:0:0:
290,362,213875,6,0,P|348:356|385:351,1,90,4|0,1:0|0:0,0:0:0:0:
427,56,214221,2,0,P|409:131|398:206,1,135,2|0,3:0|0:0,0:0:0:0:
395,209,214565,2,0,P|366:152|349:116,1,90,8|0,0:0|3:0,0:0:0:0:
488,145,214910,1,0,0:0:0:0:
343,125,215083,1,8,0:0:0:0:
216,102,215255,2,0,P|160:91|110:84,1,90,2|2,3:0|0:0,0:0:0:0:
292,19,215600,1,2,3:0:0:0:
292,19,215945,1,8,0:0:0:0:
270,166,216117,1,2,2:3:0:0:
196,12,216289,1,0,0:0:0:0:
196,12,216462,1,0,0:0:0:0:
75,269,216634,6,0,P|12:256|27:162,1,135,4|0,1:0|0:0,0:0:0:0:
5,183,216979,2,0,P|50:179|133:170,1,90,2|0,3:0|0:0,0:0:0:0:
37,93,217324,1,8,0:0:0:0:
72,256,217496,1,0,3:0:0:0:
190,150,217669,1,0,0:0:0:0:
164,239,217841,1,8,0:0:0:0:
129,89,218014,2,0,P|136:37|141:0,2,90,2|2|2,3:0|0:0|3:0,0:0:0:0:
127,88,218703,2,0,P|225:83|327:74,1,180,8|2,0:0|3:0,0:0:0:0:
306,76,219221,1,0,1:0:0:0:
428,264,219393,6,0,P|437:191|348:173,1,180,4|2,1:0|3:0,0:0:0:0:
347,173,219910,1,0,0:0:0:0:
382,0,220083,1,8,0:0:0:0:
348,197,220255,1,0,3:0:0:0:
496,82,220427,2,0,P|441:84|378:90,1,90,0|8,0:0|0:0,0:0:0:0:
195,0,220772,2,0,P|205:45|212:98,1,90,2|2,3:0|0:0,0:0:0:0:
216,178,221117,1,2,3:0:0:0:
294,4,221289,1,0,0:0:0:0:
111,85,221462,2,0,P|100:158|84:276,1,180,8|0,0:0|0:0,0:0:0:0:
146,326,221979,1,0,0:0:0:0:
146,326,222151,6,0,P|221:318|232:317,1,72,4|0,1:0|0:0,0:0:0:0:
288,372,222496,1,2,3:0:0:0:
288,372,222669,1,0,0:0:0:0:
428,230,222841,2,0,P|392:225|356:222,1,72,8|0,0:0|3:0,0:0:0:0:
292,274,223186,1,0,0:0:0:0:
292,274,223358,1,8,0:0:0:0:
158,119,223531,2,0,P|233:127|244:128,1,72,2|2,3:0|0:0,0:0:0:0:
229,126,223875,6,0,L|221:50,1,72,2|0,3:0|0:0,0:0:0:0:
312,80,224221,1,2,0:0:0:0:
312,80,224393,1,0,0:0:0:0:
223,39,224565,1,0,0:0:0:0:
223,39,224738,1,0,0:0:0:0:
396,20,224910,6,0,P|408:104|416:169,1,144,2|2,0:0|0:0,0:0:0:0:
356,222,225427,1,2,0:0:0:0:
356,222,225600,1,8,0:0:0:0:
512,307,226117,1,8,0:0:0:0:
512,307,226634,6,0,L|385:299,1,114.750002188683,2|0,0:0|0:0,0:0:0:0:
389,290,226979,2,0,L|401:369,1,76.5000014591217,2|0,0:0|0:0,0:0:0:0:
484,215,227324,2,0,L|486:188,1,27,2|0,0:0|0:0,0:0:0:0:
494,171,227664,6,2,P|395:201|264:81,1,261.000007965088,6|2,1:2|0:3,0:0:0:0:
267,30,228181,1,0,0:0:0:0:
209,192,228353,2,0,P|162:222|106:227,1,103.500001974106,10|0,0:2|0:0,0:0:0:0:
115,228,228698,1,2,3:0:0:0:
131,133,228871,1,8,0:0:0:0:
272,357,229043,2,0,P|276:303|282:244,2,103.500001974106,2|0|0,0:0|0:0|0:0,0:0:0:0:
363,312,229560,1,2,0:0:0:0:
185,339,229733,2,0,P|129:346|67:353,1,103.500001974106,8|2,0:0|0:3,0:0:0:0:
299,245,230078,1,2,0:0:0:0:
299,245,230250,1,2,0:3:0:0:
66,199,230422,6,0,P|178:235|213:123,1,261.000007965088,4|2,1:2|0:3,0:0:0:0:
172,40,230940,1,2,0:0:0:0:
0,115,231112,2,0,P|46:109|108:97,1,103.500001974106,8|0,0:0|0:0,0:0:0:0:
41,20,231457,1,2,0:3:0:0:
139,173,231629,1,8,0:0:0:0:
302,0,231802,2,0,P|296:52|289:122,1,103.500001974106,2|0,0:0|0:0,0:0:0:0:
70,229,232147,2,0,P|164:195|228:249,1,155.250002961159,2|0,0:0|0:0,0:0:0:0:
212,231,232491,2,0,P|205:282|197:341,1,103.500001974106,8|2,0:0|0:3,0:0:0:0:
308,263,232836,1,2,0:0:0:0:
308,263,233009,1,2,0:3:0:0:
33,375,233181,6,0,P|172:362|301:350,1,261.000007965088,4|2,1:0|3:0,0:0:0:0:
370,384,233698,1,2,0:0:0:0:
472,219,233871,2,0,P|431:139|321:155,1,207.000003948212,8|2,0:0|3:0,0:0:0:0:
438,101,234388,1,10,0:0:0:0:
383,219,234561,2,0,P|389:258|401:335,1,103.500001974106
295,86,234905,1,2,0:0:0:0:
243,172,235078,2,0,P|149:157|30:151,1,207.000003948212,2|2,0:0|3:0,0:0:0:0:
164,117,235595,2,0,P|154:63|147:14,1,103.500001974106,2|2,0:0|0:3,0:0:0:0:
156,314,235940,6,0,P|41:288|100:241,1,261.000007965088,4|2,1:0|3:0,0:0:0:0:
96,241,236457,1,0,0:0:0:0:
326,327,236629,1,8,0:0:0:0:
229,367,236802,1,0,0:0:0:0:
229,367,236974,1,2,0:0:0:0:
235,173,237147,2,0,P|240:227|246:298,2,103.500001974106,8|0|2,0:0|0:0|3:0,0:0:0:0:
305,103,237664,1,2,0:0:0:0:
305,103,238009,2,0,P|299:47|294:-16,1,103.500001974106,10|0,0:0|0:0,0:0:0:0:
416,117,238353,2,0,P|415:131|414:148,1,27,2|0,3:0|0:0,0:0:0:0:
411,164,238698,6,2,P|274:149|142:135,1,261.000007965088,6|2,1:2|0:3,0:0:0:0:
151,135,239216,1,0,0:0:0:0:
313,127,239388,2,0,P|368:123|421:116,1,103.500001974106,10|0,0:2|0:0,0:0:0:0:
240,229,239733,1,2,3:0:0:0:
213,53,239905,1,8,0:0:0:0:
243,242,240078,2,0,P|250:293|257:354,1,103.500001974106,2|0,0:0|0:0,0:0:0:0:
256,344,240422,1,0,0:0:0:0:
349,260,240595,1,2,0:0:0:0:
124,300,240767,2,0,P|132:221|143:113,1,155.250002961159,8|0,0:0|0:0,0:0:0:0:
127,135,241112,2,0,P|69:143|16:154,1,103.500001974106,2|2,0:0|0:3,0:0:0:0:
356,102,241457,6,0,P|254:136|265:20,1,261.000007965088,4|2,1:2|0:3,0:0:0:0:
260,22,241974,1,2,0:0:0:0:
410,185,242147,2,0,P|465:175|526:169,1,103.500001974106,8|0,0:0|0:0,0:0:0:0:
352,3,242491,1,2,0:3:0:0:
292,226,242664,2,0,P|237:216|176:210,2,103.500001974106,8|2|0,0:0|0:0|0:0,0:0:0:0:
512,289,243181,2,0,P|428:298|383:358,1,155.250002961159,2|0,0:0|0:0,0:0:0:0:
383,362,243526,2,0,P|377:288|373:242,1,103.500001974106,8|2,0:0|0:3,0:0:0:0:
291,318,243871,1,2,0:0:0:0:
291,318,244043,1,2,0:3:0:0:
471,384,244216,6,0,P|482:229|490:96,1,261.000007965088,4|2,1:0|3:0,0:0:0:0:
488,123,244733,1,2,0:0:0:0:
291,145,244905,2,0,P|334:141|401:133,1,103.500001974106,8|0,0:0|0:0,0:0:0:0:
339,52,245250,1,2,3:0:0:0:
247,227,245422,2,0,P|204:223|137:215,2,103.500001974106,10|0|0,0:0|0:0|0:0,0:0:0:0:
205,134,245940,1,2,0:0:0:0:
286,304,246112,2,0,P|388:291|491:278,1,207.000003948212,2|2,0:0|3:0,0:0:0:0:
492,279,246629,1,2,0:0:0:0:
426,205,246802,1,2,0:3:0:0:
424,373,246974,6,0,P|242:359|146:349,1,261.000007965088,4|2,1:0|3:0,0:0:0:0:
163,351,247491,1,0,0:0:0:0:
205,154,247664,2,0,P|218:98|233:47,1,103.500001974106,8|0,0:0|0:0,0:0:0:0:
164,339,248009,1,2,0:3:0:0:
121,119,248181,1,8,0:0:0:0:
237,244,248353,2,0,B|88:252|179:186|16:201,1,207.000003948212,2|2,0:0|0:0,0:0:0:0:
0,271,248871,2,0,P|12:358|81:300,1,207.000003948212,2|2,0:0|3:0,0:0:0:0:
36,123,249388,1,2,0:0:0:0:
36,123,249560,1,2,0:3:0:0:
164,339,249733,5,0,1:0:0:0:
164,339,250078,1,2,0:0:0:0:
239,246,250423,1,0,3:0:0:0:
239,246,250595,1,0,0:0:0:0:
239,246,250940,1,0,0:0:0:0:
239,246,251113,1,0,3:0:0:0:
239,246,251285,1,0,0:0:0:0:
239,246,251458,1,0,3:0:0:0:
342,321,251802,1,2,0:0:0:0:
342,321,251975,1,0,0:0:0:0:
303,87,252492,5,0,1:0:0:0:
303,87,252664,1,0,0:0:0:0:
303,87,252837,1,2,0:0:0:0:
367,169,253182,1,0,3:0:0:0:
367,169,253354,1,0,0:0:0:0:
174,84,253699,1,0,0:0:0:0:
174,84,253871,2,0,P|149:49|218:56,1,144,0|0,3:0|3:0,0:0:0:0:
174,84,254388,2,0,P|41:103|14:110,1,144
23,203,254905,1,0,0:0:0:0:
23,203,255078,1,0,0:0:0:0:
29,28,255250,5,0,1:0:0:0:
29,28,255595,1,2,0:0:0:0:
138,246,255940,1,0,3:0:0:0:
138,246,256112,1,0,0:0:0:0:
138,246,256457,1,0,0:0:0:0:
138,246,256629,1,0,3:0:0:0:
138,246,256802,1,0,0:0:0:0:
138,246,256974,1,0,3:0:0:0:
69,315,257319,1,2,0:0:0:0:
69,315,257491,1,0,0:0:0:0:
69,315,258009,5,0,1:0:0:0:
69,315,258353,1,0,3:0:0:0:
69,315,258698,1,8,0:0:0:0:
148,368,258871,1,8,0:0:0:0:
226,312,259043,1,8,0:0:0:0:
310,366,259216,1,8,0:0:0:0:
