osu file format v14

[General]
AudioFilename: audio.mp3
AudioLeadIn: 0
PreviewTime: 204902
Countdown: 0
SampleSet: Soft
StackLeniency: 0.4
Mode: 0
LetterboxInBreaks: 0
WidescreenStoryboard: 0

[Editor]
Bookmarks: 108507
DistanceSpacing: 3.7
BeatDivisor: 6
GridSize: 4
TimelineZoom: 2.6

[Metadata]
Title:Kings Never Die ft. Gwen Stefani
TitleUnicode:Kings Never Die ft. Gwen Stefani
Artist:Eminem
ArtistUnicode:Eminem
Creator:Nokie-
Version:Normal
Source:Southpaw
Tags:Southpaw Slim Shady Rap Hip Hop
BeatmapID:1419528
BeatmapSetID:667802

[Difficulty]
HPDrainRate:3
CircleSize:3
OverallDifficulty:3
ApproachRate:4
SliderMultiplier:0.8
SliderTickRate:1

[Events]
//Background and Video events
0,0,"NfL7tcM.jpg",0,0
//Break Periods
2,178701,184648
2,256302,270782
//Storyboard Layer 0 (Background)
//Storyboard Layer 1 (Fail)
//Storyboard Layer 2 (Pass)
//Storyboard Layer 3 (Foreground)
//Storyboard Layer 4 (Overlay)
//Storyboard Sound Samples

[TimingPoints]
65,800,4,2,0,50,1,0
865,-66.6666666666667,4,2,0,50,0,0
12902,800,4,2,0,50,1,0
12902,-66.6666666666667,4,2,0,50,0,0
24902,-66.6666666666667,4,2,1,50,0,0
25702,-66.6666666666667,4,2,0,50,0,0
28902,-66.6666666666667,4,2,1,50,0,0
32102,-66.6666666666667,4,2,0,50,0,0
38502,-66.6666666666667,4,2,1,60,0,0
46235,-66.6666666666667,4,1,1,60,0,0
46768,-66.6666666666667,4,2,1,60,0,0
47302,-66.6666666666667,4,2,1,60,0,0
51302,-66.6666666666667,4,2,0,70,0,0
52102,-66.6666666666667,4,3,1,90,0,0
52902,-66.6666666666667,4,2,1,70,0,0
53702,-66.6666666666667,4,3,1,90,0,0
54235,-66.6666666666667,4,2,1,70,0,0
54502,-66.6666666666667,4,2,1,70,0,0
55302,-66.6666666666667,4,3,1,90,0,0
56102,-66.6666666666667,4,2,1,70,0,0
56902,-66.6666666666667,4,3,1,90,0,0
57168,-66.6666666666667,4,2,1,70,0,0
57702,-66.6666666666667,4,2,1,70,0,0
58502,-66.6666666666667,4,3,1,90,0,0
59302,-66.6666666666667,4,2,1,70,0,0
60102,-66.6666666666667,4,3,1,90,0,0
60368,-66.6666666666667,4,2,1,70,0,0
60902,-66.6666666666667,4,2,1,70,0,0
61702,-66.6666666666667,4,3,1,90,0,0
62502,-66.6666666666667,4,2,1,70,0,0
63302,-66.6666666666667,4,3,1,90,0,0
63568,-66.6666666666667,4,2,1,70,0,0
63835,-66.6666666666667,4,3,1,90,0,0
64102,-66.6666666666667,4,2,0,70,0,0
65702,-66.6666666666667,4,2,1,70,0,0
66502,-66.6666666666667,4,3,1,90,0,0
67035,-66.6666666666667,4,2,1,70,0,0
67302,-66.6666666666667,4,2,1,70,0,0
68102,-66.6666666666667,4,3,1,90,0,0
68368,-66.6666666666667,4,2,1,90,0,0
68902,-66.6666666666667,4,2,1,70,0,0
69702,-66.6666666666667,4,3,1,90,0,0
69968,-66.6666666666667,4,2,1,90,0,0
70502,-66.6666666666667,4,2,1,70,0,0
71302,-66.6666666666667,4,3,1,90,0,0
71568,-66.6666666666667,4,2,1,90,0,0
71835,-66.6666666666667,4,2,1,90,0,0
72102,-66.6666666666667,4,2,1,70,0,0
72902,-66.6666666666667,4,3,1,90,0,0
73168,-66.6666666666667,4,2,1,90,0,0
74502,-66.6666666666667,4,3,1,90,0,0
75302,-66.6666666666667,4,2,1,90,0,0
76102,-66.6666666666667,4,3,1,90,0,0
76902,-66.6666666666667,4,2,0,70,0,0
77168,-66.6666666666667,4,2,1,70,0,0
77702,-66.6666666666667,4,3,1,90,0,0
77968,-66.6666666666667,4,2,1,70,0,0
79302,-66.6666666666667,4,3,1,90,0,0
79835,-66.6666666666667,4,2,1,90,0,0
80102,-66.6666666666667,4,2,1,70,0,0
80902,-66.6666666666667,4,3,1,90,0,0
81168,-66.6666666666667,4,2,1,70,0,0
82502,-66.6666666666667,4,3,1,90,0,0
82768,-66.6666666666667,4,2,1,90,0,0
83302,-66.6666666666667,4,2,1,70,0,0
84102,-66.6666666666667,4,3,1,90,0,0
84368,-66.6666666666667,4,2,1,90,0,0
84902,-66.6666666666667,4,2,1,70,0,0
85702,-66.6666666666667,4,3,1,90,0,0
85968,-66.6666666666667,4,2,1,90,0,0
86502,-66.6666666666667,4,2,1,70,0,0
87302,-66.6666666666667,4,3,1,90,0,0
88102,-66.6666666666667,4,2,1,70,0,0
88902,-66.6666666666667,4,3,1,90,0,0
89168,-66.6666666666667,4,2,1,70,0,0
89435,-66.6666666666667,4,3,1,90,0,0
89702,-66.6666666666667,4,2,0,70,0,0
94502,-66.6666666666667,4,2,0,70,0,0
100902,-66.6666666666667,4,2,1,70,0,0
102502,-66.6666666666667,4,2,0,70,0,0
103302,-66.6666666666667,4,3,1,90,0,0
104102,-66.6666666666667,4,2,1,70,0,0
104902,-66.6666666666667,4,3,1,90,0,0
105435,-66.6666666666667,4,2,1,70,0,0
105702,-66.6666666666667,4,2,1,70,0,0
106502,-66.6666666666667,4,3,1,90,0,0
106635,-66.6666666666667,4,2,1,70,0,0
107302,-66.6666666666667,4,2,1,70,0,0
108102,-66.6666666666667,4,3,1,90,0,0
108368,-66.6666666666667,4,2,1,70,0,0
108902,-66.6666666666667,4,2,1,70,0,0
109702,-66.6666666666667,4,3,1,90,0,0
109968,-66.6666666666667,4,2,1,90,0,0
110502,-66.6666666666667,4,2,1,70,0,0
111302,-66.6666666666667,4,3,1,90,0,0
111568,-66.6666666666667,4,2,1,70,0,0
112902,-66.6666666666667,4,3,1,90,0,0
113168,-66.6666666666667,4,2,1,90,0,0
113702,-66.6666666666667,4,2,1,70,0,0
114502,-66.6666666666667,4,3,1,90,0,0
114768,-66.6666666666667,4,2,1,70,0,0
115035,-66.6666666666667,4,3,1,90,0,0
115302,-66.6666666666667,4,2,0,70,0,0
115568,-66.6666666666667,4,2,1,70,0,0
116102,-66.6666666666667,4,3,1,90,0,0
116902,-66.6666666666667,4,2,1,70,0,0
117702,-66.6666666666667,4,3,1,90,0,0
118235,-66.6666666666667,4,2,1,70,0,0
119302,-66.6666666666667,4,3,1,90,0,0
119568,-66.6666666666667,4,2,1,90,0,0
120102,-66.6666666666667,4,2,1,70,0,0
120902,-66.6666666666667,4,3,1,90,0,0
121168,-66.6666666666667,4,2,1,90,0,0
121702,-66.6666666666667,4,2,1,70,0,0
122502,-66.6666666666667,4,3,1,90,0,0
122768,-66.6666666666667,4,2,1,90,0,0
123035,-66.6666666666667,4,2,1,90,0,0
123302,-66.6666666666667,4,2,1,70,0,0
124102,-66.6666666666667,4,3,1,90,0,0
124368,-66.6666666666667,4,2,1,90,0,0
125702,-66.6666666666667,4,3,1,90,0,0
125968,-66.6666666666667,4,2,1,90,0,0
126502,-66.6666666666667,4,2,1,70,0,0
127302,-66.6666666666667,4,3,1,90,0,0
127568,-66.6666666666667,4,2,1,90,0,0
127835,-66.6666666666667,4,3,1,90,0,0
128102,-66.6666666666667,4,2,0,70,0,0
128368,-66.6666666666667,4,2,1,70,0,0
128902,-66.6666666666667,4,3,1,90,0,0
129168,-66.6666666666667,4,2,1,70,0,0
129702,-66.6666666666667,4,2,1,70,0,0
130502,-66.6666666666667,4,3,1,90,0,0
131035,-66.6666666666667,4,2,1,90,0,0
131302,-66.6666666666667,4,2,1,70,0,0
132102,-66.6666666666667,4,3,1,90,0,0
132368,-66.6666666666667,4,2,1,70,0,0
132902,-66.6666666666667,4,2,1,70,0,0
133702,-66.6666666666667,4,3,1,90,0,0
133968,-66.6666666666667,4,2,1,90,0,0
134502,-66.6666666666667,4,2,1,70,0,0
135302,-66.6666666666667,4,3,1,90,0,0
135568,-66.6666666666667,4,2,1,90,0,0
136102,-66.6666666666667,4,2,1,70,0,0
136902,-66.6666666666667,4,3,1,90,0,0
137168,-66.6666666666667,4,2,1,90,0,0
137702,-66.6666666666667,4,2,1,70,0,0
138502,-66.6666666666667,4,3,1,90,0,0
138768,-66.6666666666667,4,2,1,90,0,0
139302,-66.6666666666667,4,2,1,70,0,0
140102,-66.6666666666667,4,3,1,90,0,0
140368,-66.6666666666667,4,2,1,70,0,0
140635,-66.6666666666667,4,3,1,90,0,0
140902,-66.6666666666667,4,2,0,70,0,1
141702,-66.6666666666667,4,3,1,90,0,1
141968,-66.6666666666667,4,2,1,70,0,1
142502,-66.6666666666667,4,2,1,70,0,1
143302,-66.6666666666667,4,3,1,90,0,1
143835,-66.6666666666667,4,2,1,70,0,1
144102,-66.6666666666667,4,2,1,70,0,1
144902,-66.6666666666667,4,3,1,90,0,1
145168,-66.6666666666667,4,2,1,70,0,1
146502,-66.6666666666667,4,3,1,90,0,1
146768,-66.6666666666667,4,2,1,90,0,1
147302,-66.6666666666667,4,2,1,70,0,1
148102,-66.6666666666667,4,3,1,90,0,1
148902,-66.6666666666667,4,2,1,70,0,1
149702,-66.6666666666667,4,3,1,90,0,1
149968,-66.6666666666667,4,2,1,90,0,1
150502,-66.6666666666667,4,2,1,70,0,1
151302,-66.6666666666667,4,3,1,90,0,1
151568,-66.6666666666667,4,2,1,70,0,1
152102,-66.6666666666667,4,2,1,70,0,1
152902,-66.6666666666667,4,3,1,90,0,1
153702,-66.6666666666667,4,2,0,70,0,1
153968,-66.6666666666667,4,2,1,70,0,1
154502,-66.6666666666667,4,3,1,90,0,1
154768,-66.6666666666667,4,2,1,90,0,1
155302,-66.6666666666667,4,2,1,70,0,1
156102,-66.6666666666667,4,3,1,90,0,1
156635,-66.6666666666667,4,2,1,70,0,1
156902,-66.6666666666667,4,2,1,70,0,1
157702,-66.6666666666667,4,3,1,90,0,1
158235,-66.6666666666667,4,2,1,90,0,1
158502,-66.6666666666667,4,2,1,70,0,1
159302,-66.6666666666667,4,3,1,90,0,1
159568,-66.6666666666667,4,2,1,70,0,1
160102,-66.6666666666667,4,2,1,70,0,1
160902,-66.6666666666667,4,3,1,90,0,1
161435,-66.6666666666667,4,2,1,90,0,1
161702,-66.6666666666667,4,2,1,70,0,1
162502,-66.6666666666667,4,3,1,90,0,1
162768,-66.6666666666667,4,2,1,70,0,1
163302,-66.6666666666667,4,2,1,70,0,1
164102,-66.6666666666667,4,3,1,90,0,1
164368,-66.6666666666667,4,2,1,90,0,1
164902,-66.6666666666667,4,2,1,70,0,1
165702,-66.6666666666667,4,3,1,90,0,1
165968,-66.6666666666667,4,2,1,70,0,1
166235,-66.6666666666667,4,3,1,90,0,1
166502,-66.6666666666667,4,2,0,70,0,1
167302,-66.6666666666667,4,2,0,70,0,0
179302,-66.6666666666667,4,2,0,70,0,0
185702,-66.6666666666667,4,2,0,50,0,0
188902,-66.6666666666667,4,2,1,60,0,0
189702,-66.6666666666667,4,3,1,90,0,0
189968,-66.6666666666667,4,2,1,90,0,0
190502,-66.6666666666667,4,2,1,70,0,0
191302,-66.6666666666667,4,3,1,90,0,0
191568,-66.6666666666667,4,2,1,90,0,0
191835,-66.6666666666667,4,2,1,70,0,0
192102,-66.6666666666667,4,2,0,70,0,0
192368,-66.6666666666667,4,2,1,70,0,0
192902,-66.6666666666667,4,3,1,90,0,0
193168,-66.6666666666667,4,2,1,90,0,0
193702,-66.6666666666667,4,2,1,70,0,0
194502,-66.6666666666667,4,3,1,90,0,0
195302,-66.6666666666667,4,2,1,70,0,0
196102,-66.6666666666667,4,3,1,90,0,0
196902,-66.6666666666667,4,2,1,70,0,0
197702,-66.6666666666667,4,3,1,90,0,0
197968,-66.6666666666667,4,2,1,70,0,0
198502,-66.6666666666667,4,2,1,70,0,0
199302,-66.6666666666667,4,3,1,90,0,0
199568,-66.6666666666667,4,2,1,90,0,0
200102,-66.6666666666667,4,2,1,70,0,0
200902,-66.6666666666667,4,3,1,90,0,0
201168,-66.6666666666667,4,2,1,70,0,0
201435,-66.6666666666667,4,2,1,90,0,0
201702,-66.6666666666667,4,2,1,70,0,0
201702,-66.6666666666667,4,2,1,70,0,0
202502,-66.6666666666667,4,3,1,90,0,0
202768,-66.6666666666667,4,2,1,90,0,0
203302,-66.6666666666667,4,2,1,70,0,0
204102,-66.6666666666667,4,3,1,90,0,0
204368,-66.6666666666667,4,2,1,90,0,0
204902,-66.6666666666667,4,2,0,70,0,1
205168,-66.6666666666667,4,2,1,70,0,1
205702,-66.6666666666667,4,3,1,90,0,1
206502,-66.6666666666667,4,2,1,70,0,1
207302,-66.6666666666667,4,3,1,90,0,1
207835,-66.6666666666667,4,2,1,90,0,1
208102,-66.6666666666667,4,2,1,70,0,1
208902,-66.6666666666667,4,3,1,90,0,1
209168,-66.6666666666667,4,2,1,90,0,1
209702,-66.6666666666667,4,2,1,70,0,1
210502,-66.6666666666667,4,3,1,90,0,1
210768,-66.6666666666667,4,2,1,90,0,1
211302,-66.6666666666667,4,2,1,70,0,1
212102,-66.6666666666667,4,3,1,90,0,1
212368,-66.6666666666667,4,2,1,90,0,1
212902,-66.6666666666667,4,2,1,70,0,1
213702,-66.6666666666667,4,3,1,90,0,1
214502,-66.6666666666667,4,2,1,70,0,1
215302,-66.6666666666667,4,3,1,90,0,1
215568,-66.6666666666667,4,2,1,90,0,1
216102,-66.6666666666667,4,2,1,70,0,1
216902,-66.6666666666667,4,3,1,90,0,1
217702,-66.6666666666667,4,2,0,70,0,0
217968,-66.6666666666667,4,2,1,70,0,0
218502,-66.6666666666667,4,3,1,90,0,0
218768,-66.6666666666667,4,2,1,90,0,0
219302,-66.6666666666667,4,2,1,70,0,0
220102,-66.6666666666667,4,3,1,90,0,0
220635,-66.6666666666667,4,2,1,70,0,0
220902,-66.6666666666667,4,2,1,70,0,0
221702,-66.6666666666667,4,3,1,90,0,0
221968,-66.6666666666667,4,2,1,90,0,0
222502,-66.6666666666667,4,2,1,70,0,0
223302,-66.6666666666667,4,3,1,90,0,0
223568,-66.6666666666667,4,2,1,90,0,0
224102,-66.6666666666667,4,2,1,70,0,0
224902,-66.6666666666667,4,3,1,90,0,0
225435,-66.6666666666667,4,2,1,90,0,0
225702,-66.6666666666667,4,2,1,70,0,0
226502,-66.6666666666667,4,3,1,90,0,0
226768,-66.6666666666667,4,2,1,90,0,0
227302,-66.6666666666667,4,2,1,70,0,0
228102,-66.6666666666667,4,3,1,90,0,0
228635,-66.6666666666667,4,2,1,90,0,0
228902,-66.6666666666667,4,2,1,70,0,0
229702,-66.6666666666667,4,3,1,90,0,0
229968,-66.6666666666667,4,2,1,90,0,0
230235,-66.6666666666667,4,3,1,90,0,0
230502,-66.6666666666667,4,2,1,70,0,0
231302,-66.6666666666667,4,3,1,90,0,0
231568,-66.6666666666667,4,2,1,90,0,0
232102,-66.6666666666667,4,2,1,70,0,0
232902,-66.6666666666667,4,3,1,90,0,0
233435,-66.6666666666667,4,2,1,90,0,0
233702,-66.6666666666667,4,2,1,70,0,0
234502,-66.6666666666667,4,3,1,90,0,0
234768,-66.6666666666667,4,2,1,90,0,0
235302,-66.6666666666667,4,2,1,70,0,0
236102,-66.6666666666667,4,3,1,90,0,0
236368,-66.6666666666667,4,2,1,90,0,0
236902,-66.6666666666667,4,2,1,70,0,0
237702,-66.6666666666667,4,3,1,90,0,0
237968,-66.6666666666667,4,2,1,90,0,0
238502,-66.6666666666667,4,2,1,70,0,0
239302,-66.6666666666667,4,3,1,90,0,0
239568,-66.6666666666667,4,2,1,90,0,0
240102,-66.6666666666667,4,2,1,70,0,0
240902,-66.6666666666667,4,3,1,90,0,0
241168,-66.6666666666667,4,2,1,90,0,0
241702,-66.6666666666667,4,2,1,70,0,0
242502,-66.6666666666667,4,3,1,90,0,0
242768,-66.6666666666667,4,2,1,90,0,0
243035,-66.6666666666667,4,3,1,90,0,0
243302,-66.6666666666667,4,2,1,70,0,0
244102,-66.6666666666667,4,3,1,90,0,0
244368,-66.6666666666667,4,2,1,90,0,0
244902,-66.6666666666667,4,2,1,70,0,0
245702,-66.6666666666667,4,3,1,90,0,0
246235,-66.6666666666667,4,2,1,70,0,0
246502,-66.6666666666667,4,2,1,70,0,0
247302,-66.6666666666667,4,3,1,90,0,0
247568,-66.6666666666667,4,2,1,90,0,0
248102,-66.6666666666667,4,2,1,70,0,0
248902,-66.6666666666667,4,3,1,90,0,0
249168,-66.6666666666667,4,2,1,90,0,0
249702,-66.6666666666667,4,2,1,70,0,0
250502,-66.6666666666667,4,2,0,70,0,0
251302,-66.6666666666667,4,2,1,70,0,0
252102,-66.6666666666667,4,3,1,90,0,0
252902,-66.6666666666667,4,2,1,70,0,0
253702,-66.6666666666667,4,3,1,90,0,0
254502,-66.6666666666667,4,2,1,70,0,0
255302,-66.6666666666667,4,3,1,90,0,0
256102,-66.6666666666667,4,2,1,70,0,0
256902,-66.6666666666667,4,2,0,70,0,0
272102,-66.6666666666667,4,2,1,70,0,0
277665,800,4,2,0,70,1,0
277665,-66.6666666666667,4,2,1,70,0,0
287865,-66.6666666666667,4,2,0,5,0,0

[HitObjects]
96,192,865,6,0,P|172:252|284:188,1,240
268,60,3265,6,0,P|221:95|292:336,1,360.000013732911
380,352,6465,6,0,B|416:292|377:227|377:227|440:211|469:157,1,240
364,98,8865,5,0,0:0:0:0:
244,24,9665,2,0,B|218:85|250:132|250:132|278:183|278:183|275:205|294:252|294:252|201:234|184:296,1,360.000013732911
260,340,12902,6,0,P|349:329|372:196,1,240
255,116,15302,1,0,0:0:0:0:
137,199,16102,6,0,P|142:311|250:340,1,240
256,85,19302,6,0,L|256:329,1,240
256,192,21702,12,0,24102,0:0:0:0:
106,156,25702,6,0,B|184:180|184:120|280:160,1,160,2|0,0:0|0:0,0:0:0:0:
466,189,27835,6,0,P|465:241|452:266,1,80,2|0,0:0|0:0,0:0:0:0:
376,289,28635,1,0,0:0:0:0:
296,300,28902,2,0,B|224:269|220:325|137:296,1,160,2|0,0:0|0:0,0:0:0:0:
192,108,31035,6,0,L|172:186,1,80,2|0,0:0|0:0,0:0:0:0:
190,263,31835,1,0,0:0:0:0:
248,209,32102,2,0,L|268:124,2,80,2|0|0,0:0|0:0|0:0,0:0:0:0:
266,286,33435,1,2,0:0:0:0:
324,233,33702,2,0,L|345:145,2,80
448,340,35302,1,0,0:0:0:0:
433,131,36368,6,0,P|401:81|280:188,1,280
300,260,38502,2,0,L|284:312,1,40,10|0,0:0|0:0,0:0:0:0:
142,370,39302,5,8,0:0:0:0:
114,293,39568,1,8,0:0:0:0:
85,218,39835,2,0,L|56:136,1,80.0000030517579,2|0,0:0|0:0,0:0:0:0:
237,182,40902,5,8,0:0:0:0:
307,142,41168,1,8,0:0:0:0:
379,104,41435,2,0,L|460:64,1,80.0000030517579,2|0,0:0|0:0,0:0:0:0:
399,221,42502,5,8,0:0:0:0:
354,287,42768,1,8,0:0:0:0:
276,308,43035,2,0,P|253:308|200:276,1,80.0000030517579,2|0,0:0|0:0,0:0:0:0:
300,149,44102,5,8,0:0:0:0:
223,126,44368,1,8,0:0:0:0:
150,159,44635,2,0,P|136:168|108:224,1,80.0000030517579,2|0,0:0|0:0,0:0:0:0:
284,72,45702,5,8,0:0:0:0:
361,91,45968,1,8,0:0:0:0:
429,132,46235,2,0,L|480:204,1,80,2|0,0:0|0:0,0:0:0:0:
367,319,47302,5,8,0:0:0:0:
286,311,47568,1,8,0:0:0:0:
205,300,47835,2,0,L|123:290,1,80,2|0,0:0|0:0,0:0:0:0:
235,227,48635,6,0,L|321:237,1,80,0|8,0:0|0:0,0:0:0:0:
391,213,49435,1,0,0:0:0:0:
462,176,49702,2,0,P|437:141|402:131,1,80,8|0,0:0|0:0,0:0:0:0:
326,157,50502,1,8,0:0:0:0:
313,235,50768,1,8,0:0:0:0:
370,291,51035,1,8,0:0:0:0:
392,214,51302,6,0,P|411:145|384:92,2,120,4|0|8,0:0|0:0|0:0,0:0:0:0:
312,221,53168,2,0,L|262:212,1,40,8|0,0:0|0:0,0:0:0:0:
227,280,53702,2,0,L|181:297,2,40,0|0|8,0:0|0:0|0:0,0:0:0:0:
193,207,54502,6,0,P|233:143|290:138,2,120,10|0|8,0:0|0:0|0:0,0:0:0:0:
198,286,56368,5,8,0:0:0:0:
261,334,56635,1,8,0:0:0:0:
338,313,56902,2,0,L|375:334,2,40,0|8|8,0:0|0:0|0:0,0:0:0:0:
282,255,57702,6,0,L|381:182,2,120,10|0|8,0:0|0:0|0:0,0:0:0:0:
204,273,59568,2,0,L|154:264,1,40,8|0,0:0|0:0,0:0:0:0:
119,332,60102,2,0,L|73:349,2,40,0|8|8,0:0|0:0|0:0,0:0:0:0:
87,258,60902,6,0,P|117:203|179:189,2,120,10|0|8,0:0|0:0|0:0,0:0:0:0:
117,331,62768,1,8,0:0:0:0:
166,268,63035,1,8,0:0:0:0:
237,232,63302,2,0,L|249:279,2,40,0|8|0,0:0|0:0|0:0,0:0:0:0:
234,152,64102,6,0,P|289:170|309:194,2,80.0000030517579,4|0|0,0:0|0:0|0:0,0:0:0:0:
164,192,65435,1,0,0:0:0:0:
84,200,65702,2,0,L|52:232,2,40.000001525879,8|8|8,0:0|0:0|0:0,0:0:0:0:
133,263,66502,2,0,L|123:309,1,40.000001525879
197,343,67035,5,8,0:0:0:0:
272,315,67302,2,0,P|242:275|201:262,2,80.0000030517579,10|0|8,0:0|0:0|0:0,0:0:0:0:
197,343,68635,1,0,0:0:0:0:
139,286,68902,2,0,L|137:246,1,40.000001525879,10|8,0:0|0:0,0:0:0:0:
162,172,69435,5,8,0:0:0:0:
231,133,69702,1,0,0:0:0:0:
299,174,69968,1,8,0:0:0:0:
317,251,70235,2,0,L|324:310,2,60.0000022888185,8|10|0,0:0|0:0|0:0,0:0:0:0:
299,174,71302,6,0,L|281:133,1,40.000001525879
203,144,71835,2,0,L|191:82,2,60.0000022888185,8|10|0,0:0|0:0|0:0,0:0:0:0:
175,219,72902,5,0,0:0:0:0:
96,234,73168,1,8,0:0:0:0:
27,192,73435,2,0,L|8:133,2,60.0000022888185,8|10|0,0:0|0:0|0:0,0:0:0:0:
22,272,74502,6,0,P|67:312|140:306,3,120.000004577637,0|8|2|4,0:0|0:0|0:0|0:0,0:0:0:0:
95,237,77168,6,0,L|76:201,2,40,8|10|0,0:0|0:0|0:0,0:0:0:0:
162,194,77968,1,8,0:0:0:0:
113,130,78235,2,0,L|121:86,2,40,0|10|8,0:0|0:0|0:0,0:0:0:0:
194,122,79035,5,8,0:0:0:0:
187,42,79302,2,0,P|206:26|229:19,1,40,2|0,0:0|0:0,0:0:0:0:
297,39,79835,2,0,P|317:40|345:51,1,40,8|2,0:0|0:0,0:0:0:0:
380,112,80368,2,0,P|397:123|416:144,2,40,8|8|2,0:0|0:0|0:0,0:0:0:0:
300,116,81168,2,0,P|282:126|266:142,1,40.000001525879,2|0,0:0|0:0,0:0:0:0:
190,184,81968,6,0,L|143:189,2,40,10|10|0,0:0|0:0|0:0,0:0:0:0:
269,176,82768,1,10,0:0:0:0:
348,168,83035,2,0,L|398:163,2,40,10|2|8,0:0|0:0|0:0,0:0:0:0:
269,176,83835,1,8,0:0:0:0:
236,249,84102,2,0,P|231:277|232:296,1,40,2|8,0:0|0:0,0:0:0:0:
264,360,84635,5,0,0:0:0:0:
347,363,84902,1,8,0:0:0:0:
391,296,85168,1,8,0:0:0:0:
391,215,85435,2,0,L|382:164,2,40.000001525879,10|2|0,0:0|0:0|0:0,0:0:0:0:
302,81,86502,6,0,B|264:132|306:148|261:205,2,120,2|0|8,0:0|0:0|0:0,0:0:0:0:
165,278,88902,6,0,L|123:272,2,40,0|8|0,0:0|0:0|0:0,0:0:0:0:
244,286,89702,6,0,P|333:275|356:142,1,240
239,62,92102,1,0,0:0:0:0:
121,145,92902,6,0,P|126:257|234:286,1,240
423,89,96102,6,0,B|355:192|435:224|360:317,1,240.000009155274
256,192,99035,12,4,102502,0:0:0:0:
302,146,103302,5,0,0:0:0:0:
62,151,104102,6,0,L|34:118,2,40,10|8|8,0:0|0:0|0:0,0:0:0:0:
115,210,104902,2,0,L|103:251,1,40,2|0,0:0|0:0,0:0:0:0:
74,322,105435,2,0,L|31:322,2,40,8|10|0,0:0|0:0|0:0,0:0:0:0:
234,322,106502,6,0,L|325:322,1,80.0000030517579
396,323,107302,2,0,L|440:323,1,40,10|8,0:0|0:0,0:0:0:0:
462,247,107835,1,8,0:0:0:0:
381,247,108102,1,2,0:0:0:0:
301,247,108368,2,0,L|256:248,1,40,10|8,0:0|0:0,0:0:0:0:
180,247,108902,6,0,L|136:247,1,40,2|0,0:0|0:0,0:0:0:0:
59,247,109435,2,0,L|7:247,2,40,2|0|0,0:0|0:0|0:0,0:0:0:0:
65,166,110235,6,0,L|120:169,1,40.000001525879,0|8,0:0|0:0,0:0:0:0:
184,155,110768,1,8,0:0:0:0:
163,72,111035,2,0,L|130:42,2,40,10|0|8,0:0|0:0|0:0,0:0:0:0:
241,93,111835,5,8,0:0:0:0:
265,172,112102,1,8,0:0:0:0:
296,248,112368,2,0,L|314:288,1,40.000001525879,10|0,0:0|0:0,0:0:0:0:
357,351,112902,2,0,P|371:343|388:310,1,40.000001525879,2|0,0:0|0:0,0:0:0:0:
398,244,113435,6,0,L|406:205,2,40.000001525879,2|8|8,0:0|0:0|0:0,0:0:0:0:
326,196,114235,2,0,L|307:147,2,40.000001525879,10|0|8,0:0|0:0|0:0,0:0:0:0:
246,206,115035,2,0,L|214:171,1,40.000001525879,2|4,0:0|0:0,0:0:0:0:
154,130,115568,1,8,0:0:0:0:
75,116,115835,2,0,L|26:125,1,40.000001525879,10|0,0:0|0:0,0:0:0:0:
98,276,116902,6,0,L|115:318,1,40,10|8,0:0|0:0,0:0:0:0:
175,362,117435,1,8,0:0:0:0:
252,343,117702,2,0,L|299:325,2,40,2|0|8,0:0|0:0|0:0,0:0:0:0:
193,288,118502,2,0,L|218:201,1,80,10|0,0:0|0:0,0:0:0:0:
258,143,119302,5,0,0:0:0:0:
295,213,119568,2,0,L|307:262,2,40,2|0|8,0:0|0:0|0:0,0:0:0:0:
374,220,120368,2,0,L|412:254,2,40,10|8|0,0:0|0:0|0:0,0:0:0:0:
338,148,121168,1,8,0:0:0:0:
369,74,121435,1,8,0:0:0:0:
448,69,121702,2,0,L|487:95,1,40,10|0,0:0|0:0,0:0:0:0:
472,251,122502,6,0,L|453:288,1,40,2|0,0:0|0:0,0:0:0:0:
376,268,123035,2,0,L|399:223,1,40,2|8,0:0|0:0,0:0:0:0:
388,152,123568,1,8,0:0:0:0:
320,112,123835,1,8,0:0:0:0:
244,144,124102,2,0,L|216:188,1,40,2|0,0:0|0:0,0:0:0:0:
168,236,124635,5,8,0:0:0:0:
88,248,124902,2,0,P|66:240|44:224,1,40,10|0,0:0|0:0,0:0:0:0:
52,148,125435,2,0,L|81:106,2,40,2|0|0,0:0|0:0|0:0,0:0:0:0:
52,228,126235,2,0,L|52:275,1,40,2|8,0:0|0:0,0:0:0:0:
100,332,126768,2,0,L|144:356,2,40,10|8|0,0:0|0:0|0:0,0:0:0:0:
128,256,127568,1,8,0:0:0:0:
196,216,127835,1,0,0:0:0:0:
276,213,128102,6,0,P|314:220|352:239,1,80,4|8,0:0|0:0,0:0:0:0:
472,341,129168,5,0,0:0:0:0:
392,352,129435,2,0,L|345:373,2,40.000001525879,2|8|8,0:0|0:0|0:0,0:0:0:0:
340,290,130235,2,0,L|295:278,2,40.000001525879,10|0|0,0:0|0:0|0:0,0:0:0:0:
396,232,131035,1,8,0:0:0:0:
474,246,131302,1,10,0:0:0:0:
488,168,131568,6,0,L|474:127,1,40,10|0,0:0|0:0,0:0:0:0:
442,56,132102,1,0,0:0:0:0:
367,27,132368,1,0,0:0:0:0:
290,49,132635,1,0,0:0:0:0:
248,117,132902,2,0,L|243:166,2,40,10|8|8,0:0|0:0|0:0,0:0:0:0:
211,45,133702,2,0,L|181:15,1,40,2|8,0:0|0:0,0:0:0:0:
102,23,134235,5,8,0:0:0:0:
38,71,134502,2,0,L|35:123,1,40,10|0,0:0|0:0,0:0:0:0:
42,190,135035,1,0,0:0:0:0:
57,268,135302,2,0,L|88:308,2,40,2|0|0,0:0|0:0|0:0,0:0:0:0:
118,216,136102,2,0,B|159:201|159:232|208:216,1,80,10|0,0:0|0:0,0:0:0:0:
276,219,136902,6,0,L|324:220,1,40,0|8,0:0|0:0,0:0:0:0:
396,221,137435,1,8,0:0:0:0:
458,270,137702,1,8,0:0:0:0:
468,349,137968,2,0,L|436:382,1,40,10|2,0:0|0:0,0:0:0:0:
391,314,138502,2,0,L|343:332,2,40,2|0|0,0:0|0:0|0:0,0:0:0:0:
458,270,139302,5,8,0:0:0:0:
389,229,139568,2,0,L|346:245,1,40,10|8,0:0|0:0,0:0:0:0:
279,279,140102,2,0,L|241:296,1,40,2|0,0:0|0:0,0:0:0:0:
173,335,140635,1,0,0:0:0:0:
92,329,140902,2,0,P|49:307|51:235,1,120.000004577637,4|0,0:0|0:0,0:0:0:0:
73,167,141968,5,0,0:0:0:0:
128,108,142235,2,0,L|180:34,2,80,2|8|0,0:0|0:0|0:0,0:0:0:0:
168,182,143568,2,0,L|206:211,1,40,0|8,0:0|0:0,0:0:0:0:
279,199,144102,2,0,L|321:227,1,40,10|8,0:0|0:0,0:0:0:0:
336,297,144635,2,0,P|375:273|391:235,2,80,2|0|8,0:0|0:0|0:0,0:0:0:0:
253,311,145968,1,10,0:0:0:0:
173,304,146235,6,0,L|127:292,2,40,8|0|8,0:0|0:0|0:0,0:0:0:0:
220,240,147035,2,0,L|205:149,2,80,10|0|0,0:0|0:0|0:0,0:0:0:0:
250,314,148368,2,0,L|333:341,2,80,2|8|8,0:0|0:0|0:0,0:0:0:0:
172,299,149702,1,0,0:0:0:0:
117,357,149968,2,0,P|100:336|97:274,2,80,10|8|8,0:0|0:0|0:0,0:0:0:0:
195,340,151302,6,0,L|221:302,1,40,2|0,0:0|0:0,0:0:0:0:
226,227,151835,1,0,0:0:0:0:
269,159,152102,2,0,P|340:108|405:179,1,200,8|0,0:0|0:0,0:0:0:0:
341,319,153968,5,8,0:0:0:0:
273,361,154235,1,8,0:0:0:0:
198,332,154502,1,0,0:0:0:0:
186,252,154768,2,0,L|180:209,2,40,2|0|8,0:0|0:0|0:0,0:0:0:0:
262,224,155568,2,0,L|300:192,1,40,10|8,0:0|0:0,0:0:0:0:
311,119,156102,2,0,L|311:69,2,40,2|0|0,0:0|0:0|0:0,0:0:0:0:
367,175,156902,5,10,0:0:0:0:
371,254,157168,2,0,P|360:294|327:331,3,80,10|0|0|8,0:0|0:0|0:0|0:0,0:0:0:0:
257,338,159035,1,8,0:0:0:0:
177,329,159302,2,0,P|157:327|131:314,1,40,2|0,0:0|0:0,0:0:0:0:
71,275,159835,5,8,0:0:0:0:
63,195,160102,1,8,0:0:0:0:
104,127,160368,2,0,P|141:107|190:99,3,80,10|0|0|8,0:0|0:0|0:0|0:0,0:0:0:0:
260,107,162235,1,8,0:0:0:0:
328,149,162502,6,0,L|351:189,2,40,2|8|8,0:0|0:0|0:0,0:0:0:0:
331,68,163302,2,0,P|387:70|431:124,1,120,10|0,0:0|0:0,0:0:0:0:
428,194,164368,2,0,L|412:279,1,80,2|8,0:0|0:0,0:0:0:0:
332,280,165168,2,0,L|349:191,1,80,10|0,0:0|0:0,0:0:0:0:
330,124,165968,1,8,0:0:0:0:
274,65,166235,1,0,0:0:0:0:
195,51,166502,1,4,0:0:0:0:
126,92,166768,1,0,0:0:0:0:
61,234,167302,6,0,P|102:324|238:305,1,240.000009155274
426,197,169702,6,0,P|275:123|157:243,1,360
291,232,172902,6,0,P|309:159|195:54,1,240
86,91,175302,5,0,0:0:0:0:
76,218,176102,2,0,B|74:265|120:293|120:293|184:293|184:293|231:262|231:262|285:262|285:262|336:295|318:341,1,360.000013732911
60,96,185968,5,0,0:0:0:0:
226,74,186768,1,0,0:0:0:0:
166,232,187568,2,0,L|186:322,1,80.0000030517579
258,355,188368,2,0,L|267:264,1,80.0000030517579,0|8,0:0|0:0,0:0:0:0:
345,271,189168,5,8,0:0:0:0:
364,348,189435,1,8,0:0:0:0:
422,292,189702,2,0,L|439:253,1,40.000001525879,2|0,0:0|0:0,0:0:0:0:
441,175,190235,2,0,L|435:83,1,80,2|8,0:0|0:0,0:0:0:0:
354,109,191035,2,0,L|346:159,2,40,2|0|10,0:0|0:0|0:0,0:0:0:0:
316,38,191835,5,8,0:0:0:0:
242,7,192102,1,4,0:0:0:0:
163,23,192368,1,8,0:0:0:0:
108,81,192635,2,0,L|68:54,2,40,10|0|2,0:0|0:0|0:0,0:0:0:0:
168,134,193435,5,0,0:0:0:0:
90,155,193702,2,0,L|40:168,1,40,10|8,0:0|0:0,0:0:0:0:
25,240,194235,2,0,L|25:290,2,40,10|0|2,0:0|0:0|0:0,0:0:0:0:
183,258,195302,5,10,0:0:0:0:
354,303,196102,1,2,0:0:0:0:
311,110,196902,2,0,P|268:130|242:162,2,80,10|8|8,0:0|0:0|0:0,0:0:0:0:
105,233,198768,6,0,L|78:202,2,40,2|0|2,0:0|0:0|0:0,0:0:0:0:
156,171,199568,2,0,L|169:124,2,40,2|0|10,0:0|0:0|0:0,0:0:0:0:
236,170,200368,2,0,L|276:156,2,40,10|8|2,0:0|0:0|0:0,0:0:0:0:
195,239,201168,5,10,0:0:0:0:
202,318,201435,2,0,L|232:344,1,40,10|8,0:0|0:0,0:0:0:0:
312,351,201968,1,2,0:0:0:0:
275,279,202235,2,0,L|304:238,1,40,2|0,0:0|0:0,0:0:0:0:
327,172,202768,5,2,0:0:0:0:
299,96,203035,1,2,0:0:0:0:
221,75,203302,1,10,0:0:0:0:
141,80,203568,6,0,P|108:93|76:138,1,80,10|8,0:0|0:0,0:0:0:0:
48,200,204368,1,10,0:0:0:0:
60,279,204635,1,10,0:0:0:0:
126,324,204902,1,4,0:0:0:0:
205,318,205168,5,0,0:0:0:0:
261,261,205435,1,0,0:0:0:0:
253,181,205702,2,0,L|233:91,1,80,2|0,0:0|0:0,0:0:0:0:
364,39,206768,5,8,0:0:0:0:
381,117,207035,1,8,0:0:0:0:
358,193,207302,2,0,L|331:236,2,40,2|0|10,0:0|0:0|0:0,0:0:0:0:
436,176,208102,5,10,0:0:0:0:
491,233,208368,1,8,0:0:0:0:
478,312,208635,1,8,0:0:0:0:
405,345,208902,2,0,L|353:321,1,40,2|0,0:0|0:0,0:0:0:0:
288,328,209435,2,0,L|277:282,1,40,2|0,0:0|0:0,0:0:0:0:
270,209,209968,5,8,0:0:0:0:
276,129,210235,1,8,0:0:0:0:
238,58,210502,2,0,L|208:16,1,40,2|8,0:0|0:0,0:0:0:0:
134,16,211035,1,8,0:0:0:0:
14,122,211568,6,0,L|-2:177,2,40,2|0|0,0:0|0:0|0:0,0:0:0:0:
83,162,212368,2,0,L|89:215,2,40,2|0|8,0:0|0:0|0:0,0:0:0:0:
152,122,213168,2,0,L|173:164,2,40,10|8|0,0:0|0:0|0:0,0:0:0:0:
80,86,213968,5,8,0:0:0:0:
17,136,214235,1,8,0:0:0:0:
17,215,214502,2,0,P|35:252|85:271,1,80,2|0,0:0|0:0,0:0:0:0:
148,288,215302,1,0,0:0:0:0:
228,277,215568,5,0,0:0:0:0:
303,250,215835,1,0,0:0:0:0:
356,190,216102,2,0,B|389:137|336:133|380:61,1,120,10|0,0:0|0:0,0:0:0:0:
450,214,217435,6,0,P|432:254|391:283,1,80,2|8,0:0|0:0,0:0:0:0:
325,289,218235,1,8,0:0:0:0:
248,265,218502,1,0,0:0:0:0:
185,214,218768,2,0,P|160:200|138:193,1,40,2|0,0:0|0:0,0:0:0:0:
82,239,219302,2,0,P|61:249|39:272,1,40,10|8,0:0|0:0,0:0:0:0:
48,340,219835,5,8,0:0:0:0:
122,312,220102,1,0,0:0:0:0:
164,243,220368,1,0,0:0:0:0:
165,162,220635,1,8,0:0:0:0:
116,98,220902,2,0,P|100:85|73:73,1,40,10|0,0:0|0:0,0:0:0:0:
9,218,221702,5,0,0:0:0:0:
89,220,221968,1,0,0:0:0:0:
169,222,222235,2,0,B|207:232|207:207|258:227,1,80,2|8,0:0|0:0,0:0:0:0:
311,271,223035,5,8,0:0:0:0:
334,347,223302,1,0,0:0:0:0:
255,328,223568,1,8,0:0:0:0:
237,249,223835,2,0,L|257:201,1,40,10|8,0:0|0:0,0:0:0:0:
332,212,224368,2,0,L|324:165,1,40,2|0,0:0|0:0,0:0:0:0:
402,150,224902,6,0,P|379:112|338:91,1,80,2|0,0:0|0:0,0:0:0:0:
271,112,225702,2,0,B|230:131|257:152|208:172,1,80,10|8,0:0|0:0,0:0:0:0:
137,178,226502,1,0,0:0:0:0:
81,120,226768,2,0,P|117:96|163:101,1,80,10|8,0:0|0:0,0:0:0:0:
216,145,227568,2,0,B|249:174|225:188|259:222,1,80,2|0,0:0|0:0,0:0:0:0:
369,323,228635,5,0,0:0:0:0:
408,253,228902,2,0,L|447:212,2,40,2|0|2,0:0|0:0|0:0,0:0:0:0:
327,255,229702,1,0,0:0:0:0:
361,182,229968,2,0,L|357:132,1,40,10|0,0:0|0:0,0:0:0:0:
308,80,230502,5,4,0:0:0:0:
228,68,230768,2,0,L|176:56,2,40,10|8|0,0:0|0:0|0:0,0:0:0:0:
256,144,231568,1,0,0:0:0:0:
176,140,231835,2,0,L|120:124,1,40,2|8,0:0|0:0,0:0:0:0:
60,152,232368,1,8,0:0:0:0:
24,224,232635,2,0,L|16:268,2,40,10|0|2,0:0|0:0|0:0,0:0:0:0:
104,216,233435,5,0,0:0:0:0:
180,236,233702,2,0,L|234:250,1,40.000001525879,10|8,0:0|0:0,0:0:0:0:
296,264,234235,1,0,0:0:0:0:
372,288,234502,2,0,L|424:300,1,40,2|0,0:0|0:0,0:0:0:0:
480,152,235302,5,8,0:0:0:0:
428,92,235568,1,8,0:0:0:0:
360,52,235835,2,0,P|336:44|308:44,1,40,10|0,0:0|0:0,0:0:0:0:
244,56,236368,5,8,0:0:0:0:
180,104,236635,1,8,0:0:0:0:
152,180,236902,2,0,L|136:232,1,40,10|0,0:0|0:0,0:0:0:0:
152,296,237435,1,0,0:0:0:0:
216,248,237702,2,0,L|232:196,2,40
244,324,238502,1,8,0:0:0:0:
300,264,238768,1,8,0:0:0:0:
284,104,239302,6,0,P|304:96|332:96,1,40,2|8,0:0|0:0,0:0:0:0:
396,124,239835,1,8,0:0:0:0:
436,196,240102,1,8,0:0:0:0:
436,276,240368,2,0,L|432:324,1,40,2|0,0:0|0:0,0:0:0:0:
384,380,240902,5,0,0:0:0:0:
352,308,241168,2,0,L|356:256,1,40
328,192,241702,1,8,0:0:0:0:
268,136,241968,1,8,0:0:0:0:
188,126,242235,1,8,0:0:0:0:
119,167,242502,1,0,0:0:0:0:
84,238,242768,1,8,0:0:0:0:
79,317,243035,2,0,P|89:348|102:361,1,40.000001525879,2|0,0:0|0:0,0:0:0:0:
239,321,243835,5,2,0:0:0:0:
313,290,244102,1,0,0:0:0:0:
384,255,244368,1,2,0:0:0:0:
456,216,244635,5,2,0:0:0:0:
389,171,244902,1,8,0:0:0:0:
318,133,245168,1,10,0:0:0:0:
248,92,245435,2,0,L|208:68,1,40,10|0,0:0|0:0,0:0:0:0:
160,132,245968,2,0,L|208:160,1,40,2|0,0:0|0:0,0:0:0:0:
164,228,246502,6,0,L|128:208,1,40,10|8,0:0|0:0,0:0:0:0:
76,148,247035,1,2,0:0:0:0:
96,72,247302,1,0,0:0:0:0:
172,48,247568,1,2,0:0:0:0:
236,96,247835,1,2,0:0:0:0:
260,172,248102,1,8,0:0:0:0:
280,248,248368,1,10,0:0:0:0:
344,296,248635,2,0,L|400:300,1,40,10|0,0:0|0:0,0:0:0:0:
460,268,249168,5,10,0:0:0:0:
484,192,249435,1,10,0:0:0:0:
476,112,249702,2,0,P|456:76|368:64,1,120,0|4,0:0|0:0,0:0:0:0:
256,192,250635,12,0,256102,0:0:0:0:
292,200,272102,6,0,L|168:212,1,120,8|0,0:0|0:0,0:0:0:0:
40,116,273702,2,0,L|0:120,2,40,10|0|0,0:0|0:0|0:0,0:0:0:0:
112,80,274502,2,0,L|164:72,2,40,10|0|0,0:0|0:0|0:0,0:0:0:0:
44,36,275302,1,8,0:0:0:0:
176,236,276102,5,8,0:0:0:0:
364,88,276902,2,0,L|352:136,1,40,10|0,0:0|0:0,0:0:0:0:
244,240,277665,2,0,L|233:278,2,40,10|0|0,0:0|0:0|0:0,0:0:0:0:
296,180,278465,1,8,0:0:0:0:
96,312,279265,5,8,0:0:0:0:
324,232,280065,2,0,L|376:232,2,40,10|0|0,0:0|0:0|0:0,0:0:0:0:
260,280,280865,2,0,L|220:280,2,40,10|0|0,0:0|0:0|0:0,0:0:0:0:
332,312,281665,1,8,0:0:0:0:
220,100,282465,5,8,0:0:0:0:
96,308,283265,6,0,P|216:304|256:240,1,200,10|0,0:0|0:0,0:0:0:0:
256,192,284865,12,0,288198,0:0:0:0:
