osu file format v14

[General]
AudioFilename: audio.mp3
AudioLeadIn: 0
PreviewTime: 204907
Countdown: 0
SampleSet: Soft
StackLeniency: 0.4
Mode: 0
LetterboxInBreaks: 0
WidescreenStoryboard: 0

[Editor]
Bookmarks: 46502,86502,117702,165702,184902,204902,216902,227302,248102,270502
DistanceSpacing: 1.2
BeatDivisor: 4
GridSize: 4
TimelineZoom: 0.6

[Metadata]
Title:Kings Never Die ft. Gwen Stefani
TitleUnicode:Kings Never Die ft. Gwen Stefani
Artist:Eminem
ArtistUnicode:Eminem
Creator:Nokie-
Version:Easy
Source:Southpaw
Tags:Southpaw Slim Shady Rap Hip Hop
BeatmapID:1412976
BeatmapSetID:667802

[Difficulty]
HPDrainRate:1
CircleSize:2
OverallDifficulty:1
ApproachRate:2
SliderMultiplier:1
SliderTickRate:1

[Events]
//Background and Video events
0,0,"NfL7tcM.jpg",0,0
//Break Periods
2,166690,184130
2,256290,270530
//Storyboard Layer 0 (Background)
//Storyboard Layer 1 (Fail)
//Storyboard Layer 2 (Pass)
//Storyboard Layer 3 (Foreground)
//Storyboard Layer 4 (Overlay)
//Storyboard Sound Samples

[TimingPoints]
90,800,4,2,0,50,1,0
12890,-100,4,2,0,50,0,0
24890,-100,4,2,1,50,0,0
25690,-100,4,2,0,50,0,0
28890,-100,4,2,1,50,0,0
32090,-100,4,2,0,50,0,0
38490,-100,4,2,1,60,0,0
51290,-100,4,2,0,70,0,0
52890,-100,4,2,1,70,0,0
53690,-100,4,3,1,90,0,0
54490,-100,4,2,1,70,0,0
56890,-100,4,3,1,90,0,0
57690,-100,4,2,1,70,0,0
58490,-100,4,3,1,90,0,0
59290,-100,4,2,1,70,0,0
60090,-100,4,3,1,90,0,0
60890,-100,4,2,1,70,0,0
61690,-100,4,3,1,90,0,0
62490,-100,4,2,1,70,0,0
63290,-100,4,3,1,90,0,0
64090,-100,4,2,0,70,0,0
65690,-100,4,2,1,70,0,0
66490,-100,4,3,1,90,0,0
67290,-100,4,2,1,70,0,0
68090,-100,4,3,1,90,0,0
68890,-100,4,2,1,70,0,0
69690,-100,4,3,1,90,0,0
70490,-100,4,2,1,70,0,0
71290,-100,4,3,1,90,0,0
72090,-100,4,2,1,70,0,0
76090,-100,4,3,1,90,0,0
76890,-100,4,2,1,70,0,0
79290,-100,4,3,1,90,0,0
80090,-100,4,2,1,70,0,0
82490,-100,4,3,1,90,0,0
83290,-100,4,2,1,70,0,0
84090,-100,4,3,1,90,0,0
84890,-100,4,2,1,70,0,0
85690,-100,4,3,1,90,0,0
86490,-100,4,2,1,70,0,0
87290,-100,4,3,1,90,0,0
88090,-100,4,2,1,70,0,0
89690,-100,4,2,0,70,0,0
94490,-100,4,2,0,70,0,0
100890,-100,4,2,1,70,0,0
102490,-100,4,2,0,70,0,0
103290,-100,4,3,1,90,0,0
104090,-100,4,2,1,70,0,0
104890,-100,4,3,1,90,0,0
105690,-100,4,2,1,70,0,0
106490,-100,4,2,0,70,0,0
108090,-100,4,3,1,90,0,0
108890,-100,4,2,1,70,0,0
109690,-100,4,3,1,90,0,0
110490,-100,4,2,1,70,0,0
111290,-100,4,3,1,90,0,0
112090,-100,4,2,1,70,0,0
112890,-100,4,3,1,90,0,0
113690,-100,4,2,1,70,0,0
114490,-100,4,3,1,90,0,0
115290,-100,4,2,0,70,0,0
116090,-100,4,3,1,90,0,0
116890,-100,4,2,1,70,0,0
117690,-100,4,3,1,90,0,0
118490,-100,4,2,1,70,0,0
119290,-100,4,3,1,90,0,0
120090,-100,4,2,1,70,0,0
120890,-100,4,3,1,90,0,0
121690,-100,4,2,1,70,0,0
122490,-100,4,3,1,90,0,0
123290,-100,4,2,1,70,0,0
125690,-100,4,3,1,90,0,0
126490,-100,4,2,1,70,0,0
127290,-100,4,3,1,90,0,0
128090,-100,4,2,0,70,0,0
128890,-100,4,3,1,90,0,0
129690,-100,4,2,1,70,0,0
130490,-100,4,3,1,90,0,0
131290,-100,4,2,1,70,0,0
132090,-100,4,3,1,90,0,0
132890,-100,4,2,1,70,0,0
133690,-100,4,3,1,90,0,0
134490,-100,4,2,1,70,0,0
135290,-100,4,3,1,90,0,0
136090,-100,4,2,1,70,0,0
136890,-100,4,3,1,90,0,0
137690,-100,4,2,1,70,0,0
138490,-100,4,3,1,90,0,0
139290,-100,4,2,1,70,0,0
140090,-100,4,3,1,90,0,0
140890,-100,4,2,0,70,0,1
142490,-100,4,2,1,70,0,1
143290,-100,4,2,0,70,0,1
144090,-100,4,2,1,70,0,1
146490,-100,4,3,1,90,0,1
147290,-100,4,2,1,70,0,1
148890,-100,4,2,1,70,0,1
149690,-100,4,3,1,90,0,1
150490,-100,4,2,1,70,0,1
152890,-100,4,3,1,90,0,1
153690,-100,4,2,1,70,0,1
154490,-100,4,3,1,90,0,1
155290,-100,4,2,1,70,0,1
156090,-100,4,3,1,90,0,1
156890,-100,4,2,1,70,0,1
157690,-100,4,3,1,90,0,1
158490,-100,4,2,1,70,0,1
159290,-100,4,3,1,90,0,1
160090,-100,4,2,1,70,0,1
160890,-100,4,3,1,90,0,1
161690,-100,4,2,1,70,0,1
162490,-100,4,3,1,90,0,1
163290,-100,4,2,1,70,0,1
164090,-100,4,3,1,90,0,1
164890,-100,4,2,1,70,0,1
165690,-100,4,3,1,90,0,1
166490,-100,4,2,0,70,0,1
167290,-100,4,2,0,70,0,0
179290,-100,4,2,0,70,0,0
185690,-100,4,2,0,50,0,0
188890,-100,4,2,0,60,0,0
189690,-100,4,3,1,90,0,0
190490,-100,4,2,1,60,0,0
191290,-100,4,3,1,90,0,0
192090,-100,4,2,0,70,0,0
192890,-100,4,3,1,90,0,0
193690,-100,4,2,1,70,0,0
194490,-100,4,3,1,90,0,0
195290,-100,4,2,1,70,0,0
196090,-100,4,3,1,90,0,0
196890,-100,4,2,1,70,0,0
199290,-100,4,3,1,90,0,0
200090,-100,4,2,1,70,0,0
200890,-100,4,3,1,90,0,0
201690,-100,4,2,1,70,0,0
202490,-100,4,3,1,90,0,0
203290,-100,4,2,1,70,0,0
204090,-100,4,3,1,90,0,0
204890,-100,4,2,0,70,0,1
205690,-100,4,3,1,90,0,1
206490,-100,4,2,1,70,0,1
207290,-100,4,3,1,90,0,1
208090,-100,4,2,1,70,0,1
208890,-100,4,3,1,90,0,1
209690,-100,4,2,1,70,0,1
210490,-100,4,3,1,90,0,1
211290,-100,4,2,1,70,0,1
212090,-100,4,3,1,90,0,1
212890,-100,4,2,1,70,0,1
213690,-100,4,3,1,90,0,1
214490,-100,4,2,1,70,0,1
215290,-100,4,3,1,90,0,1
216090,-100,4,2,1,70,0,1
216890,-100,4,3,1,90,0,1
217690,-100,4,2,0,70,0,0
218490,-100,4,3,1,90,0,0
219290,-100,4,2,1,70,0,0
220090,-100,4,3,1,90,0,0
220890,-100,4,2,1,70,0,0
221690,-100,4,3,1,90,0,0
222490,-100,4,2,1,70,0,0
223290,-100,4,3,1,90,0,0
224090,-100,4,2,1,70,0,0
224890,-100,4,3,1,90,0,0
225690,-100,4,2,1,70,0,0
226490,-100,4,3,1,90,0,0
227290,-100,4,2,1,70,0,0
228090,-100,4,3,1,90,0,0
228890,-100,4,2,1,70,0,0
229690,-100,4,3,1,90,0,0
230490,-100,4,2,1,70,0,0
231290,-100,4,3,1,90,0,0
232090,-100,4,2,1,70,0,0
232890,-100,4,3,1,90,0,0
233690,-100,4,2,1,70,0,0
234490,-100,4,3,1,90,0,0
235290,-100,4,2,1,70,0,0
236090,-100,4,3,1,90,0,0
236890,-100,4,2,1,70,0,0
237690,-100,4,3,1,90,0,0
238490,-100,4,2,1,70,0,0
239290,-100,4,3,1,90,0,0
240090,-100,4,2,1,70,0,0
240890,-100,4,3,1,90,0,0
241690,-100,4,2,1,70,0,0
242490,-100,4,3,1,90,0,0
243290,-100,4,2,1,70,0,0
244090,-100,4,3,1,90,0,0
244890,-100,4,2,1,70,0,0
245690,-100,4,3,1,90,0,0
246490,-100,4,2,1,70,0,0
247290,-100,4,3,1,90,0,0
248090,-100,4,2,1,70,0,0
248890,-100,4,3,1,90,0,0
249690,-100,4,2,1,70,0,0
250490,-100,4,2,0,70,0,0
251290,-100,4,2,1,70,0,0
252090,-100,4,3,1,90,0,0
252890,-100,4,2,1,70,0,0
253690,-100,4,3,1,90,0,0
254490,-100,4,2,1,70,0,0
255290,-100,4,3,1,90,0,0
256090,-100,4,2,1,70,0,0
256890,-100,4,2,0,70,0,0
272090,-100,4,2,1,70,0,0
277690,-100,4,2,1,70,0,0
287865,-100,4,2,0,5,0,0

[HitObjects]
100,165,890,6,0,P|126:259|211:307,1,200
301,307,3290,2,0,P|385:258|413:165,1,200
256,76,6490,6,0,L|255:220,2,100
256,255,9690,2,0,L|256:359,2,100
88,192,12890,6,0,P|193:192|256:80,1,200,4|0,0:0|0:0,0:0:0:0:
256,36,15290,1,0,0:0:0:0:
250,124,16090,2,0,P|316:195|413:192,1,200
348,28,19290,6,0,L|348:252,1,200
348,320,21690,1,0,0:0:0:0:
256,320,22490,2,0,L|256:112,1,200
255,29,24890,1,8,0:0:0:0:
135,22,25690,6,0,L|34:21,2,100,4|0|0,0:0|0:0|0:0,0:0:0:0:
154,140,28090,1,0,0:0:0:0:
160,259,28890,2,0,P|166:316|198:352,1,100,2|0,0:0|0:0,0:0:0:0:
312,349,30490,2,0,P|341:309|344:260,1,100,2|0,0:0|0:0,0:0:0:0:
367,141,32090,6,0,P|431:180|446:214,2,100,2|0|0,0:0|0:0|0:0,0:0:0:0:
257,190,34490,1,0,0:0:0:0:
147,141,35290,2,0,P|101:160|72:200,2,100,2|0|0,0:0|0:0|0:0,0:0:0:0:
265,123,37690,1,0,0:0:0:0:
369,181,38490,6,0,L|407:312,2,100,8|8|10,0:0|0:0|0:0,0:0:0:0:
273,108,40890,1,8,0:0:0:0:
242,223,41690,2,0,L|280:354,2,100,8|8|10,0:0|0:0|0:0,0:0:0:0:
152,143,44090,1,8,0:0:0:0:
116,257,44890,2,0,L|154:388,2,100,10|0|8,0:0|0:0|0:0,0:0:0:0:
31,171,47290,5,8,0:0:0:0:
73,58,48090,2,0,P|117:22|200:39,1,100,10|8,0:0|0:0,0:0:0:0:
264,72,49690,1,2,0:0:0:0:
300,188,50490,1,2,0:0:0:0:
392,112,51290,6,0,P|425:212|335:297,1,200,4|8,0:0|0:0,0:0:0:0:
264,328,53690,1,0,0:0:0:0:
148,292,54490,2,0,P|95:210|130:120,1,200,2|8,0:0|0:0,0:0:0:0:
240,76,56890,1,0,0:0:0:0:
304,176,57690,6,0,L|364:288,1,100,2|0,0:0|0:0,0:0:0:0:
396,376,59290,1,8,0:0:0:0:
276,364,60090,1,0,0:0:0:0:
160,340,60890,2,0,P|108:316|86:246,1,100,2|0,0:0|0:0,0:0:0:0:
102,160,62490,1,0,0:0:0:0:
180,68,63290,1,0,0:0:0:0:
305,39,64090,6,0,P|361:41|363:189,1,200,4|8,0:0|0:0,0:0:0:0:
318,250,66490,1,0,0:0:0:0:
212,307,67290,6,0,L|87:363,1,100,10|0,0:0|0:0,0:0:0:0:
17,286,68890,1,8,0:0:0:0:
15,166,69690,1,0,0:0:0:0:
108,90,70490,2,0,L|236:30,1,100,2|0,0:0|0:0,0:0:0:0:
318,58,72090,1,8,0:0:0:0:
319,177,72890,1,8,0:0:0:0:
281,290,73690,6,0,P|200:246|216:136,1,200,10|8,0:0|0:0,0:0:0:0:
297,71,76090,1,0,0:0:0:0:
400,132,76890,2,0,P|367:188|226:140,1,200,10|8,0:0|0:0,0:0:0:0:
191,70,79290,5,8,0:0:0:0:
84,14,80090,2,0,B|54:72|75:110|75:110|102:153|55:228,1,200,10|8,0:0|0:0,0:0:0:0:
36,320,82490,1,0,0:0:0:0:
151,351,83290,6,0,P|215:327|239:263,2,100,10|0|8,0:0|0:0|0:0,0:0:0:0:
51,283,85690,1,8,0:0:0:0:
138,200,86490,2,0,L|252:116,2,100,10|0|8,0:0|0:0|0:0,0:0:0:0:
431,192,89690,6,0,P|326:192|263:80,1,200,4|0,0:0|0:0,0:0:0:0:
255,35,92090,1,0,0:0:0:0:
251,124,92890,2,0,P|184:192|83:191,1,200
154,25,96090,6,0,L|154:328,1,300
243,325,99290,6,0,L|243:199,2,100,0|0|8,0:0|0:0|0:0,0:0:0:0:
332,325,101690,1,8,0:0:0:0:
374,212,102490,6,0,P|421:243|439:299,2,100,4|0|8,0:0|0:0|0:0,0:0:0:0:
255,227,104890,1,0,0:0:0:0:
137,252,105690,1,2,0:0:0:0:
84,359,106490,6,0,P|161:370|245:278,1,200,6|0,0:0|0:0,0:0:0:0:
270,173,108890,6,0,L|292:61,2,100,10|0|8,0:0|0:0|0:0,0:0:0:0:
154,173,111290,1,0,0:0:0:0:
70,87,112090,2,0,L|-23:-5,2,100,10|0|8,0:0|0:0|0:0,0:0:0:0:
111,199,114490,1,0,0:0:0:0:
39,289,115290,6,0,P|32:346|83:416,2,100,4|0|8,0:0|0:0|0:0,0:0:0:0:
119,210,117690,1,0,0:0:0:0:
211,133,118490,2,0,P|217:76|166:6,2,100,10|0|8,0:0|0:0|0:0,0:0:0:0:
119,210,120890,1,0,0:0:0:0:
4,175,121690,1,8,0:0:0:0:
86,87,122490,6,0,P|240:62|271:92,1,200,2|8,0:0|0:0,0:0:0:0:
315,188,124890,2,0,L|341:321,2,100,10|0|8,0:0|0:0|0:0,0:0:0:0:
365,79,127290,1,0,0:0:0:0:
484,67,128090,6,0,P|481:123|435:175,2,100,4|0|8,0:0|0:0|0:0,0:0:0:0:
366,44,130490,1,0,0:0:0:0:
248,19,131290,6,0,B|192:28|192:28|158:72,1,100,10|0,0:0|0:0,0:0:0:0:
111,169,132890,1,8,0:0:0:0:
127,287,133690,1,0,0:0:0:0:
234,340,134490,6,0,B|286:352|286:352|348:328,2,100,10|0|8,0:0|0:0|0:0,0:0:0:0:
277,228,136890,1,0,0:0:0:0:
393,256,137690,6,0,P|457:232|479:170,2,100,10|0|8,0:0|0:0|0:0,0:0:0:0:
326,156,140090,1,0,0:0:0:0:
424,110,140890,6,0,P|443:55|331:42,1,200,4|8,0:0|0:0,0:0:0:0:
279,138,143290,1,0,0:0:0:0:
202,46,144090,6,0,P|114:34|114:123,1,200,10|8,0:0|0:0,0:0:0:0:
213,188,146490,1,0,0:0:0:0:
115,258,147290,6,0,P|116:346|203:334,1,200,10|8,0:0|0:0,0:0:0:0:
256,225,149690,1,0,0:0:0:0:
311,332,150490,6,0,P|398:344|399:255,1,200,10|8,0:0|0:0,0:0:0:0:
295,193,152890,1,0,0:0:0:0:
175,193,153690,6,0,L|41:193,2,100,10|0|8,0:0|0:0|0:0,0:0:0:0:
274,126,156090,1,0,0:0:0:0:
359,42,156890,6,0,L|494:42,2,100,10|0|8,0:0|0:0|0:0,0:0:0:0:
239,44,159290,1,0,0:0:0:0:
119,44,160090,6,0,L|-16:44,2,100,10|0|8,0:0|0:0|0:0,0:0:0:0:
216,113,162490,5,0,0:0:0:0:
305,192,163290,2,0,L|405:192,2,100,10|0|8,0:0|0:0|0:0,0:0:0:0:
203,193,165690,1,0,0:0:0:0:
104,194,166490,1,6,0:0:0:0:
58,130,185690,6,0,P|92:90|152:74,2,100
162,188,188090,1,0,0:0:0:0:
262,149,188890,6,0,L|329:66,2,100,6|0|8,0:0|0:0|0:0,0:0:0:0:
187,243,191290,1,0,0:0:0:0:
121,343,192090,6,0,P|167:366|230:359,1,100,6|0,0:0|0:0,0:0:0:0:
303,284,193690,2,0,L|355:177,1,100,8|0,0:0|0:0,0:0:0:0:
398,85,195290,5,10,0:0:0:0:
310,3,196090,1,0,0:0:0:0:
190,15,196890,1,10,0:0:0:0:
116,100,197690,1,10,0:0:0:0:
80,214,198490,6,0,P|69:266|77:326,2,100,10|0|8,0:0|0:0|0:0,0:0:0:0:
138,109,200890,1,0,0:0:0:0:
251,69,201690,2,0,P|300:91|331:142,2,100,10|0|8,0:0|0:0|0:0,0:0:0:0:
222,186,204090,1,0,0:0:0:0:
297,255,204890,6,0,L|316:358,1,100,6|0,0:0|0:0,0:0:0:0:
387,257,206490,2,0,L|405:355,2,100,10|0|8,0:0|0:0|0:0,0:0:0:0:
351,142,208890,6,0,P|381:99|383:49,1,100,2|8,0:0|0:0,0:0:0:0:
291,64,210490,2,0,P|253:14|203:-4,1,100,2|8,0:0|0:0,0:0:0:0:
103,28,212090,5,0,0:0:0:0:
184,116,212890,1,10,0:0:0:0:
66,140,213690,1,0,0:0:0:0:
73,259,214490,6,0,P|86:319|130:359,1,100,10|8,0:0|0:0,0:0:0:0:
207,276,216090,2,0,L|319:269,1,100,2|8,0:0|0:0,0:0:0:0:
354,159,217690,6,0,L|242:167,2,100,6|0|8,0:0|0:0|0:0,0:0:0:0:
463,207,220090,1,0,0:0:0:0:
445,88,220890,6,0,B|442:37|442:37|396:3,1,100,10|0,0:0|0:0,0:0:0:0:
290,25,222490,1,8,0:0:0:0:
224,125,223290,1,0,0:0:0:0:
158,24,224090,6,0,B|116:55|116:55|102:111,2,100,10|8|8,0:0|0:0|0:0,0:0:0:0:
276,44,226490,1,0,0:0:0:0:
368,120,227290,6,0,B|382:225|382:225|328:325,1,200,2|8,0:0|0:0,0:0:0:0:
223,346,229690,1,0,0:0:0:0:
106,316,230490,6,0,P|69:285|53:228,2,100,10|0|8,0:0|0:0|0:0,0:0:0:0:
165,211,232890,1,0,0:0:0:0:
88,118,233690,1,8,0:0:0:0:
7,29,234490,1,0,0:0:0:0:
126,42,235290,2,0,P|175:59|235:43,1,100,10|0,0:0|0:0,0:0:0:0:
339,27,236890,6,0,L|339:136,1,100,10|0,0:0|0:0,0:0:0:0:
459,138,238490,2,0,L|458:249,1,100,10|0,0:0|0:0,0:0:0:0:
339,258,240090,6,0,L|339:375,2,100,10|0|8,0:0|0:0|0:0,0:0:0:0:
304,143,242490,1,0,0:0:0:0:
211,66,243290,1,10,0:0:0:0:
112,135,244090,5,0,0:0:0:0:
39,230,244890,1,10,0:0:0:0:
129,308,245690,1,0,0:0:0:0:
194,207,246490,1,10,0:0:0:0:
246,314,247290,1,0,0:0:0:0:
129,308,248090,1,10,0:0:0:0:
194,207,248890,1,0,0:0:0:0:
311,232,249690,1,10,0:0:0:0:
429,247,250490,6,0,P|439:195|326:120,1,200,4|0,0:0|0:0,0:0:0:0:
314,236,252890,6,0,P|306:289|416:363,1,200,0|8,0:0|0:0,0:0:0:0:
423,243,255290,1,0,0:0:0:0:
326,171,256090,1,4,0:0:0:0:
106,138,272090,6,0,P|67:167|40:229,1,100,10|0,0:0|0:0,0:0:0:0:
46,301,273690,1,10,0:0:0:0:
106,367,274490,1,10,0:0:0:0:
195,362,275290,6,0,P|247:337|266:286,1,100,10|0,0:0|0:0,0:0:0:0:
264,210,276890,1,10,0:0:0:0:
288,123,277690,1,10,0:0:0:0:
365,78,278490,6,0,P|409:77|448:123,1,100,10|4,0:0|0:0,0:0:0:0:
453,204,280090,1,10,0:0:0:0:
410,283,280890,1,10,0:0:0:0:
336,335,281690,6,0,P|281:325|258:283,1,100,10|12,0:0|0:0,0:0:0:0:
257,200,283290,2,0,L|256:87,1,100,10|10,0:0|0:0,0:0:0:0:
256,192,284890,12,0,288090,0:0:0:0:
