osu file format v14

[General]
AudioFilename: audio.mp3
AudioLeadIn: 0
PreviewTime: 28643
Countdown: 0
SampleSet: Soft
StackLeniency: 0.4
Mode: 0
LetterboxInBreaks: 0
SkinPreference:Default
WidescreenStoryboard: 1

[Editor]
DistanceSpacing: 0.7
BeatDivisor: 8
GridSize: 8
TimelineZoom: 1.9

[Metadata]
Title:Hero In Me
TitleUnicode:Hero In Me
Artist:Emily Osment
ArtistUnicode:Emily Osment
Creator:AJT
Version:Silverboxer's Insane
Source:Dadnapped
Tags:disney channel original movie english pop rock yokespai silverboxer
BeatmapID:2644296
BeatmapSetID:1229079

[Difficulty]
HPDrainRate:5
CircleSize:3
OverallDifficulty:8
ApproachRate:8
SliderMultiplier:1.6
SliderTickRate:1

[Events]
//Background and Video events
0,0,"bg.jpg",0,0
Video,480,"dadnapped.mp4"
//Break Periods
2,40769,42169
2,66613,67651
2,84504,88795
//Storyboard Layer 0 (Background)
//Storyboard Layer 1 (Fail)
//Storyboard Layer 2 (Pass)
//Storyboard Layer 3 (Foreground)
//Storyboard Layer 4 (Overlay)
//Storyboard Sound Samples

[TimingPoints]
-4249,361.44578313253,4,2,0,50,1,0
3702,-200,4,2,0,50,0,0
6594,-100,4,2,0,50,0,0
7316,-100,4,2,0,70,0,0
9847,-200,4,2,0,70,0,0
10208,-83.3333333333333,4,2,0,70,0,0
11654,-66.6666666666667,4,2,0,70,0,0
12618,-100,4,2,0,70,0,0
24666,-133.333333333333,4,2,0,70,0,0
27557,-100,4,2,0,70,0,0
29004,361.44578313253,4,2,0,80,1,0
29004,-100,4,2,0,80,0,1
39124,-133.333333333333,4,2,0,80,0,0
40569,-100,4,2,0,80,0,0
40931,-100,4,2,0,5,0,0
41021,-100,4,2,0,70,0,0
42919,-100,4,2,0,70,0,0
43461,361.44578313253,4,2,0,70,1,0
68401,361.44578313253,4,2,0,70,1,0
72738,361.44578313253,4,2,0,80,1,0
72738,-83.3333333333333,4,2,0,70,0,1
82858,-133.333333333333,4,2,0,70,0,0
84304,-100,4,2,0,70,0,0
101653,-83.3333333333333,4,2,0,70,0,1
111774,-83.3333333333333,4,2,0,70,0,0
113219,-83.3333333333333,4,2,0,70,0,1
123340,-83.3333333333333,4,2,0,70,0,0
124786,-76.9230769230769,4,2,0,70,0,1
134906,-133.333333333333,4,2,0,40,0,0
134952,-100,4,2,0,70,0,0
135268,-100,4,2,0,40,0,0
135313,-100,4,2,0,70,0,0
135991,-100,4,2,0,70,0,0
136714,-200,4,2,0,70,0,0
137617,-200,4,2,0,5,0,0

[Colours]
Combo1 : 255,255,0
Combo2 : 0,128,255
Combo3 : 255,0,0

[HitObjects]
113,70,1533,6,0,P|172:57|199:70,1,80,2|0,0:0|0:0,0:0:0:0:
268,116,1895,1,8,0:0:0:0:
350,70,2075,2,0,P|417:87|443:184,1,160,2|0,0:0|0:0,0:0:0:0:
448,256,2618,1,8,0:0:0:0:
448,256,2979,6,0,L|366:256,1,80,2|0,0:0|0:0,0:0:0:0:
256,256,3341,2,0,L|256:352,1,80,8|2,0:0|0:0,0:0:0:0:
252,147,3702,6,0,P|214:115|134:152,1,140
136,185,4425,5,0,0:0:0:0:
376,185,4967,1,2,0:0:0:0:
256,41,5871,5,2,0:0:0:0:
256,343,6413,1,0,0:0:0:0:
408,248,6594,6,0,L|328:248,1,80,2|8,0:0|0:0,0:0:0:0:
104,136,6955,2,0,L|184:136,1,80,2|8,0:0|0:0,0:0:0:0:
216,136,7226,1,0,0:0:0:0:
247,136,7316,6,0,L|249:48,1,80,0|0,1:0|0:0,0:0:0:0:
327,2,7678,1,2,0:0:0:0:
418,57,7859,2,0,P|436:107|421:220,1,160,2|0,1:2|0:0,0:0:0:0:
345,275,8401,1,0,0:0:0:0:
345,275,8581,1,0,0:0:0:0:
256,336,8762,6,0,P|206:329|158:342,1,80,0|0,1:0|0:0,0:0:0:0:
48,272,9124,1,2,0:0:0:0:
224,208,9304,1,0,1:0:0:0:
86,52,9847,6,2,L|86:112,1,60,0|0,0:0|0:0,0:0:0:0:
85,144,10208,6,0,B|192:159|165:88|291:108,1,191.999994140625,2|2,0:3|0:0,0:0:0:0:
364,178,10750,1,2,0:3:0:0:
286,259,10931,2,0,P|279:310|292:358,1,95.9999970703126,2|2,0:0|0:0,0:0:0:0:
447,351,11292,2,0,P|457:304|450:257,1,95.9999970703126,0|2,1:0|0:0,0:0:0:0:
364,178,11654,6,0,B|299:163|262:123|262:123|234:185|178:220,1,240.000009155274,2|2,0:3|0:0,0:0:0:0:
15,113,12196,2,0,L|138:112,1,120.000004577637,2|0,0:3|0:0,0:0:0:0:
256,32,12618,6,0,L|256:3,2,26.6666666666667,0|0|0,3:0|3:0|3:0,0:0:0:0:
368,32,12919,1,0,3:0:0:0:
480,32,13100,6,0,L|480:128,1,80,0|0,1:0|0:0,0:0:0:0:
288,352,13461,1,8,0:0:0:0:
288,232,13642,1,0,1:0:0:0:
416,232,13823,2,0,P|464:224|512:224,1,80,2|0,0:0|0:0,0:0:0:0:
288,352,14184,2,0,P|248:357|208:357,1,80,8|2,0:0|0:0,0:0:0:0:
176,144,14545,6,0,P|130:91|80:144,1,160,0|8,1:0|0:0,0:0:0:0:
0,256,15088,2,0,L|89:256,1,80,0|2,1:0|0:0,0:0:0:0:
288,296,15449,1,2,0:0:0:0:
239,379,15630,1,8,0:0:0:0:
192,296,15810,1,2,0:0:0:0:
239,167,15991,6,0,P|249:102|163:45,1,160,0|8,1:0|0:0,0:0:0:0:
86,126,16533,2,0,P|130:133|169:126,1,80,2|0,1:2|0:0,0:0:0:0:
320,32,16895,1,0,0:0:0:0:
408,32,17075,1,8,0:0:0:0:
496,32,17256,1,2,0:0:0:0:
339,130,17437,6,0,P|323:194|339:290,1,160,2|8,1:2|0:0,0:0:0:0:
421,352,17979,1,0,1:0:0:0:
488,232,18160,5,2,0:0:0:0:
392,232,18341,1,2,0:0:0:0:
272,232,18521,1,8,0:0:0:0:
120,232,18702,1,2,0:0:0:0:
8,360,18883,6,0,P|40:368|88:360,1,80,0|0,1:0|0:0,0:0:0:0:
160,152,19244,2,0,P|120:144|82:152,1,80,8|0,0:0|1:0,0:0:0:0:
216,336,19606,1,2,0:0:0:0:
336,336,19786,1,0,0:0:0:0:
336,216,19967,1,8,0:0:0:0:
216,216,20148,1,2,0:0:0:0:
416,280,20329,6,0,L|496:280,1,80,0|2,1:0|0:0,0:0:0:0:
424,144,20690,2,0,L|424:64,1,80,8|0,0:0|0:0,0:0:0:0:
296,144,21051,2,0,B|216:168|216:168|136:144,1,160,2|8,0:0|0:0,0:0:0:0:
216,64,21594,1,2,0:0:0:0:
216,312,21774,5,0,1:0:0:0:
120,368,21955,1,2,0:0:0:0:
24,312,22136,2,0,P|16:264|24:216,1,80,8|0,0:0|0:0,0:0:0:0:
168,144,22497,2,0,P|170:183|163:222,1,80,2|0,0:0|0:0,0:0:0:0:
24,96,22859,1,8,0:0:0:0:
24,96,23039,1,2,0:0:0:0:
128,24,23220,6,0,B|203:23|196:87|280:80,1,160,0|8,1:0|0:0,0:0:0:0:
485,195,23762,2,0,B|410:194|417:258|333:251,1,160,0|2,1:0|0:0,0:0:0:0:
159,162,24304,1,8,0:0:0:0:
353,162,24485,1,2,0:0:0:0:
255,330,24666,6,0,P|186:330|114:332,1,120.000004577637,2|0,1:2|0:0,0:0:0:0:
345,255,25389,2,0,P|414:255|486:257,1,120.000004577637,2|0,0:0|0:0,0:0:0:0:
512,112,25931,6,0,L|432:112,1,60.0000022888184,0|0,1:0|0:0,0:0:0:0:
368,112,26292,1,0,0:0:0:0:
368,112,26473,1,2,0:0:0:0:
409,29,26654,1,0,0:0:0:0:
316,32,26835,2,0,L|240:32,1,60.0000022888184,2|0,0:0|0:0,0:0:0:0:
232,112,27196,2,0,L|162:113,1,60.0000022888184,2|0,0:0|0:0,0:0:0:0:
128,40,27557,6,0,L|128:0,3,40,0|0|0|0,3:0|3:0|3:0|3:0,0:0:0:0:
48,40,27919,2,0,L|48:0,3,40,0|0|0|0,3:0|3:0|3:0|3:0,0:0:0:0:
32,72,28280,1,0,1:0:0:0:
32,96,28371,1,0,1:0:0:0:
32,120,28461,1,0,1:0:0:0:
32,144,28551,1,0,1:0:0:0:
32,168,28642,2,0,L|32:272,1,80,0|0,1:0|1:0,1:0:0:0:
80,328,29004,5,8,1:2:0:0:
163,188,29184,1,2,0:0:0:0:
230,335,29365,1,2,0:0:0:0:
468,228,29545,2,0,B|382:198|394:281|288:241,1,160,8|2,0:0|0:0,0:0:0:0:
334,39,30087,1,8,0:0:0:0:
334,39,30268,6,0,P|376:93|338:166,1,160,0|0,1:0|0:0,0:0:0:0:
104,168,30810,1,8,0:0:0:0:
104,32,30991,1,2,0:0:0:0:
224,32,31172,2,0,P|221:112|224:192,1,160,2|2,0:0|0:3,0:0:0:0:
256,384,31895,5,2,1:2:0:0:
302,241,32075,1,0,0:0:0:0:
180,329,32256,1,8,0:0:0:0:
331,329,32437,1,2,0:0:0:0:
209,241,32618,2,0,L|122:241,1,80,2|0,0:0|0:0,0:0:0:0:
19,240,32979,1,10,0:0:0:0:
199,132,33160,6,0,B|279:120|272:198|373:185,1,160,0|0,1:0|0:0,0:0:0:0:
492,101,33702,1,8,0:0:0:0:
416,0,33883,1,0,1:0:0:0:
340,101,34063,1,0,1:0:0:0:
342,289,34244,6,0,P|332:332|347:386,2,80,2|2|2,0:3|0:3|0:3,0:0:0:0:
475,274,34786,2,0,P|482:225|472:185,1,80,4|0,0:0|0:0,0:0:0:0:
360,72,35148,5,8,0:0:0:0:
208,72,35328,1,2,0:0:0:0:
208,240,35509,2,0,L|208:336,1,80,2|0,0:0|0:0,0:0:0:0:
80,200,35871,1,8,0:0:0:0:
80,200,36051,2,0,P|56:144|96:56,1,160,0|0,1:0|0:0,0:0:0:0:
304,136,36594,5,8,0:0:0:0:
152,136,36774,1,2,0:0:0:0:
232,32,36955,2,0,B|320:0|400:72,1,160,2|2,0:0|0:3,0:0:0:0:
256,352,37678,5,8,0:0:0:0:
144,248,37859,1,0,0:0:0:0:
256,144,38039,1,0,0:0:0:0:
368,248,38220,1,8,0:0:0:0:
144,352,38401,5,2,0:3:0:0:
144,248,38581,1,2,0:3:0:0:
144,144,38762,1,2,0:3:0:0:
144,40,38943,1,0,0:0:0:0:
144,40,39033,1,0,0:0:0:0:
144,40,39124,6,0,L|208:40,1,60.0000022888184,0|2,1:0|0:0,0:0:0:0:
304,40,39485,1,2,0:0:0:0:
304,192,40208,1,0,0:0:0:0:
144,192,40569,1,0,0:0:0:0:
0,192,42919,5,8,0:0:0:0:
172,192,43100,1,8,0:0:0:0:
340,192,43280,1,8,0:0:0:0:
512,192,43461,6,0,P|467:208|452:315,1,160,0|8,1:0|0:0,0:0:0:0:
172,192,44003,2,0,P|217:208|232:315,1,160,0|2,1:0|0:0,0:0:0:0:
126,362,44545,2,0,L|126:278,1,80,8|2,0:0|0:0,0:0:0:0:
36,76,44907,6,0,P|44:121|72:162,1,80,0|0,1:0|0:0,0:0:0:0:
224,16,45268,2,0,L|139:16,1,80,8|0,0:0|1:0,0:0:0:0:
192,144,45630,2,0,L|277:144,1,80,2|0,0:0|0:0,0:0:0:0:
432,144,45991,1,8,0:0:0:0:
432,144,46353,6,0,L|304:272,1,160,0|8,1:0|0:0,0:0:0:0:
320,144,46895,2,0,L|448:272,1,160,0|2,1:0|0:0,0:0:0:0:
384,352,47437,1,8,0:0:0:0:
384,352,47618,1,2,0:0:0:0:
256,352,47798,6,0,P|252:306|256:272,1,80,0|0,1:0|0:0,0:0:0:0:
416,192,48160,2,0,P|370:196|336:192,1,80,8|0,0:0|1:0,0:0:0:0:
256,32,48521,2,0,P|276:90|220:182,1,160,2|8,0:0|0:0,0:0:0:0:
122,174,49063,1,2,3:0:0:0:
122,174,49154,1,2,3:0:0:0:
122,174,49244,6,0,L|19:174,1,80,0|0,1:0|0:0,0:0:0:0:
0,272,49606,1,8,0:0:0:0:
0,368,49786,1,0,1:0:0:0:
96,368,49967,1,2,0:0:0:0:
96,368,50148,1,0,0:0:0:0:
96,272,50328,1,8,0:0:0:0:
96,272,50509,1,2,0:0:0:0:
208,320,50690,6,0,L|300:334,1,80,0|0,1:0|0:0,0:0:0:0:
480,272,51051,2,0,L|400:259,1,80,8|0,0:0|1:0,0:0:0:0:
192,144,51413,2,0,P|254:104|320:144,1,160,2|8,0:0|0:0,0:0:0:0:
256,208,51955,5,2,0:0:0:0:
256,16,52136,1,0,1:0:0:0:
256,16,52316,1,2,0:0:0:0:
160,96,52497,2,0,L|80:96,1,80,8|0,0:0|1:0,0:0:0:0:
352,96,52859,2,0,L|432:96,1,80,2|0,0:0|0:0,0:0:0:0:
512,208,53220,1,8,0:0:0:0:
416,208,53401,1,2,0:0:0:0:
320,208,53581,5,0,1:0:0:0:
192,208,53762,1,0,1:0:0:0:
192,208,53853,1,0,1:0:0:0:
192,208,53943,1,8,1:2:0:0:
256,320,54124,1,0,1:0:0:0:
416,256,54304,5,0,1:0:0:0:
416,144,54485,1,0,1:0:0:0:
256,0,54666,1,2,0:1:0:0:
256,112,54847,1,2,0:0:0:0:
256,224,55027,6,0,B|169:236|181:185|80:208,1,160,0|8,1:0|0:0,0:0:0:0:
122,370,55569,2,0,P|137:327|127:279,1,80,0|2,1:0|0:0,0:0:0:0:
48,112,55931,1,2,0:0:0:0:
0,208,56112,1,8,0:0:0:0:
48,304,56292,1,0,3:0:0:0:
224,352,56473,6,0,L|304:352,1,80,0|0,1:0|0:0,0:0:0:0:
496,256,56834,1,8,0:0:0:0:
496,256,57015,2,0,L|320:256,1,160,0|2,1:0|0:0,0:0:0:0:
208,192,57557,2,0,P|201:149|208:112,1,80,8|2,0:0|0:0,0:0:0:0:
336,0,57919,6,0,L|336:160,1,160,0|8,1:0|0:0,0:0:0:0:
176,160,58461,2,0,L|176:0,1,160,0|2,1:0|0:0,0:0:0:0:
64,96,59003,1,8,0:0:0:0:
64,96,59365,6,0,P|32:160|64:240,1,160,0|8,1:0|0:0,0:0:0:0:
176,384,59907,2,0,P|208:320|176:240,1,160,0|2,1:0|0:0,0:0:0:0:
30,312,60449,2,0,L|126:312,1,80,8|0,0:0|3:0,0:0:0:0:
336,368,60810,6,0,L|416:368,1,80,0|0,1:0|0:0,0:0:0:0:
512,256,61172,1,8,0:0:0:0:
416,176,61353,1,0,1:0:0:0:
320,256,61533,2,0,P|272:266|236:256,1,80,2|0,0:0|0:0,0:0:0:0:
192,128,61895,2,0,P|231:120|269:131,1,80,8|2,0:0|0:0,0:0:0:0:
416,176,62256,6,0,B|416:336,1,160,0|8,1:0|0:0,0:0:0:0:
177,257,62798,2,0,P|249:225|321:257,1,160,0|2,1:0|0:0,0:0:0:0:
160,368,63341,1,8,0:0:0:0:
160,368,63521,1,2,0:0:0:0:
48,272,63702,6,0,L|48:192,1,80,0|0,1:0|0:0,0:0:0:0:
256,32,64063,1,8,0:0:0:0:
256,144,64244,1,0,1:0:0:0:
128,144,64425,2,0,P|112:96|128:48,1,80,2|0,0:0|0:0,0:0:0:0:
256,144,64786,2,0,P|272:192|256:240,1,80,8|2,0:0|0:0,0:0:0:0:
368,336,65148,5,0,1:0:0:0:
368,208,65328,1,4,0:3:0:0:
144,208,65509,1,4,0:3:0:0:
144,336,65690,1,4,0:3:0:0:
256,336,66051,5,4,0:3:0:0:
256,240,66232,1,4,0:3:0:0:
256,144,66413,1,4,0:3:0:0:
156,127,68401,6,0,P|202:118|236:127,1,80,2|0,1:2|0:0,0:0:0:0:
198,290,68762,2,0,P|189:244|198:210,1,80
448,256,69124,2,0,L|288:256,1,160,2|0,0:0|0:0,0:0:0:0:
256,64,69666,5,0,1:0:0:0:
256,64,70027,1,0,0:0:0:0:
336,192,70208,1,2,0:0:0:0:
176,192,70389,1,0,0:0:0:0:
448,192,70569,1,2,0:0:0:0:
64,192,70931,1,2,0:0:0:0:
256,192,71021,12,0,72377,1:0:0:0:
352,224,72738,5,8,1:2:0:0:
304,368,72919,1,2,0:0:0:0:
160,320,73100,1,2,0:0:0:0:
208,176,73280,2,0,B|319:141|293:217|400:176,1,191.999994140625,8|2,0:0|0:0,0:0:0:0:
480,64,73822,5,8,0:0:0:0:
480,64,74003,2,0,P|448:112|480:240,1,191.999994140625,0|0,1:0|0:0,0:0:0:0:
432,368,74545,2,0,P|384:336|320:352,1,95.9999970703126,8|2,0:0|0:0,0:0:0:0:
208,192,74907,5,2,0:0:0:0:
32,192,75087,1,2,0:3:0:0:
32,368,75268,1,2,0:3:0:0:
208,368,75449,1,2,0:3:0:0:
208,192,75630,6,0,L|208:96,1,95.9999970703126,10|0,0:0|0:0,0:0:0:0:
112,272,75991,1,2,3:2:0:0:
112,272,76172,1,2,0:0:0:0:
304,272,76353,2,0,P|384:320|464:272,1,191.999994140625,2|8,0:0|0:0,0:0:0:0:
384,128,76895,6,0,L|384:224,1,95.9999970703126,0|0,1:0|0:0,0:0:0:0:
384,16,77256,1,0,0:0:0:0:
384,16,77437,1,8,0:0:0:0:
256,128,77618,1,0,1:0:0:0:
128,16,77798,2,0,L|128:208,2,191.999994140625,0|2|4,1:0|0:3|0:0,0:0:0:0:
32,304,78883,5,8,0:0:0:0:
160,384,79063,1,2,0:0:0:0:
288,304,79244,2,0,P|256:224|160:256,1,191.999994140625,2|8,0:0|0:0,0:0:0:0:
384,368,79786,6,0,P|400:288|384:240,1,95.9999970703126,0|0,1:0|0:0,0:0:0:0:
320,80,80148,1,0,0:0:0:0:
320,80,80328,1,8,0:0:0:0:
320,224,80509,1,2,0:0:0:0:
480,224,80690,2,0,L|480:128,1,95.9999970703126,2|2,0:0|0:3,0:0:0:0:
480,0,81051,1,2,0:3:0:0:
160,112,81413,5,8,0:0:0:0:
352,112,81594,1,0,0:0:0:0:
160,112,81774,1,0,0:0:0:0:
352,112,81955,2,0,B|304:213|387:211|341:313,1,191.999994140625,8|2,0:0|0:3,0:0:0:0:
256,384,82497,5,2,0:3:0:0:
256,256,82678,1,0,3:0:0:0:
256,256,82768,1,0,3:0:0:0:
256,256,82858,1,0,3:0:0:0:
256,0,83220,5,2,0:0:0:0:
316,87,83401,2,0,L|196:87,2,120.000004577637,2|2|0,0:0|0:0|1:0,0:0:0:0:
256,0,84304,1,8,0:0:0:0:
64,192,89545,5,2,0:0:0:0:
64,192,89726,1,0,1:0:0:0:
64,192,89907,1,2,0:0:0:0:
16,320,90087,6,0,L|176:320,1,160,2|0,0:0|0:0,0:0:0:0:
496,320,90810,2,0,L|336:320,1,160,2|0,0:0|0:0,0:0:0:0:
199,178,91353,6,0,P|263:130|311:178,1,160,0|0,1:0|0:0,0:0:0:0:
255,259,91895,1,8,0:0:0:0:
112,144,92075,1,0,3:0:0:0:
256,32,92256,1,2,3:2:0:0:
400,144,92618,1,0,1:0:0:0:
256,352,92979,6,0,P|192:320|80:304,1,160,2|0,0:0|0:0,0:0:0:0:
256,32,93702,2,0,P|320:64|432:80,1,160,2|0,0:0|0:0,0:0:0:0:
512,192,94244,2,0,L|416:192,1,80,0|0,1:0|0:0,0:0:0:0:
256,192,94606,5,0,0:0:0:0:
256,192,94696,1,0,3:0:0:0:
256,192,94786,1,0,3:0:0:0:
144,288,94967,1,0,3:0:0:0:
256,368,95148,2,0,P|320:368|368:352,1,80,0|0,3:0|3:0,0:0:0:0:
256,192,95509,2,0,P|192:192|144:208,1,80,8|0,0:0|3:0,0:0:0:0:
32,304,95871,5,0,1:0:0:0:
32,304,96232,1,0,0:0:0:0:
32,304,96594,2,0,B|66:276|87:241|87:241|118:274|162:292,1,160,2|2,0:0|0:0,0:0:0:0:
364,285,97136,2,0,B|394:274|425:241|425:241|446:276|480:304,2,160,2|2|2,0:0|0:0|3:2,0:0:0:0:
256,368,98039,2,0,L|256:272,1,80,0|0,3:0|0:0,0:0:0:0:
256,144,98401,1,2,3:2:0:0:
256,144,98762,5,2,1:2:0:0:
128,144,98943,1,2,0:0:0:0:
384,144,99124,2,0,L|464:144,1,80,0|0,3:0|0:0,0:0:0:0:
256,64,99485,2,0,L|256:144,1,80,0|0,3:0|0:0,0:0:0:0:
256,368,99847,5,0,1:0:0:0:
256,368,100027,1,2,0:0:0:0:
384,352,100208,2,0,P|400:272|336:208,1,160,0|0,3:0|3:0,0:0:0:0:
158,214,100750,2,0,P|110:276|128:352,1,160,0|0,3:0|1:0,0:0:0:0:
256,320,101292,6,0,L|256:352,6,20,0|0|0|0|0|0|0,1:0|0:0|1:0|0:0|1:0|0:0|1:0,0:0:0:0:
256,288,101654,5,8,1:2:0:0:
352,112,101834,1,2,0:0:0:0:
432,288,102015,1,2,0:0:0:0:
96,176,102196,2,0,P|176:128|248:180,1,191.999994140625,8|2,0:0|0:0,0:0:0:0:
48,352,102738,1,8,0:0:0:0:
48,256,102919,6,0,L|48:64,1,191.999994140625,0|0,1:0|0:0,0:0:0:0:
144,16,103461,2,0,P|208:16|256:32,1,95.9999970703126,8|2,0:0|0:0,0:0:0:0:
480,96,103822,5,2,0:0:0:0:
480,272,104003,1,2,0:3:0:0:
320,272,104184,1,2,0:3:0:0:
320,96,104365,1,2,0:3:0:0:
400,192,104545,5,8,0:0:0:0:
400,192,104726,1,0,0:0:0:0:
256,192,104907,1,2,0:0:0:0:
128,192,105087,1,2,0:0:0:0:
128,192,105268,2,0,L|128:304,1,95.9999970703126,2|0,0:0|0:0,0:0:0:0:
256,368,105630,5,0,0:0:0:0:
256,368,105810,2,0,P|336:368|368:272,1,191.999994140625,0|0,1:0|0:0,0:0:0:0:
192,96,106353,1,8,0:0:0:0:
16,192,106533,1,0,1:0:0:0:
192,256,106714,1,2,0:3:0:0:
352,32,107075,6,0,L|352:128,1,95.9999970703126,2|2,0:3|0:3,0:0:0:0:
480,32,107437,2,0,L|480:128,1,95.9999970703126,4|0,0:0|0:0,0:0:0:0:
224,240,107798,5,8,0:0:0:0:
368,368,107979,1,2,0:0:0:0:
512,240,108160,2,0,B|417:177|417:273|321:225,1,191.999994140625,2|8,0:0|0:0,0:0:0:0:
208,96,108702,2,0,P|160:80|112:96,1,95.9999970703126,0|0,1:0|0:0,0:0:0:0:
32,192,109063,5,2,0:0:0:0:
32,192,109244,1,8,0:0:0:0:
32,352,109425,1,2,0:0:0:0:
208,352,109606,2,0,P|224:288|112:272,1,191.999994140625,2|2,0:0|0:3,0:0:0:0:
352,160,110328,5,8,0:0:0:0:
160,160,110509,1,0,0:0:0:0:
352,160,110690,1,0,0:0:0:0:
160,160,110871,2,0,P|112:80|160:0,1,191.999994140625,8|2,0:0|0:3,0:0:0:0:
256,80,111413,6,0,L|256:176,1,95.9999970703126,2|0,0:3|0:0,0:0:0:0:
352,256,111774,1,0,1:0:0:0:
160,256,111955,1,2,0:0:0:0:
160,256,112136,1,0,0:0:0:0:
256,336,112316,2,0,B|354:312|341:387|441:372,2,191.999994140625,2|2|2,0:0|0:0|3:0,0:0:0:0:
144,384,113220,5,8,1:2:0:0:
0,304,113401,1,2,0:0:0:0:
144,224,113581,1,2,0:0:0:0:
352,256,113762,2,0,P|384:208|352:80,1,191.999994140625,8|2,0:0|0:0,0:0:0:0:
256,0,114304,1,8,0:0:0:0:
64,96,114485,6,0,L|256:96,1,191.999994140625,0|0,1:0|0:0,0:0:0:0:
512,160,115027,2,0,L|416:160,1,95.9999970703126,8|2,0:0|0:0,0:0:0:0:
192,256,115389,5,2,0:0:0:0:
320,384,115569,1,2,0:3:0:0:
448,256,115750,1,2,0:3:0:0:
320,128,115931,1,2,0:3:0:0:
192,256,116112,6,0,P|176:320|192:352,1,95.9999970703126,8|2,0:0|0:3,0:0:0:0:
320,256,116473,1,2,0:3:0:0:
320,256,116654,1,2,0:0:0:0:
320,128,116834,2,0,P|272:112|96:144,1,191.999994140625,2|0,0:0|0:0,0:0:0:0:
32,224,117377,6,0,L|32:320,1,95.9999970703126,0|0,1:0|0:0,0:0:0:0:
176,384,117738,1,0,0:0:0:0:
176,240,117919,1,8,0:0:0:0:
304,304,118100,1,0,1:0:0:0:
304,304,118280,2,0,P|384:320|496:304,2,191.999994140625,0|2|4,1:0|0:3|0:0,0:0:0:0:
320,48,119365,5,8,0:0:0:0:
112,128,119545,1,2,0:0:0:0:
320,208,119726,2,0,B|221:184|240:272|144:256,1,191.999994140625,2|8,0:0|0:0,0:0:0:0:
64,48,120268,2,0,P|112:32|160:48,1,95.9999970703126,0|0,1:0|0:0,0:0:0:0:
16,176,120630,5,2,0:0:0:0:
16,176,120810,1,8,0:0:0:0:
80,320,120991,1,2,0:0:0:0:
144,176,121172,2,0,L|336:176,1,191.999994140625,2|2,0:0|0:3,0:0:0:0:
152,352,121895,5,8,0:0:0:0:
360,352,122075,1,2,0:3:0:0:
152,352,122256,1,2,0:3:0:0:
360,352,122437,2,0,P|376:288|280:224,1,191.999994140625,8|0,0:0|0:0,0:0:0:0:
256,312,122979,5,2,0:3:0:0:
264,136,123160,1,0,1:0:0:0:
264,136,123250,1,0,1:0:0:0:
264,136,123341,1,0,1:0:0:0:
432,192,124244,5,0,1:0:0:0:
256,304,124425,1,0,1:0:0:0:
80,192,124606,1,0,1:0:0:0:
256,16,124786,6,0,P|352:48|336:144,1,207.999990478516,2|0,0:1|1:0,0:0:0:0:
80,192,125328,2,0,P|112:96|208:112,1,207.999990478516,2|0,0:1|1:0,0:0:0:0:
256,368,125871,2,0,P|160:336|176:240,1,207.999990478516,2|0,0:1|1:0,0:0:0:0:
432,192,126413,2,0,P|400:288|304:272,1,207.999990478516,2|0,0:1|1:0,0:0:0:0:
304,16,126955,5,2,3:2:0:0:
208,112,127136,1,2,3:2:0:0:
304,208,127316,1,8,3:2:0:0:
208,304,127497,1,2,3:2:0:0:
304,384,127678,6,0,P|416:336|496:256,1,207.999990478516,2|0,0:1|0:0,0:0:0:0:
113,54,128220,2,0,P|99:175|128:284,1,207.999990478516,2|0,0:1|0:0,0:0:0:0:
446,137,128762,2,2,P|348:64|239:35,1,207.999990478516,0|2,0:0|3:2,0:1:0:0:
192,160,129304,5,0,3:0:0:0:
256,272,129485,1,0,3:0:0:0:
320,160,129666,1,0,3:0:0:0:
192,160,129847,2,0,B|64:136|120:240|-16:216,1,207.999990478516,2|2,3:2|3:2,3:0:0:0:
32,48,130569,5,2,3:2:0:0:
48,48,130660,1,0,3:0:0:0:
64,48,130750,1,0,3:0:0:0:
80,48,130841,1,0,3:0:0:0:
96,48,130931,2,0,L|160:48,3,51.999997619629,2|0|0|0,3:2|3:0|3:0|3:0,0:0:0:0:
192,136,131292,5,2,3:2:0:0:
176,136,131383,1,0,3:0:0:0:
160,136,131473,1,0,3:0:0:0:
144,136,131563,1,0,3:0:0:0:
128,136,131654,2,0,L|64:136,2,51.999997619629,2|0|0,3:2|3:0|1:0,0:0:0:0:
40,224,132015,5,0,3:0:0:0:
40,224,132106,1,0,3:0:0:0:
40,224,132196,1,0,3:0:0:0:
151,326,132376,1,2,1:2:0:0:
352,192,132557,1,2,3:2:0:0:
256,72,132738,1,2,1:2:0:0:
160,192,132919,1,2,3:2:0:0:
359,326,133099,1,2,1:2:0:0:
359,326,133461,6,0,L|151:326,1,207.999990478516,2|8,3:2|3:2,0:0:0:0:
0,256,134003,1,0,3:0:0:0:
160,192,134184,2,0,L|368:192,1,207.999990478516,2|8,3:2|3:2,0:0:0:0:
463,248,134726,5,0,1:0:0:0:
463,248,134816,1,0,0:0:0:0:
463,248,134907,2,0,P|483:187|462:136,2,120.000004577637,8|8|0,0:0|0:0|0:0,0:0:0:0:
304,128,135991,2,0,L|304:48,1,80,2|0,0:0|0:0,0:0:0:0:
208,48,136352,2,0,L|208:128,1,80
256,240,136714,5,0,0:0:0:0:
256,240,137120,2,0,B|301:209|331:224|347:270,1,110
