osu file format v14

[General]
AudioFilename: audio.mp3
AudioLeadIn: 0
PreviewTime: 28643
Countdown: 0
SampleSet: Soft
StackLeniency: 0.7
Mode: 0
LetterboxInBreaks: 0
SkinPreference:Default
WidescreenStoryboard: 0

[Editor]
DistanceSpacing: 1.6
BeatDivisor: 8
GridSize: 16
TimelineZoom: 2.5

[Metadata]
Title:Hero In Me
TitleUnicode:Hero In Me
Artist:Emily Osment
ArtistUnicode:Emily Osment
Creator:AJT
Version:Save The Day
Source:Dadnapped
Tags:disney channel original movie english pop rock yokespai silverboxer
BeatmapID:2555552
BeatmapSetID:1229079

[Difficulty]
HPDrainRate:5
CircleSize:5
OverallDifficulty:8
ApproachRate:8
SliderMultiplier:1.7
SliderTickRate:1

[Events]
//Background and Video events
0,0,"bg.jpg",0,0
Video,480,"dadnapped.mp4"
//Break Periods
2,41131,42169
2,84504,88795
//Storyboard Layer 0 (Background)
//Storyboard Layer 1 (Fail)
//Storyboard Layer 2 (Pass)
//Storyboard Layer 3 (Foreground)
//Storyboard Layer 4 (Overlay)
//Storyboard Sound Samples

[TimingPoints]
-4249,361.44578313253,4,2,0,50,1,0
4063,-200,4,2,0,50,0,0
7316,-100,4,2,0,70,0,0
24666,-200,4,2,0,70,0,0
26473,-100,4,2,0,70,0,0
29004,361.44578313253,4,2,0,80,1,0
29004,-83.3333333333333,4,2,0,80,0,1
40389,-200,4,2,0,80,0,1
40931,-100,4,2,0,70,0,0
41021,-100,4,2,0,70,0,0
43461,361.44578313253,4,2,0,70,1,0
68401,361.44578313253,4,2,0,70,1,0
68401,-200,4,2,0,70,0,0
70208,-100,4,2,0,70,0,0
72738,361.44578313253,4,2,0,80,1,0
72738,-83.3333333333333,4,2,0,70,0,1
81955,-57.1428571428571,4,2,0,70,0,1
84304,-100,4,2,0,70,0,0
89545,-200,4,2,0,70,0,0
96955,-133.333333333333,4,2,0,70,0,0
98943,-100,4,2,0,70,0,0
101653,-83.3333333333333,4,2,0,70,0,1
124786,-100,4,2,0,70,0,0
134907,-100,4,2,0,40,0,0
134952,-100,4,2,0,70,0,0
135268,-100,4,2,0,40,0,0
135313,-100,4,2,0,70,0,0
136714,-500,4,2,0,70,0,0

[Colours]
Combo1 : 255,255,0
Combo2 : 0,128,255
Combo3 : 255,0,0

[HitObjects]
64,64,449,5,8,0:0:0:0:
160,64,1172,1,8,0:0:0:0:
256,64,1533,5,2,0:0:0:0:
448,64,1895,1,8,0:0:0:0:
352,64,2075,1,2,0:0:0:0:
256,192,2618,5,8,0:0:0:0:
256,320,2979,5,2,0:0:0:0:
64,320,3341,1,8,0:0:0:0:
160,320,3521,1,2,0:0:0:0:
448,320,4063,6,2,L|360:320,1,85,0|0,0:0|0:0,0:0:0:0:
256,320,4967,1,2,0:0:0:0:
448,64,5871,5,2,0:0:0:0:
352,64,6232,1,0,0:0:0:0:
352,192,6594,5,2,0:0:0:0:
448,192,6774,1,8,0:0:0:0:
448,288,6955,1,2,0:0:0:0:
352,288,7136,1,8,0:0:0:0:
256,288,7316,5,0,1:0:0:0:
64,288,7679,1,2,0:0:0:0:
160,288,7859,1,2,1:2:0:0:
256,288,8763,5,0,1:0:0:0:
448,288,9124,1,2,0:0:0:0:
352,288,9305,1,0,1:0:0:0:
448,48,9847,6,2,B|448:176,1,127.5,0|0,0:0|0:0,0:0:0:0:
448,192,10209,1,2,0:3:0:0:
64,64,10570,5,2,0:0:0:0:
160,64,10750,1,2,0:3:0:0:
160,160,10932,1,2,0:0:0:0:
64,160,11112,1,2,0:0:0:0:
64,256,11293,1,0,1:0:0:0:
160,256,11474,1,2,0:0:0:0:
256,256,11654,6,0,L|352:256,1,85,2|0,0:3|0:0,0:0:0:0:
368,176,12015,1,2,0:0:0:0:
464,112,12196,2,0,L|464:208,1,85,2|0,0:3|0:0,0:0:0:0:
464,336,12618,6,0,L|464:368,2,28.3333333333333,0|0|0,3:0|3:0|3:0,0:0:0:0:
352,336,12919,1,0,3:0:0:0:
256,336,13100,6,0,L|160:336,1,85,0|0,1:0|0:0,0:0:0:0:
64,336,13461,1,8,0:0:0:0:
128,240,13641,1,0,1:0:0:0:
64,144,13823,2,0,L|64:48,1,85,2|0,0:0|0:0,0:0:0:0:
144,0,14184,1,8,0:0:0:0:
240,64,14365,1,2,0:0:0:0:
160,144,14545,6,0,L|160:229,1,85,0|0,1:0|0:0,0:0:0:0:
160,336,14907,1,8,0:0:0:0:
256,288,15087,1,0,1:0:0:0:
352,336,15268,1,2,0:0:0:0:
256,384,15448,1,2,0:0:0:0:
256,288,15630,1,8,0:0:0:0:
256,192,15810,1,2,0:0:0:0:
256,96,15991,5,0,1:0:0:0:
368,96,16172,2,0,L|453:96,2,85,2|8|0,0:0|0:0|0:0,0:0:0:0:
304,16,16714,2,0,L|219:16,1,85,2|0,0:0|0:0,0:0:0:0:
144,96,17076,2,0,L|59:96,1,85,8|2,0:0|0:0,0:0:0:0:
256,160,17437,6,0,L|256:245,2,85,0|2|8,1:0|0:0|0:0,0:0:0:0:
368,160,17979,1,0,1:0:0:0:
368,64,18159,1,2,0:0:0:0:
256,64,18341,1,2,0:0:0:0:
144,64,18521,1,8,0:0:0:0:
144,160,18703,1,2,0:0:0:0:
144,256,18883,6,0,L|144:341,1,85,0|0,1:0|0:0,0:0:0:0:
256,192,19244,1,8,0:0:0:0:
256,304,19426,1,0,1:0:0:0:
368,256,19606,2,0,L|368:341,1,85,2|0,0:0|0:0,0:0:0:0:
256,192,19967,1,8,0:0:0:0:
256,304,20149,1,2,0:0:0:0:
175,248,20329,5,0,1:0:0:0:
337,248,20510,1,2,0:0:0:0:
336,144,20690,6,0,L|336:59,1,85,8|0,0:0|0:0,0:0:0:0:
176,59,21051,2,0,L|176:144,1,85,2|0,0:0|0:0,0:0:0:0:
256,304,21413,1,8,0:0:0:0:
256,192,21594,1,2,0:0:0:0:
256,80,21774,1,0,1:0:0:0:
256,192,21955,5,2,0:0:0:0:
363,192,22136,2,0,L|448:192,1,85,8|0,0:0|0:0,0:0:0:0:
149,192,22497,2,0,L|64:192,1,85,2|0,0:0|0:0,0:0:0:0:
256,192,22859,1,8,0:0:0:0:
256,192,23039,1,2,0:0:0:0:
256,352,23220,5,0,1:0:0:0:
331,267,23400,1,2,0:0:0:0:
256,192,23581,1,8,0:0:0:0:
176,272,23762,2,0,L|91:272,1,85,0|0,1:0|0:0,0:0:0:0:
384,192,24124,5,2,0:0:0:0:
256,80,24304,1,8,0:0:0:0:
128,192,24485,1,2,0:0:0:0:
256,304,24666,6,0,L|256:219,1,85,2|0,1:2|0:0,0:0:0:0:
405,352,25389,2,0,L|320:352,1,85,2|0,0:0|0:0,0:0:0:0:
192,352,25931,2,0,L|107:352,1,85,0|0,1:0|0:0,0:0:0:0:
0,240,26473,2,0,L|0:324,1,85,2|0,0:0|0:0,0:0:0:0:
80,196,26835,2,0,L|80:112,1,85,2|0,0:0|0:0,0:0:0:0:
0,0,27196,2,0,L|0:84,1,85,2|0,0:0|0:0,0:0:0:0:
80,111,27557,5,0,3:0:0:0:
96,112,27648,1,0,3:0:0:0:
112,112,27738,1,0,3:0:0:0:
128,113,27829,1,0,3:0:0:0:
144,96,27919,5,0,3:0:0:0:
161,97,28010,1,0,3:0:0:0:
179,97,28100,1,0,3:0:0:0:
196,98,28191,1,0,3:0:0:0:
224,80,28281,5,0,1:0:0:0:
243,81,28371,1,0,1:0:0:0:
262,81,28461,1,0,1:0:0:0:
282,82,28552,1,0,1:0:0:0:
304,64,28642,5,0,1:0:0:0:
325,64,28732,1,0,1:0:0:0:
346,64,28823,1,0,1:0:0:0:
367,64,28913,1,0,1:0:0:0:
389,64,29003,5,8,1:2:0:0:
512,0,29184,1,2,0:0:0:0:
512,128,29364,1,2,0:0:0:0:
400,192,29545,2,0,L|400:294,1,101.999996887207,8|0,0:0|0:0,0:0:0:0:
288,368,29907,1,2,0:0:0:0:
176,288,30087,1,8,0:0:0:0:
64,368,30268,6,0,P|19:316|89:210,1,203.999993774414,0|0,1:0|0:0,0:0:0:0:
176,288,30810,1,8,0:0:0:0:
288,240,30990,1,2,0:0:0:0:
176,176,31172,5,2,0:0:0:0:
279,99,31352,1,2,0:3:0:0:
80,16,31533,1,2,0:3:0:0:
184,91,31714,1,2,0:3:0:0:
288,16,31895,6,0,L|400:16,2,101.999996887207,8|0|0,0:0|0:0|0:0,0:0:0:0:
336,128,32437,1,2,0:0:0:0:
429,208,32618,2,0,P|333:244|231:187,1,203.999993774414,2|0,0:0|0:0,0:0:0:0:
174,254,33160,2,0,P|156:187|265:122,1,203.999993774414,0|0,1:0|0:0,0:0:0:0:
352,192,33702,1,8,0:0:0:0:
448,128,33882,1,0,1:0:0:0:
432,256,34064,5,0,1:0:0:0:
329,333,34244,1,2,0:3:0:0:
183,333,34425,1,2,0:3:0:0:
79,258,34606,1,2,0:3:0:0:
256,192,34786,5,4,0:0:0:0:
256,192,35147,5,8,0:0:0:0:
352,304,35328,1,2,0:0:0:0:
448,192,35509,2,0,L|448:80,1,101.999996887207,2|0,0:0|0:0,0:0:0:0:
320,128,35871,1,8,0:0:0:0:
288,256,36051,2,0,L|80:256,1,203.999993774414,0|0,1:0|0:0,0:0:0:0:
16,160,36594,1,8,0:0:0:0:
24,53,36775,1,2,0:0:0:0:
128,16,36955,5,2,0:0:0:0:
240,64,37135,1,2,0:3:0:0:
352,16,37316,1,2,0:3:0:0:
464,64,37496,1,2,0:3:0:0:
352,144,37678,6,0,L|352:256,2,101.999996887207,8|0|0,0:0|0:0|0:0,0:0:0:0:
256,80,38220,1,8,0:0:0:0:
216,192,38401,1,2,0:3:0:0:
176,304,38581,1,2,0:3:0:0:
298,353,38762,2,0,L|395:385,1,101.999996887207,2|0,0:3|0:0,0:0:0:0:
512,240,39124,5,0,1:0:0:0:
512,144,39305,1,2,0:0:0:0:
416,144,39486,1,2,0:0:0:0:
416,240,39666,1,2,0:0:0:0:
256,192,40027,1,2,0:0:0:0:
256,192,40389,6,0,B|256:320,1,127.5,2|0,0:0|0:0,0:0:0:0:
512,0,42919,5,8,0:0:0:0:
512,192,43100,1,8,0:0:0:0:
512,96,43280,1,8,0:0:0:0:
512,288,43462,6,0,L|512:373,1,85,0|0,1:0|0:0,0:0:0:0:
336,384,43823,2,0,L|421:384,1,85,8|0,0:0|1:0,0:0:0:0:
384,256,44184,1,2,0:0:0:0:
446,165,44365,1,2,0:0:0:0:
378,76,44546,1,8,0:0:0:0:
273,114,44726,1,2,0:0:0:0:
275,227,44907,6,0,L|190:227,1,85,0|0,1:0|0:0,0:0:0:0:
138,384,45268,2,0,L|138:299,1,85,8|0,0:0|1:0,0:0:0:0:
0,227,45630,2,0,L|85:227,1,85,2|0,0:0|0:0,0:0:0:0:
224,176,45991,1,8,0:0:0:0:
144,112,46171,1,2,0:0:0:0:
304,112,46353,2,0,L|389:112,1,85,0|0,1:0|0:0,0:0:0:0:
416,336,46714,5,8,0:0:0:0:
452,190,46895,1,0,1:0:0:0:
337,287,47075,1,2,0:0:0:0:
487,276,47256,1,2,0:0:0:0:
359,197,47437,1,8,0:0:0:0:
416,336,47618,1,2,0:0:0:0:
256,336,47798,6,0,L|171:336,1,85,0|0,1:0|0:0,0:0:0:0:
16,336,48160,2,0,L|16:251,1,85,8|0,0:0|1:0,0:0:0:0:
80,16,48521,1,2,0:0:0:0:
16,96,48701,1,2,0:0:0:0:
80,176,48883,1,8,0:0:0:0:
144,96,49063,1,2,3:0:0:0:
144,96,49154,1,2,3:0:0:0:
144,96,49244,2,0,L|236:96,1,85,0|0,1:0|0:0,0:0:0:0:
320,32,49606,5,8,0:0:0:0:
448,32,49786,1,0,1:0:0:0:
384,128,49967,2,0,L|384:220,1,85,2|0,0:0|0:0,0:0:0:0:
448,304,50329,1,8,0:0:0:0:
320,352,50510,1,2,0:0:0:0:
192,304,50690,6,0,L|107:304,1,85,0|0,1:0|0:0,0:0:0:0:
320,208,51051,2,0,L|405:208,1,85,8|0,0:0|1:0,0:0:0:0:
192,112,51413,2,0,L|107:112,1,85,2|0,0:0|0:0,0:0:0:0:
272,16,51775,1,8,0:0:0:0:
368,96,51955,5,2,0:0:0:0:
368,96,52046,1,2,0:0:0:0:
368,96,52136,1,0,1:0:0:0:
464,16,52316,1,2,0:0:0:0:
464,192,52497,2,0,L|464:277,1,85,8|0,0:0|1:0,0:0:0:0:
352,384,52859,2,0,L|352:299,1,85,2|0,0:0|0:0,0:0:0:0:
272,192,53220,1,8,0:0:0:0:
160,112,53401,1,2,0:0:0:0:
48,32,53581,5,0,1:0:0:0:
48,192,53762,1,0,1:0:0:0:
48,192,53852,1,0,1:0:0:0:
48,192,53942,1,8,1:2:0:0:
192,192,54124,1,0,1:0:0:0:
192,32,54304,1,0,1:0:0:0:
192,192,54485,1,0,1:0:0:0:
320,272,54666,5,2,0:1:0:0:
448,192,54847,1,2,0:0:0:0:
320,117,55027,2,0,L|320:32,1,85,0|0,1:0|0:0,0:0:0:0:
416,0,55389,5,8,0:0:0:0:
512,32,55570,1,0,1:0:0:0:
464,128,55751,1,2,0:0:0:0:
512,224,55931,1,2,0:0:0:0:
464,320,56112,2,0,L|379:320,1,85,8|0,0:0|0:0,0:0:0:0:
256,192,56473,6,0,L|256:277,1,85,0|0,1:0|0:0,0:0:0:0:
256,384,56834,1,8,0:0:0:0:
48,320,57015,2,0,L|133:320,1,85,0|0,1:0|0:0,0:0:0:0:
256,277,57377,1,2,0:0:0:0:
336,192,57557,1,8,0:0:0:0:
256,112,57738,1,2,0:0:0:0:
176,192,57919,2,0,L|91:192,1,85,0|0,1:0|0:0,0:0:0:0:
80,0,58280,5,8,0:0:0:0:
32,96,58461,1,0,1:0:0:0:
224,128,58642,1,2,0:0:0:0:
128,80,58823,1,2,0:0:0:0:
224,32,59003,2,0,L|309:32,1,85,8|0,0:0|0:0,0:0:0:0:
448,224,59365,6,0,L|448:139,1,85,0|0,1:0|0:0,0:0:0:0:
416,32,59726,1,8,0:0:0:0:
320,144,59907,2,0,L|259:204,1,85,0|0,1:0|0:0,0:0:0:0:
256,320,60268,1,2,0:0:0:0:
160,384,60449,1,8,0:0:0:0:
64,320,60630,1,0,3:0:0:0:
64,320,60720,1,0,3:0:0:0:
64,320,60811,2,0,L|64:224,1,85,0|0,1:0|0:0,0:0:0:0:
160,32,61172,5,8,0:0:0:0:
96,96,61353,1,0,1:0:0:0:
176,224,61533,2,0,L|176:128,1,85,2|0,0:0|0:0,0:0:0:0:
352,32,61895,1,8,0:0:0:0:
416,96,62076,1,2,0:0:0:0:
336,139,62256,6,0,L|336:224,1,85,0|0,1:0|0:0,0:0:0:0:
256,304,62618,1,8,0:0:0:0:
352,368,62798,2,0,L|448:368,1,85,0|0,1:0|0:0,0:0:0:0:
480,256,63160,1,2,0:0:0:0:
512,144,63341,1,8,0:0:0:0:
480,48,63521,1,2,0:0:0:0:
368,0,63702,2,0,L|272:0,1,85,0|0,1:0|0:0,0:0:0:0:
256,192,64064,5,8,0:0:0:0:
160,96,64244,1,0,1:0:0:0:
64,208,64425,2,0,L|64:304,1,85,2|0,0:0|0:0,0:0:0:0:
256,192,64786,1,8,0:0:0:0:
352,96,64966,1,2,0:0:0:0:
432,352,65148,5,0,1:0:0:0:
384,288,65328,1,4,0:3:0:0:
448,240,65509,1,4,0:3:0:0:
400,176,65689,1,4,0:3:0:0:
80,32,66051,1,4,0:3:0:0:
128,96,66231,1,4,0:3:0:0:
64,144,66412,1,4,0:3:0:0:
256,192,66594,12,0,67949,0:0:0:0:
16,272,68401,6,0,L|16:357,1,85,2|0,1:2|0:0,0:0:0:0:
216,360,69124,2,0,L|216:275,1,85,2|0,0:0|0:0,0:0:0:0:
296,275,69666,2,0,L|296:360,1,85,0|0,1:0|0:0,0:0:0:0:
448,200,70208,2,0,L|363:200,1,85,2|0,0:0|0:0,0:0:0:0:
256,200,70569,2,0,L|171:200,1,85,2|0,0:0|0:0,0:0:0:0:
32,200,70931,2,0,L|32:115,1,85,2|0,0:0|0:0,0:0:0:0:
32,32,71292,5,0,3:0:0:0:
48,32,71383,1,0,3:0:0:0:
64,32,71473,1,0,3:0:0:0:
80,32,71564,1,0,3:0:0:0:
112,32,71654,5,0,3:0:0:0:
112,50,71744,1,0,3:0:0:0:
112,67,71835,1,0,3:0:0:0:
112,85,71925,1,0,3:0:0:0:
112,112,72015,5,0,1:0:0:0:
133,112,72105,1,0,1:0:0:0:
154,112,72196,1,0,1:0:0:0:
175,112,72286,1,0,1:0:0:0:
208,112,72377,5,0,1:0:0:0:
208,139,72468,1,0,1:0:0:0:
208,166,72558,1,0,1:0:0:0:
208,194,72647,1,0,1:0:0:0:
208,224,72738,5,8,1:2:0:0:
48,224,72919,1,2,0:0:0:0:
48,352,73100,1,2,0:0:0:0:
208,352,73281,2,0,L|310:352,1,101.999996887207,8|0,0:0|0:0,0:0:0:0:
464,352,73642,1,2,0:0:0:0:
384,240,73823,1,8,0:0:0:0:
464,128,74004,6,0,P|386:71|307:125,1,203.999993774414,0|0,1:0|0:0,0:0:0:0:
208,208,74546,1,8,0:0:0:0:
96,144,74726,1,2,0:0:0:0:
313,29,74907,5,2,0:0:0:0:
206,100,75088,1,2,0:3:0:0:
379,231,75269,1,2,0:3:0:0:
307,125,75449,1,2,0:3:0:0:
224,240,75630,6,0,L|224:342,2,101.999996887207,8|0|0,0:0|0:0|0:0,0:0:0:0:
125,145,76172,1,2,0:0:0:0:
224,48,76353,2,0,P|132:8|40:44,1,203.999993774414,2|0,0:0|0:0,0:0:0:0:
24,130,76895,2,0,P|6:197|115:262,1,203.999993774414,0|0,1:0|0:0,0:0:0:0:
176,352,77437,1,8,0:0:0:0:
304,336,77618,1,0,1:0:0:0:
304,208,77798,5,0,1:0:0:0:
405,46,77979,1,2,0:3:0:0:
419,232,78159,1,2,0:3:0:0:
297,89,78340,1,2,0:3:0:0:
481,136,78521,1,4,0:0:0:0:
32,144,78883,5,8,0:0:0:0:
128,36,79064,1,2,0:0:0:0:
208,144,79244,2,0,L|310:144,1,101.999996887207,2|0,0:0|0:0,0:0:0:0:
128,256,79606,1,8,0:0:0:0:
29,354,79787,2,0,B|129:384|129:384|224:352,1,203.999993774414,0|0,1:0|0:0,0:0:0:0:
320,256,80329,1,8,0:0:0:0:
448,320,80510,1,2,0:0:0:0:
432,192,80690,5,2,0:0:0:0:
320,112,80871,1,2,0:3:0:0:
208,192,81051,2,0,L|96:192,1,101.999996887207,2|2,0:3|0:3,0:0:0:0:
288,32,81413,5,8,0:0:0:0:
422,32,81593,1,0,0:0:0:0:
288,32,81774,1,0,0:0:0:0:
160,32,81955,6,0,B|21:32|21:32|21:147|21:147|160:147|160:147|160:354,1,595.000005674362,8|0,0:0|0:0,0:0:0:0:
304,352,82859,5,0,1:0:0:0:
400,352,83040,1,2,0:0:0:0:
400,256,83220,1,2,0:0:0:0:
496,256,83401,1,2,0:0:0:0:
256,192,83763,1,2,0:0:0:0:
256,192,84124,1,2,0:0:0:0:
256,192,84214,1,0,0:0:0:0:
256,192,84304,5,0,1:0:0:0:
0,0,89545,5,2,0:0:0:0:
96,48,89726,1,0,1:0:0:0:
192,0,89907,1,2,0:0:0:0:
224,0,89997,1,2,0:0:0:0:
256,0,90087,6,0,L|256:85,1,85,2|0,0:0|0:0,0:0:0:0:
464,0,90810,2,0,L|379:0,1,85,2|0,0:0|0:0,0:0:0:0:
336,75,91353,2,0,L|336:171,1,85,0|0,1:0|0:0,0:0:0:0:
432,160,91895,1,8,0:0:0:0:
432,256,92075,1,0,3:0:0:0:
432,352,92256,1,2,3:2:0:0:
336,352,92437,1,2,3:2:0:0:
336,256,92618,1,0,1:0:0:0:
336,160,92798,1,2,0:0:0:0:
336,128,92888,1,2,0:0:0:0:
336,96,92979,6,0,L|251:96,1,85,2|0,0:0|0:0,0:0:0:0:
0,160,93702,2,0,L|85:160,1,85,2|0,0:0|0:0,0:0:0:0:
144,219,94244,2,0,L|144:304,1,85,0|0,1:0|0:0,0:0:0:0:
144,320,94696,1,0,3:0:0:0:
144,336,94786,1,0,3:0:0:0:
48,336,94967,1,0,3:0:0:0:
48,256,95148,1,0,3:0:0:0:
48,176,95328,1,0,3:0:0:0:
128,208,95509,1,8,0:0:0:0:
128,128,95690,1,0,3:0:0:0:
208,176,95871,6,0,L|293:176,2,85,0|0|0,1:0|0:0|0:0,0:0:0:0:
208,96,96774,1,2,0:0:0:0:
312,96,96955,1,2,0:0:0:0:
416,96,97136,2,0,L|416:176,1,63.7500024318696,2|0,0:0|1:0,0:0:0:0:
512,256,97497,2,0,L|512:192,1,63.7500024318696,2|8,0:0|0:0,0:0:0:0:
416,256,97859,1,2,3:2:0:0:
368,336,98039,2,0,L|304:336,1,63.7500024318696,0|0,3:0|0:0,0:0:0:0:
240,224,98401,5,0,3:0:0:0:
176,336,98581,1,0,3:0:0:0:
96,224,98762,1,2,1:2:0:0:
176,112,98943,1,2,0:0:0:0:
96,0,99124,2,0,L|-12:0,1,85,0|0,3:0|0:0,0:0:0:0:
240,0,99485,2,0,L|336:0,1,85,0|0,3:0|0:0,0:0:0:0:
432,0,99847,5,0,1:0:0:0:
432,192,100027,1,2,0:0:0:0:
432,384,100208,5,0,3:0:0:0:
412,384,100299,1,0,3:0:0:0:
393,384,100389,1,0,3:0:0:0:
374,384,100479,1,0,3:0:0:0:
374,356,100570,5,0,3:0:0:0:
374,330,100660,1,0,3:0:0:0:
374,307,100751,1,0,3:0:0:0:
374,281,100841,1,0,3:0:0:0:
374,247,100931,5,0,1:0:0:0:
340,247,101022,1,0,1:0:0:0:
306,247,101112,1,0,1:0:0:0:
273,247,101202,1,0,1:0:0:0:
273,202,101293,5,0,1:0:0:0:
253,153,101383,1,0,1:0:0:0:
273,104,101473,1,0,1:0:0:0:
293,54,101564,1,0,1:0:0:0:
273,0,101654,5,8,1:2:0:0:
144,0,101834,1,2,0:0:0:0:
16,0,102015,1,2,0:0:0:0:
16,128,102196,2,0,L|16:230,1,101.999996887207,8|0,0:0|0:0,0:0:0:0:
16,352,102557,1,2,0:0:0:0:
144,304,102738,1,8,0:0:0:0:
272,352,102919,6,0,B|369:386|369:386|464:352,1,203.999993774414,0|0,1:0|0:0,0:0:0:0:
448,160,103461,1,8,0:0:0:0:
368,272,103642,1,2,0:0:0:0:
272,48,103822,5,2,0:0:0:0:
352,160,104003,1,2,0:3:0:0:
144,272,104184,1,2,0:3:0:0:
224,160,104364,1,2,0:3:0:0:
144,48,104545,6,0,L|42:48,2,101.999996887207,8|0|0,0:0|0:0|0:0,0:0:0:0:
224,160,105087,1,2,0:0:0:0:
288,48,105268,2,0,P|380:8|472:44,1,203.999993774414,2|0,0:0|0:0,0:0:0:0:
488,130,105810,2,0,P|506:197|397:262,1,203.999993774414,0|0,1:0|0:0,0:0:0:0:
272,304,106352,1,8,0:0:0:0:
144,256,106533,1,0,1:0:0:0:
240,176,106713,5,2,0:3:0:0:
224,0,106894,1,2,0:3:0:0:
48,48,107074,1,2,0:3:0:0:
64,224,107256,1,2,0:3:0:0:
64,224,107347,1,0,0:0:0:0:
64,224,107437,2,0,L|64:352,1,101.999996887207,4|0,0:0|0:0,0:0:0:0:
480,240,107798,5,8,0:0:0:0:
384,348,107979,1,2,0:0:0:0:
304,240,108160,2,0,L|202:240,1,101.999996887207,2|0,0:0|0:0,0:0:0:0:
384,128,108521,1,8,0:0:0:0:
483,30,108702,2,0,B|386:1|386:1|288:32,1,203.999993774414,0|0,1:0|0:0,0:0:0:0:
192,128,109244,1,8,0:0:0:0:
64,64,109425,1,2,0:0:0:0:
96,202,109606,6,0,L|96:304,1,101.999996887207,2|2,0:0|0:3,0:0:0:0:
256,384,109967,2,0,L|256:272,1,101.999996887207,2|2,0:3|0:3,0:0:0:0:
416,202,110328,6,0,L|416:304,2,101.999996887207,8|0|0,0:0|0:0|0:0,0:0:0:0:
480,128,110870,1,8,0:0:0:0:
432,32,111051,1,2,0:3:0:0:
320,0,111232,1,2,0:3:0:0:
240,0,111413,2,0,L|128:0,1,101.999996887207,2|0,0:3|0:0,0:0:0:0:
64,96,111774,5,0,1:0:0:0:
192,96,111955,1,2,0:0:0:0:
320,96,112135,1,0,0:0:0:0:
448,96,112316,1,2,0:0:0:0:
320,288,112678,5,2,0:0:0:0:
448,288,112859,1,0,1:0:0:0:
192,288,113039,1,2,3:0:0:0:
128,288,113130,1,0,3:0:0:0:
64,288,113220,5,8,1:2:0:0:
64,144,113401,1,2,0:0:0:0:
192,144,113581,1,2,0:0:0:0:
192,16,113762,2,0,L|304:16,1,101.999996887207,8|0,0:0|0:0,0:0:0:0:
409,77,114124,1,2,0:0:0:0:
512,0,114304,1,8,0:0:0:0:
512,128,114485,6,0,L|512:336,1,203.999993774414,0|0,1:0|0:0,0:0:0:0:
384,256,115028,1,8,0:0:0:0:
281,333,115208,1,2,0:0:0:0:
192,240,115389,5,2,0:0:0:0:
192,47,115569,1,2,0:3:0:0:
78,203,115750,1,2,0:3:0:0:
262,143,115931,1,2,0:3:0:0:
78,83,116112,5,8,0:0:0:0:
192,47,116292,1,2,0:3:0:0:
0,0,116473,1,2,0:3:0:0:
78,83,116653,1,2,0:0:0:0:
0,176,116834,2,0,L|0:384,1,203.999993774414,2|0,0:0|0:0,0:0:0:0:
288,384,117377,2,0,L|80:384,1,203.999993774414,0|0,1:0|0:0,0:0:0:0:
112,272,117919,5,8,0:0:0:0:
240,272,118100,1,0,1:0:0:0:
240,144,118280,1,0,1:0:0:0:
368,144,118461,1,2,0:3:0:0:
368,16,118642,1,2,0:3:0:0:
496,16,118822,1,2,0:3:0:0:
496,144,119003,2,0,L|496:272,1,101.999996887207,4|0,0:0|0:0,0:0:0:0:
496,368,119365,5,8,0:0:0:0:
376,269,119545,1,2,0:0:0:0:
256,368,119726,2,0,L|144:368,1,101.999996887207,2|0,0:0|0:0,0:0:0:0:
164,234,120087,1,8,0:0:0:0:
64,143,120268,2,0,B|161:105|161:105|255:138,1,203.999993774414,0|0,1:0|0:0,0:0:0:0:
352,80,120810,1,8,0:0:0:0:
320,40,120900,1,0,0:0:0:0:
288,0,120991,1,2,0:0:0:0:
464,16,121172,5,2,0:0:0:0:
464,144,121353,1,2,0:3:0:0:
352,272,121533,1,2,0:3:0:0:
352,144,121714,1,2,0:3:0:0:
224,0,121895,5,8,0:0:0:0:
224,144,122076,1,2,0:3:0:0:
61,144,122257,1,2,0:3:0:0:
61,0,122437,1,8,0:0:0:0:
224,0,122618,2,0,L|432:0,1,203.999993774414,2|2,0:3|0:3,0:0:0:0:
432,192,123159,1,0,1:0:0:0:
432,192,123250,1,0,1:0:0:0:
432,192,123341,5,0,1:0:0:0:
128,384,124245,5,0,1:0:0:0:
80,192,124425,1,0,1:0:0:0:
128,384,124606,1,0,1:0:0:0:
208,128,124786,6,0,L|195:214,1,85,2|0,3:1|0:0,0:0:0:0:
243,349,125148,1,0,1:0:0:0:
291,93,125328,6,0,L|278:179,1,85,2|0,3:1|0:0,0:0:0:0:
326,314,125690,1,0,1:0:0:0:
371,61,125871,6,0,L|358:147,1,85,2|0,3:1|0:0,0:0:0:0:
406,282,126231,1,0,1:0:0:0:
448,32,126413,6,0,L|435:118,1,85,2|0,3:1|0:0,0:0:0:0:
483,253,126775,1,0,1:0:0:0:
368,368,126955,5,2,3:2:0:0:
224,368,127136,1,2,3:2:0:0:
96,320,127316,1,8,3:2:0:0:
48,192,127497,1,2,3:2:0:0:
72,64,127678,6,0,B|160:48|160:48|248:64,1,170,2|0,3:1|0:0,0:0:0:0:
440,321,128220,2,0,B|360:336|360:336|273:322,1,170,2|0,3:1|0:0,0:0:0:0:
96,309,128763,2,2,L|96:224,1,85,0|0,3:0|0:0,0:1:0:0:
32,128,129123,5,2,3:2:0:0:
96,224,129304,2,0,L|96:309,2,85,0|0|0,3:0|3:0|3:0,3:0:0:0:
448,160,129847,2,0,L|448:245,1,85,2|0,3:2|3:0,3:0:0:0:
272,277,130208,2,0,L|272:192,1,85,2|0,3:2|3:0,3:0:0:0:
504,104,130569,5,2,3:2:0:0:
504,70,130660,1,0,3:0:0:0:
504,39,130750,1,0,3:0:0:0:
504,7,130840,1,0,3:0:0:0:
474,7,130930,5,2,3:2:0:0:
445,7,131021,1,0,3:0:0:0:
419,7,131111,1,0,3:0:0:0:
392,7,131201,1,0,3:0:0:0:
392,44,131293,5,2,3:2:0:0:
392,77,131383,1,0,3:0:0:0:
392,108,131473,1,0,3:0:0:0:
392,140,131564,1,0,3:0:0:0:
363,140,131654,5,2,3:2:0:0:
335,140,131744,1,0,3:0:0:0:
303,140,131834,1,0,1:0:0:0:
256,0,132014,5,0,0:0:0:0:
208,16,132106,1,0,3:0:0:0:
160,0,132196,1,0,3:0:0:0:
112,16,132286,1,0,3:0:0:0:
64,0,132376,5,2,3:2:0:0:
64,192,132557,1,2,3:2:0:0:
256,192,132738,1,2,1:2:0:0:
256,0,132919,1,2,1:2:0:0:
256,272,133099,2,0,L|256:357,1,85,2|0,1:2|0:0,0:0:0:0:
336,176,133461,5,2,3:2:0:0:
336,48,133642,1,0,3:0:0:0:
176,48,133823,1,8,3:2:0:0:
176,176,134004,1,0,3:0:0:0:
256,272,134184,2,0,L|256:361,2,85,0|0|0,3:0|3:0|3:0,3:0:0:0:
112,117,134726,1,0,1:0:0:0:
112,117,134816,1,0,0:0:0:0:
112,117,134907,6,0,L|112:32,1,85,8|0,0:0|0:0,0:0:0:0:
397,33,135268,2,0,L|398:117,1,85,8|0,0:0|0:0,0:0:0:0:
224,64,135630,5,0,0:0:0:0:
224,144,135810,1,0,0:0:0:0:
288,208,135991,1,2,0:0:0:0:
288,288,136172,1,0,0:0:0:0:
192,320,136353,2,0,L|70:319,1,85
18,350,136714,6,0,L|18:388,1,38.25
