osu file format v14

[General]
AudioFilename: audio.mp3
AudioLeadIn: 0
PreviewTime: 28643
Countdown: 0
SampleSet: Soft
StackLeniency: 0.7
Mode: 0
LetterboxInBreaks: 0
SkinPreference:Default
WidescreenStoryboard: 1

[Editor]
DistanceSpacing: 1
BeatDivisor: 4
GridSize: 16
TimelineZoom: 1

[Metadata]
Title:Hero In Me
TitleUnicode:Hero In Me
Artist:Emily Osment
ArtistUnicode:Emily Osment
Creator:AJT
Version:Normal
Source:Dadnapped
Tags:disney channel original movie english pop rock yokespai silverboxer
BeatmapID:2555553
BeatmapSetID:1229079

[Difficulty]
HPDrainRate:3
CircleSize:4
OverallDifficulty:4
ApproachRate:5
SliderMultiplier:1
SliderTickRate:1

[Events]
//Background and Video events
0,0,"bg.jpg",0,0
Video,480,"dadnapped.mp4"
//Break Periods
2,40570,41719
2,66432,67201
2,84504,88345
//Storyboard Layer 0 (Background)
//Storyboard Layer 1 (Fail)
//Storyboard Layer 2 (Pass)
//Storyboard Layer 3 (Foreground)
//Storyboard Layer 4 (Overlay)
//Storyboard Sound Samples

[TimingPoints]
-4249,361.44578313253,4,2,0,50,1,0
7316,-100,4,2,0,70,0,0
7322,-100,4,2,0,70,0,0
29004,361.44578313253,4,2,0,80,1,0
29004,-90.9090909090909,4,2,0,80,0,1
29009,-90.9090909090909,4,2,0,80,0,1
39124,-90.9090909090909,4,2,0,80,0,0
40569,-100,4,2,0,80,0,0
40931,-100,4,2,0,70,0,0
40937,-100,4,2,0,70,0,0
41021,-100,4,2,0,70,0,0
43461,361.44578313253,4,2,0,70,1,0
68401,361.44578313253,4,2,0,70,1,0
72738,361.44578313253,4,2,0,80,1,0
72738,-90.9090909090909,4,2,0,70,0,1
84304,-100,4,2,0,70,0,0
101653,-90.9090909090909,4,2,0,70,0,1
124786,-100,4,2,0,70,0,0
134907,-100,4,2,0,40,0,0
134913,-100,4,2,0,40,0,0
134952,-100,4,2,0,70,0,0
134958,-100,4,2,0,70,0,0
135268,-100,4,2,0,40,0,0
135274,-100,4,2,0,40,0,0
135313,-100,4,2,0,70,0,0
135319,-100,4,2,0,70,0,0

[Colours]
Combo1 : 255,255,0
Combo2 : 0,128,255
Combo3 : 255,0,0

[HitObjects]
496,16,449,5,8,0:0:0:0:
288,16,1172,1,8,0:0:0:0:
208,80,1533,6,0,P|203:148|240:240,1,150,2|2,0:0|0:0,0:0:0:0:
320,352,2618,1,8,0:0:0:0:
224,336,2979,2,0,P|156:331|64:368,1,150,2|2,0:0|0:0,0:0:0:0:
16,112,4425,6,0,B|6:16|6:16|64:32,1,150,0|2,0:0|0:0,0:0:0:0:
304,16,5871,2,0,L|304:128,1,100,2|0,0:0|0:0,0:0:0:0:
400,128,6594,2,0,L|400:192,1,50,2|8,0:0|0:0,0:0:0:0:
400,224,6955,2,0,L|336:224,1,50,2|8,0:0|0:0,0:0:0:0:
304,224,7316,5,0,1:0:0:0:
160,224,7859,1,2,1:2:0:0:
0,32,8762,2,0,P|48:0|128:32,1,150,0|0,1:0|1:0,0:0:0:0:
368,32,10208,6,0,L|368:144,1,100,2|2,0:3|0:0,0:0:0:0:
416,160,10750,1,2,0:3:0:0:
400,208,10931,1,2,0:0:0:0:
304,240,11292,1,0,1:0:0:0:
208,192,11654,2,0,L|96:192,1,100,2|2,0:3|0:0,0:0:0:0:
64,192,12196,2,0,L|64:352,1,150,2|0,0:3|3:0,0:0:0:0:
160,336,13100,6,0,P|208:320|256:352,1,100,0|8,1:0|0:0,0:0:0:0:
336,368,13822,1,2,0:0:0:0:
416,320,14184,1,8,0:0:0:0:
464,224,14545,2,0,L|480:160,1,50,0|0,1:0|0:0,0:0:0:0:
496,128,14907,1,8,0:0:0:0:
496,128,15087,2,0,P|448:112|400:112,1,100,0|2,1:0|0:0,0:0:0:0:
352,112,15630,1,8,0:0:0:0:
272,176,15991,6,0,L|272:240,2,50,0|2|8,1:0|0:0|0:0,0:0:0:0:
192,112,16714,2,0,L|80:112,1,100,2|8,0:0|0:0,0:0:0:0:
48,112,17256,1,2,0:0:0:0:
48,112,17437,2,0,L|48:224,1,100,0|8,1:0|0:0,0:0:0:0:
32,256,17979,2,0,P|16:288|32:352,1,100,0|2,1:0|0:0,0:0:0:0:
80,368,18521,1,8,0:0:0:0:
160,304,18883,6,0,L|272:304,1,100,0|8,1:0|0:0,0:0:0:0:
304,304,19425,1,0,1:0:0:0:
352,304,19606,1,2,0:0:0:0:
448,304,19967,2,0,L|448:240,1,50,8|2,0:0|0:0,0:0:0:0:
448,208,20328,1,0,1:0:0:0:
496,128,20690,1,8,0:0:0:0:
416,64,21052,2,0,P|432:16|480:0,2,100,2|8|0,0:0|0:0|1:0,0:0:0:0:
400,112,21955,5,2,0:0:0:0:
352,112,22136,1,8,0:0:0:0:
256,64,22497,1,2,0:0:0:0:
160,96,22859,1,8,0:0:0:0:
112,96,23039,1,2,0:0:0:0:
64,96,23220,2,0,B|64:208,1,100,0|8,1:0|0:0,0:0:0:0:
64,240,23762,1,0,1:0:0:0:
160,256,24124,2,0,B|160:320,2,50,2|8|2,0:0|0:0|0:0,0:0:0:0:
256,192,24666,12,0,27557,3:0:0:0:
128,16,28642,6,0,L|64:16,1,50,0|0,1:0|1:0,0:0:0:0:
16,16,29004,2,0,L|16:128,1,110.000003356934,8|2,1:2|0:0,0:0:0:0:
16,176,29545,1,8,0:0:0:0:
176,112,30087,1,8,0:0:0:0:
176,112,30268,2,0,L|352:112,1,165.000005035401,0|8,1:0|0:0,0:0:0:0:
400,112,30991,1,2,0:0:0:0:
400,160,31172,1,2,0:0:0:0:
448,304,31895,6,0,L|528:304,2,55.0000016784668,8|0|0,0:0|0:0|0:0,0:0:0:0:
400,304,32437,1,2,0:0:0:0:
352,336,32618,2,0,L|240:336,1,110.000003356934,2|0,0:0|0:0,0:0:0:0:
208,368,33160,2,0,L|96:368,1,110.000003356934,0|0,1:0|0:0,0:0:0:0:
48,368,33702,1,8,0:0:0:0:
0,272,34063,1,0,1:0:0:0:
80,208,34425,1,2,0:3:0:0:
80,160,34606,1,2,0:3:0:0:
80,112,34786,1,4,0:0:0:0:
128,16,35148,6,0,L|192:16,1,55.0000016784668,8|2,0:0|0:0,0:0:0:0:
240,16,35509,1,2,0:0:0:0:
352,16,35871,1,8,0:0:0:0:
352,16,36051,2,0,L|352:128,1,110.000003356934,0|0,1:0|0:0,0:0:0:0:
304,160,36594,2,0,L|240:160,2,55.0000016784668,8|2|2,0:0|0:0|0:0,0:0:0:0:
400,224,37316,1,2,0:3:0:0:
448,320,37678,6,0,L|512:320,2,55.0000016784668,8|0|0,0:0|0:0|0:0,0:0:0:0:
400,352,38220,2,0,L|288:352,1,110.000003356934,8|2,0:0|0:3,0:0:0:0:
240,352,38762,1,2,0:3:0:0:
240,240,39124,1,0,1:0:0:0:
480,320,42919,6,0,L|480:384,2,50,8|8|8,0:0|0:0|0:0,0:0:0:0:
480,272,43461,2,0,L|480:160,1,100,0|8,1:0|0:0,0:0:0:0:
480,64,44184,2,0,L|368:64,1,100,2|8,0:0|0:0,0:0:0:0:
336,64,44726,1,2,0:0:0:0:
288,64,44907,1,0,1:0:0:0:
192,16,45268,1,8,0:0:0:0:
112,80,45630,2,0,B|61:175|61:175|99:266,1,200,2|0,0:0|1:0,0:0:0:0:
192,304,46714,6,0,L|192:368,2,50,8|0|2,0:0|1:0|0:0,0:0:0:0:
256,224,47437,1,8,0:0:0:0:
256,128,47798,2,0,L|144:128,1,100,0|8,1:0|0:0,0:0:0:0:
48,128,48521,2,0,L|48:288,1,150,2|2,0:0|3:0,0:0:0:0:
48,320,49244,1,0,1:0:0:0:
144,272,49606,6,0,L|144:208,2,50,8|0|2,0:0|1:0|0:0,0:0:0:0:
224,320,50328,1,8,0:0:0:0:
272,352,50509,1,2,0:0:0:0:
320,320,50690,2,0,L|432:320,1,100,0|8,1:0|0:0,0:0:0:0:
496,256,51413,2,0,P|505:217|496:144,1,100,2|8,0:0|0:0,0:0:0:0:
480,112,51955,1,2,0:0:0:0:
432,96,52136,5,0,1:0:0:0:
352,48,52497,1,8,0:0:0:0:
272,112,52859,1,2,0:0:0:0:
192,48,53220,2,0,L|128:48,1,50,8|2,0:0|0:0,0:0:0:0:
112,96,53582,2,0,P|128:144|96:192,2,100,0|8|0,1:0|1:2|1:0,0:0:0:0:
16,144,54666,1,2,0:1:0:0:
16,240,55027,6,0,L|16:352,1,100,0|8,1:0|0:0,0:0:0:0:
112,352,55750,2,0,L|176:352,1,50,2|2,0:0|0:0,0:0:0:0:
208,352,56112,1,8,0:0:0:0:
240,256,56473,2,0,P|240:208|256:160,1,100,0|8,1:0|0:0,0:0:0:0:
288,128,57015,2,0,P|352:112|448:144,1,150,0|8,1:0|0:0,0:0:0:0:
496,208,57919,5,0,1:0:0:0:
448,304,58280,1,8,0:0:0:0:
368,256,58642,2,0,L|368:192,2,50,2|2|8,0:0|0:0|0:0,0:0:0:0:
288,320,59365,2,0,P|240:336|192:320,1,100,0|8,1:0|0:0,0:0:0:0:
160,288,59907,2,0,P|144:224|176:144,1,150,0|8,1:0|0:0,0:0:0:0:
224,64,60810,5,0,1:0:0:0:
128,16,61172,2,0,L|64:16,2,50,8|0|2,0:0|1:0|0:0,0:0:0:0:
224,16,61895,1,8,0:0:0:0:
272,16,62075,1,2,0:0:0:0:
320,16,62256,2,0,P|352:64|352:112,1,100,0|8,1:0|0:0,0:0:0:0:
352,160,62798,2,0,P|288:208|208:224,1,150,0|8,1:0|0:0,0:0:0:0:
128,224,63702,5,0,1:0:0:0:
64,304,64064,2,0,L|64:368,2,50,8|0|2,0:0|1:0|0:0,0:0:0:0:
16,224,64786,2,0,L|16:160,1,50,8|2,0:0|0:0,0:0:0:0:
16,128,65148,2,0,P|59:104|112:96,1,100,0|4,1:0|0:3,0:0:0:0:
160,112,65690,2,0,P|200:130|256:112,1,100,4|4,0:3|0:3,0:0:0:0:
288,80,66232,1,4,0:3:0:0:
256,192,68401,12,0,71292,3:0:0:0:
352,368,72377,6,0,L|416:368,1,50,0|0,1:0|1:0,0:0:0:0:
464,368,72738,2,0,L|464:256,1,110.000003356934,8|2,1:2|0:0,0:0:0:0:
464,208,73280,1,8,0:0:0:0:
464,48,73822,1,8,0:0:0:0:
464,48,74003,2,0,L|288:48,1,165.000005035401,0|8,1:0|0:0,0:0:0:0:
256,80,74726,1,2,0:0:0:0:
208,64,74907,2,0,L|208:0,2,55.0000016784668,2|2|2,0:0|0:3|0:3,0:0:0:0:
112,16,75630,6,0,B|69:1|69:1|16:64,1,110.000003356934,8|0,0:0|0:0,0:0:0:0:
16,112,76172,1,2,0:0:0:0:
16,160,76353,2,0,L|16:272,1,110.000003356934,2|0,0:0|0:0,0:0:0:0:
64,272,76895,2,0,L|176:272,1,110.000003356934,0|0,1:0|0:0,0:0:0:0:
224,272,77437,1,8,0:0:0:0:
336,272,77798,1,0,1:0:0:0:
448,272,78160,1,2,0:3:0:0:
448,272,78341,2,0,L|448:144,1,110.000003356934,2|0,0:3|0:0,0:0:0:0:
400,144,78883,6,0,L|336:144,1,55.0000016784668,8|2,0:0|0:0,0:0:0:0:
288,144,79244,1,2,0:0:0:0:
192,192,79606,1,8,0:0:0:0:
192,192,79786,2,0,B|112:208|112:208|96:176,1,110.000003356934,0|0,1:0|0:0,0:0:0:0:
80,128,80329,2,0,L|16:128,2,55.0000016784668,8|2|2,0:0|0:0|0:0,0:0:0:0:
144,48,81051,1,2,0:3:0:0:
256,64,81413,6,0,L|256:0,2,55.0000016784668,8|0|0,0:0|0:0|0:0,0:0:0:0:
304,80,81955,2,0,B|306:163|306:163|293:208|293:208|298:306,1,220.000006713867,8|0,0:0|0:0,0:0:0:0:
336,336,82859,1,0,1:0:0:0:
256,192,84123,5,2,0:0:0:0:
256,192,84304,1,0,1:0:0:0:
128,32,89545,5,2,0:0:0:0:
128,32,89726,2,0,L|64:32,1,50,0|2,1:0|0:0,0:0:0:0:
32,32,90087,2,0,L|32:144,1,100,2|0,0:0|0:0,0:0:0:0:
128,160,90810,2,0,L|128:272,1,100,2|0,0:0|0:0,0:0:0:0:
128,304,91353,2,0,L|240:304,1,100,0|0,1:0|0:0,0:0:0:0:
256,352,91894,2,0,L|320:352,1,50,8|0,0:0|3:0,0:0:0:0:
352,352,92256,1,2,3:2:0:0:
448,352,92618,1,0,1:0:0:0:
400,272,92979,6,0,L|400:160,1,100,2|0,0:0|0:0,0:0:0:0:
368,80,93702,2,0,L|256:80,1,100,2|0,0:0|0:0,0:0:0:0:
224,112,94245,1,0,1:0:0:0:
144,64,94605,2,0,L|144:0,2,50,0|0|0,0:0|3:0|3:0,0:0:0:0:
112,96,95147,1,0,3:0:0:0:
160,176,95509,1,8,0:0:0:0:
112,256,95871,6,0,P|96:304|112:352,2,100,0|0|0,1:0|0:0|0:0,0:0:0:0:
208,304,96955,1,2,0:0:0:0:
208,304,97136,2,0,L|320:304,1,100,2|2,0:0|0:0,0:0:0:0:
288,208,97859,2,0,L|224:208,1,50,2|0,3:2|3:0,0:0:0:0:
144,208,98401,1,0,3:0:0:0:
256,192,98581,12,0,100208,3:0:0:0:
128,368,101292,6,0,L|64:368,1,50,0|0,1:0|1:0,0:0:0:0:
16,368,101654,2,0,L|16:256,1,110.000003356934,8|2,1:2|0:0,0:0:0:0:
16,208,102196,1,8,0:0:0:0:
64,48,102738,1,8,0:0:0:0:
64,48,102919,2,0,B|96:10|96:10|240:48,1,165.000005035401,0|8,1:0|0:0,0:0:0:0:
192,96,103642,1,2,0:0:0:0:
240,128,103822,2,0,L|240:192,2,55.0000016784668,2|2|2,0:0|0:3|0:3,0:0:0:0:
176,224,104545,6,0,L|64:224,1,110.000003356934,8|0,0:0|0:0,0:0:0:0:
16,256,105087,1,2,0:0:0:0:
32,304,105269,2,0,L|144:304,1,110.000003356934,2|0,0:0|0:0,0:0:0:0:
192,304,105810,1,0,1:0:0:0:
304,304,106172,2,0,L|304:368,2,55.0000016784668,0|8|0,0:0|0:0|1:0,0:0:0:0:
304,256,106714,1,2,0:3:0:0:
304,144,107076,1,2,0:3:0:0:
304,144,107256,2,0,L|192:144,1,110.000003356934,2|0,0:3|0:0,0:0:0:0:
144,144,107799,6,0,L|144:208,1,55.0000016784668,8|2,0:0|0:0,0:0:0:0:
144,256,108160,1,2,0:0:0:0:
256,272,108522,1,8,0:0:0:0:
256,272,108702,2,0,L|368:272,1,110.000003356934,0|0,1:0|0:0,0:0:0:0:
400,224,109245,2,0,L|400:160,2,55.0000016784668,8|2|2,0:0|0:0|0:0,0:0:0:0:
480,304,109967,1,2,0:3:0:0:
368,320,110329,6,0,L|368:384,2,55.0000016784668,8|0|0,0:0|0:0|0:0,0:0:0:0:
320,304,110871,2,0,B|233:312|233:312|185:299|185:299|84:311,1,220.000006713867,8|0,0:0|0:0,0:0:0:0:
48,320,111774,2,0,B|26:272|26:272|48:213,1,110.000003356934,0|0,1:0|0:0,0:0:0:0:
80,176,112316,1,2,0:0:0:0:
96,64,112678,1,2,0:0:0:0:
96,64,112859,2,0,L|160:64,1,55.0000016784668,0|2,1:0|3:0,0:0:0:0:
192,112,113220,6,0,B|251:133|251:133|313:112,1,110.000003356934,8|2,1:2|0:0,0:0:0:0:
336,80,113762,1,8,0:0:0:0:
496,16,114304,1,8,0:0:0:0:
496,16,114485,2,0,L|496:192,1,165.000005035401,0|8,1:0|0:0,0:0:0:0:
448,192,115208,1,2,0:0:0:0:
448,240,115388,2,0,L|448:304,2,55.0000016784668,2|2|2,0:0|0:3|0:3,0:0:0:0:
384,144,116111,6,0,L|272:144,1,110.000003356934,8|2,0:0|0:3,0:0:0:0:
224,144,116654,1,2,0:0:0:0:
176,144,116835,2,0,L|64:144,1,110.000003356934,2|0,0:0|0:0,0:0:0:0:
16,144,117377,2,0,B|8:232|8:232|64:288,1,165.000005035401,0|8,1:0|0:0,0:0:0:0:
112,320,118100,1,0,1:0:0:0:
160,304,118280,1,0,1:0:0:0:
224,224,118642,2,0,L|288:224,1,55.0000016784668,2|2,0:3|0:3,0:0:0:0:
288,272,119003,1,4,0:0:0:0:
384,320,119365,6,0,L|384:256,1,55.0000016784668,8|2,0:0|0:0,0:0:0:0:
416,224,119726,1,2,0:0:0:0:
416,128,120088,1,8,0:0:0:0:
416,128,120268,2,0,L|304:128,1,110.000003356934,0|0,1:0|0:0,0:0:0:0:
256,128,120811,2,0,L|256:192,2,55.0000016784668,8|2|2,0:0|0:0|0:0,0:0:0:0:
144,128,121533,1,2,0:3:0:0:
64,64,121895,6,0,L|64:0,2,55.0000016784668,8|2|2,0:0|0:3|0:3,0:0:0:0:
32,112,122437,2,0,B|23:196|23:196|36:244|36:244|25:343,1,220.000006713867,8|0,0:0|1:0,0:0:0:0:
64,368,123341,1,0,1:0:0:0:
352,336,124244,5,0,1:0:0:0:
368,288,124425,1,0,1:0:0:0:
336,240,124605,1,0,1:0:0:0:
368,192,124786,2,0,L|368:80,1,100,2|0,1:1|1:0,0:0:0:0:
320,80,125328,2,0,L|208:80,1,100,2|0,1:1|1:0,0:0:0:0:
192,128,125871,1,2,0:1:0:0:
96,160,126232,1,0,1:0:0:0:
96,160,126413,2,0,L|96:48,1,100,2|0,1:1|1:0,0:0:0:0:
64,16,126955,2,0,L|0:16,2,50,2|2|8,3:2|3:2|3:2,0:0:0:0:
112,16,127497,1,2,3:2:0:0:
160,16,127678,6,0,L|272:16,1,100,2|0,1:1|0:0,0:0:0:0:
256,64,128220,2,0,L|256:176,1,100,2|0,1:1|0:0,0:0:0:0:
256,208,128762,1,2,1:0:0:0:
320,288,129124,1,2,3:2:0:0:
320,288,129304,2,0,L|432:288,1,100,0|0,3:0|3:0,3:0:0:0:
464,288,129847,1,2,3:2:0:0:
448,96,130569,6,0,B|416:64|416:64|352:80,1,100,2|2,3:2|3:2,0:0:0:0:
320,96,131112,1,0,3:0:0:0:
272,80,131292,1,2,3:2:0:0:
176,96,131654,1,2,3:2:0:0:
80,64,132015,2,0,P|64:112|96:160,1,100,2|2,0:0|3:2,0:0:0:0:
160,224,132738,1,2,1:2:0:0:
160,224,132919,2,0,B|255:222|255:222|288:288,1,150,2|0,1:2|3:0,0:0:0:0:
384,256,133822,2,0,L|384:192,2,50,8|0|0,3:2|3:0|3:0,0:0:0:0:
272,192,134907,6,0,L|272:80,1,100,8|8,0:0|0:0,0:0:0:0:
224,16,135630,2,0,L|160:16,1,50
128,16,135991,2,0,L|128:80,1,50,2|0,0:0|0:0,0:0:0:0:
128,112,136353,2,0,B|22:112|22:112|22:221,1,212.5
