osu file format v14

[General]
AudioFilename: audio.mp3
AudioLeadIn: 0
PreviewTime: 28643
Countdown: 0
SampleSet: Soft
StackLeniency: 0.4
Mode: 0
LetterboxInBreaks: 0
SkinPreference:Default
WidescreenStoryboard: 1

[Editor]
DistanceSpacing: 1.4
BeatDivisor: 8
GridSize: 4
TimelineZoom: 1.5

[Metadata]
Title:Hero In Me
TitleUnicode:Hero In Me
Artist:Emily Osment
ArtistUnicode:Emily Osment
Creator:AJT
Version:Hard
Source:Dadnapped
Tags:disney channel original movie english pop rock yokespai silverboxer
BeatmapID:2555551
BeatmapSetID:1229079

[Difficulty]
HPDrainRate:4
CircleSize:4
OverallDifficulty:6
ApproachRate:7
SliderMultiplier:1.2
SliderTickRate:1

[Events]
//Background and Video events
0,0,"bg.jpg",0,0
Video,480,"dadnapped.mp4"
//Break Periods
2,40570,42019
2,84504,88645
//Storyboard Layer 0 (Background)
//Storyboard Layer 1 (Fail)
//Storyboard Layer 2 (Pass)
//Storyboard Layer 3 (Foreground)
//Storyboard Layer 4 (Overlay)
//Storyboard Sound Samples

[TimingPoints]
-4249,361.44578313253,4,2,0,50,1,0
7316,-100,4,2,0,70,0,0
29004,361.44578313253,4,2,0,80,1,0
29004,-100,4,2,0,80,0,1
39124,-100,4,2,0,80,0,0
40570,-100,4,2,0,80,0,0
40931,-100,4,2,0,70,0,0
41021,-100,4,2,0,70,0,0
43461,361.44578313253,4,2,0,70,1,0
68401,361.44578313253,4,2,0,70,1,0
72738,361.44578313253,4,2,0,80,1,0
72738,-100,4,2,0,70,0,1
84304,-100,4,2,0,70,0,0
101653,-100,4,2,0,70,0,1
124786,-100,4,2,0,70,0,0
134907,-100,4,2,0,40,0,0
134952,-100,4,2,0,70,0,0
135268,-100,4,2,0,40,0,0
135313,-100,4,2,0,70,0,0
136714,-500,4,2,0,70,0,0

[Colours]
Combo1 : 255,255,0
Combo2 : 0,128,255
Combo3 : 255,0,0

[HitObjects]
32,64,449,5,8,0:0:0:0:
32,64,1172,5,8,0:0:0:0:
96,64,1533,2,0,L|240:64,1,120,2|8,0:0|0:0,0:0:0:0:
256,64,2075,1,2,0:0:0:0:
416,64,2979,6,0,L|272:64,1,120,2|8,0:0|0:0,0:0:0:0:
256,64,3521,1,2,0:0:0:0:
256,320,4063,6,2,L|256:192,1,120,0|0,0:0|0:0,0:0:0:0:
256,64,4967,1,2,0:0:0:0:
0,128,5871,6,0,L|0:8,2,120,2|0|2,0:0|0:0|0:0,0:0:0:0:
0,208,6774,2,0,L|0:268,1,60,8|2,0:0|0:0,0:0:0:0:
80,272,7136,1,8,0:0:0:0:
160,272,7316,5,0,1:0:0:0:
256,192,7679,1,2,0:0:0:0:
256,192,7859,1,2,1:2:0:0:
352,272,8763,5,0,1:0:0:0:
256,384,9124,1,2,0:0:0:0:
256,384,9305,1,0,1:0:0:0:
256,40,9847,6,2,B|256:160,1,120,0|2,0:0|0:3,0:0:0:0:
352,40,10569,6,0,L|416:40,1,60,2|2,0:0|0:3,0:0:0:0:
492,40,10931,2,0,L|492:104,1,60,2|2,0:0|0:0,0:0:0:0:
492,192,11292,2,0,L|432:192,1,60,0|2,1:0|0:0,0:0:0:0:
320,240,11654,6,0,L|320:368,1,120,2|2,0:3|0:0,0:0:0:0:
240,360,12196,2,0,B|240:240,1,120,2|0,0:3|0:0,0:0:0:0:
256,48,12918,5,0,3:0:0:0:
256,48,13100,1,0,1:0:0:0:
16,80,13461,5,8,0:0:0:0:
16,160,13641,1,0,1:0:0:0:
16,240,13823,2,0,L|16:300,1,60,2|0,0:0|0:0,0:0:0:0:
80,352,14184,2,0,L|140:352,1,60,8|2,0:0|0:0,0:0:0:0:
224,352,14545,2,0,L|288:352,1,60,0|0,1:0|0:0,0:0:0:0:
256,272,14907,1,8,0:0:0:0:
256,272,15087,2,0,L|256:148,1,120,0|2,1:0|0:0,0:0:0:0:
256,64,15630,1,8,0:0:0:0:
416,16,15991,5,0,1:0:0:0:
416,16,16172,1,2,0:0:0:0:
464,80,16353,2,0,L|464:144,1,60,8|0,0:0|0:0,0:0:0:0:
384,148,16714,2,0,L|384:208,1,60,2|0,0:0|0:0,0:0:0:0:
288,208,17075,1,8,0:0:0:0:
224,144,17257,1,0,0:0:0:0:
160,80,17437,6,0,L|96:80,1,60,0|2,1:2|0:0,0:0:0:0:
48,144,17798,1,8,0:0:0:0:
48,144,17979,2,0,L|48:272,1,120,0|2,1:2|0:0,0:0:0:0:
48,344,18521,1,8,0:0:0:0:
144,240,18883,6,0,L|208:240,1,60,0|0,1:0|0:0,0:0:0:0:
288,240,19244,1,8,0:0:0:0:
288,320,19426,1,0,1:0:0:0:
368,320,19606,2,0,L|428:320,1,60,2|0,0:0|0:0,0:0:0:0:
480,256,19967,2,0,L|480:196,1,60,8|2,0:0|0:0,0:0:0:0:
480,112,20329,5,0,1:0:0:0:
400,112,20510,1,2,0:0:0:0:
336,48,20690,2,0,L|272:48,1,60,8|0,0:0|0:0,0:0:0:0:
192,32,21051,2,0,L|131:32,1,60,2|0,0:0|0:0,0:0:0:0:
64,96,21413,2,0,L|64:157,1,60,8|2,0:0|0:0,0:0:0:0:
144,208,21774,1,0,1:0:0:0:
208,276,21955,5,2,0:0:0:0:
208,276,22136,2,0,L|208:336,1,60,8|0,0:0|0:0,0:0:0:0:
304,336,22497,2,0,L|304:276,1,60,2|0,0:0|0:0,0:0:0:0:
256,192,22859,1,8,0:0:0:0:
256,192,23039,1,2,0:0:0:0:
360,128,23220,6,0,B|296:112|296:112|296:56,1,120,0|8,1:0|0:0,0:0:0:0:
216,57,23762,2,0,B|216:112|216:112|152:128,1,120,0|2,1:0|0:0,0:0:0:0:
80,152,24304,1,8,0:0:0:0:
56,224,24485,1,2,0:0:0:0:
256,192,24666,12,2,27196,0:0:0:0:
504,16,27557,6,0,L|504:72,3,30,0|0|0|0,3:0|3:0|3:0|3:0,0:0:0:0:
472,56,27919,2,0,L|472:112,3,30,0|0|0|0,3:0|3:0|3:0|3:0,0:0:0:0:
432,104,28280,2,0,L|432:160,3,30,0|0|0|0,1:0|1:0|1:0|1:0,0:0:0:0:
392,160,28642,5,0,1:0:0:0:
392,160,28823,1,0,1:0:0:0:
448,240,29003,6,0,L|448:304,1,60,8|2,1:2|0:0,0:0:0:0:
368,352,29365,1,2,0:0:0:0:
272,304,29545,2,0,B|224:272|224:272|152:272,1,120,8|2,0:0|0:0,0:0:0:0:
200,352,30087,5,8,0:0:0:0:
96,336,30268,2,0,B|67:284|67:284|80:224,1,120,0|0,1:0|0:0,0:0:0:0:
16,160,30810,2,0,L|16:80,1,60,8|2,0:0|0:0,0:0:0:0:
16,16,31171,1,2,0:0:0:0:
96,16,31352,1,2,0:3:0:0:
176,16,31533,1,2,0:3:0:0:
256,16,31714,1,2,0:3:0:0:
216,96,31895,6,0,L|216:160,2,60,8|0|0,0:0|0:0|0:0,0:0:0:0:
296,96,32437,1,2,0:0:0:0:
368,48,32618,2,0,B|384:104|384:104|352:173,1,120,2|0,0:0|0:0,0:0:0:0:
392,240,33160,6,0,B|338:254|338:254|282:214,1,120,0|0,1:0|0:0,0:0:0:0:
192,240,33702,1,8,0:0:0:0:
120,184,33882,1,0,1:0:0:0:
64,256,34063,2,0,L|64:320,1,60,0|2,1:0|0:3,0:0:0:0:
160,352,34425,1,2,0:3:0:0:
256,352,34606,1,2,0:3:0:0:
352,352,34786,1,4,0:0:0:0:
496,208,35147,5,8,0:0:0:0:
384,208,35328,1,2,0:0:0:0:
440,288,35509,2,0,L|440:368,1,60,2|0,0:0|0:0,0:0:0:0:
352,352,35871,1,8,0:0:0:0:
256,304,36051,6,0,L|128:304,1,120,0|0,1:0|0:0,0:0:0:0:
128,208,36594,2,0,L|128:128,1,60,8|2,0:0|0:0,0:0:0:0:
144,64,36955,1,2,0:0:0:0:
208,16,37135,1,2,0:3:0:0:
288,16,37316,1,2,0:3:0:0:
336,80,37496,1,2,0:3:0:0:
416,80,37678,6,0,L|480:80,2,60,8|0|0,0:0|0:0|0:0,0:0:0:0:
352,136,38220,1,8,0:0:0:0:
328,216,38401,1,2,0:3:0:0:
344,296,38581,1,2,0:3:0:0:
408,352,38762,2,0,L|470:343,1,60,2|0,0:3|0:0,0:0:0:0:
496,240,39124,5,0,1:0:0:0:
8,368,42919,5,8,0:0:0:0:
96,368,43100,1,8,0:0:0:0:
184,368,43280,1,8,0:0:0:0:
272,368,43462,1,0,1:0:0:0:
400,224,43823,6,0,L|320:224,1,60,8|0,0:0|1:0,0:0:0:0:
256,224,44184,2,0,L|184:224,1,60,2|2,0:0|0:0,0:0:0:0:
112,224,44546,1,8,0:0:0:0:
112,144,44726,1,2,0:0:0:0:
16,144,44907,6,0,L|16:80,1,60,0|0,1:0|0:0,0:0:0:0:
16,0,45268,2,0,L|80:0,1,60,8|0,0:0|1:0,0:0:0:0:
160,64,45630,2,0,L|288:64,1,120,2|8,0:0|0:0,0:0:0:0:
352,16,46171,1,2,0:0:0:0:
432,16,46353,1,0,1:0:0:0:
424,144,46714,6,0,L|488:144,1,60,8|0,0:0|1:0,0:0:0:0:
488,224,47076,2,0,L|488:296,1,60,2|2,0:0|0:0,0:0:0:0:
400,288,47437,1,8,0:0:0:0:
320,288,47618,1,2,0:0:0:0:
320,192,47798,6,0,L|248:192,1,60,0|0,1:0|0:0,0:0:0:0:
176,192,48160,2,0,L|176:252,1,60,8|0,0:0|1:0,0:0:0:0:
64,256,48521,2,0,L|64:128,1,120,2|8,0:0|0:0,0:0:0:0:
64,64,49063,1,2,3:0:0:0:
64,64,49154,1,2,3:0:0:0:
64,64,49244,1,0,1:0:0:0:
304,48,49606,5,8,0:0:0:0:
304,128,49786,1,0,1:0:0:0:
304,208,49967,2,0,L|304:288,1,60,2|0,0:0|0:0,0:0:0:0:
304,352,50328,1,8,0:0:0:0:
384,352,50510,1,2,0:0:0:0:
496,352,50690,6,0,L|496:280,1,60,0|0,1:0|0:0,0:0:0:0:
496,208,51051,2,0,L|496:128,1,60,8|0,0:0|1:0,0:0:0:0:
496,48,51413,2,0,B|496:0|496:0|416:0,1,120,2|8,0:0|0:0,0:0:0:0:
416,80,51955,1,2,0:0:0:0:
320,32,52136,5,0,1:0:0:0:
224,32,52316,1,2,0:0:0:0:
224,128,52497,2,0,L|224:192,1,60,8|0,0:0|1:0,0:0:0:0:
224,288,52859,2,0,L|296:288,1,60,2|0,0:0|0:0,0:0:0:0:
368,288,53220,1,8,0:0:0:0:
368,192,53401,1,2,0:0:0:0:
368,80,53582,6,0,L|440:80,1,60,0|0,1:0|1:0,0:0:0:0:
472,80,53852,1,0,1:0:0:0:
472,80,53942,1,8,1:2:0:0:
480,176,54124,1,0,1:0:0:0:
480,288,54304,2,0,L|400:288,1,60,0|0,0:0|1:0,0:0:0:0:
304,288,54666,1,2,0:1:0:0:
304,192,54847,1,2,0:0:0:0:
400,192,55027,1,0,1:0:0:0:
176,352,55389,6,0,L|176:272,1,60,8|0,0:0|1:0,0:0:0:0:
176,208,55751,1,2,0:0:0:0:
256,208,55931,1,2,0:0:0:0:
336,208,56112,2,0,L|336:148,1,60,8|0,0:0|0:0,0:0:0:0:
224,112,56473,6,0,L|144:112,1,60,0|0,1:0|0:0,0:0:0:0:
160,16,56834,1,8,0:0:0:0:
256,16,57015,2,0,L|392:16,1,120,0|2,1:0|0:0,0:0:0:0:
464,16,57557,1,8,0:0:0:0:
464,104,57738,1,2,0:0:0:0:
464,192,57919,1,0,1:0:0:0:
256,192,58280,6,0,L|256:256,1,60,8|0,0:0|1:0,0:0:0:0:
256,336,58642,1,2,0:0:0:0:
176,336,58823,1,2,0:0:0:0:
96,336,59003,2,0,L|32:336,1,60,8|0,0:0|0:0,0:0:0:0:
16,216,59365,6,0,L|16:152,1,60,0|0,1:0|0:0,0:0:0:0:
80,88,59726,1,8,0:0:0:0:
144,160,59907,2,0,L|272:160,1,120,0|2,1:0|0:0,0:0:0:0:
352,160,60449,1,8,0:0:0:0:
448,160,60630,1,0,3:0:0:0:
448,160,60720,1,0,3:0:0:0:
448,160,60811,1,0,1:0:0:0:
448,304,61172,5,8,0:0:0:0:
368,352,61353,1,0,1:0:0:0:
288,304,61533,2,0,L|200:304,1,60,2|0,0:0|0:0,0:0:0:0:
160,240,61895,1,8,0:0:0:0:
96,304,62076,1,2,0:0:0:0:
32,240,62256,6,0,L|32:180,1,60,0|0,1:0|0:0,0:0:0:0:
32,96,62618,1,8,0:0:0:0:
120,48,62798,2,0,L|120:192,1,120,0|2,1:0|0:0,0:0:0:0:
120,256,63341,1,8,0:0:0:0:
120,344,63521,1,2,0:0:0:0:
200,344,63702,1,0,1:0:0:0:
384,192,64064,5,8,0:0:0:0:
288,192,64244,1,0,1:0:0:0:
288,96,64425,2,0,L|288:16,1,60,2|0,0:0|0:0,0:0:0:0:
384,36,64786,2,0,L|384:96,1,60,8|2,0:0|0:0,0:0:0:0:
480,32,65148,5,0,1:0:0:0:
480,96,65328,1,4,0:3:0:0:
480,144,65509,1,4,0:3:0:0:
480,176,65689,1,4,0:3:0:0:
400,304,66051,5,4,0:3:0:0:
400,256,66231,1,4,0:3:0:0:
400,208,66412,1,4,0:3:0:0:
256,192,66594,12,0,67949,0:0:0:0:
256,192,68401,12,2,70931,0:0:0:0:
8,16,71293,6,0,L|8:72,3,30,0|0|0|0,3:0|3:0|3:0|3:0,0:0:0:0:
40,56,71654,2,0,L|40:112,3,30,0|0|0|0,3:0|3:0|3:0|3:0,0:0:0:0:
80,104,72016,2,0,L|80:160,3,30,0|0|0|0,1:0|1:0|1:0|1:0,0:0:0:0:
120,160,72377,5,0,1:0:0:0:
120,160,72558,1,0,1:0:0:0:
64,240,72738,6,0,L|64:304,1,60,8|2,1:2|0:0,0:0:0:0:
144,352,73100,1,2,0:0:0:0:
240,304,73281,2,0,B|288:272|288:272|360:272,1,120,8|2,0:0|0:0,0:0:0:0:
312,352,73823,5,8,0:0:0:0:
416,336,74004,2,0,B|445:284|445:284|432:224,1,120,0|0,1:0|0:0,0:0:0:0:
496,160,74546,2,0,L|496:80,1,60,8|2,0:0|0:0,0:0:0:0:
496,16,74907,5,2,0:0:0:0:
416,48,75088,1,2,0:3:0:0:
336,16,75269,1,2,0:3:0:0:
256,48,75449,1,2,0:3:0:0:
160,16,75630,6,0,L|160:80,2,60,8|0|0,0:0|0:0|0:0,0:0:0:0:
72,56,76172,1,2,0:0:0:0:
104,144,76353,2,0,B|156:168|156:168|229:147,1,120,2|0,0:0|0:0,0:0:0:0:
272,77,76895,6,0,B|310:130|310:130|296:184,1,120,0|0,1:0|0:0,0:0:0:0:
352,272,77437,1,8,0:0:0:0:
416,192,77618,1,0,1:0:0:0:
480,272,77799,2,0,L|480:336,1,60,0|2,1:0|0:3,0:0:0:0:
368,352,78160,5,2,0:3:0:0:
256,352,78341,2,0,B|128:352,1,120,2|0,0:3|0:0,0:0:0:0:
128,272,78883,5,8,0:0:0:0:
128,192,79064,1,2,0:0:0:0:
208,188,79244,2,0,L|208:128,1,60,2|0,0:0|0:0,0:0:0:0:
272,64,79606,1,8,0:0:0:0:
336,128,79787,6,0,L|464:128,1,120,0|0,1:0|0:0,0:0:0:0:
480,212,80329,2,0,L|480:272,1,60,8|2,0:0|0:0,0:0:0:0:
400,304,80690,1,2,0:0:0:0:
328,344,80871,1,2,0:3:0:0:
256,296,81052,1,2,0:3:0:0:
184,344,81232,1,2,0:3:0:0:
120,288,81413,6,0,L|56:288,2,60,8|0|0,0:0|0:0|0:0,0:0:0:0:
192,240,81955,2,0,B|192:192|192:192|256:192|256:192|256:64,1,240,8|0,0:0|0:0,0:0:0:0:
256,0,82859,5,0,1:0:0:0:
256,192,84124,5,2,0:0:0:0:
256,192,84214,1,0,0:0:0:0:
256,192,84304,1,0,1:0:0:0:
128,312,89545,6,0,L|128:376,2,60,2|0|2,0:0|1:0|0:0,0:0:0:0:
48,304,90087,2,0,L|48:176,1,120,2|0,0:0|0:0,0:0:0:0:
48,96,90810,2,0,L|168:96,1,120,2|0,0:0|0:0,0:0:0:0:
168,16,91353,2,0,L|48:16,1,120,0|0,1:0|0:0,0:0:0:0:
48,96,91895,5,8,0:0:0:0:
128,96,92075,1,0,3:0:0:0:
128,176,92256,2,0,L|192:176,1,60,2|2,3:2|3:2,0:0:0:0:
192,256,92618,1,0,1:0:0:0:
288,256,92798,5,2,0:0:0:0:
288,256,92888,1,2,0:0:0:0:
288,256,92979,2,0,L|288:120,1,120,2|0,0:0|0:0,0:0:0:0:
288,48,93702,2,0,L|408:48,1,120,2|0,0:0|0:0,0:0:0:0:
480,48,94244,1,0,1:0:0:0:
480,192,94606,5,0,0:0:0:0:
480,192,94696,1,0,3:0:0:0:
480,192,94786,1,0,3:0:0:0:
480,272,94967,1,0,3:0:0:0:
400,264,95148,2,0,L|400:204,1,60,0|0,3:0|3:0,0:0:0:0:
320,204,95509,2,0,L|320:264,1,60,8|0,0:0|3:0,0:0:0:0:
240,240,95871,6,0,L|240:384,2,120,0|0|0,1:0|0:0|0:0,0:0:0:0:
160,248,96774,1,2,0:0:0:0:
96,192,96955,1,2,0:0:0:0:
32,144,97136,2,0,L|32:64,1,60,2|0,0:0|1:0,0:0:0:0:
104,16,97497,2,0,L|168:16,1,60,2|8,0:0|0:0,0:0:0:0:
240,96,97859,1,2,3:2:0:0:
240,96,98039,2,0,L|240:168,1,60,0|0,3:0|0:0,0:0:0:0:
160,208,98401,6,0,L|160:280,1,60,0|0,3:0|3:0,0:0:0:0:
64,272,98762,1,2,1:2:0:0:
64,368,98943,1,2,0:0:0:0:
160,368,99124,2,0,L|240:368,1,60,0|0,3:0|0:0,0:0:0:0:
256,288,99485,2,0,L|316:288,1,60,0|0,3:0|0:0,0:0:0:0:
400,352,99847,5,0,1:0:0:0:
400,352,100027,1,2,0:0:0:0:
448,272,100208,6,0,L|448:216,3,30,0|0|0|0,3:0|3:0|3:0|3:0,0:0:0:0:
416,232,100570,2,0,L|416:176,3,30,0|0|0|0,3:0|3:0|3:0|3:0,0:0:0:0:
376,184,100931,2,0,L|376:128,3,30,0|0|0|0,1:0|1:0|1:0|1:0,0:0:0:0:
336,128,101293,5,0,1:0:0:0:
336,128,101472,1,0,1:0:0:0:
272,48,101654,6,0,L|208:48,1,60,8|2,1:2|0:0,0:0:0:0:
128,80,102016,1,2,0:0:0:0:
64,0,102196,2,0,B|32:48|32:48|32:120,1,120,8|2,0:0|0:0,0:0:0:0:
128,80,102738,5,8,0:0:0:0:
200,160,102919,2,0,B|148:189|148:189|88:176,1,120,0|0,1:0|0:0,0:0:0:0:
8,224,103461,2,0,L|8:304,1,60,8|2,0:0|0:0,0:0:0:0:
8,368,103822,5,2,0:0:0:0:
96,336,104003,1,2,0:3:0:0:
176,368,104184,1,2,0:3:0:0:
256,336,104365,1,2,0:3:0:0:
336,368,104546,6,0,L|400:368,2,60,8|0|0,0:0|0:0|0:0,0:0:0:0:
320,288,105088,1,2,0:0:0:0:
368,216,105269,2,0,B|312:200|312:200|243:232,1,120,2|0,0:0|0:0,0:0:0:0:
208,296,105811,6,0,B|170:243|170:243|184:189,1,120,0|0,1:0|0:0,0:0:0:0:
96,176,106353,1,8,0:0:0:0:
96,80,106533,1,0,1:0:0:0:
192,80,106714,2,0,L|256:80,1,60,2|2,0:3|0:3,0:0:0:0:
256,176,107075,5,2,0:3:0:0:
368,176,107256,2,0,B|496:176,1,120,2|0,0:3|0:0,0:0:0:0:
488,272,107798,5,8,0:0:0:0:
408,272,107979,1,2,0:0:0:0:
328,272,108160,2,0,L|248:272,1,60,2|0,0:0|0:0,0:0:0:0:
200,336,108522,1,8,0:0:0:0:
136,272,108702,6,0,L|8:272,1,120,0|0,1:0|0:0,0:0:0:0:
16,192,109245,2,0,L|16:112,1,60,8|2,0:0|0:0,0:0:0:0:
16,40,109606,1,2,0:0:0:0:
88,0,109786,1,2,0:3:0:0:
160,48,109967,1,2,0:3:0:0:
232,0,110147,1,2,0:3:0:0:
296,56,110329,6,0,L|360:56,2,60,8|0|0,0:0|0:0|0:0,0:0:0:0:
232,112,110871,1,8,0:0:0:0:
232,200,111052,1,2,0:3:0:0:
320,200,111232,1,2,0:3:0:0:
320,288,111413,2,0,L|320:352,1,60,2|0,0:3|0:0,0:0:0:0:
232,344,111775,5,0,1:0:0:0:
160,344,111955,1,2,0:0:0:0:
88,344,112136,1,0,0:0:0:0:
16,344,112316,1,2,0:0:0:0:
256,344,112677,5,2,0:0:0:0:
336,344,112859,2,0,L|400:344,1,60,0|2,1:0|3:0,0:0:0:0:
424,344,113130,1,0,3:0:0:0:
424,344,113220,1,8,1:2:0:0:
424,264,113401,1,2,0:0:0:0:
424,184,113581,1,2,0:0:0:0:
424,104,113762,2,0,L|304:104,1,120,8|2,0:0|0:0,0:0:0:0:
208,104,114304,5,8,0:0:0:0:
128,104,114485,2,0,L|128:232,1,120,0|0,1:0|0:0,0:0:0:0:
200,280,115027,2,0,L|200:360,1,60,8|2,0:0|0:0,0:0:0:0:
296,344,115389,5,2,0:0:0:0:
352,288,115569,1,2,0:3:0:0:
360,208,115750,1,2,0:3:0:0:
344,128,115931,1,2,0:3:0:0:
280,32,116112,6,0,L|200:32,1,60,8|2,0:0|0:3,0:0:0:0:
160,96,116473,2,0,L|80:96,1,60,2|2,0:3|0:0,0:0:0:0:
32,160,116834,2,0,L|32:296,1,120,2|0,0:0|0:0,0:0:0:0:
128,280,117377,6,0,L|128:160,1,120,0|0,1:0|0:0,0:0:0:0:
128,64,117919,1,8,0:0:0:0:
224,64,118100,1,0,1:0:0:0:
224,160,118280,1,0,1:0:0:0:
320,160,118461,1,2,0:3:0:0:
320,64,118642,1,2,0:3:0:0:
416,64,118822,1,2,0:3:0:0:
416,160,119003,2,0,L|416:240,1,60,4|0,0:0|0:0,0:0:0:0:
416,320,119365,5,8,0:0:0:0:
336,376,119545,1,2,0:0:0:0:
256,320,119726,2,0,L|176:320,1,60,2|0,0:0|0:0,0:0:0:0:
96,288,120087,1,8,0:0:0:0:
112,192,120268,6,0,B|168:153|168:153|240:169,1,120,0|0,1:0|0:0,0:0:0:0:
304,112,120810,2,0,L|304:32,1,60,8|2,0:0|0:0,0:0:0:0:
208,48,121172,5,2,0:0:0:0:
112,48,121353,1,2,0:3:0:0:
16,48,121533,1,2,0:3:0:0:
16,144,121714,1,2,0:3:0:0:
16,256,121895,6,0,L|96:256,1,60,8|2,0:0|0:3,0:0:0:0:
128,352,122257,1,2,0:3:0:0:
208,352,122437,1,8,0:0:0:0:
208,240,122618,2,0,L|208:104,1,120,2|2,0:3|0:3,0:0:0:0:
208,32,123159,1,0,1:0:0:0:
208,32,123250,1,0,1:0:0:0:
208,32,123341,1,0,1:0:0:0:
0,0,124245,5,0,1:0:0:0:
0,96,124425,1,0,1:0:0:0:
0,192,124606,1,0,1:0:0:0:
96,192,124786,6,0,L|96:272,1,60,2|0,0:1|0:0,0:0:0:0:
160,320,125148,1,0,1:0:0:0:
224,252,125328,2,0,L|224:192,1,60,2|0,0:1|0:0,0:0:0:0:
288,128,125690,1,0,1:0:0:0:
352,192,125871,2,0,L|352:256,1,60,2|0,0:1|0:0,0:0:0:0:
416,320,126231,1,0,1:0:0:0:
480,252,126413,2,0,L|480:192,1,60,2|0,0:1|0:0,0:0:0:0:
416,128,126775,1,0,1:0:0:0:
416,32,126955,5,2,3:2:0:0:
320,32,127136,1,2,3:2:0:0:
320,128,127316,1,8,3:2:0:0:
224,128,127497,1,2,3:2:0:0:
208,32,127678,6,0,L|80:32,1,120,2|0,0:1|0:0,0:0:0:0:
88,128,128220,2,0,L|88:256,1,120,2|0,0:1|0:0,0:0:0:0:
88,336,128763,2,2,L|148:336,1,60,0|0,0:0|0:0,0:1:0:0:
232,336,129123,5,2,3:2:0:0:
232,248,129304,2,0,L|232:184,2,60,0|0|0,3:0|3:0|3:0,3:0:0:0:
320,248,129847,2,0,L|320:120,1,120,2|2,3:2|3:2,3:0:0:0:
272,48,130389,1,0,3:0:0:0:
360,8,130569,6,0,L|416:8,3,30,2|0|0|0,3:2|3:0|3:0|3:0,0:0:0:0:
408,56,130931,2,0,L|408:112,3,30,2|0|0|0,3:2|3:0|3:0|3:0,0:0:0:0:
440,104,131292,2,0,L|496:104,3,30,2|0|0|0,3:2|3:0|3:0|3:0,0:0:0:0:
408,136,131654,5,2,3:2:0:0:
408,153,131744,1,0,3:0:0:0:
408,172,131834,1,0,1:0:0:0:
448,288,132015,6,0,L|504:288,3,30,0|0|0|0,0:0|3:0|3:0|3:0,0:0:0:0:
416,320,132377,2,0,L|336:320,1,60,2|0,3:2|3:0,0:0:0:0:
272,280,132738,1,2,1:2:0:0:
200,328,132919,1,2,1:2:0:0:
128,272,133100,2,0,L|128:213,1,60,2|0,1:2|0:0,0:0:0:0:
40,216,133461,5,2,3:2:0:0:
40,128,133642,1,0,3:0:0:0:
40,40,133822,1,8,3:2:0:0:
128,40,134004,1,0,3:0:0:0:
216,40,134184,6,0,L|288:40,2,60,0|0|0,3:0|3:0|3:0,3:0:0:0:
184,128,134726,1,0,1:0:0:0:
184,128,134816,1,0,0:0:0:0:
184,128,134907,6,0,L|184:192,1,60,8|0,0:0|0:0,0:0:0:0:
272,184,135268,2,0,L|272:124,1,60,8|0,0:0|0:0,0:0:0:0:
352,120,135630,5,0,0:0:0:0:
352,192,135810,1,0,0:0:0:0:
352,264,135991,1,2,0:0:0:0:
352,336,136172,1,0,0:0:0:0:
272,336,136353,6,0,L|208:336,1,60
128,336,136714,2,0,L|128:364,1,27
