osu file format v14

[General]
AudioFilename: audio.mp3
AudioLeadIn: 0
PreviewTime: 26856
Countdown: 0
SampleSet: Soft
StackLeniency: 0.7
Mode: 0
LetterboxInBreaks: 0
WidescreenStoryboard: 0

[Editor]
DistanceSpacing: 0.8
BeatDivisor: 4
GridSize: 32
TimelineZoom: 2.1

[Metadata]
Title:Ice Girl
TitleUnicode:Ice Girl
Artist:Emilie Simon
ArtistUnicode:Emilie Simon
Creator:Noctiam
Version:Solitude
Source:
Tags:la marche de l'empereur
BeatmapID:1979667
BeatmapSetID:947893

[Difficulty]
HPDrainRate:6
CircleSize:4
OverallDifficulty:8
ApproachRate:9
SliderMultiplier:2
SliderTickRate:1

[Events]
//Background and Video events
0,0,"solitude.jpg",0,0
//Break Periods
//Storyboard Layer 0 (Background)
//Storyboard Layer 1 (Fail)
//Storyboard Layer 2 (Pass)
//Storyboard Layer 3 (Foreground)
//Storyboard Sound Samples

[TimingPoints]
921,480,4,2,0,10,1,0
921,-133.333333333333,4,2,0,10,0,0
22041,-133.333333333333,4,2,0,15,0,0
22521,-133.333333333333,4,2,0,20,0,0
23001,-133.333333333333,4,2,0,25,0,0
23481,-133.333333333333,4,2,0,30,0,0
23961,-133.333333333333,4,2,0,35,0,0
24441,-133.333333333333,4,2,0,40,0,0
24921,-133.333333333333,4,2,0,45,0,0
25401,-133.333333333333,4,2,0,45,0,0
25881,-133.333333333333,4,2,0,45,0,0
26361,-133.333333333333,4,2,0,45,0,0
26841,-133.333333333333,4,2,0,5,0,0
27801,-100,4,2,0,50,0,0
50841,-95.2380952380952,4,2,0,50,0,0
58521,-86.9565217391304,4,2,0,50,0,0
81561,-100,4,2,0,50,0,0
85401,-90.9090909090909,4,2,0,50,0,0
108441,-80,4,2,0,50,0,0
119241,-200,4,2,0,50,0,0
119961,-66.6666666666667,4,2,0,70,0,1
135321,-76.9230769230769,4,2,0,50,0,0
143001,-100,4,2,0,50,0,0
150681,-133.333333333333,4,2,0,50,0,0

[Colours]
Combo1 : 43,149,255
Combo2 : 194,94,255
Combo3 : 124,124,190
Combo4 : 0,196,98

[HitObjects]
73,322,921,5,0,0:0:0:0:
171,291,1401,1,0,0:0:0:0:
270,338,1881,1,0,0:0:0:0:
368,307,2361,1,0,0:0:0:0:
486,216,2841,5,0,0:0:0:0:
388,185,3321,1,0,0:0:0:0:
289,232,3801,1,0,0:0:0:0:
191,201,4281,1,0,0:0:0:0:
20,40,4761,6,0,L|100:20,1,75.0000028610231
164,128,5241,2,0,L|90:108,1,75.0000028610231
207,40,5721,2,0,L|287:20,1,75.0000028610231
351,128,6201,2,0,L|277:108,1,75.0000028610231
429,40,6681,1,0,0:0:0:0:
316,31,7401,2,0,L|261:17,2,37.5000014305115
429,40,8121,2,0,L|442:117,1,75.0000028610231
459,221,8601,5,0,0:0:0:0:
334,309,9081,1,0,0:0:0:0:
205,191,9561,1,0,0:0:0:0:
300,228,9801,1,0,0:0:0:0:
229,297,10041,2,0,P|189:318|146:313,1,75.0000028610231
24,294,10521,6,0,L|91:235,1,75.0000028610231
151,172,11001,1,0,0:0:0:0:
58,131,11241,1,0,0:0:0:0:
103,43,11481,1,0,0:0:0:0:
337,237,11961,1,0,0:0:0:0:
250,59,12441,6,0,L|190:127,1,75.0000028610231
267,156,12921,2,0,L|249:244,1,75.0000028610231
332,216,13401,2,0,L|360:301,1,75.0000028610231
422,244,13881,2,0,L|490:304,1,75.0000028610231
489,186,14361,1,0,0:0:0:0:
506,113,15081,2,0,L|488:186,1,75.0000028610231
276,68,15801,2,0,L|297:168,1,75.0000028610231
348,253,16281,5,0,0:0:0:0:
313,367,16521,1,0,0:0:0:0:
444,311,16761,1,0,0:0:0:0:
437,135,17241,2,0,P|420:180|392:199,1,75.0000028610231
250,235,17721,2,0,P|281:207|292:164,1,75.0000028610231
200,68,18201,6,0,P|164:56|115:58,1,75.0000028610231
14,189,18681,2,0,P|52:194|98:176,1,75.0000028610231
221,268,19161,2,0,P|225:222|209:184,1,75.0000028610231
44,284,19641,1,0,0:0:0:0:
124,356,19881,1,0,0:0:0:0:
220,283,20121,5,0,0:0:0:0:
315,358,20361,1,0,0:0:0:0:
395,279,20601,1,0,0:0:0:0:
164,144,21081,2,0,L|185:72,1,75.0000028610231
359,22,21561,2,0,L|344:96,1,75.0000028610231
256,192,22041,1,0,0:0:0:0:
256,192,22161,12,0,26841,0:0:0:0:
397,60,27801,6,0,P|345:67|303:101,1,100
229,184,28281,1,0,0:0:0:0:
329,247,28521,1,0,0:0:0:0:
440,180,28761,2,0,P|447:234|436:287,1,100
348,362,29241,1,0,0:0:0:0:
240,309,29481,1,0,0:0:0:0:
134,364,29721,6,0,P|86:330|50:279,1,100
25,175,30201,1,0,0:0:0:0:
205,116,30441,1,0,0:0:0:0:
133,250,30681,2,0,P|119:191|120:136,1,100
286,62,31161,2,0,P|292:126|276:173,1,100
184,310,31641,6,0,P|236:335|319:313,1,100
410,291,32121,1,0,0:0:0:0:
309,235,32361,1,0,0:0:0:0:
384,378,32601,1,0,0:0:0:0:
384,378,32721,1,0,0:0:0:0:
384,378,32841,1,0,0:0:0:0:
503,265,33081,1,0,0:0:0:0:
411,140,33321,1,0,0:0:0:0:
309,235,33561,6,0,L|421:218,1,100
486,75,34041,2,0,L|372:52,1,100
271,29,34521,1,0,0:0:0:0:
139,213,35001,2,0,P|77:199|38:170,1,100
96,54,35481,6,0,L|204:36,1,100
221,169,35961,1,0,0:0:0:0:
101,145,36201,1,0,0:0:0:0:
23,267,36441,2,0,P|77:282|126:274,1,100
214,185,36921,1,0,0:0:0:0:
279,305,37161,1,0,0:0:0:0:
416,251,37401,6,0,L|500:166,1,100
348,181,37881,1,0,0:0:0:0:
509,281,38121,1,0,0:0:0:0:
454,92,38361,2,0,P|413:58|360:50,1,100
194,110,38841,2,0,P|250:124|291:107,1,100
141,182,39321,6,0,P|109:140|103:66,1,100
240,49,39801,1,0,0:0:0:0:
87,18,40041,1,0,0:0:0:0:
23,153,40281,1,0,0:0:0:0:
23,153,40401,1,0,0:0:0:0:
23,153,40521,1,0,0:0:0:0:
220,193,40761,1,0,0:0:0:0:
323,34,41001,1,0,0:0:0:0:
461,132,41241,6,0,L|426:232,1,100
267,261,41721,2,0,L|319:374,1,100
97,343,42201,1,0,0:0:0:0:
128,94,42681,2,0,L|18:76,1,100
233,44,43161,6,0,P|306:41|354:78,1,100
448,95,43641,1,0,0:0:0:0:
335,159,43881,1,0,0:0:0:0:
202,113,44121,2,0,P|173:153|169:202,1,100
186,340,44601,1,0,0:0:0:0:
292,225,44841,1,0,0:0:0:0:
417,276,45081,6,0,P|389:334|335:346,1,100
214,214,45561,1,0,0:0:0:0:
396,129,45801,1,0,0:0:0:0:
329,275,46041,2,0,P|310:224|302:156,1,100
210,25,46521,2,0,P|229:76|237:144,1,100
221,272,47001,6,0,L|114:252,1,100
23,209,47481,1,0,0:0:0:0:
177,188,47721,1,0,0:0:0:0:
107,356,47961,2,0,P|63:326|39:276,1,100
43,106,48441,1,0,0:0:0:0:
122,253,48681,1,0,0:0:0:0:
252,92,48921,6,0,P|201:108|179:156,1,100
243,288,49401,1,0,0:0:0:0:
342,183,49641,1,0,0:0:0:0:
166,267,49881,2,0,P|181:336|212:363,1,100
422,158,50361,2,0,P|407:227|376:254,1,100
187,77,50841,6,0,L|307:63,1,104.999996795654
342,183,51321,2,0,L|312:226,1,52.4999983978272
226,269,51561,2,0,L|197:226,1,52.4999983978272
299,315,51801,2,0,P|247:344|165:331,1,104.999996795654
56,304,52281,2,0,L|34:241,1,52.4999983978272
107,151,52521,2,0,L|130:216,1,52.4999983978272
32,109,52761,6,0,P|81:79|134:79,1,104.999996795654
313,132,53241,2,0,L|342:187,1,52.4999983978272
217,181,53481,2,0,L|182:110,1,52.4999983978272
258,61,53721,2,0,L|371:28,1,104.999996795654
486,136,54201,2,0,L|466:217,1,52.4999983978272
405,233,54441,2,0,L|433:313,1,52.4999983978272
481,349,54681,6,0,P|416:361|359:340,1,104.999996795654
208,263,55161,2,0,L|276:256,1,52.4999983978272
182,346,55401,2,0,L|120:333,1,52.4999983978272
129,224,55641,2,0,P|80:265|13:269,1,104.999996795654
30,100,56121,2,0,L|114:136,1,52.4999983978272
187,50,56361,2,0,L|129:23,1,52.4999983978272
215,141,56601,6,0,P|278:118|307:72,1,104.999996795654
476,27,57081,2,0,L|473:101,1,52.4999983978272
386,172,57321,2,0,L|391:98,1,52.4999983978272
470,225,57561,2,0,L|457:298,1,52.4999983978272
284,230,57801,2,0,L|297:157,1,52.4999983978272
375,265,58041,2,0,P|354:317|300:331,1,104.999996795654
113,322,58521,6,0,L|-4:303,1,115.000002193451
50,176,59001,2,0,P|119:192|176:173,1,115.000002193451
243,97,59481,1,0,0:0:0:0:
109,117,59721,1,0,0:0:0:0:
211,240,59961,1,0,0:0:0:0:
336,123,60201,1,0,0:0:0:0:
204,25,60441,6,0,P|170:83|171:135,1,115.000002193451
344,212,60921,1,0,0:0:0:0:
277,56,61161,1,0,0:0:0:0:
209,242,61401,2,0,P|255:283|319:288,1,115.000002193451
471,243,61881,1,0,0:0:0:0:
316,142,62121,1,0,0:0:0:0:
418,310,62361,6,0,P|432:239|410:192,1,115.000002193451
336,52,62841,1,0,0:0:0:0:
299,211,63081,1,0,0:0:0:0:
410,82,63321,1,0,0:0:0:0:
246,154,63561,1,0,0:0:0:0:
467,139,63801,1,0,0:0:0:0:
207,83,64041,1,0,0:0:0:0:
458,24,64281,6,0,P|408:51|337:47,1,115.000002193451
232,11,64761,1,0,0:0:0:0:
358,136,65001,1,0,0:0:0:0:
180,253,65241,2,0,B|130:218|148:186|148:186|161:180|161:180|148:173|148:173|161:168|161:168|148:161|148:161|160:157|160:157|188:127|129:82,1,230.000004386902
28,20,65961,1,0,0:0:0:0:
212,34,66201,6,0,L|350:19,1,115.000002193451
126,163,66681,2,0,L|-8:146,1,115.000002193451
78,328,67161,1,0,0:0:0:0:
254,263,67401,1,0,0:0:0:0:
202,357,67641,1,0,0:0:0:0:
65,201,67881,1,0,0:0:0:0:
213,66,68121,6,0,P|258:110|264:161,1,115.000002193451
302,330,68601,1,0,0:0:0:0:
148,196,68841,1,0,0:0:0:0:
372,98,69081,2,0,P|367:166|327:206,1,115.000002193451
202,301,69561,1,0,0:0:0:0:
128,87,69801,1,0,0:0:0:0:
325,20,70041,6,0,L|274:129,1,115.000002193451
218,228,70521,1,0,0:0:0:0:
200,68,70761,1,0,0:0:0:0:
241,249,71001,1,0,0:0:0:0:
422,134,71241,1,0,0:0:0:0:
261,270,71481,1,0,0:0:0:0:
60,230,71721,1,0,0:0:0:0:
204,43,71961,6,0,P|207:104|190:157,1,115.000002193451
123,336,72441,1,0,0:0:0:0:
96,164,72681,1,0,0:0:0:0:
256,343,72921,2,0,B|290:349|308:316|308:316|324:331|324:331|328:309|328:309|347:324|347:324|350:301|350:301|390:322|423:279,1,230.000004386902
295,161,73641,1,0,0:0:0:0:
481,67,73881,6,0,L|450:186,1,115.000002193451
420,285,74361,1,0,0:0:0:0:
371,150,74601,1,0,0:0:0:0:
284,267,74841,2,0,P|244:221|241:154,1,115.000002193451
182,34,75321,1,0,0:0:0:0:
302,78,75561,1,0,0:0:0:0:
108,111,75801,6,0,P|91:164|97:236,1,115.000002193451
123,361,76281,1,0,0:0:0:0:
25,272,76521,1,0,0:0:0:0:
234,346,76761,2,0,P|245:288|215:232,1,115.000002193451
106,111,77241,1,0,0:0:0:0:
168,300,77481,1,0,0:0:0:0:
356,105,77721,6,0,L|252:162,1,115.000002193451
183,87,78201,1,0,0:0:0:0:
94,281,78441,1,0,0:0:0:0:
309,239,78681,2,0,P|354:278|434:283,1,115.000002193451
312,358,79161,1,0,0:0:0:0:
232,151,79401,1,0,0:0:0:0:
438,207,79641,6,0,L|450:91,1,115.000002193451
320,25,80121,1,0,0:0:0:0:
272,189,80361,1,0,0:0:0:0:
201,55,80601,1,0,0:0:0:0:
372,133,80841,1,0,0:0:0:0:
171,222,81081,1,0,0:0:0:0:
294,19,81321,1,0,0:0:0:0:
380,250,81561,6,0,L|410:352,1,100
276,294,82041,1,0,0:0:0:0:
214,363,82281,1,0,0:0:0:0:
126,332,82521,1,0,0:0:0:0:
14,111,83001,1,0,0:0:0:0:
98,151,83241,1,0,0:0:0:0:
161,90,83481,6,0,P|207:93|257:52,1,100
420,25,83961,1,0,0:0:0:0:
336,64,84201,1,0,0:0:0:0:
356,151,84441,1,0,0:0:0:0:
426,374,84921,1,0,0:0:0:0:
501,318,85161,1,0,0:0:0:0:
455,247,85401,6,0,L|349:281,1,110.000003356934
265,355,85881,2,0,L|200:346,1,55.0000016784668
201,267,86121,2,0,L|128:254,1,55.0000016784668
51,332,86361,1,0,0:0:0:0:
8,154,86601,2,0,L|16:226,1,55.0000016784668
99,89,86841,2,0,L|98:145,1,55.0000016784668
195,32,87081,2,0,L|191:97,1,55.0000016784668
206,190,87321,5,0,0:0:0:0:
242,199,87441,1,0,0:0:0:0:
280,194,87561,1,0,0:0:0:0:
416,80,87801,2,0,L|348:66,1,55.0000016784668
268,67,88041,1,0,0:0:0:0:
382,162,88281,5,0,0:0:0:0:
224,136,88521,1,0,0:0:0:0:
360,237,88761,1,0,0:0:0:0:
509,291,89001,1,0,0:0:0:0:
325,313,89241,6,0,P|270:307|210:348,1,110.000003356934
144,372,89721,1,0,0:0:0:0:
57,219,89961,2,0,L|41:279,1,55.0000016784668
152,228,90201,2,0,L|133:153,1,55.0000016784668
93,21,90681,1,0,0:0:0:0:
19,108,90921,1,0,0:0:0:0:
151,98,91161,6,0,L|209:88,1,55.0000016784668
303,75,91401,1,0,0:0:0:0:
464,180,91641,2,0,L|496:242,1,55.0000016784668
324,356,92001,1,0,0:0:0:0:
46,248,92361,1,0,0:0:0:0:
154,352,92601,1,0,0:0:0:0:
249,194,92841,1,0,0:0:0:0:
16,93,93081,6,0,P|41:155|94:177,1,110.000003356934
287,108,93561,2,0,P|262:46|209:24,1,110.000003356934
201,214,94041,2,0,P|226:276|279:298,1,110.000003356934
472,229,94521,2,0,P|447:167|394:145,1,110.000003356934
208,74,95001,6,0,L|99:54,1,110.000003356934
230,335,95481,2,0,L|361:317,1,110.000003356934
136,247,95961,2,0,L|27:227,1,110.000003356934
302,162,96441,1,0,0:0:0:0:
460,224,96681,1,0,0:0:0:0:
364,35,96921,6,0,P|293:31|237:62,1,110.000003356934
191,157,97401,1,0,0:0:0:0:
47,115,97641,1,0,0:0:0:0:
25,146,97761,1,0,0:0:0:0:
18,183,97881,1,0,0:0:0:0:
27,220,98001,2,0,L|55:282,1,55.0000016784668
183,367,98361,1,0,0:0:0:0:
250,236,98601,1,0,0:0:0:0:
74,353,98841,6,0,P|128:307|148:252,1,110.000003356934
119,99,99321,2,0,L|55:104,1,55.0000016784668
150,176,99561,2,0,L|220:167,1,55.0000016784668
287,84,99801,2,0,P|240:100|186:53,1,110.000003356934
304,195,100281,1,0,0:0:0:0:
195,276,100521,1,0,0:0:0:0:
57,137,100761,6,0,L|163:103,1,110.000003356934
247,29,101241,2,0,L|312:38,1,55.0000016784668
365,126,101481,2,0,L|311:117,1,55.0000016784668
425,47,101721,1,0,0:0:0:0:
504,230,101961,2,0,L|496:158,1,55.0000016784668
413,240,102201,2,0,L|413:295,1,55.0000016784668
317,352,102441,2,0,L|321:287,1,55.0000016784668
306,194,102681,5,0,0:0:0:0:
269,184,102801,1,0,0:0:0:0:
231,189,102921,1,0,0:0:0:0:
96,304,103161,2,0,L|164:318,1,55.0000016784668
244,317,103401,1,0,0:0:0:0:
130,222,103641,5,0,0:0:0:0:
288,248,103881,1,0,0:0:0:0:
0,173,104121,1,0,0:0:0:0:
152,147,104361,1,0,0:0:0:0:
288,52,104601,6,0,P|240:77|187:71,1,110.000003356934
368,12,105081,1,0,0:0:0:0:
446,175,105321,1,0,0:0:0:0:
429,135,105441,1,0,0:0:0:0:
388,124,105561,1,0,0:0:0:0:
354,149,105681,2,0,L|377:223,1,55.0000016784668
419,363,106041,1,0,0:0:0:0:
493,276,106281,1,0,0:0:0:0:
361,286,106521,6,0,L|303:296,1,55.0000016784668
209,309,106761,1,0,0:0:0:0:
48,185,107001,1,0,0:0:0:0:
48,185,107121,1,0,0:0:0:0:
257,102,107361,1,0,0:0:0:0:
257,102,107481,1,0,0:0:0:0:
59,35,107721,1,0,0:0:0:0:
186,216,107961,1,0,0:0:0:0:
269,22,108201,1,0,0:0:0:0:
77,118,108441,6,0,P|54:154|68:238,1,125
84,349,108841,2,0,L|144:355,1,41.6666666666667
207,281,109081,2,0,L|293:261,2,83.3333333333333
330,134,109801,2,0,L|272:104,1,41.6666666666667
365,325,110041,2,0,L|446:306,1,83.3333333333333
499,215,110361,6,0,P|445:180|416:122,1,125
463,17,110761,2,0,L|490:73,1,41.6666666666667
293,115,111001,2,0,L|328:40,1,83.3333333333333
170,69,111321,2,0,L|182:152,1,83.3333333333333
377,257,111641,2,0,L|318:199,1,83.3333333333333
220,279,111961,2,0,P|162:274|135:246,1,83.3333333333333
23,97,112281,6,0,L|57:217,1,125
111,74,112681,2,0,L|98:34,1,41.6666666666667
264,106,112921,2,0,P|234:99|181:49,2,83.3333333333333
486,71,113561,6,0,P|436:71|385:92,1,83.3333333333333
244,211,113881,2,0,P|299:228|352:216,1,83.3333333333333
487,199,114201,6,0,L|468:323,1,125
334,346,114601,2,0,L|272:310,1,41.6666666666667
205,199,114841,2,0,P|250:203|288:236,1,83.3333333333333
472,255,115161,2,0,P|404:234|379:206,1,83.3333333333333
262,69,115641,2,0,P|330:48|356:13,2,83.3333333333333
147,160,116121,6,0,L|25:134,1,125
104,307,116601,2,0,P|167:312|255:271,1,125
371,141,117081,2,0,L|258:200,1,125
450,241,117561,2,0,P|489:174|479:109,1,125
260,31,118041,6,0,L|242:108,1,62.5
127,120,118281,2,0,L|146:47,1,62.5
225,165,118521,2,0,L|207:242,1,62.5
62,249,118761,2,0,L|81:176,1,62.5
193,300,119001,2,0,L|172:387,1,62.5
9,122,119241,6,0,B|20:78|20:78|64:105|114:75,1,125
191,137,119961,6,0,L|290:120,1,75.0000028610231,8|0,0:0|0:0,0:0:0:0:
399,45,120201,2,0,L|323:38,1,75.0000028610231,8|0,0:0|0:0,0:0:0:0:
130,230,120441,2,0,L|229:213,1,75.0000028610231,8|0,0:0|0:0,0:0:0:0:
493,126,120681,2,0,L|417:119,1,75.0000028610231,8|0,0:0|0:0,0:0:0:0:
266,122,120921,6,0,P|281:169|319:196,1,75.0000028610231,8|0,0:0|0:0,0:0:0:0:
450,261,121161,2,0,P|416:259|370:274,1,75.0000028610231,8|0,0:0|0:0,0:0:0:0:
107,367,121401,2,0,P|157:362|193:333,1,75.0000028610231,8|0,0:0|0:0,0:0:0:0:
186,63,121641,2,0,P|183:97|199:143,1,75.0000028610231,8|0,0:0|0:0,0:0:0:0:
290,279,121881,6,0,L|334:365,1,75.0000028610231,8|0,0:0|0:0,0:0:0:0:
102,132,122121,2,0,P|66:147|37:185,1,75.0000028610231,8|0,0:0|0:0,0:0:0:0:
367,235,122361,2,0,L|448:287,1,75.0000028610231,8|0,0:0|0:0,0:0:0:0:
113,250,122601,2,0,P|89:280|83:328,1,75.0000028610231,8|0,0:0|0:0,0:0:0:0:
388,146,122841,2,0,L|463:149,1,75.0000028610231,8|0,0:0|0:0,0:0:0:0:
195,311,123081,2,0,P|189:347|201:382,1,75.0000028610231,8|0,0:0|0:0,0:0:0:0:
340,60,123321,2,0,L|406:26,1,75.0000028610231,8|0,0:0|0:0,0:0:0:0:
295,325,123561,2,0,P|308:359|336:384,1,75.0000028610231,8|0,0:0|0:0,0:0:0:0:
236,108,123801,6,0,L|226:66,4,37.5000014305115
77,299,124281,2,0,L|37:283,4,37.5000014305115
439,304,124761,2,0,L|473:298,12,25.0000009536744
239,34,125481,2,0,P|231:65|238:114,1,75.0000028610231
215,266,125721,6,0,P|169:272|128:305,1,75.0000028610231,8|0,0:0|0:0,0:0:0:0:
319,190,125961,2,0,P|365:184|406:151,1,75.0000028610231,8|0,0:0|0:0,0:0:0:0:
79,134,126201,2,0,P|112:152|150:155,1,75.0000028610231
428,333,126441,2,0,P|395:315|358:313,1,75.0000028610231,8|0,0:0|0:0,0:0:0:0:
17,251,126681,2,0,P|49:233|87:230,1,75.0000028610231,8|0,0:0|0:0,0:0:0:0:
427,38,126921,2,0,P|394:55|356:58,1,75.0000028610231
160,25,127161,2,0,P|110:21|32:67,1,75.0000028610231,10|2,0:0|0:0,0:0:0:0:
17,349,127641,6,0,L|111:339,1,75.0000028610231,8|0,0:0|0:0,0:0:0:0:
242,169,127881,2,0,L|141:177,1,75.0000028610231,8|0,0:0|0:0,0:0:0:0:
381,351,128121,2,0,P|387:296|381:257,1,75.0000028610231
97,216,128361,2,0,P|136:242|182:246,1,75.0000028610231
257,40,128601,6,0,P|220:34|186:46,1,75.0000028610231
379,206,128841,2,0,P|411:186|430:154,1,75.0000028610231,8|0,0:0|0:0,0:0:0:0:
257,343,129081,2,0,P|220:349|186:337,1,75.0000028610231,8|0,0:0|0:0,0:0:0:0:
65,64,129321,1,8,0:0:0:0:
90,304,129561,6,0,P|49:313|8:304,1,75.0000028610231,8|0,0:0|0:0,0:0:0:0:
251,136,129801,2,0,P|265:170|263:225,1,75.0000028610231
93,185,130041,2,0,P|57:162|35:127,1,75.0000028610231,8|0,0:0|0:0,0:0:0:0:
388,212,130281,2,0,P|373:245|333:283,1,75.0000028610231
153,246,130521,6,0,P|186:280|256:283,1,75.0000028610231,8|0,0:0|0:0,0:0:0:0:
380,58,130761,2,0,L|402:25,16,25.0000009536744
352,49,131481,6,0,P|313:67|295:106,1,75.0000028610231,8|0,0:0|0:0,0:0:0:0:
378,323,131721,2,0,P|384:288|374:244,1,75.0000028610231,8|0,0:0|0:0,0:0:0:0:
218,81,131961,2,0,P|193:116|197:158,1,75.0000028610231,8|0,0:0|0:0,0:0:0:0:
451,241,132201,2,0,P|438:207|408:174,1,75.0000028610231,8|0,0:0|0:0,0:0:0:0:
116,135,132441,2,0,P|112:177|136:212,1,75.0000028610231,8|0,0:0|0:0,0:0:0:0:
484,139,132681,2,0,P|456:116|413:102,1,75.0000028610231
63,255,132921,2,0,P|81:294|120:312,1,75.0000028610231,8|0,0:0|0:0,0:0:0:0:
454,38,133161,2,0,P|419:32|375:42,1,75.0000028610231,8|0,0:0|0:0,0:0:0:0:
211,159,133401,6,0,P|168:156|110:131,1,75.0000028610231,8|0,0:0|0:0,0:0:0:0:
300,228,133641,2,0,P|343:225|401:200,1,75.0000028610231,8|0,0:0|0:0,0:0:0:0:
166,259,133881,2,0,P|123:262|65:287,1,75.0000028610231
346,99,134121,2,0,P|389:102|447:127,1,75.0000028610231,8|0,0:0|0:0,0:0:0:0:
127,104,134361,2,0,P|84:101|26:76,1,75.0000028610231,8|0,0:0|0:0,0:0:0:0:
385,305,134601,2,0,P|428:302|486:277,1,75.0000028610231
76,281,134841,2,0,P|33:284|-25:309,1,75.0000028610231,10|2,0:0|0:0,0:0:0:0:
436,76,135081,2,0,P|473:78|531:103,1,75.0000028610231,8|0,0:0|0:0,0:0:0:0:
263,267,135321,6,0,P|204:232|178:153,1,129.999994049073
457,147,135801,2,0,L|430:220,1,64.9999970245363
270,62,136041,2,0,L|355:51,1,64.9999970245363
180,179,136281,2,0,P|126:168|65:90,1,129.999994049073
282,202,136761,2,0,L|207:280,1,64.9999970245363
35,30,137001,2,0,L|116:40,1,64.9999970245363
103,198,137241,6,0,P|55:203|13:268,1,129.999994049073
227,364,137721,2,0,P|258:337|271:304,1,64.9999970245363
281,205,137961,2,0,P|249:199|218:205,1,64.9999970245363
392,310,138201,2,0,P|404:280|403:247,1,64.9999970245363
381,120,138441,2,0,P|356:98|326:87,1,64.9999970245363
102,66,138681,2,0,L|182:55,1,64.9999970245363
82,237,138921,2,0,L|11:257,1,64.9999970245363
285,340,139161,6,8,P|346:352|392:310,1,129.999994049073
42,177,139641,2,0,P|44:137|58:96,1,64.9999970245363
334,215,139881,2,0,P|332:259|321:283,1,64.9999970245363
166,57,140121,2,0,P|226:29|319:53,1,129.999994049073
73,292,140601,2,0,P|102:306|135:311,1,64.9999970245363
399,121,140841,2,0,P|383:93|358:73,1,64.9999970245363
101,51,141081,6,0,L|169:69,1,64.9999970245363
276,224,141321,2,0,P|249:204|227:160,1,64.9999970245363
480,164,141561,2,0,L|459:244,1,64.9999970245363
356,39,141801,1,0,0:0:0:0:
255,365,142041,6,0,P|325:353|394:380,1,129.999994049073
254,39,142521,2,0,P|176:50|116:29,1,129.999994049073
473,104,143001,6,0,L|450:210,1,100
349,139,143481,2,0,L|323:256,1,100
224,199,143961,2,0,L|201:305,1,100
100,234,144441,2,0,L|74:351,1,100
32,151,144921,6,0,P|81:141|136:158,1,100
300,237,145401,2,0,P|251:227|196:244,1,100
238,97,145881,2,0,P|287:87|342:104,1,100
506,183,146361,2,0,P|457:173|402:190,1,100
371,321,146841,6,0,P|316:325|272:293,1,100
145,140,147321,2,0,P|200:136|244:168,1,100
501,204,147801,2,0,P|446:208|402:176,1,100
275,23,148281,2,0,P|330:19|374:51,1,100
318,185,148761,6,0,L|284:303,1,100
110,366,149241,1,0,0:0:0:0:
75,279,149481,1,0,0:0:0:0:
44,187,149721,2,0,L|14:85,1,100
176,17,150201,2,0,L|221:125,1,100
278,215,150681,5,0,0:0:0:0:
405,97,151161,1,0,0:0:0:0:
477,243,151641,1,0,0:0:0:0:
447,326,151881,1,0,0:0:0:0:
367,363,152121,1,0,0:0:0:0:
133,327,152601,5,0,0:0:0:0:
305,268,153081,1,0,0:0:0:0:
141,162,153561,1,0,0:0:0:0:
337,78,154041,1,0,0:0:0:0:
419,243,154521,5,0,0:0:0:0:
187,38,155001,1,0,0:0:0:0:
490,121,155481,1,0,0:0:0:0:
286,299,155961,1,0,0:0:0:0:
75,166,156441,5,0,0:0:0:0:
75,166,156681,2,0,L|90:250,1,75.0000028610231
154,308,157161,2,0,P|122:354|91:358,1,75.0000028610231
286,319,157881,1,0,0:0:0:0:
474,96,158361,5,0,0:0:0:0:
381,44,158601,1,0,0:0:0:0:
284,71,158841,1,0,0:0:0:0:
298,345,159321,1,0,0:0:0:0:
374,133,159801,1,0,0:0:0:0:
115,144,160281,5,0,0:0:0:0:
257,355,160761,1,0,0:0:0:0:
305,99,161241,1,0,0:0:0:0:
161,134,161481,1,0,0:0:0:0:
255,35,161721,1,0,0:0:0:0:
210,202,161961,1,0,0:0:0:0:
119,57,162201,5,0,0:0:0:0:
50,128,162441,1,0,0:0:0:0:
67,218,162681,1,0,0:0:0:0:
241,338,163161,1,0,0:0:0:0:
215,145,163641,1,0,0:0:0:0:
76,319,164121,6,0,L|155:359,1,75.0000028610231
393,319,164601,2,0,L|322:343,1,75.0000028610231
146,196,165081,2,0,L|225:236,1,75.0000028610231
467,147,165561,2,0,L|395:170,1,75.0000028610231
319,257,166041,5,0,0:0:0:0:
443,248,166281,1,0,0:0:0:0:
482,344,166521,1,0,0:0:0:0:
213,307,167001,1,0,0:0:0:0:
371,155,167481,1,0,0:0:0:0:
164,38,167961,5,0,0:0:0:0:
105,267,168441,1,0,0:0:0:0:
305,117,168921,1,0,0:0:0:0:
339,295,169161,1,0,0:0:0:0:
395,123,169401,1,0,0:0:0:0:
258,276,169641,1,0,0:0:0:0:
455,184,169881,5,0,0:0:0:0:
208,213,170121,1,0,0:0:0:0:
319,33,170361,1,0,0:0:0:0:
193,351,171321,5,0,0:0:0:0:
255,192,171801,5,0,0:0:0:0:
256,192,171921,12,0,173721,0:0:0:0:
