osu file format v14

[General]
AudioFilename: audio.mp3
AudioLeadIn: 0
PreviewTime: 50236
Countdown: 0
SampleSet: Soft
StackLeniency: 0.2
Mode: 0
LetterboxInBreaks: 1
WidescreenStoryboard: 0

[Editor]
DistanceSpacing: 1
BeatDivisor: 4
GridSize: 4
TimelineZoom: 1.5

[Metadata]
Title:Stay Alive(Jun Kuroda Bootleg Remix)
TitleUnicode:Stay Alive(Jun Kuroda Bootleg Remix)
Artist:Emilia(CV:Rie Takahashi)
ArtistUnicode:エミリア(CV:高橋李依)
Creator:loke700
Version:Rem
Source:Re:ゼロから始める異世界生活
Tags:Re:Zero kara Hajimeru Isekai Seikatsu, Anime, Japanese
BeatmapID:1102125
BeatmapSetID:518733

[Difficulty]
HPDrainRate:7
CircleSize:4
OverallDifficulty:7.5
ApproachRate:9
SliderMultiplier:1.6
SliderTickRate:1

[Events]
//Background and Video events
0,0,"BG.jpg",0,0
//Break Periods
2,156122,165151
//Storyboard Layer 0 (Background)
//Storyboard Layer 1 (Fail)
//Storyboard Layer 2 (Pass)
//Storyboard Layer 3 (Foreground)
//Storyboard Sound Samples

[TimingPoints]
1441,344.827586206897,4,2,1,35,1,0
12475,-100,4,2,1,45,0,0
23509,-100,4,2,1,60,0,0
34115,-66.6666666666667,4,2,1,60,0,0
34716,-100,4,2,1,60,0,0
44803,-66.6666666666667,4,2,1,60,0,0
45236,-100,4,2,1,60,0,0
45580,-133.333333333333,4,2,1,10,0,0
46268,-200,4,2,1,10,0,0
46613,-133.333333333333,4,2,1,10,0,0
47647,-200,4,2,1,10,0,0
47992,-133.333333333333,4,2,1,10,0,0
50406,-200,4,2,1,15,0,0
51096,-66.6666666666667,4,2,1,60,0,1
62130,-100,4,2,1,60,0,1
62647,-66.6666666666667,4,2,1,60,0,1
71441,-200,4,2,1,60,0,0
72303,-133.333333333333,4,2,1,60,0,0
72820,-100,4,2,1,60,0,0
78682,-66.6666666666667,4,2,1,60,0,0
84199,-100,4,2,1,60,0,0
105837,-100,4,2,1,60,0,0
106958,-200,4,2,1,10,0,0
107303,-133.333333333333,4,2,1,10,0,0
108337,-200,4,2,1,10,0,0
108854,-200,4,2,1,20,0,0
109199,-100,4,2,1,30,0,0
109544,-100,4,2,1,40,0,0
109889,-100,4,2,1,50,0,0
110234,-100,4,2,1,60,0,0
111096,-200,4,2,1,60,0,0
111785,-66.6666666666667,4,2,1,60,0,1
131958,-100,4,2,1,60,0,0
155234,-66.6666666666667,4,2,1,60,0,0
166958,-100,4,2,1,45,0,0
175061,-133.333333333333,4,2,1,45,0,0
175578,-100,4,2,1,45,0,0
177303,-66.6666666666667,4,2,1,45,0,0
178165,-100,4,2,1,60,0,0
178682,-66.6666666666667,4,2,1,60,0,0
179716,-100,4,2,1,60,0,0
180406,-133.333333333333,4,2,1,60,0,0
180923,-100,4,2,1,60,0,0
188682,-58.8235294117647,4,2,1,60,0,1
205665,-100,4,2,1,60,0,0
209716,-100,4,2,1,50,0,0
210061,-100,4,2,1,45,0,0
210406,-100,4,2,1,40,0,0
210751,-200,4,2,1,35,0,0
210923,-200,4,2,1,30,0,0
211096,-200,4,2,1,25,0,0
211268,-200,4,2,1,20,0,0
211441,-200,4,2,1,15,0,0
211613,-200,4,2,1,10,0,0
211785,-200,4,2,1,5,0,0
213337,-100,4,2,1,5,0,0
219372,-133.333333333333,4,2,1,5,0,0
221958,-200,4,2,1,5,0,0

[Colours]
Combo1 : 255,255,255
Combo2 : 0,255,168
Combo3 : 244,250,37
Combo4 : 0,191,255

[HitObjects]
145,171,1441,6,0,P|233:103|269:131,1,160
258,118,2130,1,0,0:0:0:0:
192,236,2303,1,0,0:0:0:0:
328,216,2475,1,0,0:0:0:0:
332,288,2820,6,0,P|396:228|356:152,1,160
377,167,3337,1,0,0:0:0:0:
232,37,3509,1,0,0:0:0:0:
273,226,3682,1,0,0:0:0:0:
352,49,3854,1,0,0:0:0:0:
183,146,4027,1,0,0:0:0:0:
280,124,4199,6,0,P|294:92|272:32,1,80
156,72,4544,2,0,L|76:144,1,80
152,236,4889,2,0,P|156:252|221:290,1,80
332,312,5234,2,0,P|264:216|220:220,1,160
230,211,5751,1,0,0:0:0:0:
300,328,5923,1,0,0:0:0:0:
392,204,6096,1,0,0:0:0:0:
230,211,6268,1,0,0:0:0:0:
372,268,6441,1,0,0:0:0:0:
312,128,6613,1,0,0:0:0:0:
444,156,6785,1,0,0:0:0:0:
316,288,6958,6,0,B|281:214|196:176,1,160
203,179,7647,1,0,0:0:0:0:
89,149,7820,1,0,0:0:0:0:
108,320,7992,1,0,0:0:0:0:
420,76,8337,6,0,P|337:62|318:138,1,160
313,122,8854,1,0,0:0:0:0:
323,318,9026,1,0,0:0:0:0:
428,154,9199,1,0,0:0:0:0:
247,223,9371,1,0,0:0:0:0:
435,274,9544,1,0,0:0:0:0:
344,216,9716,2,0,P|350:182|390:154,1,80
268,44,10061,2,0,L|232:128,1,80
208,276,10406,2,0,P|188:256|168:203,1,80
344,216,10751,6,0,P|429:170|355:74,1,240
365,74,11441,1,0,0:0:0:0:
277,179,11613,1,0,0:0:0:0:
257,33,11785,1,0,0:0:0:0:
349,144,11958,1,0,0:0:0:0:
184,95,12130,1,0,0:0:0:0:
259,255,12303,1,0,0:0:0:0:
108,328,12475,5,2,0:0:0:0:
108,328,12647,2,0,P|108:304|116:228,1,80
184,168,12992,1,0,0:0:0:0:
259,255,13165,2,0,P|296:168|272:96,1,160,8|0,0:0|0:0,0:0:0:0:
400,176,13682,2,0,P|428:184|472:228,1,80
388,308,14027,1,0,0:0:0:0:
324,208,14199,1,0,0:0:0:0:
420,136,14372,1,0,0:0:0:0:
416,40,14544,6,0,P|376:48|328:160,1,160,8|0,0:0|0:0,0:0:0:0:
264,252,15061,2,0,P|244:222|216:184,1,80
120,256,15406,1,0,0:0:0:0:
60,152,15578,2,0,P|88:146|160:148,1,80
244,88,15923,2,0,P|264:153|224:232,1,160,8|0,0:0|0:0,0:0:0:0:
152,148,16441,1,0,0:0:0:0:
248,76,16613,1,0,0:0:0:0:
308,180,16785,1,0,0:0:0:0:
400,104,16958,2,0,P|422:39|420:8,1,80
452,252,17303,6,0,L|372:216,1,80,8|0,0:0|0:0,0:0:0:0:
260,208,17647,1,0,0:0:0:0:
192,280,17820,2,0,P|164:206|208:128,1,160,8|0,0:0|0:0,0:0:0:0:
308,44,18337,1,0,0:0:0:0:
160,80,18509,1,0,0:0:0:0:
264,116,18682,2,0,P|239:196|156:220,1,160,8|0,0:0|0:0,0:0:0:0:
72,156,19199,2,0,P|129:137|156:144,1,80
180,264,19544,1,0,0:0:0:0:
284,324,19716,1,0,0:0:0:0:
272,204,19889,1,0,0:0:0:0:
328,100,20061,6,0,P|392:112|436:196,1,160,8|0,0:0|0:0,0:0:0:0:
400,304,20578,2,0,P|377:241|360:216,1,80
288,164,20923,1,0,0:0:0:0:
176,208,21096,2,0,P|124:240|108:264,1,80
264,332,21441,2,0,P|260:245|292:160,1,160,8|0,0:0|0:0,0:0:0:0:
288,164,22130,5,0,0:0:0:0:
416,288,22303,5,0,0:0:0:0:
291,28,22475,1,0,0:0:0:0:
291,316,22647,1,0,0:0:0:0:
416,57,22820,1,0,0:0:0:0:
191,236,22992,1,0,0:0:0:0:
471,172,23165,1,0,0:0:0:0:
191,108,23337,1,0,0:0:0:0:
337,96,23509,6,0,P|309:144|304:176,1,80
320,248,23854,1,2,0:0:0:0:
344,324,24027,1,0,0:0:0:0:
196,292,24199,2,0,P|224:244|228:208,1,80
192,72,24544,1,0,0:0:0:0:
84,180,24716,2,0,P|104:188|196:296,1,160
316,196,25234,1,2,0:0:0:0:
316,196,25406,2,0,L|332:100,1,80
184,76,25751,1,0,0:0:0:0:
208,224,25923,1,0,0:0:0:0:
164,176,26096,6,0,B|144:152|144:152|152:112|140:64|88:40|36:52|24:128,1,240,0|2,0:0|0:0,0:0:0:0:
84,248,26785,1,0,0:0:0:0:
204,324,26958,2,0,P|210:273|156:164,1,160
312,264,27475,1,0,0:0:0:0:
312,264,27561,1,0,0:0:0:0:
312,264,27647,2,0,P|362:252|396:224,1,80
420,84,27992,1,2,0:0:0:0:
280,44,28165,2,0,P|244:96|244:204,1,160
240,348,28682,1,0,0:0:0:0:
294,293,28854,6,0,B|460:108,1,240,0|2,0:0|0:0,0:0:0:0:
316,76,29544,1,0,0:0:0:0:
264,200,29716,2,0,L|208:116,1,80
392,160,30061,1,0,0:0:0:0:
452,292,30234,5,0,0:0:0:0:
452,292,30320,1,0,0:0:0:0:
452,292,30406,2,0,L|412:204,1,80
292,284,30751,1,2,0:0:0:0:
288,140,30923,2,0,P|204:168|160:236,1,160
176,336,31441,5,0,0:0:0:0:
304,272,31613,2,0,P|344:240|361:130,1,160
336,48,32130,5,0,0:0:0:0:
208,112,32302,2,0,P|168:144|151:254,1,160
147,106,32820,6,0,L|104:32,1,80
216,212,33165,2,0,L|256:124,1,80
224,336,33509,2,0,L|316:272,1,80,2|0,0:0|0:0,0:0:0:0:
482,307,33854,5,0,0:0:0:0:
480,268,33940,1,0,0:0:0:0:
456,232,34026,1,0,0:0:0:0:
408,188,34113,1,0,0:0:0:0:
344,152,34199,6,0,L|276:128,1,60.0000022888184
264,216,34372,6,0,L|184:236,1,60.0000022888184
108,240,34544,5,0,0:0:0:0:
44,96,34716,1,0,0:0:0:0:
164,44,34889,1,2,0:0:0:0:
183,62,34975,1,0,0:0:0:0:
197,84,35061,1,0,0:0:0:0:
203,110,35147,1,0,0:0:0:0:
203,136,35233,1,0,0:0:0:0:
192,268,35406,1,0,0:0:0:0:
296,204,35578,2,0,L|304:116,1,80
448,64,35923,2,0,L|388:136,1,80
464,196,36268,1,2,0:0:0:0:
456,296,36441,5,0,0:0:0:0:
429,317,36527,1,0,0:0:0:0:
398,332,36613,1,0,0:0:0:0:
362,337,36699,1,0,0:0:0:0:
328,332,36785,1,0,0:0:0:0:
368,228,36958,1,0,0:0:0:0:
244,184,37130,2,0,P|192:152|152:60,1,160
312,48,37647,5,2,0:0:0:0:
346,48,37733,1,0,0:0:0:0:
379,59,37819,1,0,0:0:0:0:
407,80,37905,1,0,0:0:0:0:
428,108,37991,1,0,0:0:0:0:
424,288,38165,5,0,0:0:0:0:
244,236,38337,1,0,0:0:0:0:
332,152,38509,1,0,0:0:0:0:
324,264,38682,2,0,L|304:344,1,80
224,220,39027,1,2,0:0:0:0:
316,152,39199,2,0,L|416:136,1,80
268,68,39544,2,0,L|168:104,1,80
128,224,39889,2,0,L|28:180,1,80
120,64,40234,5,0,0:0:0:0:
155,69,40320,1,0,0:0:0:0:
186,84,40406,2,0,P|240:116|260:212,1,160,2|0,0:0|0:0,0:0:0:0:
192,324,40923,1,0,0:0:0:0:
108,208,41096,2,0,P|140:184|184:176,1,80
304,248,41441,2,0,P|306:213|300:168,1,80
264,72,41786,5,2,0:0:0:0:
224,216,41958,1,0,0:0:0:0:
356,160,42130,1,0,0:0:0:0:
292,288,42303,1,0,0:0:0:0:
280,144,42475,1,0,0:0:0:0:
148,200,42647,1,0,0:0:0:0:
68,80,42820,2,0,L|36:176,1,80
116,280,43165,2,0,L|156:176,1,80,2|0,0:0|0:0,0:0:0:0:
272,272,43509,2,0,L|344:232,1,80
392,96,43854,2,0,L|300:140,1,80
140,80,44199,5,0,0:0:0:0:
108,100,44285,1,0,0:0:0:0:
92,140,44371,1,0,0:0:0:0:
100,184,44457,1,0,0:0:0:0:
132,216,44543,1,2,0:0:0:0:
176,240,44630,1,0,0:0:0:0:
212,276,44716,1,0,0:0:0:0:
232,320,44802,1,0,0:0:0:0:
324,328,44889,6,0,L|416:304,1,60.0000022888184
428,228,45061,6,0,L|496:164,1,60.0000022888184
384,124,45234,6,0,L|344:72,4,60.0000022888184
180,55,46268,2,0,L|180:119,1,60.0000022888184
180,115,46613,2,0,B|100:184|248:232|216:336,1,240.000009155274
280,336,47475,5,0,0:0:0:0:
280,336,47647,2,0,P|318:288|316:280,1,60
320,262,47992,2,0,P|308:86|414:232,1,480.000018310548
348,176,49544,5,0,0:0:0:0:
348,176,49630,1,0,0:0:0:0:
348,176,49716,2,0,L|225:102,1,120.000004577637
416,272,50234,5,0,0:0:0:0:
416,272,50406,2,0,P|406:257|392:136,1,140
396,124,51096,5,4,0:0:0:0:
268,296,51268,1,0,0:0:0:0:
148,116,51441,2,0,P|139:108|32:84,1,120.000004577637
112,320,51785,1,8,0:0:0:0:
308,228,51958,1,0,0:0:0:0:
192,48,52130,2,0,P|152:88|164:172,1,120.000004577637
368,176,52475,2,0,P|348:156|272:104,1,120.000004577637,8|0,0:0|0:0,0:0:0:0:
56,120,52820,5,0,0:0:0:0:
62,172,52906,1,0,0:0:0:0:
85,219,52992,1,0,0:0:0:0:
120,257,53078,1,0,0:0:0:0:
165,284,53164,1,8,0:0:0:0:
372,224,53337,1,0,0:0:0:0:
224,68,53509,2,0,P|220:88|160:168,1,120.000004577637
48,352,53854,2,0,P|64:337|167:302,1,120.000004577637,8|0,0:0|0:0,0:0:0:0:
404,288,54199,5,0,0:0:0:0:
296,48,54372,1,0,0:0:0:0:
272,192,54544,1,8,0:0:0:0:
400,152,54716,1,0,0:0:0:0:
176,216,54889,1,0,0:0:0:0:
104,148,55061,2,0,P|96:272|276:240,1,360.000013732911
456,72,55923,6,0,L|444:140,1,60.0000022888184,8|0,0:0|0:0,0:0:0:0:
352,184,56095,2,0,L|368:104,1,60.0000022888184
280,252,56268,2,0,P|267:222|215:150,1,120.000004577637
120,64,56613,1,8,0:0:0:0:
84,276,56785,1,0,0:0:0:0:
292,332,56958,5,0,0:0:0:0:
303,279,57044,1,0,0:0:0:0:
298,227,57130,1,0,0:0:0:0:
280,179,57216,1,0,0:0:0:0:
247,137,57303,1,8,0:0:0:0:
184,256,57475,1,0,0:0:0:0:
372,152,57647,2,0,P|324:131|252:118,1,120.000004577637
44,160,57992,1,8,0:0:0:0:
116,340,58165,1,0,0:0:0:0:
304,296,58337,2,0,P|292:252|236:164,1,120.000004577637
304,116,58682,2,0,P|202:106|180:224,1,240.000009155274,8|0,0:0|0:0,0:0:0:0:
328,340,59199,5,0,0:0:0:0:
328,340,59285,1,0,0:0:0:0:
328,340,59372,2,0,P|324:324|280:244,1,105.000004005432,8|0,0:0|0:0,0:0:0:0:
360,44,59716,1,0,0:0:0:0:
464,204,59889,2,0,P|448:208|336:204,1,105.000004005432,0|8,0:0|0:0,0:0:0:0:
144,188,60234,1,0,0:0:0:0:
256,32,60406,1,0,0:0:0:0:
236,224,60578,1,0,0:0:0:0:
148,60,60751,5,8,0:0:0:0:
148,60,60923,1,0,0:0:0:0:
380,284,61095,5,0,0:0:0:0:
152,236,61267,1,0,0:0:0:0:
345,121,61440,5,8,0:0:0:0:
256,324,61613,1,0,0:0:0:0:
68,284,61785,1,0,0:0:0:0:
93,230,61871,1,0,0:0:0:0:
137,190,61957,1,0,0:0:0:0:
193,171,62043,1,0,0:0:0:0:
259,177,62130,2,0,P|300:200|356:312,1,160,8|0,0:0|0:0,0:0:0:0:
88,300,62647,5,0,0:0:0:0:
80,164,62820,2,0,P|78:135|80:40,1,120.000004577637,8|0,0:0|0:0,0:0:0:0:
320,155,63165,5,0,0:0:0:0:
199,166,63338,2,0,P|170:168|79:163,1,120.000004577637,0|8,0:0|0:0,0:0:0:0:
240,60,63682,1,0,0:0:0:0:
196,248,63854,1,0,0:0:0:0:
247,242,63940,1,0,0:0:0:0:
291,214,64026,1,0,0:0:0:0:
318,170,64112,1,0,0:0:0:0:
324,118,64198,1,8,0:0:0:0:
428,280,64372,5,0,0:0:0:0:
252,352,64544,2,0,P|252:332|288:224,1,120.000004577637
380,72,64889,5,8,0:0:0:0:
216,176,65061,5,0,0:0:0:0:
76,64,65406,5,0,0:0:0:0:
112,280,65751,1,0,0:0:0:0:
116,265,65837,1,0,0:0:0:0:
121,248,65923,1,0,0:0:0:0:
312,280,66096,5,0,0:0:0:0:
220,112,66268,1,8,0:0:0:0:
120,68,66441,1,0,0:0:0:0:
78,98,66527,1,0,0:0:0:0:
56,148,66613,1,0,0:0:0:0:
71,197,66699,1,0,0:0:0:0:
108,233,66785,1,0,0:0:0:0:
159,242,66872,1,0,0:0:0:0:
207,222,66958,1,8,0:0:0:0:
344,120,67130,5,0,0:0:0:0:
207,60,67303,1,0,0:0:0:0:
207,224,67475,1,0,0:0:0:0:
316,60,67647,6,0,P|304:56|192:64,1,120.000004577637,8|0,0:0|0:0,0:0:0:0:
44,224,67992,2,0,P|60:216|132:132,1,120.000004577637
288,232,68337,2,0,P|283:219|208:140,1,120.000004577637,8|0,0:0|0:0,0:0:0:0:
164,100,68682,5,0,0:0:0:0:
404,216,68854,5,0,0:0:0:0:
400,204,68940,1,0,0:0:0:0:
396,192,69027,2,0,L|360:72,1,120.000004577637,8|0,0:0|0:0,0:0:0:0:
256,196,69372,2,0,L|296:316,1,120.000004577637
126,189,69716,2,0,L|82:73,1,120.000004577637,8|0,0:0|0:0,0:0:0:0:
84,77,69975,1,0,0:0:0:0:
84,77,70061,1,0,0:0:0:0:
464,164,70234,5,0,0:0:0:0:
431,176,70320,1,0,0:0:0:0:
398,188,70406,1,0,0:0:0:0:
140,196,70578,5,0,0:0:0:0:
168,188,70664,1,0,0:0:0:0:
196,180,70750,1,0,0:0:0:0:
252,76,70923,5,0,0:0:0:0:
260,96,71009,1,0,0:0:0:0:
268,116,71095,1,0,0:0:0:0:
328,352,71268,5,0,0:0:0:0:
302,297,71441,1,0,0:0:0:0:
277,243,71613,2,0,L|237:151,1,80
276,72,72130,1,0,0:0:0:0:
380,104,72303,2,0,P|356:152|288:192,1,120.000004577637
220,184,72820,1,0,0:0:0:0:
140,152,72992,2,0,P|88:216|152:316,1,200
156,324,73509,5,4,0:0:0:0:
308,336,73682,1,0,0:0:0:0:
304,320,73768,1,0,0:0:0:0:
300,304,73854,1,0,0:0:0:0:
196,228,74027,1,0,0:0:0:0:
336,192,74199,1,0,0:0:0:0:
448,100,74372,6,0,L|448:200,1,80
432,216,74630,1,0,0:0:0:0:
408,248,74716,2,0,L|408:348,1,80
288,240,75061,1,0,0:0:0:0:
332,104,75234,1,0,0:0:0:0:
192,132,75406,1,0,0:0:0:0:
320,176,75578,1,0,0:0:0:0:
240,60,75751,1,0,0:0:0:0:
180,312,75923,5,4,0:0:0:0:
288,124,76096,5,4,0:0:0:0:
404,212,76441,5,4,0:0:0:0:
139,116,76785,1,0,0:0:0:0:
139,116,76871,1,0,0:0:0:0:
139,116,76958,2,0,B|160:160|100:208|100:208|100:272,1,160,2|0,0:0|0:0,0:0:0:0:
212,316,77475,5,0,0:0:0:0:
202,277,77561,1,0,0:0:0:0:
203,238,77648,1,0,0:0:0:0:
214,199,77734,1,0,0:0:0:0:
235,165,77820,1,0,0:0:0:0:
264,138,77906,1,0,0:0:0:0:
300,120,77992,1,0,0:0:0:0:
428,188,78165,1,0,0:0:0:0:
304,240,78337,1,0,0:0:0:0:
400,348,78509,1,0,0:0:0:0:
393,316,78682,6,0,P|388:295|336:204,1,120.000004577637
296,48,79027,2,0,P|290:66|284:168,1,120.000004577637
168,296,79372,2,0,P|187:287|284:208,1,120.000004577637
296,192,79716,5,0,0:0:0:0:
120,324,79889,5,0,0:0:0:0:
89,281,79975,1,0,0:0:0:0:
86,230,80061,2,0,P|88:212|128:112,1,120.000004577637
252,80,80406,2,0,P|250:98|208:200,1,120.000004577637
328,312,80751,2,0,P|329:293|368:184,1,120.000004577637
380,164,81009,1,0,0:0:0:0:
408,120,81096,1,0,0:0:0:0:
116,80,81268,5,0,0:0:0:0:
130,111,81354,1,0,0:0:0:0:
145,143,81440,1,0,0:0:0:0:
296,300,81612,5,0,0:0:0:0:
282,274,81698,1,0,0:0:0:0:
268,249,81784,1,0,0:0:0:0:
356,143,81957,5,0,0:0:0:0:
356,143,82043,1,0,0:0:0:0:
356,143,82129,1,0,0:0:0:0:
234,125,82302,5,0,0:0:0:0:
141,280,82475,2,0,P|152:268|208:172,1,120.000004577637,4|0,0:0|0:0,0:0:0:0:
256,192,82820,12,0,84113,0:0:0:0:
104,288,84199,6,0,P|100:280|136:140,1,160,0|2,0:0|0:0,0:0:0:0:
248,232,84716,1,0,0:0:0:0:
132,320,84889,1,0,0:0:0:0:
160,180,85061,1,0,0:0:0:0:
268,276,85234,2,0,P|279:289|316:368,1,80
396,228,85578,1,0,0:0:0:0:
260,172,85751,1,0,0:0:0:0:
356,64,85923,2,0,P|371:94|364:144,1,80,2|0,0:0|0:0,0:0:0:0:
352,176,86182,1,0,0:0:0:0:
336,212,86268,2,0,P|327:230|264:288,1,80
216,148,86613,1,0,0:0:0:0:
132,264,86785,6,0,B|76:256|76:256|132:200|124:160|64:96,1,240,0|2,0:0|0:0,0:0:0:0:
208,72,87475,1,0,0:0:0:0:
148,204,87647,1,0,0:0:0:0:
248,308,87820,2,0,P|332:236|328:180,1,160
212,116,88337,1,0,0:0:0:0:
336,52,88509,1,0,0:0:0:0:
328,196,88682,1,0,0:0:0:0:
460,144,88854,2,0,L|472:308,1,160
348,224,89372,1,0,0:0:0:0:
400,88,89544,5,0,0:0:0:0:
318,95,89716,2,0,P|290:111|168:160,1,160,0|2,0:0|0:0,0:0:0:0:
136,248,90234,1,0,0:0:0:0:
136,284,90320,1,0,0:0:0:0:
148,316,90406,1,0,0:0:0:0:
272,244,90578,2,0,L|292:184,2,40
404,304,90923,2,0,L|384:356,1,40
464,232,91096,2,0,P|469:218|472:132,1,80
404,76,91441,2,0,P|370:85|316:128,2,80,2|0|0,0:0|0:0|0:0,0:0:0:0:
320,316,91958,6,0,P|320:300|296:228,1,80
288,252,92303,1,2,0:0:0:0:
136,232,92475,2,0,P|152:232|224:200,1,80
200,200,92820,1,0,0:0:0:0:
380,128,92992,2,0,P|364:128|292:152,1,80
316,160,93337,1,0,0:0:0:0:
192,68,93509,2,0,P|192:84|216:152,1,80
300,240,93854,1,0,0:0:0:0:
316,128,94027,2,0,P|336:136|428:244,1,160
320,336,94544,2,0,L|296:236,1,80
196,160,94889,2,0,L|148:84,1,80
296,64,95234,5,0,0:0:0:0:
456,136,95406,1,0,0:0:0:0:
312,188,95578,1,2,0:0:0:0:
279,200,95664,1,0,0:0:0:0:
245,204,95750,1,0,0:0:0:0:
209,200,95836,1,0,0:0:0:0:
176,188,95922,1,0,0:0:0:0:
244,80,96096,1,0,0:0:0:0:
384,112,96268,1,0,0:0:0:0:
412,252,96441,6,0,L|304:260,1,80
304,288,96699,1,0,0:0:0:0:
280,320,96785,2,0,L|168:328,1,80,0|2,0:0|0:0,0:0:0:0:
236,184,97130,1,0,0:0:0:0:
76,280,97303,1,0,0:0:0:0:
144,148,97475,1,0,0:0:0:0:
72,84,97647,6,0,P|188:60|240:160,1,240
236,192,98251,1,0,0:0:0:0:
228,232,98337,1,2,0:0:0:0:
360,324,98509,2,0,L|356:272,2,40
304,192,98854,1,0,0:0:0:0:
440,152,99026,1,0,0:0:0:0:
360,272,99199,2,0,B|367:243|328:204|332:104,1,160
200,60,99716,5,2,0:0:0:0:
171,81,99802,1,0,0:0:0:0:
146,105,99888,1,0,0:0:0:0:
125,134,99974,1,0,0:0:0:0:
109,165,100060,1,0,0:0:0:0:
252,148,100234,1,0,0:0:0:0:
216,288,100406,1,0,0:0:0:0:
112,188,100578,1,0,0:0:0:0:
252,148,100751,6,0,P|280:168|292:224,1,80
396,312,101096,2,0,P|420:224|400:144,1,160,2|0,0:0|0:0,0:0:0:0:
264,136,101613,2,0,P|289:72|384:80,1,160
372,212,102130,1,0,0:0:0:0:
480,112,102303,1,0,0:0:0:0:
336,40,102475,6,0,P|328:56|316:120,1,80,2|0,0:0|0:0,0:0:0:0:
320,156,102734,1,0,0:0:0:0:
332,196,102820,1,0,0:0:0:0:
232,324,102992,1,0,0:0:0:0:
244,284,103078,1,0,0:0:0:0:
236,244,103165,2,0,P|220:208|184:168,1,80
60,232,103509,2,0,L|112:148,1,80
235,334,103854,2,0,L|168:292,1,80,2|0,0:0|0:0,0:0:0:0:
325,128,104199,2,0,L|300:204,2,80,2|0|0,0:0|0:0|0:0,0:0:0:0:
440,156,104716,5,0,0:0:0:0:
436,118,104802,1,0,0:0:0:0:
417,79,104888,1,0,0:0:0:0:
383,50,104974,1,0,0:0:0:0:
335,36,105061,1,0,0:0:0:0:
283,39,105147,1,0,0:0:0:0:
228,53,105233,1,2,0:0:0:0:
176,124,105320,6,0,L|216:180,1,40
289,148,105492,6,0,L|296:204,1,40
255,272,105665,6,0,L|296:312,1,40
384,304,105837,6,0,L|400:348,3,40
164,220,106958,2,0,L|224:252,1,60
217,249,107303,2,0,P|285:257|268:116,1,240.000009155274
391,224,108165,5,0,0:0:0:0:
391,224,108337,2,0,P|311:280|303:296,1,100
312,280,108854,2,0,P|264:172|132:212,1,280
220,256,110234,6,0,L|360:48,1,240
396,192,110923,1,0,0:0:0:0:
432,256,111096,2,0,P|443:243|484:116,1,140
484,100,111785,5,4,0:0:0:0:
300,212,111958,1,0,0:0:0:0:
364,44,112130,1,0,0:0:0:0:
444,208,112303,1,0,0:0:0:0:
236,152,112475,2,0,P|216:208|244:272,1,120.000004577637,8|0,0:0|0:0,0:0:0:0:
452,248,112820,1,0,0:0:0:0:
432,296,112906,1,0,0:0:0:0:
393,332,112992,1,0,0:0:0:0:
343,348,113078,1,0,0:0:0:0:
292,343,113164,1,8,0:0:0:0:
340,132,113337,1,0,0:0:0:0:
176,272,113509,5,0,0:0:0:0:
176,272,113596,1,0,0:0:0:0:
176,272,113682,2,0,P|192:264|280:192,1,120.000004577637,0|8,0:0|0:0,0:0:0:0:
228,72,114027,1,0,0:0:0:0:
96,152,114199,1,0,0:0:0:0:
239,319,114372,2,0,P|244:266|232:196,1,120.000004577637,0|8,0:0|0:0,0:0:0:0:
93,224,114716,1,0,0:0:0:0:
173,356,114888,1,0,0:0:0:0:
340,213,115061,2,0,P|287:207|216:220,1,120.000004577637,0|8,0:0|0:0,0:0:0:0:
80,56,115406,5,0,0:0:0:0:
272,64,115578,2,0,B|64:12|324:328|40:228,1,360.000013732911
304,204,116268,1,0,0:0:0:0:
253,214,116354,1,0,0:0:0:0:
215,249,116440,1,0,0:0:0:0:
202,300,116526,1,0,0:0:0:0:
218,348,116612,1,8,0:0:0:0:
440,260,116785,5,0,0:0:0:0:
308,72,116958,1,0,0:0:0:0:
292,300,117130,1,0,0:0:0:0:
460,148,117303,1,8,0:0:0:0:
236,192,117475,1,0,0:0:0:0:
388,376,117647,2,0,P|380:340|404:240,1,120.000004577637
424,208,117906,1,0,0:0:0:0:
460,160,117992,1,8,0:0:0:0:
233,68,118165,1,0,0:0:0:0:
261,112,118251,1,0,0:0:0:0:
284,152,118337,2,0,P|305:208|302:268,1,120.000004577637
128,100,118682,5,8,0:0:0:0:
136,304,118854,1,0,0:0:0:0:
284,152,119027,1,0,0:0:0:0:
228,324,119199,2,0,B|250:250|250:250|319:258|399:214|370:141,1,240.000009155274
202,133,119716,5,0,0:0:0:0:
151,146,119802,1,0,0:0:0:0:
111,179,119888,1,0,0:0:0:0:
89,227,119974,1,0,0:0:0:0:
89,279,120060,1,8,0:0:0:0:
300,328,120234,1,0,0:0:0:0:
432,172,120406,2,0,P|436:152|404:44,1,120.000004577637
413,57,120665,1,0,0:0:0:0:
413,57,120751,1,8,0:0:0:0:
128,192,120923,5,0,0:0:0:0:
352,256,121096,1,0,0:0:0:0:
100,304,121268,5,0,0:0:0:0:
348,256,121441,1,8,0:0:0:0:
344,256,121613,1,0,0:0:0:0:
440,124,121785,5,0,0:0:0:0:
192,272,121958,1,0,0:0:0:0:
312,96,122130,5,8,0:0:0:0:
412,340,122303,1,0,0:0:0:0:
316,196,122475,5,0,0:0:0:0:
263,193,122561,1,0,0:0:0:0:
214,209,122647,1,0,0:0:0:0:
174,242,122733,1,0,0:0:0:0:
149,288,122820,2,0,P|132:200|36:88,1,240.000009155274,8|0,0:0|0:0,0:0:0:0:
200,64,123337,5,0,0:0:0:0:
328,236,123509,2,0,P|308:288|268:348,1,120.000004577637,8|0,0:0|0:0,0:0:0:0:
168,144,123854,1,0,0:0:0:0:
352,124,124027,1,0,0:0:0:0:
454,272,124199,1,8,0:0:0:0:
427,317,124285,1,0,0:0:0:0:
383,345,124371,1,0,0:0:0:0:
331,350,124457,1,0,0:0:0:0:
283,330,124543,1,0,0:0:0:0:
336,120,124716,5,0,0:0:0:0:
96,60,124889,1,8,0:0:0:0:
148,268,125061,1,0,0:0:0:0:
348,188,125234,1,0,0:0:0:0:
172,64,125406,1,0,0:0:0:0:
348,188,125578,5,8,0:0:0:0:
200,284,125751,5,0,0:0:0:0:
120,76,126096,6,0,P|140:87|200:176,1,120.000004577637,0|8,0:0|0:0,0:0:0:0:
316,344,126441,5,0,0:0:0:0:
318,292,126527,1,0,0:0:0:0:
335,245,126613,2,0,P|360:196|376:128,1,120.000004577637
180,48,126958,1,8,0:0:0:0:
372,72,127130,5,0,0:0:0:0:
408,107,127216,1,0,0:0:0:0:
440,150,127302,1,0,0:0:0:0:
464,196,127388,1,0,0:0:0:0:
480,246,127474,1,0,0:0:0:0:
368,244,127561,6,0,L|296:192,1,60.0000022888184,0|8,0:0|0:0,0:0:0:0:
248,288,127734,6,0,L|184:296,1,60.0000022888184
150,201,127906,6,0,L|198:145,1,60.0000022888184
216,48,128165,5,0,0:0:0:0:
32,191,128337,2,0,P|68:199|160:200,1,120.000004577637,8|0,0:0|0:0,0:0:0:0:
328,356,128682,2,0,P|308:325|248:256,1,120.000004577637
356,48,129027,2,0,P|325:68|260:128,1,120.000004577637,8|0,0:0|0:0,0:0:0:0:
224,192,129372,5,0,0:0:0:0:
120,328,129544,5,0,0:0:0:0:
88,286,129630,1,0,0:0:0:0:
78,235,129716,2,0,P|76:216|96:92,1,120.000004577637,8|0,0:0|0:0,0:0:0:0:
256,208,130061,2,0,P|264:228|272:340,1,120.000004577637
444,184,130406,2,0,P|420:148|396:52,1,120.000004577637,8|0,0:0|0:0,0:0:0:0:
397,75,130665,1,0,0:0:0:0:
397,75,130751,1,0,0:0:0:0:
204,320,130923,5,0,0:0:0:0:
186,290,131009,1,0,0:0:0:0:
167,260,131095,1,8,0:0:0:0:
300,88,131268,5,0,0:0:0:0:
275,102,131354,1,0,0:0:0:0:
250,115,131440,1,0,0:0:0:0:
96,80,131613,5,0,0:0:0:0:
96,80,131699,1,0,0:0:0:0:
96,80,131785,1,8,0:0:0:0:
190,233,131958,5,0,0:0:0:0:
360,288,132130,2,0,L|312:196,1,80
72,316,132475,6,0,P|56:256|192:236,1,240,10|0,0:0|0:0,0:0:0:0:
224,240,133078,1,0,0:0:0:0:
260,240,133165,1,0,0:0:0:0:
296,236,133251,1,0,0:0:0:0:
328,220,133337,1,0,0:0:0:0:
356,200,133423,1,0,0:0:0:0:
380,176,133509,1,0,0:0:0:0:
392,144,133596,1,0,0:0:0:0:
388,108,133682,1,0,0:0:0:0:
380,76,133768,1,0,0:0:0:0:
364,44,133854,6,0,P|336:48|272:80,1,80,8|0,0:0|0:0,0:0:0:0:
204,176,134199,1,0,0:0:0:0:
204,176,134372,1,0,0:0:0:0:
192,312,134544,2,0,L|136:232,1,80
124,104,134889,1,0,0:0:0:0:
296,120,135061,1,0,0:0:0:0:
200,216,135234,1,8,0:0:0:0:
296,120,135406,2,0,P|328:152|312:212,1,80
276,312,135751,1,0,0:0:0:0:
408,340,135923,6,0,L|428:300,1,40
444,240,136096,2,0,L|400:232,1,40
424,168,136268,2,0,L|444:128,1,40
444,64,136441,2,0,L|400:56,1,40
336,48,136613,5,8,0:0:0:0:
208,96,136785,1,0,0:0:0:0:
268,216,136958,2,0,L|288:132,1,80
240,296,137303,1,0,0:0:0:0:
140,204,137475,1,0,0:0:0:0:
212,88,137647,1,0,0:0:0:0:
84,44,137820,2,0,L|76:136,1,80,0|8,0:0|0:0,0:0:0:0:
148,240,138165,1,0,0:0:0:0:
284,248,138337,2,0,L|220:192,1,80
352,148,138682,6,0,L|368:56,1,80
356,260,139027,2,0,P|288:320|216:300,1,160,0|8,0:0|0:0,0:0:0:0:
108,216,139544,1,0,0:0:0:0:
168,92,139716,1,0,0:0:0:0:
228,216,139889,1,0,0:0:0:0:
360,176,140061,1,0,0:0:0:0:
368,172,140234,2,0,L|380:60,1,80
248,136,140578,2,0,L|220:240,1,80,0|8,0:0|0:0,0:0:0:0:
276,340,140923,1,0,0:0:0:0:
336,220,141096,1,0,0:0:0:0:
452,288,141268,2,0,L|440:188,1,80
332,116,141613,6,0,L|360:76,1,40
220,200,141785,2,0,L|256:152,1,40
96,272,141958,2,0,L|124:236,1,40
128,132,142130,2,0,P|136:64|116:36,1,80,8|0,0:0|0:0,0:0:0:0:
260,152,142475,1,0,0:0:0:0:
204,292,142647,6,0,L|212:196,1,80
364,300,142992,2,0,P|329:292|288:260,1,80
480,160,143337,1,0,0:0:0:0:
445,165,143423,1,0,0:0:0:0:
414,180,143509,2,0,P|364:215|348:244,1,80,8|0,0:0|0:0,0:0:0:0:
264,336,143854,1,0,0:0:0:0:
172,236,144027,2,0,L|172:136,1,80
440,64,144372,6,0,L|392:64,1,40
424,160,144544,2,0,L|472:160,1,40
412,256,144716,2,0,L|368:256,1,40
256,276,144889,2,0,L|284:172,1,80,8|0,0:0|0:0,0:0:0:0:
248,64,145234,5,0,0:0:0:0:
217,81,145320,1,0,0:0:0:0:
191,104,145406,1,0,0:0:0:0:
170,132,145492,1,0,0:0:0:0:
154,163,145578,1,0,0:0:0:0:
108,292,145751,1,0,0:0:0:0:
236,252,145923,1,0,0:0:0:0:
372,244,146096,6,0,L|348:176,1,40
284,184,146268,2,0,L|260:112,1,40,8|0,0:0|0:0,0:0:0:0:
196,120,146441,2,0,L|172:52,1,40
112,136,146613,2,0,P|108:204|108:244,1,80
107,215,146872,1,0,0:0:0:0:
107,215,146958,1,0,0:0:0:0:
256,276,147130,1,0,0:0:0:0:
320,156,147303,1,0,0:0:0:0:
200,216,147475,1,0,0:0:0:0:
312,316,147647,6,0,P|324:288|324:240,1,80,8|0,0:0|0:0,0:0:0:0:
316,200,147906,1,0,0:0:0:0:
304,160,147992,2,0,P|264:108|236:80,1,80
156,216,148337,1,0,0:0:0:0:
96,76,148509,2,0,L|168:140,1,80
40,232,148854,2,0,L|120:200,1,80,0|8,0:0|0:0,0:0:0:0:
264,220,149199,5,0,0:0:0:0:
228,238,149285,1,0,0:0:0:0:
198,264,149371,1,0,0:0:0:0:
176,297,149457,1,0,0:0:0:0:
163,335,149544,2,0,P|224:352|260:352,1,80
376,284,149889,1,0,0:0:0:0:
368,132,150061,1,0,0:0:0:0:
216,140,150234,1,0,0:0:0:0:
288,272,150406,6,0,L|272:172,1,80,8|0,0:0|0:0,0:0:0:0:
428,180,150751,2,0,P|399:200|356:212,1,80
316,216,151009,1,0,0:0:0:0:
280,204,151096,1,0,0:0:0:0:
168,116,151268,1,0,0:0:0:0:
194,94,151354,1,0,0:0:0:0:
229,91,151441,2,0,P|287:103|308:116,1,80
244,292,151785,2,0,L|200:220,1,80,8|0,0:0|0:0,0:0:0:0:
108,360,152130,2,0,L|140:272,1,80
164,136,152475,5,0,0:0:0:0:
304,176,152647,1,0,0:0:0:0:
172,232,152820,1,0,0:0:0:0:
252,84,152992,1,0,0:0:0:0:
384,108,153165,1,8,0:0:0:0:
384,108,153251,1,0,0:0:0:0:
384,108,153337,1,0,0:0:0:0:
424,272,153509,2,0,L|344:236,1,80
312,224,153768,1,0,0:0:0:0:
275,207,153854,1,0,0:0:0:0:
176,344,154027,5,0,0:0:0:0:
224,120,154199,1,0,0:0:0:0:
88,236,154372,1,0,0:0:0:0:
128,68,154544,5,8,0:0:0:0:
240,244,154716,1,0,0:0:0:0:
472,192,154889,5,0,0:0:0:0:
220,248,155061,1,0,0:0:0:0:
324,68,155234,5,0,0:0:0:0:
324,68,155320,1,0,0:0:0:0:
324,68,155406,1,0,0:0:0:0:
324,68,155492,1,0,0:0:0:0:
324,67,155578,2,0,L|340:144,4,60.0000022888184
256,192,165751,12,0,166785,0:0:0:0:
256,192,166958,5,0,0:0:0:0:
304,280,167130,1,0,0:0:0:0:
408,284,167303,2,0,L|380:204,1,80
432,132,167647,2,0,P|352:120|288:176,1,160,8|0,0:0|0:0,0:0:0:0:
220,320,168165,2,0,P|164:266|180:184,1,160
256,152,168682,2,0,P|268:184|256:232,1,80
148,208,169027,1,0,0:0:0:0:
232,292,169199,1,0,0:0:0:0:
116,348,169372,1,0,0:0:0:0:
145,199,169544,6,0,P|188:111|304:156,1,240
316,188,170147,1,0,0:0:0:0:
320,228,170234,1,0,0:0:0:0:
230,347,170406,1,8,0:0:0:0:
232,308,170492,1,0,0:0:0:0:
248,272,170578,1,0,0:0:0:0:
420,264,170751,6,0,L|328:288,1,80
184,244,171268,5,0,0:0:0:0:
340,128,171441,1,0,0:0:0:0:
164,68,171613,1,0,0:0:0:0:
248,120,171786,1,8,0:0:0:0:
188,84,171958,1,0,0:0:0:0:
276,208,172130,1,0,0:0:0:0:
92,184,172303,1,8,0:0:0:0:
124,336,172475,6,0,P|168:284|192:180,1,160
324,132,172992,1,0,0:0:0:0:
324,132,173078,1,0,0:0:0:0:
324,132,173165,2,0,P|276:132|224:148,1,80,8|0,0:0|0:0,0:0:0:0:
144,184,173509,1,0,0:0:0:0:
328,312,173682,2,0,P|300:260|272:228,1,80
171,265,174027,1,0,0:0:0:0:
391,225,174200,2,0,P|335:208|288:208,1,80
248,304,174544,1,8,0:0:0:0:
376,120,174717,2,0,P|323:148|288:172,1,80
120,336,175061,6,0,P|156:300|196:160,1,180.000006866455
188,140,175665,1,0,0:0:0:0:
168,108,175751,1,0,0:0:0:0:
376,108,175923,1,8,0:0:0:0:
376,108,176009,1,0,0:0:0:0:
376,108,176095,1,0,0:0:0:0:
456,216,176268,1,0,0:0:0:0:
320,272,176441,2,0,L|352:192,1,80
292,68,176785,1,0,0:0:0:0:
164,136,176958,2,0,P|183:147|228:204,1,80,2|0,0:0|0:0,0:0:0:0:
376,312,177303,5,0,0:0:0:0:
428,288,177389,1,0,0:0:0:0:
456,232,177475,1,0,0:0:0:0:
444,164,177561,1,0,0:0:0:0:
392,112,177647,1,0,0:0:0:0:
304,68,177734,6,0,L|252:40,1,60.0000022888184
160,80,177906,6,0,L|124:128,1,60.0000022888184
103,321,178165,5,0,0:0:0:0:
125,294,178251,1,0,0:0:0:0:
147,267,178337,2,0,P|162:254|240:204,1,80,2|0,0:0|0:0,0:0:0:0:
380,284,178682,1,0,0:0:0:0:
276,140,178854,1,0,0:0:0:0:
456,168,179027,1,0,0:0:0:0:
288,240,179199,2,0,L|312:304,1,60.0000022888184
192,268,179372,2,0,L|168:192,1,60.0000022888184
104,300,179544,2,0,L|128:368,1,60.0000022888184
76,236,179716,2,0,P|44:176|40:164,1,70,2|0,0:0|0:0,0:0:0:0:
176,140,180061,2,0,L|236:100,2,40
204,280,180406,6,0,P|245:230|360:160,1,180.000006866455
380,152,181009,1,0,0:0:0:0:
420,144,181096,1,2,0:0:0:0:
268,96,181268,5,0,0:0:0:0:
245,121,181354,1,0,0:0:0:0:
216,141,181440,1,0,0:0:0:0:
183,151,181526,1,0,0:0:0:0:
148,152,181612,1,0,0:0:0:0:
168,40,181785,1,0,0:0:0:0:
56,128,181958,1,0,0:0:0:0:
172,212,182130,2,0,L|172:304,1,80
296,220,182475,1,2,0:0:0:0:
296,220,182561,1,0,0:0:0:0:
296,220,182647,2,0,P|340:208|384:168,1,80
276,56,182992,5,0,0:0:0:0:
176,160,183165,1,0,0:0:0:0:
288,248,183337,1,0,0:0:0:0:
288,48,183509,2,0,L|288:128,1,80
344,260,183854,6,0,P|388:252|428:228,1,80,2|0,0:0|0:0,0:0:0:0:
448,208,184113,1,0,0:0:0:0:
468,172,184199,1,0,0:0:0:0:
328,128,184372,1,0,0:0:0:0:
188,160,184544,2,0,P|160:204|156:232,1,80
148,272,184803,1,0,0:0:0:0:
136,312,184889,2,0,P|104:356|76:368,1,80
60,224,185234,1,2,0:0:0:0:
244,324,185406,2,0,P|263:294|272:236,1,80
336,120,185751,1,0,0:0:0:0:
464,280,185923,5,0,0:0:0:0:
443,251,186009,1,0,0:0:0:0:
433,218,186095,1,0,0:0:0:0:
435,183,186181,1,0,0:0:0:0:
448,151,186268,2,0,P|452:100|432:60,1,80
308,132,186613,1,2,0:0:0:0:
240,256,186785,2,0,P|195:223|176:188,1,80
165,101,187130,5,0,0:0:0:0:
292,336,187303,1,0,0:0:0:0:
66,160,187475,5,0,0:0:0:0:
289,333,187648,1,0,0:0:0:0:
286,330,187820,1,0,0:0:0:0:
434,274,187992,5,2,0:0:0:0:
120,227,188165,1,0,0:0:0:0:
416,108,188337,5,0,0:0:0:0:
252,244,188510,1,0,0:0:0:0:
140,324,188682,5,0,0:0:0:0:
121,267,188768,1,0,0:0:0:0:
125,208,188854,1,0,0:0:0:0:
152,156,188940,1,0,0:0:0:0:
196,117,189027,2,0,P|264:100|332:112,1,136.000002593994,4|0,0:0|0:0,0:0:0:0:
460,200,189372,1,0,0:0:0:0:
268,240,189544,1,0,0:0:0:0:
392,336,189716,6,0,P|376:272|384:196,1,136.000002593994,8|0,0:0|0:0,0:0:0:0:
420,72,190061,1,0,0:0:0:0:
168,56,190234,2,0,P|192:96|252:172,1,136.000002593994,0|8,0:0|0:0,0:0:0:0:
246,166,190492,1,0,0:0:0:0:
246,166,190578,1,0,0:0:0:0:
353,332,190751,5,0,0:0:0:0:
401,299,190837,1,0,0:0:0:0:
432,248,190923,1,0,0:0:0:0:
437,189,191009,1,0,0:0:0:0:
418,133,191095,1,8,0:0:0:0:
256,56,191268,1,0,0:0:0:0:
312,188,191441,1,0,0:0:0:0:
40,212,191613,2,0,P|100:228|184:224,1,136.000002593994,0|8,0:0|0:0,0:0:0:0:
232,192,191872,1,0,0:0:0:0:
284,148,191958,2,0,P|312:148|440:180,1,136.000002593994
292,56,192303,5,0,0:0:0:0:
240,284,192475,1,8,0:0:0:0:
468,148,192647,1,0,0:0:0:0:
456,304,192820,2,0,P|441:261|352:228,1,136.000002593994
300,252,193078,1,0,0:0:0:0:
248,296,193165,1,8,0:0:0:0:
80,220,193337,5,0,0:0:0:0:
77,160,193423,1,0,0:0:0:0:
102,106,193509,1,0,0:0:0:0:
148,69,193595,1,0,0:0:0:0:
205,58,193681,1,0,0:0:0:0:
263,74,193768,1,0,0:0:0:0:
305,114,193854,1,8,0:0:0:0:
228,296,194027,1,0,0:0:0:0:
184,172,194199,1,0,0:0:0:0:
436,268,194372,6,0,L|376:224,1,68.0000012969971
436,86,194544,2,0,P|380:90|304:114,1,136.000002593994,8|0,0:0|0:0,0:0:0:0:
118,266,194889,1,0,0:0:0:0:
176,278,194975,1,0,0:0:0:0:
235,276,195061,1,0,0:0:0:0:
292,260,195147,1,0,0:0:0:0:
344,232,195233,1,8,0:0:0:0:
220,156,195406,5,0,0:0:0:0:
364,36,195578,2,0,B|473:94|473:94|410:119|280:104|292:268,1,408.000007781983
160,96,196268,1,0,0:0:0:0:
160,96,196354,1,0,0:0:0:0:
160,96,196441,1,0,0:0:0:0:
168,336,196613,2,0,P|155:277|160:200,1,136.000002593994,8|0,0:0|0:0,0:0:0:0:
280,168,196958,1,0,0:0:0:0:
344,288,197130,2,0,P|392:244|424:180,1,136.000002593994,0|8,0:0|0:0,0:0:0:0:
196,48,197475,2,0,P|145:81|72:100,1,136.000002593994
280,168,197820,2,0,L|240:88,2,68.0000012969971,0|0|8,0:0|0:0|0:0,0:0:0:0:
344,316,198165,5,0,0:0:0:0:
376,64,198337,1,0,0:0:0:0:
128,244,198509,1,0,0:0:0:0:
104,104,198682,5,8,0:0:0:0:
105,105,198854,1,0,0:0:0:0:
300,320,199027,5,0,0:0:0:0:
348,56,199199,1,0,0:0:0:0:
479,240,199372,5,8,0:0:0:0:
124,164,199544,1,0,0:0:0:0:
204,328,199716,5,0,0:0:0:0:
251,292,199802,1,0,0:0:0:0:
263,235,199888,1,0,0:0:0:0:
266,176,199974,1,0,0:0:0:0:
299,127,200061,2,0,P|388:108|480:240,1,272.000005187988
368,220,200578,5,0,0:0:0:0:
116,324,200751,2,0,P|129:265|164:192,1,136.000002593994,8|0,0:0|0:0,0:0:0:0:
236,60,201096,2,0,P|294:51|372:84,1,136.000002593994
408,132,201354,1,0,0:0:0:0:
444,192,201441,2,0,P|448:224|432:336,1,136.000002593994,8|0,0:0|0:0,0:0:0:0:
232,340,201785,1,0,0:0:0:0:
181,310,201871,1,0,0:0:0:0:
155,257,201957,1,0,0:0:0:0:
162,199,202043,1,0,0:0:0:0:
200,154,202129,1,8,0:0:0:0:
240,48,202303,5,0,0:0:0:0:
408,312,202475,1,0,0:0:0:0:
392,120,202647,1,0,0:0:0:0:
100,280,202820,5,8,0:0:0:0:
100,276,202992,1,0,0:0:0:0:
136,104,203165,5,0,0:0:0:0:
268,80,203337,2,0,P|312:124|328:208,1,136.000002593994,0|8,0:0|0:0,0:0:0:0:
245,321,203682,1,0,0:0:0:0:
205,277,203768,1,0,0:0:0:0:
194,219,203854,2,0,P|186:163|131:101,1,136.000002593994
332,48,204199,1,8,0:0:0:0:
328,106,204285,1,0,0:0:0:0:
356,158,204371,1,0,0:0:0:0:
407,188,204457,1,0,0:0:0:0:
464,203,204543,1,0,0:0:0:0:
424,312,204630,6,0,L|344:328,1,68.0000012969971
240,248,204803,6,0,L|164:204,1,68.0000012969971,0|8,0:0|0:0,0:0:0:0:
92,316,205061,5,0,0:0:0:0:
84,120,205234,1,0,0:0:0:0:
240,248,205406,1,0,0:0:0:0:
152,56,205578,5,8,0:0:0:0:
152,56,205665,2,0,P|184:76|200:84,1,40
436,140,205923,5,0,0:0:0:0:
436,140,206009,2,0,P|408:160|400:180,1,40
216,304,206268,5,8,0:0:0:0:
216,304,206354,2,0,L|208:236,1,40
264,108,206613,6,0,P|296:144|304:176,1,80
308,216,206872,1,0,0:0:0:0:
308,256,206958,1,8,0:0:0:0:
184,200,207130,5,0,0:0:0:0:
184,200,207217,2,0,P|216:180|232:168,1,40
348,240,207475,5,0,0:0:0:0:
348,240,207561,2,0,P|320:220|312:208,1,40,0|8,0:0|0:0,0:0:0:0:
284,88,207820,5,0,0:0:0:0:
284,88,207906,2,0,L|280:156,1,40
256,336,208165,5,0,0:0:0:0:
257,300,208251,1,0,0:0:0:0:
258,265,208337,1,8,0:0:0:0:
164,112,208509,5,0,0:0:0:0:
164,140,208596,1,0,0:0:0:0:
164,168,208682,1,0,0:0:0:0:
346,150,208854,5,0,0:0:0:0:
346,150,208940,1,0,0:0:0:0:
346,150,209026,1,8,0:0:0:0:
124,276,209199,1,0,0:0:0:0:
312,328,209372,2,0,L|260:232,1,80,0|4,0:0|0:0,0:0:0:0:
244,152,209716,5,0,0:0:0:0:
348,136,209889,1,0,0:0:0:0:
136,316,210061,2,0,P|164:272|192:252,1,70
275,155,210406,5,0,0:0:0:0:
360,217,210579,1,0,0:0:0:0:
83,194,210751,2,0,B|134:183|208:348|376:220,1,320
384,208,212303,6,0,P|420:136|336:160,1,200
324,164,213337,5,0,0:0:0:0:
224,196,213509,1,0,0:0:0:0:
248,96,213682,1,0,0:0:0:0:
420,124,213854,2,0,P|432:180|380:276,1,160
244,301,214372,2,0,P|264:253|328:159,1,160
323,163,214889,1,0,0:0:0:0:
108,176,215406,5,0,0:0:0:0:
168,304,215578,1,0,0:0:0:0:
52,240,215751,1,0,0:0:0:0:
208,208,215923,1,0,0:0:0:0:
80,344,216096,1,0,0:0:0:0:
208,208,216268,1,0,0:0:0:0:
260,296,216441,1,0,0:0:0:0:
364,328,216613,2,0,P|329:244|344:168,1,160
372,72,217303,6,0,L|448:148,2,80
240,72,217992,2,0,P|185:99|132:184,1,160
144,324,218509,2,0,L|184:248,1,80
284,224,218854,2,0,L|320:300,1,80
264,112,219199,1,0,0:0:0:0:
264,112,219372,6,0,B|432:28|492:184|256:352|256:352|28:184|80:32|252:112,1,900.000034332277
