osu file format v14

[General]
AudioFilename: audio.mp3
AudioLeadIn: 0
PreviewTime: 50234
Countdown: 0
SampleSet: Soft
StackLeniency: 0.2
Mode: 0
LetterboxInBreaks: 1
WidescreenStoryboard: 1

[Editor]
DistanceSpacing: 1.5
BeatDivisor: 4
GridSize: 4
TimelineZoom: 1.4

[Metadata]
Title:Stay Alive(Jun Kuroda Bootleg Remix)
TitleUnicode:Stay Alive(Jun Kuroda Bootleg Remix)
Artist:Emilia(CV:Rie Takahashi)
ArtistUnicode:エミリア(CV:高橋李依)
Creator:loke700
Version:Insane
Source:Re:ゼロから始める異世界生活
Tags:Re:Zero kara Hajimeru Isekai Seikatsu, Anime, Japanese
BeatmapID:1108725
BeatmapSetID:518733

[Difficulty]
HPDrainRate:5
CircleSize:4
OverallDifficulty:6
ApproachRate:8
SliderMultiplier:1.4
SliderTickRate:1

[Events]
//Background and Video events
0,0,"BG.jpg",0,0
//Break Periods
//Storyboard Layer 0 (Background)
//Storyboard Layer 1 (Fail)
//Storyboard Layer 2 (Pass)
//Storyboard Layer 3 (Foreground)
//Storyboard Sound Samples

[TimingPoints]
1441,344.827586206897,4,2,0,10,1,0
23511,-100,4,2,0,60,0,0
34115,-66.6666666666667,4,2,0,60,0,0
34718,-100,4,2,0,60,0,0
43770,-66.6666666666667,4,2,0,60,0,0
45236,-100,4,2,0,60,0,0
45580,-100,4,2,0,10,0,0
50408,-200,4,2,0,15,0,0
51098,-66.6666666666667,4,2,0,60,0,1
62132,-100,4,2,0,60,0,1
62649,-66.6666666666667,4,2,0,60,0,1
71270,-100,4,2,0,60,0,0
71787,-200,4,2,0,50,0,0
72822,-100,4,2,0,60,0,0
105839,-100,4,2,0,60,0,0
106443,-100,4,2,0,10,0,0
111098,-200,4,2,0,10,0,0
111787,-66.6666666666667,4,2,0,60,0,1
127563,-66.6666666666667,4,2,0,60,0,1
128339,-100,4,2,0,60,0,1
131960,-100,4,2,0,60,0,0
155236,-66.6666666666667,4,2,0,60,0,0
161443,-100,4,2,0,15,0,0
166960,-100,4,2,0,25,0,0
177305,-66.6666666666667,4,2,0,25,0,0
178167,-100,4,2,0,60,0,0
178684,-66.6666666666667,4,2,0,60,0,0
179718,-100,4,2,0,60,0,0
188684,-58.8235294117647,4,2,0,60,0,1
205667,-100,4,2,0,60,0,0
209718,-100,4,2,0,50,0,0
210408,-100,4,2,0,40,0,0
211184,-100,4,2,0,30,0,0
211270,-100,4,2,0,25,0,0
211356,-100,4,2,0,20,0,0
211443,-100,4,2,0,15,0,0
211529,-100,4,2,0,10,0,0
221960,-200,4,2,0,5,0,0

[Colours]
Combo1 : 255,255,255
Combo2 : 0,255,168
Combo3 : 244,250,37
Combo4 : 0,191,255

[HitObjects]
160,284,1441,6,0,P|160:200|216:148,1,140
260,112,2130,1,0,0:0:0:0:
344,176,2302,1,0,0:0:0:0:
344,280,2475,1,0,0:0:0:0:
256,336,2820,6,0,L|256:192,1,140
172,144,3337,2,0,P|176:136|240:88,1,70
288,136,3682,2,0,P|296:132|348:80,2,70
440,152,4199,2,0,P|418:218|380:276,1,140
280,328,4889,1,0,0:0:0:0:
280,328,5061,1,0,0:0:0:0:
280,328,5234,2,0,P|196:296|148:256,1,140
256,228,5751,6,0,P|252:160|260:144,1,70
196,72,6096,2,0,P|130:52|118:39,1,70
148,156,6441,2,0,P|126:220|130:238,2,70
196,296,6958,6,0,L|236:136,1,140
424,68,7647,1,0,0:0:0:0:
424,68,7819,1,0,0:0:0:0:
424,68,7992,1,0,0:0:0:0:
420,176,8337,2,0,P|388:260|348:312,1,140
268,248,8854,2,0,P|260:204|260:172,1,70
340,112,9199,2,0,P|344:160|352:192,1,70
452,204,9544,1,0,0:0:0:0:
476,104,9716,6,0,P|396:132|336:108,1,140
168,92,10406,1,0,0:0:0:0:
240,168,10578,1,0,0:0:0:0:
144,212,10751,1,0,0:0:0:0:
260,280,11096,2,0,P|260:216|248:184,1,70
296,112,11441,2,0,P|332:108|367:87,1,70
446,175,11785,2,0,P|436:209|432:244,3,70
240,284,12475,5,0,0:0:0:0:
240,284,12647,1,0,0:0:0:0:
172,84,12992,1,0,0:0:0:0:
172,84,13165,2,0,L|220:152,1,70
304,168,13509,1,0,0:0:0:0:
152,324,13854,6,0,B|176:260|176:260|136:160|228:136,1,210
288,212,14544,1,0,0:0:0:0:
352,292,14716,2,0,P|404:260|416:184,1,140
332,124,15234,2,0,P|284:124|200:176,1,140
256,260,15751,1,0,0:0:0:0:
196,172,15923,2,0,P|156:128|128:104,2,70
432,68,16785,6,0,P|432:104|416:140,1,70
312,132,17130,2,0,P|304:188|324:216,1,70
412,224,17475,2,0,P|432:272|404:300,1,70
328,324,17820,1,0,0:0:0:0:
328,324,17992,6,0,P|260:276|224:224,1,140
268,132,18509,1,0,0:0:0:0:
172,92,18682,2,0,P|128:120|100:148,2,70
248,288,19372,5,0,0:0:0:0:
328,220,19544,2,0,L|364:160,1,70
468,136,19889,2,0,L|432:196,1,70
428,300,20234,2,0,L|344:304,2,70
268,308,20751,1,0,0:0:0:0:
180,92,21441,1,0,0:0:0:0:
180,96,21613,1,0,0:0:0:0:
180,100,21785,1,0,0:0:0:0:
148,308,22130,6,0,P|192:284|220:256,1,70
272,188,22475,2,0,P|304:248|316:268,1,70
408,224,22820,2,0,P|408:176|392:148,1,70
340,72,23165,2,0,L|288:140,1,70
272,296,23509,5,0,0:0:0:0:
