osu file format v14

[General]
AudioFilename: audio.mp3
AudioLeadIn: 0
PreviewTime: 35615
Countdown: 0
SampleSet: Soft
StackLeniency: 0.7
Mode: 0
LetterboxInBreaks: 0
WidescreenStoryboard: 1

[Editor]
Bookmarks: 5504,12615,19726,26837,33948,35726,42837,49948,57059,63726
DistanceSpacing: 1.01
BeatDivisor: 4
GridSize: 8
TimelineZoom: 1

[Metadata]
Title:Re:lation
TitleUnicode:Re:lation
Artist:Emilia (CV: Takahashi Rie), Rem (CV: Minase Inori), Ram (CV: Murakawa Rie)
ArtistUnicode:エミリア (CV: 高橋李依), レム (CV: 水瀬いのり), ラム (CV: 村川梨衣)
Creator:StarCastler
Version:Hard
Source:プリンセスコネクト!Re:Dive
Tags:relation Princess Connect! リゼロ Re:ゼロから始める異世界生活 zero kara hajimeru isekai seikatsu life in a different world from ed ending cygames priconne purikone プリコネ japanese video game anime pop PikA PikAqours Nyukai
BeatmapID:2568438
BeatmapSetID:1233361

[Difficulty]
HPDrainRate:4
CircleSize:4
OverallDifficulty:6
ApproachRate:7
SliderMultiplier:1.6
SliderTickRate:1

[Events]
//Background and Video events
Video,-82,"rezero.mp4"
0,0,"D7T54F3VsAMh0Ez.jpg",0,0
//Break Periods
//Storyboard Layer 0 (Background)
//Storyboard Layer 1 (Fail)
//Storyboard Layer 2 (Pass)
//Storyboard Layer 3 (Foreground)
//Storyboard Layer 4 (Overlay)
//Storyboard Sound Samples

[TimingPoints]
171,444.444444444444,4,2,1,80,1,0
837,-100,4,2,1,30,0,0
5059,-100,4,2,2,50,0,0
5504,-100,4,2,1,65,0,0
19726,-133.333333333333,4,2,3,50,0,0
26393,-133.333333333333,4,2,2,50,0,0
26837,-100,4,2,1,65,0,0
35282,-100,4,2,2,65,0,0
35726,-100,4,2,1,80,0,1
49837,-100,4,2,1,80,0,0
49948,-100,4,2,1,80,0,1
62393,-100,4,2,1,80,0,0
63726,-100,4,2,2,80,0,0

[Colours]
Combo1 : 255,28,141
Combo2 : 194,213,243
SliderBorder : 88,171,239
SliderTrackOverride : 247,210,234

[HitObjects]
296,120,837,5,0,0:0:0:0:
320,48,1059,1,2,0:0:0:0:
256,0,1282,1,0,0:0:0:0:
192,48,1504,1,0,0:0:0:0:
216,120,1726,1,2,0:0:0:0:
216,264,2170,1,2,0:0:0:0:
296,264,2393,1,0,0:0:0:0:
256,192,2615,1,2,0:0:0:0:
256,192,2837,12,8,5059,0:0:0:0:
184,304,5504,6,0,P|288:328|328:304,1,160,4|8,3:2|0:0,0:0:0:0:
376,240,6170,1,0,0:0:0:0:
312,192,6393,2,0,P|312:136|344:80,2,120,2|2|2,3:2|0:0|0:0,0:0:0:0:
200,192,7282,2,0,P|200:136|168:80,2,120,2|2|2,3:2|0:0|0:0,0:0:0:0:
168,264,8170,1,2,3:2:0:0:
256,344,8504,1,2,0:0:0:0:
344,264,8837,1,2,0:0:0:0:
256,264,9059,6,0,P|168:264|104:296,1,160,2|8,3:2|0:0,0:0:0:0:
40,344,9726,1,0,0:0:0:0:
8,272,9948,2,0,L|8:152,2,120,2|2|2,3:2|0:0|0:0,0:0:0:0:
40,344,10837,2,0,P|80:296|80:240,1,120,2|2,3:2|0:0,0:0:0:0:
184,344,11504,2,0,B|208:312|240:312|264:344|304:344|328:312,1,160,2|2,0:0|0:0,0:0:0:0:
304,224,12170,1,8,0:0:0:0:
208,224,12393,1,0,0:0:0:0:
144,152,12615,6,0,P|104:104|128:16,1,160,2|8,3:2|0:0,0:0:0:0:
192,80,13282,1,0,0:0:0:0:
192,80,13504,2,0,P|216:120|216:192,2,120,2|2|2,3:2|0:0|0:0,0:0:0:0:
320,80,14393,2,0,P|296:120|296:192,2,120,2|2|2,3:2|0:0|0:0,0:0:0:0:
384,16,15282,2,0,P|408:104|368:152,1,160,2|8,3:2|0:0,0:0:0:0:
296,312,16170,5,2,3:2:0:0:
256,192,16504,1,2,0:0:0:0:
216,312,16837,1,2,0:0:0:0:
216,312,17059,2,0,P|184:336|104:336,2,120,2|2|2,3:2|0:0|0:0,0:0:0:0:
296,312,17948,2,0,P|328:336|408:336,2,120,2|2|2,3:2|0:0|0:0,0:0:0:0:
256,240,18837,2,0,L|256:80,1,160,2|8,3:2|0:0,0:0:0:0:
328,192,19726,6,0,P|368:208|392:248,2,90.0000034332277,14|10|10,3:2|0:0|3:2,0:0:0:0:
320,264,20615,2,0,L|320:328,2,60.0000022888184,2|8|8,3:2|0:0|0:0,0:0:0:0:
184,192,21504,2,0,P|144:208|120:248,2,90.0000034332277,10|8|8,3:2|0:0|3:2,0:0:0:0:
192,264,22393,2,0,L|192:328,2,60.0000022888184,2|8|8,3:2|0:0|0:0,0:0:0:0:
184,192,23059,1,2,0:0:0:0:
120,152,23282,6,0,P|64:144|40:120,2,90.0000034332277,10|10|10,3:2|0:0|3:2,0:0:0:0:
176,104,24170,1,2,3:2:0:0:
104,80,24393,1,8,0:0:0:0:
104,80,24615,1,8,0:0:0:0:
176,192,25059,2,0,B|224:184|256:224|256:224|288:184|336:192,1,180.000006866455,10|10,3:2|3:2,0:0:0:0:
320,264,25948,1,2,3:2:0:0:
256,296,26170,1,8,0:0:0:0:
192,264,26393,1,8,0:0:0:0:
336,344,26837,6,0,P|392:376|448:368,2,120,6|2|0,3:2|0:0|0:0,0:0:0:0:
336,264,27726,1,2,3:2:0:0:
256,264,27948,1,8,0:0:0:0:
256,264,28170,2,0,L|176:264,1,80,8|2,0:0|0:0,0:0:0:0:
176,344,28615,2,0,P|120:376|64:368,2,120,2|2|0,3:2|0:0|0:0,0:0:0:0:
176,264,29504,1,2,3:2:0:0:
256,264,29726,1,8,0:0:0:0:
256,264,29948,2,0,L|336:264,1,80,8|10,0:0|0:0,0:0:0:0:
384,344,30393,6,0,P|448:328|504:256,1,160,6|8,3:2|0:0,0:0:0:0:
456,192,31059,1,0,0:0:0:0:
504,128,31282,2,0,P|448:56|384:40,1,160,2|8,3:2|0:0,0:0:0:0:
320,120,31948,1,0,0:0:0:0:
320,120,32170,2,0,P|264:40|184:120,1,240,6|8,3:2|3:2,0:0:0:0:
144,208,33059,2,0,B|200:248|256:224|256:192|312:168|368:208,1,240,10|0,3:2|0:0,0:0:0:0:
312,272,33948,5,8,3:2:0:0:
256,384,34282,1,8,3:2:0:0:
200,272,34615,1,8,3:2:0:0:
256,192,34837,2,0,L|256:32,1,160,8|8,3:2|0:0,0:0:0:0:
432,128,35726,6,0,P|472:184|432:256,1,160,6|8,3:2|0:0,0:0:0:0:
352,256,36393,1,0,0:0:0:0:
312,328,36615,2,0,B|256:360|256:296|200:328,1,120,2|2,3:2|0:0,0:0:0:0:
80,328,37282,1,2,0:0:0:0:
144,192,37726,1,2,0:0:0:0:
144,192,37948,2,0,P|168:160|208:152,1,80,8|0,0:0|0:0,0:0:0:0:
296,232,38393,2,0,L|216:232,1,80,2|0,3:2|0:0,0:0:0:0:
304,152,38837,2,0,P|344:160|368:192,1,80,8|0,0:0|0:0,0:0:0:0:
328,80,39282,6,0,P|224:56|184:80,1,160,2|8,3:2|0:0,0:0:0:0:
136,144,39948,1,0,0:0:0:0:
64,112,40170,2,0,B|32:168|96:168|64:224,1,120,2|2,3:2|0:0,0:0:0:0:
64,344,40837,1,2,0:0:0:0:
200,280,41282,1,2,0:0:0:0:
200,280,41504,2,0,P|192:336|176:352,1,80,8|0,0:0|0:0,0:0:0:0:
312,280,41948,2,0,P|320:336|336:352,1,80,2|0,3:2|0:0,0:0:0:0:
416,320,42393,1,8,0:0:0:0:
504,352,42615,1,0,0:0:0:0:
504,352,42837,5,2,3:2:0:0:
368,232,43282,2,0,L|368:152,1,80,8|0,0:0|0:0,0:0:0:0:
296,192,43726,2,0,L|296:272,1,80,2|0,3:2|0:0,0:0:0:0:
296,352,44170,1,8,0:0:0:0:
144,232,44615,2,0,L|144:152,1,80,2|0,3:2|0:0,0:0:0:0:
216,192,45059,2,0,L|216:272,1,80,8|0,0:0|0:0,0:0:0:0:
184,344,45504,2,0,P|288:368|328:344,1,160,2|8,3:2|0:0,0:0:0:0:
424,192,46393,6,0,P|344:168|296:112,1,160,2|8,3:2|0:0,0:0:0:0:
256,40,47059,1,0,0:0:0:0:
216,112,47282,2,0,P|168:168|88:192,1,160,2|8,3:2|0:0,0:0:0:0:
8,192,47948,1,2,0:0:0:0:
16,32,48393,1,2,0:0:0:0:
96,64,48615,1,10,0:0:0:0:
176,96,48837,1,2,0:0:0:0:
336,96,49282,1,2,0:0:0:0:
416,64,49504,1,8,0:0:0:0:
496,32,49726,1,0,3:0:0:0:
504,128,49948,6,0,P|448:184|368:192,1,160,6|8,3:2|0:0,0:0:0:0:
312,136,50615,1,0,0:0:0:0:
256,192,50837,2,0,B|200:200|200:152|144:160,2,120,2|2|2,3:2|0:0|0:0,0:0:0:0:
368,88,51948,1,2,0:0:0:0:
368,88,52170,2,0,L|312:32,1,80,8|0,0:0|0:0,0:0:0:0:
144,88,52615,2,0,L|200:32,1,80,2|0,3:2|0:0,0:0:0:0:
256,128,53059,1,8,0:0:0:0:
256,128,53282,1,0,0:0:0:0:
328,192,53504,6,0,P|224:216|184:192,1,160,2|8,3:2|0:0,0:0:0:0:
128,128,54170,1,0,0:0:0:0:
200,80,54393,2,0,B|256:72|256:120|312:112,2,120,2|2|2,3:2|0:0|0:0,0:0:0:0:
80,232,55504,1,2,0:0:0:0:
80,232,55726,2,0,P|88:264|120:296,1,80,8|0,0:0|0:0,0:0:0:0:
192,344,56170,1,2,3:2:0:0:
256,248,56393,1,0,0:0:0:0:
320,344,56615,1,8,0:0:0:0:
488,360,57059,5,2,3:2:0:0:
472,344,57170,1,0,0:0:0:0:
456,328,57282,1,0,0:0:0:0:
392,264,57504,2,0,P|368:224|368:192,1,80,8|0,0:0|0:0,0:0:0:0:
256,248,57948,2,0,L|256:328,1,80,2|0,3:2|0:0,0:0:0:0:
120,264,58393,2,0,P|144:224|144:192,1,80,8|0,0:0|0:0,0:0:0:0:
48,128,58837,2,0,P|104:88|192:88,1,160,2|8,3:2|0:0,0:0:0:0:
256,152,59504,1,0,0:0:0:0:
320,88,59726,2,0,P|408:88|464:128,1,160,2|8,3:2|0:0,0:0:0:0:
328,248,60615,6,0,P|224:272|184:248,1,160,2|8,3:2|0:0,0:0:0:0:
128,192,61282,1,0,0:0:0:0:
184,136,61504,2,0,P|288:112|328:136,1,160,2|8,3:2|0:0,0:0:0:0:
400,264,62393,5,12,3:2:0:0:
256,376,62726,1,8,3:2:0:0:
112,264,63059,1,8,3:2:0:0:
184,192,63282,2,0,B|208:192|232:208|232:208|280:176|280:176|304:192|328:192,1,160,8|8,3:2|0:0,0:0:0:0:
