osu file format v14

[General]
AudioFilename: audio.mp3
AudioLeadIn: 0
PreviewTime: 50345
Countdown: 0
SampleSet: None
StackLeniency: 0.7
Mode: 3
LetterboxInBreaks: 0
SpecialStyle: 0
WidescreenStoryboard: 1

[Editor]
Bookmarks: 23448,34483,45517,62069,83535,84138,144828,155862,177931
DistanceSpacing: 1.5
BeatDivisor: 4
GridSize: 16
TimelineZoom: 0.8000001

[Metadata]
Title:Stay Alive (Jun Kuroda Bootleg Remix)
TitleUnicode:Stay Alive (Jun Kuroda Bootleg Remix)
Artist:Emilia (CV: Takahashi Rie)
ArtistUnicode:エミリア (CV:高橋李依)
Creator:leqek
Version:u_e's 10k
Source:Re:ゼロから始める異世界生活
Tags:Re:Zero kara Hajimeru Isekai Seikatsu
BeatmapID:2231102
BeatmapSetID:1000004

[Difficulty]
HPDrainRate:8
CircleSize:10
OverallDifficulty:8
ApproachRate:5
SliderMultiplier:1.4
SliderTickRate:1

[Events]
//Background and Video events
0,0,"BG.jpg",0,0
//Break Periods
//Storyboard Layer 0 (Background)
//Storyboard Layer 1 (Fail)
//Storyboard Layer 2 (Pass)
//Storyboard Layer 3 (Foreground)
//Storyboard Layer 4 (Overlay)
//Storyboard Sound Samples

[TimingPoints]
1380,344.827586206897,4,2,0,21,1,0
51035,-100,4,2,0,21,0,1
73104,-100,4,2,0,21,0,0
111724,-100,4,2,0,21,0,1
133793,-100,4,2,0,21,0,0
188966,-100,4,2,0,21,0,1
211035,-100,4,2,0,21,0,0

[HitObjects]
25,192,1380,5,0,0:0:0:0:
128,192,1380,1,0,0:0:0:0:
128,192,1724,1,0,0:0:0:0:
25,192,2069,1,0,0:0:0:0:
486,192,2069,1,0,0:0:0:0:
435,192,2242,1,0,0:0:0:0:
332,192,2414,1,0,0:0:0:0:
25,192,2759,1,0,0:0:0:0:
486,192,2759,1,0,0:0:0:0:
384,192,3104,1,0,0:0:0:0:
435,192,3276,1,0,0:0:0:0:
179,192,3276,1,0,0:0:0:0:
230,192,3448,1,0,0:0:0:0:
384,192,3448,1,0,0:0:0:0:
332,192,3621,1,0,0:0:0:0:
281,192,3793,1,0,0:0:0:0:
128,192,3793,1,0,0:0:0:0:
76,192,4138,128,0,4483:0:0:0:0:
230,192,4138,128,0,4483:0:0:0:0:
384,192,4138,128,0,4483:0:0:0:0:
332,192,4483,128,0,4828:0:0:0:0:
281,192,4828,1,0,0:0:0:0:
486,192,4828,1,0,0:0:0:0:
384,192,5000,1,0,0:0:0:0:
230,192,5173,1,0,0:0:0:0:
435,192,5173,1,0,0:0:0:0:
76,192,5173,1,0,0:0:0:0:
128,192,5517,1,0,0:0:0:0:
281,192,5517,1,0,0:0:0:0:
332,192,5690,1,0,0:0:0:0:
435,192,5862,1,0,0:0:0:0:
486,192,6035,1,0,0:0:0:0:
435,192,6056,1,0,0:0:0:0:
384,192,6207,1,0,0:0:0:0:
230,192,6207,1,0,0:0:0:0:
486,192,6380,1,0,0:0:0:0:
332,192,6552,1,0,0:0:0:0:
128,192,6552,1,0,0:0:0:0:
435,192,6724,1,0,0:0:0:0:
281,192,6897,1,0,0:0:0:0:
25,192,6897,1,0,0:0:0:0:
486,192,7242,1,0,0:0:0:0:
281,192,7586,1,0,0:0:0:0:
76,192,7586,1,0,0:0:0:0:
332,192,7759,1,0,0:0:0:0:
384,192,7931,1,0,0:0:0:0:
128,192,8276,1,0,0:0:0:0:
486,192,8276,1,0,0:0:0:0:
384,192,8621,1,0,0:0:0:0:
435,192,8793,1,0,0:0:0:0:
332,192,8966,1,0,0:0:0:0:
384,192,9138,1,0,0:0:0:0:
281,192,9311,1,0,0:0:0:0:
435,192,9311,1,0,0:0:0:0:
179,192,9483,1,0,0:0:0:0:
384,192,9483,1,0,0:0:0:0:
486,192,9655,1,0,0:0:0:0:
25,192,9655,128,0,10000:0:0:0:0:
128,192,9655,128,0,10000:0:0:0:0:
179,192,10000,128,0,10345:0:0:0:0:
281,192,10345,1,0,0:0:0:0:
384,192,10517,1,0,0:0:0:0:
281,192,10690,1,0,0:0:0:0:
179,192,10690,1,0,0:0:0:0:
76,192,10690,1,0,0:0:0:0:
281,192,11035,1,0,0:0:0:0:
25,192,11035,1,0,0:0:0:0:
384,192,11207,1,0,0:0:0:0:
486,192,11380,1,0,0:0:0:0:
281,192,11552,1,0,0:0:0:0:
435,192,11724,1,0,0:0:0:0:
281,192,11897,1,0,0:0:0:0:
384,192,12069,1,0,0:0:0:0:
128,192,12069,1,0,0:0:0:0:
332,192,12242,1,0,0:0:0:0:
230,192,12242,1,0,0:0:0:0:
487,192,12414,5,0,0:0:0:0:
384,192,12414,1,0,0:0:0:0:
128,192,12759,1,0,0:0:0:0:
384,192,12931,1,0,0:0:0:0:
487,192,13104,1,0,0:0:0:0:
26,192,13104,1,0,0:0:0:0:
281,192,13104,1,0,0:0:0:0:
77,192,13276,1,0,0:0:0:0:
180,192,13448,1,0,0:0:0:0:
281,192,13448,1,0,0:0:0:0:
487,192,13793,1,0,0:0:0:0:
26,192,13793,1,0,0:0:0:0:
128,192,14138,1,0,0:0:0:0:
333,192,14311,1,0,0:0:0:0:
77,192,14311,1,0,0:0:0:0:
282,192,14483,1,0,0:0:0:0:
128,192,14483,1,0,0:0:0:0:
384,192,14483,1,0,0:0:0:0:
180,192,14655,1,0,0:0:0:0:
384,192,14828,1,0,0:0:0:0:
231,192,14828,1,0,0:0:0:0:
128,192,15173,128,0,15517:0:0:0:0:
25,192,15173,128,0,15517:0:0:0:0:
486,192,15173,1,0,0:0:0:0:
230,192,15604,128,0,15862:0:0:0:0:
332,192,15690,1,0,0:0:0:0:
26,192,15862,1,0,0:0:0:0:
384,192,15862,1,0,0:0:0:0:
486,192,15862,1,0,0:0:0:0:
128,192,16035,1,0,0:0:0:0:
282,192,16207,1,0,0:0:0:0:
77,192,16207,1,0,0:0:0:0:
436,192,16207,1,0,0:0:0:0:
384,192,16552,1,0,0:0:0:0:
231,192,16552,1,0,0:0:0:0:
180,192,16724,1,0,0:0:0:0:
77,192,16897,1,0,0:0:0:0:
26,192,17069,1,0,0:0:0:0:
435,192,17069,1,0,0:0:0:0:
77,192,17091,1,0,0:0:0:0:
128,192,17242,1,0,0:0:0:0:
282,192,17242,1,0,0:0:0:0:
486,192,17242,1,0,0:0:0:0:
26,192,17414,1,0,0:0:0:0:
384,192,17586,1,0,0:0:0:0:
180,192,17586,1,0,0:0:0:0:
77,192,17759,1,0,0:0:0:0:
332,192,17759,1,0,0:0:0:0:
435,192,17759,1,0,0:0:0:0:
231,192,17931,1,0,0:0:0:0:
487,192,17931,1,0,0:0:0:0:
26,192,18276,1,0,0:0:0:0:
332,192,18448,1,0,0:0:0:0:
231,192,18621,1,0,0:0:0:0:
436,192,18621,1,0,0:0:0:0:
486,192,18621,1,0,0:0:0:0:
180,192,18793,1,0,0:0:0:0:
128,192,18966,1,0,0:0:0:0:
486,192,18966,1,0,0:0:0:0:
26,192,19311,1,0,0:0:0:0:
384,192,19311,1,0,0:0:0:0:
128,192,19655,1,0,0:0:0:0:
77,192,19828,1,0,0:0:0:0:
435,192,19828,1,0,0:0:0:0:
180,192,20000,1,0,0:0:0:0:
384,192,20000,1,0,0:0:0:0:
281,192,20000,1,0,0:0:0:0:
128,192,20173,1,0,0:0:0:0:
332,192,20173,128,0,20259:0:0:0:0:
77,192,20345,1,0,0:0:0:0:
231,192,20345,1,0,0:0:0:0:
384,192,20345,128,0,20431:0:0:0:0:
128,192,20517,1,0,0:0:0:0:
435,192,20517,128,0,20604:0:0:0:0:
486,192,20690,128,0,22069:0:0:0:0:
26,192,20690,1,0,0:0:0:0:
231,192,21380,1,0,0:0:0:0:
384,192,21380,128,0,22069:0:0:0:0:
128,192,21552,1,0,0:0:0:0:
231,192,21724,1,0,0:0:0:0:
25,192,21724,1,0,0:0:0:0:
231,192,22069,1,0,0:0:0:0:
332,192,22069,1,0,0:0:0:0:
128,192,22242,1,0,0:0:0:0:
281,192,22414,1,0,0:0:0:0:
179,192,22586,1,0,0:0:0:0:
332,192,22759,1,0,0:0:0:0:
230,192,22931,1,0,0:0:0:0:
281,192,23104,1,0,0:0:0:0:
384,192,23276,1,0,0:0:0:0:
179,192,23448,1,0,0:0:0:0:
25,192,23448,1,0,0:0:0:0:
486,192,23448,128,0,23793:0:0:0:0:
384,192,23448,128,0,23793:0:0:0:0:
230,192,23621,1,0,0:0:0:0:
128,192,23793,1,0,0:0:0:0:
25,192,23793,1,0,0:0:0:0:
384,192,23966,128,0,24311:0:0:0:0:
486,192,23966,128,0,24311:0:0:0:0:
76,192,23966,1,0,0:0:0:0:
179,192,24138,1,0,0:0:0:0:
128,192,24311,1,0,0:0:0:0:
384,192,24483,128,0,24828:0:0:0:0:
486,192,24483,128,0,24828:0:0:0:0:
25,192,24483,1,0,0:0:0:0:
230,192,24483,1,0,0:0:0:0:
76,192,24655,1,0,0:0:0:0:
128,192,24828,1,0,0:0:0:0:
230,192,24828,1,0,0:0:0:0:
486,192,25000,128,0,25345:0:0:0:0:
384,192,25000,128,0,25345:0:0:0:0:
179,192,25000,1,0,0:0:0:0:
76,192,25173,1,0,0:0:0:0:
230,192,25173,1,0,0:0:0:0:
25,192,25345,1,0,0:0:0:0:
76,192,25431,1,0,0:0:0:0:
332,192,25517,128,0,25690:0:0:0:0:
128,192,25517,1,0,0:0:0:0:
179,192,25604,1,0,0:0:0:0:
230,192,25690,1,0,0:0:0:0:
384,192,25862,128,0,26035:0:0:0:0:
179,192,25862,1,0,0:0:0:0:
76,192,25862,1,0,0:0:0:0:
25,192,26035,1,0,0:0:0:0:
435,192,26207,128,0,26552:0:0:0:0:
332,192,26207,128,0,26552:0:0:0:0:
128,192,26207,128,0,26897:0:0:0:0:
25,192,26207,128,0,26897:0:0:0:0:
435,192,26724,128,0,26897:0:0:0:0:
332,192,26724,128,0,26897:0:0:0:0:
179,192,26983,1,0,0:0:0:0:
230,192,27069,128,0,27242:0:0:0:0:
384,192,27242,128,0,27586:0:0:0:0:
281,192,27242,128,0,27586:0:0:0:0:
486,192,27242,128,0,27586:0:0:0:0:
128,192,27328,1,0,0:0:0:0:
76,192,27414,128,0,27586:0:0:0:0:
230,192,27586,1,0,0:0:0:0:
179,192,27759,1,0,0:0:0:0:
486,192,27759,128,0,28104:0:0:0:0:
384,192,27759,128,0,28104:0:0:0:0:
128,192,27931,1,0,0:0:0:0:
230,192,27931,1,0,0:0:0:0:
179,192,28104,1,0,0:0:0:0:
128,192,28190,1,0,0:0:0:0:
486,192,28276,128,0,28448:0:0:0:0:
332,192,28276,128,0,28448:0:0:0:0:
25,192,28276,1,0,0:0:0:0:
76,192,28362,1,0,0:0:0:0:
230,192,28448,1,0,0:0:0:0:
128,192,28448,1,0,0:0:0:0:
281,192,28621,128,0,28793:0:0:0:0:
435,192,28621,128,0,28793:0:0:0:0:
230,192,28621,1,0,0:0:0:0:
128,192,28621,1,0,0:0:0:0:
332,192,28793,128,0,28966:0:0:0:0:
486,192,28793,128,0,28966:0:0:0:0:
76,192,28793,1,0,0:0:0:0:
281,192,28966,128,0,29311:0:0:0:0:
384,192,28966,128,0,29311:0:0:0:0:
25,192,28966,1,0,0:0:0:0:
179,192,28966,1,0,0:0:0:0:
76,192,29138,1,0,0:0:0:0:
128,192,29311,1,0,0:0:0:0:
230,192,29311,1,0,0:0:0:0:
384,192,29483,128,0,29828:0:0:0:0:
281,192,29483,128,0,29828:0:0:0:0:
25,192,29483,1,0,0:0:0:0:
128,192,29655,1,0,0:0:0:0:
230,192,29655,1,0,0:0:0:0:
76,192,29828,1,0,0:0:0:0:
384,192,30000,128,0,30173:0:0:0:0:
281,192,30000,128,0,30173:0:0:0:0:
230,192,30000,1,0,0:0:0:0:
25,192,30000,1,0,0:0:0:0:
230,192,30173,1,0,0:0:0:0:
25,192,30345,1,0,0:0:0:0:
179,192,30345,1,0,0:0:0:0:
486,192,30517,128,0,30862:0:0:0:0:
281,192,30517,128,0,30862:0:0:0:0:
76,192,30517,1,0,0:0:0:0:
128,192,30690,1,0,0:0:0:0:
179,192,30690,1,0,0:0:0:0:
25,192,30862,1,0,0:0:0:0:
230,192,30948,1,0,0:0:0:0:
435,192,31035,128,0,31207:0:0:0:0:
384,192,31035,128,0,31207:0:0:0:0:
76,192,31035,1,0,0:0:0:0:
179,192,31121,1,0,0:0:0:0:
128,192,31207,1,0,0:0:0:0:
435,192,31380,128,0,31466:0:0:0:0:
384,192,31380,128,0,31466:0:0:0:0:
128,192,31380,1,0,0:0:0:0:
230,192,31380,1,0,0:0:0:0:
435,192,31552,128,0,31724:0:0:0:0:
384,192,31552,128,0,31724:0:0:0:0:
76,192,31552,1,0,0:0:0:0:
128,192,31724,128,0,31897:0:0:0:0:
281,192,31724,128,0,32069:0:0:0:0:
486,192,31724,128,0,32069:0:0:0:0:
25,192,31724,128,0,32069:0:0:0:0:
230,192,32069,128,0,32242:0:0:0:0:
435,192,32242,1,0,0:0:0:0:
128,192,32242,128,0,32414:0:0:0:0:
332,192,32328,1,0,0:0:0:0:
435,192,32414,128,0,32586:0:0:0:0:
384,192,32414,128,0,32586:0:0:0:0:
179,192,32414,128,0,32500:0:0:0:0:
230,192,32586,128,0,32673:0:0:0:0:
281,192,32759,128,0,32931:0:0:0:0:
384,192,32759,128,0,32931:0:0:0:0:
179,192,32759,128,0,32845:0:0:0:0:
76,192,32759,1,0,0:0:0:0:
332,192,32931,128,0,33104:0:0:0:0:
435,192,32931,128,0,33104:0:0:0:0:
128,192,32931,128,0,33017:0:0:0:0:
25,192,33104,128,0,33190:0:0:0:0:
486,192,33276,128,0,33448:0:0:0:0:
384,192,33276,128,0,33448:0:0:0:0:
76,192,33276,128,0,33362:0:0:0:0:
179,192,33276,1,0,0:0:0:0:
128,192,33448,128,0,33535:0:0:0:0:
76,192,33621,128,0,33707:0:0:0:0:
230,192,33621,1,0,0:0:0:0:
332,192,33793,128,0,33966:0:0:0:0:
435,192,33793,128,0,33966:0:0:0:0:
230,192,33793,1,0,0:0:0:0:
179,192,33880,1,0,0:0:0:0:
128,192,33966,1,0,0:0:0:0:
76,192,34052,1,0,0:0:0:0:
384,192,34138,128,0,34311:0:0:0:0:
281,192,34138,128,0,34311:0:0:0:0:
179,192,34138,1,0,0:0:0:0:
128,192,34224,1,0,0:0:0:0:
76,192,34311,1,0,0:0:0:0:
25,192,34397,1,0,0:0:0:0:
76,192,34483,128,0,34828:0:0:0:0:
487,192,34483,1,0,0:0:0:0:
384,192,34483,1,0,0:0:0:0:
128,192,34483,128,0,34828:0:0:0:0:
282,192,34655,1,0,0:0:0:0:
384,192,34828,1,0,0:0:0:0:
332,192,34828,1,0,0:0:0:0:
26,192,35000,128,0,35345:0:0:0:0:
128,192,35000,128,0,35345:0:0:0:0:
486,192,35000,1,0,0:0:0:0:
435,192,35086,1,0,0:0:0:0:
281,192,35173,1,0,0:0:0:0:
332,192,35259,1,0,0:0:0:0:
384,192,35345,1,0,0:0:0:0:
332,192,35517,1,0,0:0:0:0:
26,192,35517,128,0,35862:0:0:0:0:
128,192,35517,128,0,35862:0:0:0:0:
487,192,35517,1,0,0:0:0:0:
436,192,35690,1,0,0:0:0:0:
384,192,35776,1,0,0:0:0:0:
282,192,35862,1,0,0:0:0:0:
332,192,35862,1,0,0:0:0:0:
384,192,36035,1,0,0:0:0:0:
26,192,36035,128,0,36380:0:0:0:0:
128,192,36035,128,0,36380:0:0:0:0:
282,192,36207,1,0,0:0:0:0:
487,192,36207,1,0,0:0:0:0:
384,192,36380,1,0,0:0:0:0:
486,192,36466,1,0,0:0:0:0:
180,192,36552,128,0,36724:0:0:0:0:
281,192,36552,1,0,0:0:0:0:
332,192,36638,1,0,0:0:0:0:
384,192,36724,1,0,0:0:0:0:
281,192,36897,1,0,0:0:0:0:
128,192,36897,128,0,37069:0:0:0:0:
486,192,36897,1,0,0:0:0:0:
332,192,37069,1,0,0:0:0:0:
180,192,37242,128,0,37586:0:0:0:0:
77,192,37242,128,0,37586:0:0:0:0:
486,192,37242,1,0,0:0:0:0:
281,192,37242,1,0,0:0:0:0:
384,192,37414,1,0,0:0:0:0:
435,192,37586,1,0,0:0:0:0:
332,192,37586,1,0,0:0:0:0:
180,192,37759,128,0,37931:0:0:0:0:
77,192,37759,128,0,37931:0:0:0:0:
281,192,37759,1,0,0:0:0:0:
332,192,37845,1,0,0:0:0:0:
486,192,37931,1,0,0:0:0:0:
435,192,38017,1,0,0:0:0:0:
384,192,38104,1,0,0:0:0:0:
128,192,38276,128,0,38621:0:0:0:0:
231,192,38276,128,0,38621:0:0:0:0:
26,192,38276,128,0,38621:0:0:0:0:
332,192,38276,1,0,0:0:0:0:
281,192,38276,1,0,0:0:0:0:
486,192,38448,1,0,0:0:0:0:
384,192,38535,1,0,0:0:0:0:
281,192,38621,1,0,0:0:0:0:
435,192,38621,1,0,0:0:0:0:
26,192,38793,128,0,39138:0:0:0:0:
128,192,38793,128,0,39138:0:0:0:0:
486,192,38793,1,0,0:0:0:0:
384,192,38880,1,0,0:0:0:0:
281,192,38966,1,0,0:0:0:0:
281,192,39138,1,0,0:0:0:0:
332,192,39224,1,0,0:0:0:0:
180,192,39311,128,0,39483:0:0:0:0:
26,192,39311,128,0,39483:0:0:0:0:
486,192,39311,1,0,0:0:0:0:
435,192,39397,1,0,0:0:0:0:
384,192,39483,1,0,0:0:0:0:
77,192,39655,128,0,39828:0:0:0:0:
231,192,39655,128,0,39828:0:0:0:0:
435,192,39655,1,0,0:0:0:0:
332,192,39655,1,0,0:0:0:0:
180,192,39828,128,0,40000:0:0:0:0:
26,192,39828,128,0,40000:0:0:0:0:
486,192,39828,1,0,0:0:0:0:
231,192,40000,128,0,40345:0:0:0:0:
128,192,40000,128,0,40345:0:0:0:0:
384,192,40000,1,0,0:0:0:0:
281,192,40000,1,0,0:0:0:0:
435,192,40173,1,0,0:0:0:0:
281,192,40345,1,0,0:0:0:0:
486,192,40345,1,0,0:0:0:0:
128,192,40517,128,0,40862:0:0:0:0:
231,192,40517,128,0,40862:0:0:0:0:
384,192,40517,1,0,0:0:0:0:
435,192,40604,1,0,0:0:0:0:
281,192,40690,1,0,0:0:0:0:
332,192,40776,1,0,0:0:0:0:
384,192,40862,1,0,0:0:0:0:
128,192,41035,128,0,41207:0:0:0:0:
231,192,41035,128,0,41207:0:0:0:0:
384,192,41035,1,0,0:0:0:0:
486,192,41035,1,0,0:0:0:0:
332,192,41207,1,0,0:0:0:0:
281,192,41380,1,0,0:0:0:0:
486,192,41380,1,0,0:0:0:0:
26,192,41552,128,0,41897:0:0:0:0:
231,192,41552,128,0,41897:0:0:0:0:
435,192,41552,1,0,0:0:0:0:
384,192,41638,1,0,0:0:0:0:
281,192,41724,1,0,0:0:0:0:
486,192,41811,1,0,0:0:0:0:
332,192,41897,1,0,0:0:0:0:
281,192,41983,1,0,0:0:0:0:
128,192,42069,128,0,42242:0:0:0:0:
77,192,42069,128,0,42242:0:0:0:0:
435,192,42069,1,0,0:0:0:0:
384,192,42155,1,0,0:0:0:0:
332,192,42242,1,0,0:0:0:0:
281,192,42414,1,0,0:0:0:0:
77,192,42414,128,0,42500:0:0:0:0:
128,192,42414,128,0,42500:0:0:0:0:
384,192,42414,1,0,0:0:0:0:
77,192,42586,128,0,42759:0:0:0:0:
128,192,42586,128,0,42759:0:0:0:0:
332,192,42586,1,0,0:0:0:0:
384,192,42673,1,0,0:0:0:0:
26,192,42759,128,0,43104:0:0:0:0:
231,192,42759,128,0,43104:0:0:0:0:
435,192,42759,1,0,0:0:0:0:
486,192,42759,1,0,0:0:0:0:
281,192,42931,1,0,0:0:0:0:
332,192,43017,1,0,0:0:0:0:
384,192,43104,1,0,0:0:0:0:
435,192,43104,1,0,0:0:0:0:
77,192,43276,1,0,0:0:0:0:
332,192,43276,1,0,0:0:0:0:
180,192,43362,1,0,0:0:0:0:
77,192,43448,128,0,43621:0:0:0:0:
128,192,43448,128,0,43621:0:0:0:0:
435,192,43448,1,0,0:0:0:0:
281,192,43448,1,0,0:0:0:0:
384,192,43621,1,0,0:0:0:0:
230,192,43793,128,0,43966:0:0:0:0:
128,192,43793,128,0,43966:0:0:0:0:
281,192,43793,1,0,0:0:0:0:
486,192,43793,1,0,0:0:0:0:
77,192,43966,128,0,44138:0:0:0:0:
180,192,43966,128,0,44138:0:0:0:0:
435,192,43966,1,0,0:0:0:0:
281,192,44138,1,0,0:0:0:0:
332,192,44224,1,0,0:0:0:0:
128,192,44311,128,0,44483:0:0:0:0:
26,192,44311,128,0,44483:0:0:0:0:
384,192,44311,1,0,0:0:0:0:
332,192,44397,1,0,0:0:0:0:
384,192,44483,1,0,0:0:0:0:
435,192,44569,1,0,0:0:0:0:
281,192,44655,1,0,0:0:0:0:
384,192,44742,1,0,0:0:0:0:
282,192,44828,1,0,0:0:0:0:
180,192,44828,128,0,45000:0:0:0:0:
77,192,44828,128,0,45000:0:0:0:0:
333,192,44914,1,0,0:0:0:0:
384,192,45000,1,0,0:0:0:0:
436,192,45086,1,0,0:0:0:0:
333,192,45173,1,0,0:0:0:0:
128,192,45173,128,0,45345:0:0:0:0:
231,192,45173,128,0,45345:0:0:0:0:
384,192,45259,1,0,0:0:0:0:
436,192,45345,1,0,0:0:0:0:
487,192,45431,1,0,0:0:0:0:
384,192,45517,1,0,0:0:0:0:
282,192,45517,1,0,0:0:0:0:
179,192,45561,1,0,0:0:0:0:
76,192,45604,1,0,0:0:0:0:
486,192,45690,1,0,0:0:0:0:
332,192,45862,1,0,0:0:0:0:
435,192,46035,1,0,0:0:0:0:
25,192,46035,1,0,0:0:0:0:
76,192,46078,1,0,0:0:0:0:
384,192,46207,1,0,0:0:0:0:
281,192,46380,1,0,0:0:0:0:
332,192,46552,1,0,0:0:0:0:
435,192,46724,1,0,0:0:0:0:
384,192,46897,1,0,0:0:0:0:
486,192,46897,1,0,0:0:0:0:
76,192,46925,1,0,0:0:0:0:
128,192,46954,1,0,0:0:0:0:
179,192,46983,1,0,0:0:0:0:
435,192,47414,1,0,0:0:0:0:
384,192,47443,1,0,0:0:0:0:
332,192,47471,1,0,0:0:0:0:
281,192,47500,1,0,0:0:0:0:
76,192,47586,1,0,0:0:0:0:
435,192,47759,1,0,0:0:0:0:
281,192,48104,1,0,0:0:0:0:
128,192,48190,1,0,0:0:0:0:
230,192,48219,1,0,0:0:0:0:
332,192,48247,1,0,0:0:0:0:
486,192,48276,1,0,0:0:0:0:
384,192,48276,1,0,0:0:0:0:
179,192,48362,1,0,0:0:0:0:
281,192,48448,1,0,0:0:0:0:
486,192,49483,1,0,0:0:0:0:
384,192,49569,1,0,0:0:0:0:
281,192,49655,1,0,0:0:0:0:
25,192,49655,1,0,0:0:0:0:
128,192,49655,1,0,0:0:0:0:
486,192,51035,128,0,51380:0:0:0:0:
25,192,51035,1,0,0:0:0:0:
230,192,51035,1,0,0:0:0:0:
384,192,51380,128,0,51552:0:0:0:0:
179,192,51380,1,0,0:0:0:0:
25,192,51380,1,0,0:0:0:0:
486,192,51552,128,0,52069:0:0:0:0:
230,192,51552,1,0,0:0:0:0:
179,192,51638,1,0,0:0:0:0:
128,192,51724,1,0,0:0:0:0:
76,192,51811,1,0,0:0:0:0:
25,192,51897,1,0,0:0:0:0:
281,192,52069,128,0,52242:0:0:0:0:
128,192,52069,1,0,0:0:0:0:
230,192,52069,1,0,0:0:0:0:
384,192,52242,128,0,52759:0:0:0:0:
25,192,52242,1,0,0:0:0:0:
76,192,52328,1,0,0:0:0:0:
128,192,52414,1,0,0:0:0:0:
179,192,52414,1,0,0:0:0:0:
25,192,52586,1,0,0:0:0:0:
435,192,52759,128,0,52931:0:0:0:0:
230,192,52759,1,0,0:0:0:0:
128,192,52759,1,0,0:0:0:0:
332,192,52931,128,0,53276:0:0:0:0:
25,192,52931,1,0,0:0:0:0:
76,192,53017,1,0,0:0:0:0:
230,192,53104,1,0,0:0:0:0:
179,192,53190,1,0,0:0:0:0:
128,192,53276,1,0,0:0:0:0:
384,192,53448,128,0,53621:0:0:0:0:
179,192,53448,1,0,0:0:0:0:
76,192,53448,1,0,0:0:0:0:
281,192,53621,128,0,54138:0:0:0:0:
230,192,53621,1,0,0:0:0:0:
179,192,53707,1,0,0:0:0:0:
128,192,53793,1,0,0:0:0:0:
25,192,53793,1,0,0:0:0:0:
179,192,53966,1,0,0:0:0:0:
230,192,54138,1,0,0:0:0:0:
25,192,54138,1,0,0:0:0:0:
332,192,54311,128,0,54655:0:0:0:0:
128,192,54311,1,0,0:0:0:0:
25,192,54397,1,0,0:0:0:0:
230,192,54483,1,0,0:0:0:0:
179,192,54569,1,0,0:0:0:0:
76,192,54655,1,0,0:0:0:0:
384,192,54828,128,0,55345:0:0:0:0:
25,192,54828,1,0,0:0:0:0:
230,192,54828,1,0,0:0:0:0:
486,192,55000,128,0,55345:0:0:0:0:
76,192,55000,1,0,0:0:0:0:
281,192,55173,128,0,55345:0:0:0:0:
128,192,55173,1,0,0:0:0:0:
230,192,55173,1,0,0:0:0:0:
76,192,55345,1,0,0:0:0:0:
230,192,55517,1,0,0:0:0:0:
25,192,55517,1,0,0:0:0:0:
76,192,55690,1,0,0:0:0:0:
128,192,55776,1,0,0:0:0:0:
486,192,55862,128,0,56035:0:0:0:0:
230,192,55862,1,0,0:0:0:0:
179,192,55948,1,0,0:0:0:0:
435,192,56035,128,0,56207:0:0:0:0:
128,192,56035,1,0,0:0:0:0:
384,192,56207,128,0,56724:0:0:0:0:
179,192,56207,1,0,0:0:0:0:
76,192,56207,1,0,0:0:0:0:
128,192,56380,1,0,0:0:0:0:
76,192,56466,1,0,0:0:0:0:
230,192,56552,1,0,0:0:0:0:
25,192,56552,1,0,0:0:0:0:
128,192,56724,1,0,0:0:0:0:
435,192,56897,128,0,57069:0:0:0:0:
76,192,56897,1,0,0:0:0:0:
179,192,56897,1,0,0:0:0:0:
230,192,57069,1,0,0:0:0:0:
179,192,57155,1,0,0:0:0:0:
281,192,57242,128,0,57586:0:0:0:0:
128,192,57242,1,0,0:0:0:0:
76,192,57328,1,0,0:0:0:0:
25,192,57414,1,0,0:0:0:0:
384,192,57586,128,0,57931:0:0:0:0:
230,192,57586,1,0,0:0:0:0:
76,192,57586,1,0,0:0:0:0:
179,192,57759,1,0,0:0:0:0:
128,192,57931,1,0,0:0:0:0:
230,192,57931,1,0,0:0:0:0:
179,192,58104,128,0,58190:0:0:0:0:
486,192,58276,128,0,58966:0:0:0:0:
128,192,58276,128,0,58362:0:0:0:0:
25,192,58276,1,0,0:0:0:0:
179,192,58621,1,0,0:0:0:0:
76,192,58621,128,0,58707:0:0:0:0:
384,192,58621,128,0,58966:0:0:0:0:
25,192,58793,128,0,58880:0:0:0:0:
230,192,58966,128,0,59052:0:0:0:0:
179,192,58966,1,0,0:0:0:0:
435,192,59138,128,0,59483:0:0:0:0:
128,192,59138,128,0,59224:0:0:0:0:
25,192,59311,1,0,0:0:0:0:
179,192,59311,1,0,0:0:0:0:
332,192,59397,128,0,59483:0:0:0:0:
384,192,59483,128,0,59655:0:0:0:0:
128,192,59483,1,0,0:0:0:0:
281,192,59655,128,0,59828:0:0:0:0:
230,192,59655,1,0,0:0:0:0:
25,192,59655,1,0,0:0:0:0:
384,192,59828,128,0,60173:0:0:0:0:
179,192,59828,1,0,0:0:0:0:
25,192,60000,1,0,0:0:0:0:
128,192,60000,1,0,0:0:0:0:
76,192,60173,1,0,0:0:0:0:
230,192,60173,1,0,0:0:0:0:
179,192,60259,1,0,0:0:0:0:
486,192,60345,128,0,60431:0:0:0:0:
128,192,60345,1,0,0:0:0:0:
179,192,60431,1,0,0:0:0:0:
486,192,60517,128,0,60604:0:0:0:0:
128,192,60517,1,0,0:0:0:0:
76,192,60604,1,0,0:0:0:0:
384,192,60690,128,0,60776:0:0:0:0:
25,192,60690,1,0,0:0:0:0:
76,192,60776,1,0,0:0:0:0:
281,192,60862,128,0,60948:0:0:0:0:
128,192,60862,1,0,0:0:0:0:
76,192,60948,1,0,0:0:0:0:
281,192,61035,128,0,61380:0:0:0:0:
128,192,61035,1,0,0:0:0:0:
179,192,61121,1,0,0:0:0:0:
25,192,61207,1,0,0:0:0:0:
76,192,61293,1,0,0:0:0:0:
230,192,61380,1,0,0:0:0:0:
128,192,61380,1,0,0:0:0:0:
179,192,61466,1,0,0:0:0:0:
25,192,61552,1,0,0:0:0:0:
128,192,61552,1,0,0:0:0:0:
76,192,61638,1,0,0:0:0:0:
230,192,61724,1,0,0:0:0:0:
128,192,61724,1,0,0:0:0:0:
332,192,61811,1,0,0:0:0:0:
230,192,61897,1,0,0:0:0:0:
26,192,62069,128,0,62414:0:0:0:0:
282,192,62069,1,0,0:0:0:0:
487,192,62069,1,0,0:0:0:0:
128,192,62414,128,0,62586:0:0:0:0:
487,192,62414,1,0,0:0:0:0:
333,192,62414,1,0,0:0:0:0:
26,192,62586,128,0,63104:0:0:0:0:
435,192,62586,1,0,0:0:0:0:
384,192,62673,1,0,0:0:0:0:
332,192,62759,1,0,0:0:0:0:
281,192,62845,1,0,0:0:0:0:
436,192,62931,1,0,0:0:0:0:
231,192,63104,128,0,63276:0:0:0:0:
384,192,63104,1,0,0:0:0:0:
282,192,63104,1,0,0:0:0:0:
128,192,63276,128,0,63793:0:0:0:0:
332,192,63276,1,0,0:0:0:0:
384,192,63362,1,0,0:0:0:0:
435,192,63448,1,0,0:0:0:0:
487,192,63448,1,0,0:0:0:0:
281,192,63621,1,0,0:0:0:0:
77,192,63793,128,0,63966:0:0:0:0:
487,192,63793,1,0,0:0:0:0:
384,192,63793,1,0,0:0:0:0:
180,192,63966,128,0,64311:0:0:0:0:
486,192,63966,1,0,0:0:0:0:
436,192,64052,1,0,0:0:0:0:
384,192,64138,1,0,0:0:0:0:
332,192,64224,1,0,0:0:0:0:
282,192,64311,1,0,0:0:0:0:
128,192,64483,128,0,64655:0:0:0:0:
333,192,64483,1,0,0:0:0:0:
436,192,64483,1,0,0:0:0:0:
231,192,64655,128,0,65173:0:0:0:0:
487,192,64828,1,0,0:0:0:0:
384,192,64828,1,0,0:0:0:0:
281,192,64828,1,0,0:0:0:0:
281,192,65000,1,0,0:0:0:0:
384,192,65000,1,0,0:0:0:0:
486,192,65000,1,0,0:0:0:0:
332,192,65173,1,0,0:0:0:0:
435,192,65173,1,0,0:0:0:0:
180,192,65345,128,0,65690:0:0:0:0:
384,192,65345,1,0,0:0:0:0:
486,192,65345,1,0,0:0:0:0:
281,192,65345,1,0,0:0:0:0:
435,192,65690,1,0,0:0:0:0:
332,192,65776,1,0,0:0:0:0:
128,192,65862,128,0,66724:0:0:0:0:
384,192,65862,1,0,0:0:0:0:
486,192,65862,1,0,0:0:0:0:
281,192,65862,1,0,0:0:0:0:
332,192,65948,1,0,0:0:0:0:
435,192,66035,1,0,0:0:0:0:
332,192,66121,1,0,0:0:0:0:
486,192,66207,1,0,0:0:0:0:
435,192,66293,1,0,0:0:0:0:
384,192,66380,1,0,0:0:0:0:
281,192,66466,1,0,0:0:0:0:
435,192,66552,1,0,0:0:0:0:
384,192,66638,1,0,0:0:0:0:
179,192,66724,128,0,67242:0:0:0:0:
332,192,66724,1,0,0:0:0:0:
281,192,66811,1,0,0:0:0:0:
332,192,66897,1,0,0:0:0:0:
486,192,66983,1,0,0:0:0:0:
435,192,67069,1,0,0:0:0:0:
384,192,67155,1,0,0:0:0:0:
128,192,67242,128,0,67414:0:0:0:0:
281,192,67242,1,0,0:0:0:0:
384,192,67328,1,0,0:0:0:0:
76,192,67414,128,0,68276:0:0:0:0:
281,192,67414,1,0,0:0:0:0:
486,192,67500,1,0,0:0:0:0:
435,192,67586,1,0,0:0:0:0:
332,192,67759,1,0,0:0:0:0:
384,192,67931,1,0,0:0:0:0:
486,192,67931,1,0,0:0:0:0:
332,192,68104,1,0,0:0:0:0:
384,192,68276,1,0,0:0:0:0:
281,192,68276,1,0,0:0:0:0:
231,192,68448,128,0,68535:0:0:0:0:
435,192,68448,1,0,0:0:0:0:
25,192,68621,128,0,69828:0:0:0:0:
384,192,68621,1,0,0:0:0:0:
486,192,68621,1,0,0:0:0:0:
230,192,68793,128,0,69828:0:0:0:0:
332,192,68793,1,0,0:0:0:0:
384,192,68880,1,0,0:0:0:0:
486,192,68966,1,0,0:0:0:0:
281,192,68966,1,0,0:0:0:0:
486,192,69138,1,0,0:0:0:0:
332,192,69138,1,0,0:0:0:0:
486,192,69311,1,0,0:0:0:0:
384,192,69311,1,0,0:0:0:0:
435,192,69483,1,0,0:0:0:0:
486,192,69483,1,0,0:0:0:0:
384,192,69655,1,0,0:0:0:0:
486,192,69655,1,0,0:0:0:0:
435,192,69742,1,0,0:0:0:0:
128,192,69828,128,0,70000:0:0:0:0:
486,192,69828,1,0,0:0:0:0:
179,192,70000,128,0,70173:0:0:0:0:
281,192,70000,1,0,0:0:0:0:
384,192,70000,1,0,0:0:0:0:
77,192,70173,128,0,71035:0:0:0:0:
435,192,70173,1,0,0:0:0:0:
384,192,70259,1,0,0:0:0:0:
281,192,70345,1,0,0:0:0:0:
180,192,70431,128,0,70517:0:0:0:0:
332,192,70431,1,0,0:0:0:0:
384,192,70517,1,0,0:0:0:0:
332,192,70604,1,0,0:0:0:0:
384,192,70690,1,0,0:0:0:0:
435,192,70776,1,0,0:0:0:0:
384,192,70862,1,0,0:0:0:0:
435,192,70948,1,0,0:0:0:0:
486,192,71035,1,0,0:0:0:0:
435,192,71121,1,0,0:0:0:0:
384,192,71207,1,0,0:0:0:0:
435,192,71293,1,0,0:0:0:0:
26,192,71380,128,0,71466:0:0:0:0:
384,192,71380,1,0,0:0:0:0:
332,192,71466,1,0,0:0:0:0:
26,192,71552,128,0,71897:0:0:0:0:
384,192,71552,1,0,0:0:0:0:
332,192,71638,1,0,0:0:0:0:
281,192,71724,1,0,0:0:0:0:
486,192,71724,1,0,0:0:0:0:
76,192,72069,128,0,72155:0:0:0:0:
332,192,72069,1,0,0:0:0:0:
435,192,72242,1,0,0:0:0:0:
128,192,72242,128,0,72586:0:0:0:0:
230,192,72759,128,0,72845:0:0:0:0:
486,192,72759,1,0,0:0:0:0:
332,192,72931,1,0,0:0:0:0:
25,192,73017,128,0,75345:0:0:0:0:
281,192,73104,1,0,0:0:0:0:
384,192,73448,1,0,0:0:0:0:
128,192,73448,1,0,0:0:0:0:
230,192,73448,1,0,0:0:0:0:
486,192,73448,1,0,0:0:0:0:
281,192,73966,1,0,0:0:0:0:
179,192,73966,1,0,0:0:0:0:
128,192,74138,1,0,0:0:0:0:
384,192,74138,1,0,0:0:0:0:
486,192,74138,1,0,0:0:0:0:
230,192,74311,1,0,0:0:0:0:
332,192,74397,1,0,0:0:0:0:
179,192,74483,1,0,0:0:0:0:
384,192,74483,1,0,0:0:0:0:
384,192,74655,1,0,0:0:0:0:
128,192,74655,1,0,0:0:0:0:
179,192,74828,1,0,0:0:0:0:
332,192,74828,1,0,0:0:0:0:
128,192,75000,1,0,0:0:0:0:
435,192,75000,1,0,0:0:0:0:
332,192,75086,1,0,0:0:0:0:
435,192,75173,1,0,0:0:0:0:
230,192,75173,1,0,0:0:0:0:
179,192,75259,1,0,0:0:0:0:
230,192,75345,1,0,0:0:0:0:
384,192,75345,1,0,0:0:0:0:
384,192,75517,1,0,0:0:0:0:
76,192,75517,1,0,0:0:0:0:
281,192,75517,1,0,0:0:0:0:
76,192,75690,1,0,0:0:0:0:
435,192,75690,1,0,0:0:0:0:
332,192,75862,1,0,0:0:0:0:
486,192,75862,1,0,0:0:0:0:
179,192,75862,1,0,0:0:0:0:
25,192,75862,1,0,0:0:0:0:
332,192,76035,1,0,0:0:0:0:
486,192,76035,1,0,0:0:0:0:
179,192,76035,1,0,0:0:0:0:
25,192,76035,1,0,0:0:0:0:
230,192,76207,1,0,0:0:0:0:
281,192,76380,1,0,0:0:0:0:
384,192,76380,1,0,0:0:0:0:
486,192,76380,1,0,0:0:0:0:
179,192,76380,1,0,0:0:0:0:
76,192,76380,1,0,0:0:0:0:
332,192,76724,1,0,0:0:0:0:
230,192,76811,1,0,0:0:0:0:
281,192,76897,1,0,0:0:0:0:
384,192,76897,1,0,0:0:0:0:
486,192,76897,1,0,0:0:0:0:
179,192,76897,1,0,0:0:0:0:
25,192,76897,1,0,0:0:0:0:
76,192,76897,1,0,0:0:0:0:
486,192,77242,128,0,77414:0:0:0:0:
128,192,77242,1,0,0:0:0:0:
25,192,77414,1,0,0:0:0:0:
128,192,77500,1,0,0:0:0:0:
76,192,77586,1,0,0:0:0:0:
128,192,77673,1,0,0:0:0:0:
179,192,77759,1,0,0:0:0:0:
230,192,77845,1,0,0:0:0:0:
179,192,77931,1,0,0:0:0:0:
384,192,77931,1,0,0:0:0:0:
230,192,78017,1,0,0:0:0:0:
281,192,78104,1,0,0:0:0:0:
435,192,78104,1,0,0:0:0:0:
332,192,78190,1,0,0:0:0:0:
230,192,78276,1,0,0:0:0:0:
486,192,78276,1,0,0:0:0:0:
76,192,78276,1,0,0:0:0:0:
332,192,78362,1,0,0:0:0:0:
281,192,78448,1,0,0:0:0:0:
128,192,78448,1,0,0:0:0:0:
332,192,78535,1,0,0:0:0:0:
486,192,78621,1,0,0:0:0:0:
25,192,78621,128,0,78966:0:0:0:0:
128,192,78621,128,0,78966:0:0:0:0:
486,192,78793,1,0,0:0:0:0:
486,192,78966,1,0,0:0:0:0:
230,192,78966,128,0,79138:0:0:0:0:
384,192,78966,1,0,0:0:0:0:
281,192,78966,1,0,0:0:0:0:
486,192,79138,1,0,0:0:0:0:
179,192,79138,128,0,79483:0:0:0:0:
76,192,79138,128,0,79483:0:0:0:0:
486,192,79311,1,0,0:0:0:0:
230,192,79483,128,0,79655:0:0:0:0:
486,192,79483,1,0,0:0:0:0:
128,192,79655,128,0,79828:0:0:0:0:
486,192,79655,1,0,0:0:0:0:
281,192,79655,1,0,0:0:0:0:
384,192,79655,1,0,0:0:0:0:
25,192,79828,128,0,80000:0:0:0:0:
435,192,79828,1,0,0:0:0:0:
332,192,79914,1,0,0:0:0:0:
230,192,80000,128,0,80345:0:0:0:0:
76,192,80000,128,0,80086:0:0:0:0:
281,192,80000,1,0,0:0:0:0:
128,192,80173,128,0,80259:0:0:0:0:
384,192,80173,1,0,0:0:0:0:
179,192,80345,128,0,80431:0:0:0:0:
281,192,80345,1,0,0:0:0:0:
25,192,80517,128,0,80604:0:0:0:0:
384,192,80517,1,0,0:0:0:0:
128,192,80690,128,0,80776:0:0:0:0:
281,192,80690,1,0,0:0:0:0:
76,192,80862,128,0,80948:0:0:0:0:
384,192,80862,1,0,0:0:0:0:
128,192,81035,128,0,81121:0:0:0:0:
281,192,81035,1,0,0:0:0:0:
179,192,81207,128,0,81293:0:0:0:0:
384,192,81207,1,0,0:0:0:0:
230,192,81380,128,0,81466:0:0:0:0:
486,192,81380,1,0,0:0:0:0:
128,192,81380,1,0,0:0:0:0:
25,192,81380,1,0,0:0:0:0:
435,192,81466,1,0,0:0:0:0:
384,192,81552,1,0,0:0:0:0:
128,192,81552,1,0,0:0:0:0:
25,192,81552,1,0,0:0:0:0:
435,192,81638,1,0,0:0:0:0:
332,192,81724,1,0,0:0:0:0:
76,192,81724,1,0,0:0:0:0:
179,192,81724,1,0,0:0:0:0:
384,192,81811,1,0,0:0:0:0:
435,192,81897,1,0,0:0:0:0:
230,192,81897,1,0,0:0:0:0:
179,192,81983,1,0,0:0:0:0:
384,192,82069,1,0,0:0:0:0:
128,192,82069,1,0,0:0:0:0:
332,192,82155,1,0,0:0:0:0:
281,192,82242,1,0,0:0:0:0:
179,192,82242,1,0,0:0:0:0:
76,192,82242,1,0,0:0:0:0:
230,192,82328,1,0,0:0:0:0:
281,192,82414,1,0,0:0:0:0:
384,192,82414,1,0,0:0:0:0:
230,192,82586,1,0,0:0:0:0:
332,192,82586,1,0,0:0:0:0:
435,192,82586,1,0,0:0:0:0:
179,192,82673,1,0,0:0:0:0:
486,192,82759,1,0,0:0:0:0:
128,192,82759,128,0,83448:0:0:0:0:
384,192,82845,128,0,83190:0:0:0:0:
281,192,83190,128,0,83535:0:0:0:0:
25,192,83448,1,0,0:0:0:0:
332,192,83535,128,0,83880:0:0:0:0:
230,192,83535,1,0,0:0:0:0:
25,192,83621,1,0,0:0:0:0:
230,192,83707,1,0,0:0:0:0:
25,192,83793,1,0,0:0:0:0:
384,192,83880,128,0,84138:0:0:0:0:
230,192,83880,1,0,0:0:0:0:
25,192,83966,1,0,0:0:0:0:
230,192,84052,1,0,0:0:0:0:
487,192,84138,1,0,0:0:0:0:
436,192,84138,1,0,0:0:0:0:
26,192,84138,128,0,84483:0:0:0:0:
179,192,84138,128,0,84483:0:0:0:0:
282,192,84311,1,0,0:0:0:0:
487,192,84483,1,0,0:0:0:0:
384,192,84483,1,0,0:0:0:0:
128,192,84655,128,0,85000:0:0:0:0:
436,192,84655,1,0,0:0:0:0:
26,192,84655,128,0,85000:0:0:0:0:
333,192,84828,1,0,0:0:0:0:
384,192,85000,1,0,0:0:0:0:
487,192,85173,1,0,0:0:0:0:
26,192,85173,128,0,85517:0:0:0:0:
128,192,85173,128,0,85517:0:0:0:0:
282,192,85173,1,0,0:0:0:0:
436,192,85345,1,0,0:0:0:0:
384,192,85517,1,0,0:0:0:0:
282,192,85517,1,0,0:0:0:0:
128,192,85690,128,0,86035:0:0:0:0:
26,192,85690,128,0,86035:0:0:0:0:
333,192,85690,1,0,0:0:0:0:
282,192,85862,1,0,0:0:0:0:
487,192,85862,1,0,0:0:0:0:
487,192,86035,1,0,0:0:0:0:
436,192,86121,1,0,0:0:0:0:
180,192,86207,128,0,86380:0:0:0:0:
384,192,86207,1,0,0:0:0:0:
333,192,86293,1,0,0:0:0:0:
282,192,86380,1,0,0:0:0:0:
436,192,86552,1,0,0:0:0:0:
333,192,86552,1,0,0:0:0:0:
128,192,86552,128,0,86724:0:0:0:0:
487,192,86724,1,0,0:0:0:0:
77,192,86897,128,0,87242:0:0:0:0:
487,192,86897,128,0,87586:0:0:0:0:
384,192,86897,128,0,87586:0:0:0:0:
180,192,86897,128,0,87242:0:0:0:0:
77,192,87414,128,0,87586:0:0:0:0:
180,192,87414,128,0,87586:0:0:0:0:
333,192,87673,1,0,0:0:0:0:
282,192,87759,128,0,87931:0:0:0:0:
26,192,87931,128,0,88276:0:0:0:0:
231,192,87931,128,0,88276:0:0:0:0:
128,192,87931,128,0,88276:0:0:0:0:
384,192,88017,1,0,0:0:0:0:
436,192,88104,128,0,88276:0:0:0:0:
282,192,88276,1,0,0:0:0:0:
26,192,88448,128,0,88793:0:0:0:0:
128,192,88448,128,0,88793:0:0:0:0:
333,192,88448,1,0,0:0:0:0:
384,192,88621,1,0,0:0:0:0:
282,192,88621,1,0,0:0:0:0:
281,192,88793,1,0,0:0:0:0:
332,192,88880,1,0,0:0:0:0:
486,192,88966,1,0,0:0:0:0:
26,192,88966,128,0,89138:0:0:0:0:
180,192,88966,128,0,89138:0:0:0:0:
435,192,89052,1,0,0:0:0:0:
384,192,89138,1,0,0:0:0:0:
282,192,89311,1,0,0:0:0:0:
231,192,89311,128,0,89483:0:0:0:0:
77,192,89311,128,0,89483:0:0:0:0:
332,192,89311,1,0,0:0:0:0:
180,192,89483,128,0,89655:0:0:0:0:
26,192,89483,128,0,89655:0:0:0:0:
435,192,89483,1,0,0:0:0:0:
231,192,89655,128,0,90000:0:0:0:0:
384,192,89655,1,0,0:0:0:0:
487,192,89655,1,0,0:0:0:0:
128,192,89655,128,0,90000:0:0:0:0:
333,192,89828,1,0,0:0:0:0:
282,192,90000,1,0,0:0:0:0:
435,192,90000,1,0,0:0:0:0:
487,192,90173,1,0,0:0:0:0:
231,192,90173,128,0,90517:0:0:0:0:
128,192,90173,128,0,90517:0:0:0:0:
435,192,90345,1,0,0:0:0:0:
282,192,90345,1,0,0:0:0:0:
333,192,90517,1,0,0:0:0:0:
487,192,90690,1,0,0:0:0:0:
128,192,90690,128,0,90862:0:0:0:0:
384,192,90690,1,0,0:0:0:0:
231,192,90690,128,0,90862:0:0:0:0:
282,192,90862,1,0,0:0:0:0:
487,192,91035,1,0,0:0:0:0:
333,192,91035,1,0,0:0:0:0:
282,192,91207,1,0,0:0:0:0:
26,192,91207,128,0,91552:0:0:0:0:
231,192,91207,128,0,91552:0:0:0:0:
333,192,91380,1,0,0:0:0:0:
384,192,91380,1,0,0:0:0:0:
487,192,91552,1,0,0:0:0:0:
435,192,91638,1,0,0:0:0:0:
281,192,91724,1,0,0:0:0:0:
128,192,91724,128,0,91897:0:0:0:0:
77,192,91724,128,0,91897:0:0:0:0:
332,192,91811,1,0,0:0:0:0:
384,192,91897,1,0,0:0:0:0:
486,192,92069,1,0,0:0:0:0:
282,192,92069,1,0,0:0:0:0:
77,192,92069,128,0,92155:0:0:0:0:
128,192,92069,128,0,92155:0:0:0:0:
436,192,92242,1,0,0:0:0:0:
128,192,92242,128,0,92414:0:0:0:0:
77,192,92242,128,0,92414:0:0:0:0:
231,192,92414,128,0,92759:0:0:0:0:
26,192,92414,128,0,92759:0:0:0:0:
332,192,92414,1,0,0:0:0:0:
486,192,92414,1,0,0:0:0:0:
435,192,92586,1,0,0:0:0:0:
486,192,92759,1,0,0:0:0:0:
281,192,92759,1,0,0:0:0:0:
77,192,92931,1,0,0:0:0:0:
332,192,92931,1,0,0:0:0:0:
180,192,93017,1,0,0:0:0:0:
128,192,93104,128,0,93276:0:0:0:0:
77,192,93104,128,0,93276:0:0:0:0:
384,192,93104,1,0,0:0:0:0:
435,192,93276,1,0,0:0:0:0:
128,192,93448,128,0,93621:0:0:0:0:
180,192,93448,128,0,93535:0:0:0:0:
384,192,93448,1,0,0:0:0:0:
486,192,93448,1,0,0:0:0:0:
180,192,93621,128,0,93793:0:0:0:0:
77,192,93621,128,0,93793:0:0:0:0:
384,192,93621,1,0,0:0:0:0:
435,192,93793,1,0,0:0:0:0:
332,192,93793,1,0,0:0:0:0:
128,192,93966,128,0,94224:0:0:0:0:
26,192,93966,128,0,94224:0:0:0:0:
77,192,94483,128,0,94655:0:0:0:0:
180,192,94483,128,0,94655:0:0:0:0:
333,192,94483,128,0,94828:0:0:0:0:
128,192,94828,128,0,95173:0:0:0:0:
231,192,94828,128,0,95173:0:0:0:0:
282,192,94828,128,0,95173:0:0:0:0:
76,192,95173,1,0,0:0:0:0:
384,192,95173,128,0,95517:0:0:0:0:
25,192,95173,1,0,0:0:0:0:
436,192,95173,128,0,95517:0:0:0:0:
230,192,95345,1,0,0:0:0:0:
128,192,95517,1,0,0:0:0:0:
25,192,95517,1,0,0:0:0:0:
486,192,95690,128,0,96035:0:0:0:0:
384,192,95690,128,0,96035:0:0:0:0:
231,192,95690,1,0,0:0:0:0:
25,192,95776,1,0,0:0:0:0:
128,192,95862,1,0,0:0:0:0:
25,192,95948,1,0,0:0:0:0:
128,192,96035,1,0,0:0:0:0:
486,192,96207,128,0,96552:0:0:0:0:
25,192,96207,1,0,0:0:0:0:
384,192,96207,128,0,96552:0:0:0:0:
180,192,96207,1,0,0:0:0:0:
76,192,96380,1,0,0:0:0:0:
180,192,96466,1,0,0:0:0:0:
128,192,96552,1,0,0:0:0:0:
230,192,96552,1,0,0:0:0:0:
486,192,96724,128,0,97069:0:0:0:0:
179,192,96724,1,0,0:0:0:0:
384,192,96724,128,0,97069:0:0:0:0:
25,192,96897,1,0,0:0:0:0:
230,192,96897,1,0,0:0:0:0:
128,192,97069,1,0,0:0:0:0:
26,192,97155,1,0,0:0:0:0:
230,192,97242,1,0,0:0:0:0:
332,192,97242,128,0,97414:0:0:0:0:
128,192,97328,1,0,0:0:0:0:
25,192,97414,1,0,0:0:0:0:
76,192,97586,1,0,0:0:0:0:
384,192,97586,128,0,97759:0:0:0:0:
179,192,97586,1,0,0:0:0:0:
128,192,97759,1,0,0:0:0:0:
26,192,97931,1,0,0:0:0:0:
332,192,97931,128,0,98276:0:0:0:0:
231,192,97931,1,0,0:0:0:0:
435,192,97931,128,0,98276:0:0:0:0:
128,192,98104,1,0,0:0:0:0:
180,192,98276,1,0,0:0:0:0:
77,192,98276,1,0,0:0:0:0:
231,192,98448,1,0,0:0:0:0:
332,192,98448,128,0,98621:0:0:0:0:
435,192,98448,128,0,98621:0:0:0:0:
128,192,98535,1,0,0:0:0:0:
231,192,98621,1,0,0:0:0:0:
128,192,98707,1,0,0:0:0:0:
25,192,98793,1,0,0:0:0:0:
486,192,98966,128,0,99311:0:0:0:0:
384,192,98966,128,0,99311:0:0:0:0:
231,192,98966,1,0,0:0:0:0:
281,192,98966,128,0,99311:0:0:0:0:
180,192,98966,1,0,0:0:0:0:
26,192,99138,1,0,0:0:0:0:
128,192,99224,1,0,0:0:0:0:
77,192,99311,1,0,0:0:0:0:
384,192,99483,128,0,99828:0:0:0:0:
486,192,99483,128,0,99828:0:0:0:0:
180,192,99483,1,0,0:0:0:0:
77,192,99569,1,0,0:0:0:0:
231,192,99655,1,0,0:0:0:0:
128,192,99655,1,0,0:0:0:0:
25,192,99828,1,0,0:0:0:0:
76,192,99914,1,0,0:0:0:0:
180,192,100000,1,0,0:0:0:0:
486,192,100000,128,0,100173:0:0:0:0:
332,192,100000,128,0,100173:0:0:0:0:
76,192,100086,1,0,0:0:0:0:
179,192,100173,1,0,0:0:0:0:
77,192,100345,1,0,0:0:0:0:
435,192,100345,128,0,100517:0:0:0:0:
281,192,100345,128,0,100517:0:0:0:0:
26,192,100345,1,0,0:0:0:0:
332,192,100517,128,0,100690:0:0:0:0:
486,192,100517,128,0,100690:0:0:0:0:
231,192,100517,1,0,0:0:0:0:
180,192,100690,1,0,0:0:0:0:
128,192,100690,1,0,0:0:0:0:
281,192,100690,128,0,101035:0:0:0:0:
384,192,100690,128,0,101035:0:0:0:0:
77,192,100862,1,0,0:0:0:0:
26,192,101035,1,0,0:0:0:0:
231,192,101035,1,0,0:0:0:0:
128,192,101207,1,0,0:0:0:0:
281,192,101207,128,0,101552:0:0:0:0:
384,192,101207,128,0,101552:0:0:0:0:
77,192,101293,1,0,0:0:0:0:
180,192,101380,1,0,0:0:0:0:
77,192,101466,1,0,0:0:0:0:
180,192,101552,1,0,0:0:0:0:
384,192,101724,128,0,101897:0:0:0:0:
128,192,101724,1,0,0:0:0:0:
26,192,101724,1,0,0:0:0:0:
281,192,101724,128,0,101897:0:0:0:0:
180,192,101897,1,0,0:0:0:0:
26,192,102069,1,0,0:0:0:0:
231,192,102069,1,0,0:0:0:0:
77,192,102242,1,0,0:0:0:0:
486,192,102242,128,0,102586:0:0:0:0:
281,192,102242,128,0,102586:0:0:0:0:
128,192,102328,1,0,0:0:0:0:
180,192,102414,1,0,0:0:0:0:
25,192,102500,1,0,0:0:0:0:
128,192,102586,1,0,0:0:0:0:
231,192,102673,1,0,0:0:0:0:
179,192,102759,1,0,0:0:0:0:
384,192,102759,128,0,102931:0:0:0:0:
435,192,102759,128,0,102931:0:0:0:0:
76,192,102845,1,0,0:0:0:0:
26,192,102931,1,0,0:0:0:0:
384,192,103104,128,0,103190:0:0:0:0:
180,192,103104,1,0,0:0:0:0:
231,192,103104,1,0,0:0:0:0:
435,192,103104,128,0,103190:0:0:0:0:
384,192,103276,128,0,103448:0:0:0:0:
435,192,103276,128,0,103448:0:0:0:0:
179,192,103276,1,0,0:0:0:0:
128,192,103362,1,0,0:0:0:0:
76,192,103448,1,0,0:0:0:0:
486,192,103448,128,0,103793:0:0:0:0:
281,192,103448,128,0,103793:0:0:0:0:
26,192,103448,1,0,0:0:0:0:
231,192,103621,1,0,0:0:0:0:
180,192,103707,1,0,0:0:0:0:
77,192,103793,1,0,0:0:0:0:
128,192,103793,1,0,0:0:0:0:
26,192,103966,1,0,0:0:0:0:
435,192,103966,1,0,0:0:0:0:
332,192,104052,1,0,0:0:0:0:
77,192,104138,1,0,0:0:0:0:
435,192,104138,128,0,104311:0:0:0:0:
231,192,104138,1,0,0:0:0:0:
384,192,104138,128,0,104311:0:0:0:0:
180,192,104311,1,0,0:0:0:0:
282,192,104483,128,0,104655:0:0:0:0:
26,192,104483,1,0,0:0:0:0:
384,192,104483,128,0,104655:0:0:0:0:
231,192,104483,1,0,0:0:0:0:
231,192,104655,1,0,0:0:0:0:
26,192,104655,1,0,0:0:0:0:
435,192,104655,128,0,104828:0:0:0:0:
332,192,104655,128,0,104828:0:0:0:0:
231,192,104828,1,0,0:0:0:0:
180,192,104914,1,0,0:0:0:0:
384,192,105000,128,0,105173:0:0:0:0:
486,192,105000,128,0,105173:0:0:0:0:
128,192,105000,1,0,0:0:0:0:
180,192,105086,1,0,0:0:0:0:
128,192,105173,1,0,0:0:0:0:
77,192,105259,1,0,0:0:0:0:
231,192,105345,1,0,0:0:0:0:
128,192,105431,1,0,0:0:0:0:
332,192,105517,128,0,105690:0:0:0:0:
26,192,105517,1,0,0:0:0:0:
435,192,105517,128,0,105690:0:0:0:0:
230,192,105517,1,0,0:0:0:0:
179,192,105604,1,0,0:0:0:0:
128,192,105690,1,0,0:0:0:0:
76,192,105776,1,0,0:0:0:0:
179,192,105862,1,0,0:0:0:0:
384,192,105862,128,0,106035:0:0:0:0:
281,192,105862,128,0,106035:0:0:0:0:
128,192,105948,1,0,0:0:0:0:
76,192,106035,1,0,0:0:0:0:
25,192,106121,1,0,0:0:0:0:
230,192,106207,1,0,0:0:0:0:
128,192,106207,1,0,0:0:0:0:
333,192,106250,1,0,0:0:0:0:
436,192,106293,1,0,0:0:0:0:
26,192,106380,1,0,0:0:0:0:
180,192,106552,1,0,0:0:0:0:
487,192,106724,1,0,0:0:0:0:
77,192,106724,1,0,0:0:0:0:
436,192,106767,1,0,0:0:0:0:
128,192,106897,1,0,0:0:0:0:
231,192,107069,1,0,0:0:0:0:
180,192,107242,1,0,0:0:0:0:
77,192,107414,1,0,0:0:0:0:
128,192,107586,1,0,0:0:0:0:
26,192,107586,1,0,0:0:0:0:
436,192,107615,1,0,0:0:0:0:
384,192,107644,1,0,0:0:0:0:
333,192,107673,1,0,0:0:0:0:
77,192,108104,1,0,0:0:0:0:
128,192,108132,1,0,0:0:0:0:
180,192,108161,1,0,0:0:0:0:
231,192,108190,1,0,0:0:0:0:
436,192,108276,1,0,0:0:0:0:
77,192,108448,1,0,0:0:0:0:
231,192,108793,1,0,0:0:0:0:
384,192,108880,1,0,0:0:0:0:
282,192,108908,1,0,0:0:0:0:
180,192,108937,1,0,0:0:0:0:
128,192,108966,1,0,0:0:0:0:
26,192,108966,1,0,0:0:0:0:
333,192,109052,1,0,0:0:0:0:
231,192,109138,1,0,0:0:0:0:
26,192,110173,1,0,0:0:0:0:
128,192,110259,1,0,0:0:0:0:
384,192,110345,1,0,0:0:0:0:
231,192,110345,1,0,0:0:0:0:
487,192,110345,1,0,0:0:0:0:
26,192,111724,128,0,112069:0:0:0:0:
487,192,111724,1,0,0:0:0:0:
282,192,111724,1,0,0:0:0:0:
128,192,112069,128,0,112242:0:0:0:0:
333,192,112069,1,0,0:0:0:0:
487,192,112069,1,0,0:0:0:0:
26,192,112242,128,0,112759:0:0:0:0:
384,192,112242,1,0,0:0:0:0:
332,192,112328,1,0,0:0:0:0:
435,192,112414,1,0,0:0:0:0:
332,192,112500,1,0,0:0:0:0:
435,192,112586,1,0,0:0:0:0:
231,192,112759,128,0,112931:0:0:0:0:
384,192,112759,1,0,0:0:0:0:
282,192,112759,1,0,0:0:0:0:
128,192,112931,128,0,113448:0:0:0:0:
332,192,112931,1,0,0:0:0:0:
384,192,113017,1,0,0:0:0:0:
435,192,113104,1,0,0:0:0:0:
487,192,113104,1,0,0:0:0:0:
281,192,113276,1,0,0:0:0:0:
77,192,113448,128,0,113621:0:0:0:0:
487,192,113448,1,0,0:0:0:0:
384,192,113448,1,0,0:0:0:0:
180,192,113621,128,0,113966:0:0:0:0:
333,192,113621,1,0,0:0:0:0:
436,192,113707,1,0,0:0:0:0:
333,192,113793,1,0,0:0:0:0:
384,192,113880,1,0,0:0:0:0:
435,192,113966,1,0,0:0:0:0:
128,192,114138,128,0,114311:0:0:0:0:
333,192,114138,1,0,0:0:0:0:
486,192,114138,1,0,0:0:0:0:
231,192,114311,128,0,114828:0:0:0:0:
282,192,114311,1,0,0:0:0:0:
333,192,114397,1,0,0:0:0:0:
384,192,114483,1,0,0:0:0:0:
487,192,114483,1,0,0:0:0:0:
384,192,114655,1,0,0:0:0:0:
282,192,114828,1,0,0:0:0:0:
487,192,114828,1,0,0:0:0:0:
180,192,115000,128,0,115345:0:0:0:0:
436,192,115000,1,0,0:0:0:0:
384,192,115086,1,0,0:0:0:0:
332,192,115173,1,0,0:0:0:0:
281,192,115259,1,0,0:0:0:0:
332,192,115345,1,0,0:0:0:0:
128,192,115517,128,0,116035:0:0:0:0:
487,192,115517,1,0,0:0:0:0:
384,192,115517,1,0,0:0:0:0:
26,192,115690,128,0,116035:0:0:0:0:
436,192,115690,1,0,0:0:0:0:
231,192,115862,128,0,116035:0:0:0:0:
384,192,115862,1,0,0:0:0:0:
282,192,115862,1,0,0:0:0:0:
281,192,116035,1,0,0:0:0:0:
282,192,116207,1,0,0:0:0:0:
487,192,116207,1,0,0:0:0:0:
436,192,116380,1,0,0:0:0:0:
333,192,116466,1,0,0:0:0:0:
26,192,116552,128,0,116724:0:0:0:0:
486,192,116552,1,0,0:0:0:0:
384,192,116638,1,0,0:0:0:0:
77,192,116724,128,0,116897:0:0:0:0:
282,192,116724,1,0,0:0:0:0:
128,192,116897,128,0,117414:0:0:0:0:
333,192,116897,1,0,0:0:0:0:
436,192,116897,1,0,0:0:0:0:
281,192,117069,1,0,0:0:0:0:
332,192,117155,1,0,0:0:0:0:
384,192,117242,1,0,0:0:0:0:
487,192,117242,1,0,0:0:0:0:
282,192,117414,1,0,0:0:0:0:
77,192,117586,128,0,117759:0:0:0:0:
436,192,117586,1,0,0:0:0:0:
333,192,117586,1,0,0:0:0:0:
486,192,117759,1,0,0:0:0:0:
384,192,117845,1,0,0:0:0:0:
231,192,117931,128,0,118276:0:0:0:0:
282,192,117931,1,0,0:0:0:0:
333,192,118017,1,0,0:0:0:0:
384,192,118104,1,0,0:0:0:0:
128,192,118276,128,0,118621:0:0:0:0:
282,192,118276,1,0,0:0:0:0:
436,192,118276,1,0,0:0:0:0:
333,192,118448,1,0,0:0:0:0:
384,192,118621,1,0,0:0:0:0:
282,192,118621,1,0,0:0:0:0:
333,192,118793,128,0,118880:0:0:0:0:
26,192,118966,128,0,119655:0:0:0:0:
384,192,118966,128,0,119052:0:0:0:0:
487,192,118966,1,0,0:0:0:0:
281,192,119311,1,0,0:0:0:0:
436,192,119311,128,0,119397:0:0:0:0:
128,192,119311,128,0,119655:0:0:0:0:
487,192,119483,128,0,119569:0:0:0:0:
282,192,119655,128,0,119742:0:0:0:0:
333,192,119655,1,0,0:0:0:0:
77,192,119828,128,0,120173:0:0:0:0:
384,192,119828,128,0,119914:0:0:0:0:
487,192,120000,1,0,0:0:0:0:
333,192,120000,1,0,0:0:0:0:
180,192,120086,128,0,120173:0:0:0:0:
128,192,120173,128,0,120345:0:0:0:0:
435,192,120173,1,0,0:0:0:0:
231,192,120345,128,0,120517:0:0:0:0:
282,192,120345,1,0,0:0:0:0:
487,192,120345,1,0,0:0:0:0:
128,192,120517,128,0,120862:0:0:0:0:
333,192,120517,1,0,0:0:0:0:
487,192,120690,1,0,0:0:0:0:
384,192,120690,1,0,0:0:0:0:
333,192,120776,1,0,0:0:0:0:
282,192,120862,1,0,0:0:0:0:
26,192,121035,128,0,121121:0:0:0:0:
384,192,121035,1,0,0:0:0:0:
486,192,121035,1,0,0:0:0:0:
26,192,121207,128,0,121293:0:0:0:0:
332,192,121207,1,0,0:0:0:0:
128,192,121380,128,0,121466:0:0:0:0:
384,192,121380,1,0,0:0:0:0:
281,192,121380,1,0,0:0:0:0:
231,192,121552,128,0,121638:0:0:0:0:
384,192,121552,1,0,0:0:0:0:
281,192,121552,1,0,0:0:0:0:
231,192,121724,128,0,122069:0:0:0:0:
435,192,121724,1,0,0:0:0:0:
486,192,121724,1,0,0:0:0:0:
332,192,121724,1,0,0:0:0:0:
281,192,121897,1,0,0:0:0:0:
384,192,121983,1,0,0:0:0:0:
332,192,122069,1,0,0:0:0:0:
486,192,122069,1,0,0:0:0:0:
384,192,122242,1,0,0:0:0:0:
332,192,122414,1,0,0:0:0:0:
435,192,122414,1,0,0:0:0:0:
384,192,122500,1,0,0:0:0:0:
281,192,122586,1,0,0:0:0:0:
486,192,122759,128,0,123104:0:0:0:0:
230,192,122759,1,0,0:0:0:0:
25,192,122759,1,0,0:0:0:0:
384,192,123104,128,0,123276:0:0:0:0:
25,192,123104,1,0,0:0:0:0:
179,192,123104,1,0,0:0:0:0:
486,192,123276,128,0,123793:0:0:0:0:
128,192,123276,1,0,0:0:0:0:
230,192,123362,1,0,0:0:0:0:
76,192,123448,1,0,0:0:0:0:
179,192,123535,1,0,0:0:0:0:
25,192,123621,1,0,0:0:0:0:
281,192,123793,128,0,123966:0:0:0:0:
128,192,123793,1,0,0:0:0:0:
230,192,123793,1,0,0:0:0:0:
384,192,123966,128,0,124483:0:0:0:0:
179,192,123966,1,0,0:0:0:0:
128,192,124052,1,0,0:0:0:0:
76,192,124138,1,0,0:0:0:0:
25,192,124138,1,0,0:0:0:0:
230,192,124311,1,0,0:0:0:0:
435,192,124483,128,0,124655:0:0:0:0:
25,192,124483,1,0,0:0:0:0:
128,192,124483,1,0,0:0:0:0:
332,192,124655,128,0,125000:0:0:0:0:
179,192,124655,1,0,0:0:0:0:
76,192,124742,1,0,0:0:0:0:
179,192,124828,1,0,0:0:0:0:
76,192,124914,1,0,0:0:0:0:
128,192,125000,1,0,0:0:0:0:
384,192,125173,128,0,125345:0:0:0:0:
179,192,125173,1,0,0:0:0:0:
76,192,125173,1,0,0:0:0:0:
281,192,125345,128,0,125862:0:0:0:0:
230,192,125345,1,0,0:0:0:0:
179,192,125431,1,0,0:0:0:0:
25,192,125517,1,0,0:0:0:0:
128,192,125517,1,0,0:0:0:0:
231,192,125517,1,0,0:0:0:0:
231,192,125690,1,0,0:0:0:0:
128,192,125690,1,0,0:0:0:0:
26,192,125690,1,0,0:0:0:0:
180,192,125862,1,0,0:0:0:0:
77,192,125862,1,0,0:0:0:0:
332,192,126035,128,0,126380:0:0:0:0:
128,192,126035,1,0,0:0:0:0:
26,192,126035,1,0,0:0:0:0:
231,192,126035,1,0,0:0:0:0:
77,192,126380,1,0,0:0:0:0:
77,192,126466,1,0,0:0:0:0:
384,192,126552,128,0,127414:0:0:0:0:
128,192,126552,1,0,0:0:0:0:
26,192,126552,1,0,0:0:0:0:
231,192,126552,1,0,0:0:0:0:
180,192,126638,1,0,0:0:0:0:
77,192,126724,1,0,0:0:0:0:
128,192,126811,1,0,0:0:0:0:
26,192,126897,1,0,0:0:0:0:
77,192,126983,1,0,0:0:0:0:
128,192,127069,1,0,0:0:0:0:
231,192,127155,1,0,0:0:0:0:
25,192,127242,1,0,0:0:0:0:
435,192,127242,128,0,127414:0:0:0:0:
179,192,127328,1,0,0:0:0:0:
333,192,127414,128,0,127931:0:0:0:0:
128,192,127414,1,0,0:0:0:0:
76,192,127500,1,0,0:0:0:0:
230,192,127586,1,0,0:0:0:0:
26,192,127673,1,0,0:0:0:0:
128,192,127759,1,0,0:0:0:0:
26,192,127845,1,0,0:0:0:0:
384,192,127931,128,0,128104:0:0:0:0:
77,192,127931,1,0,0:0:0:0:
179,192,128017,1,0,0:0:0:0:
436,192,128104,128,0,128966:0:0:0:0:
230,192,128104,1,0,0:0:0:0:
77,192,128190,1,0,0:0:0:0:
128,192,128276,1,0,0:0:0:0:
77,192,128448,1,0,0:0:0:0:
128,192,128621,1,0,0:0:0:0:
26,192,128621,1,0,0:0:0:0:
180,192,128793,1,0,0:0:0:0:
128,192,128966,1,0,0:0:0:0:
231,192,128966,1,0,0:0:0:0:
77,192,129138,1,0,0:0:0:0:
487,192,129311,128,0,130517:0:0:0:0:
128,192,129311,1,0,0:0:0:0:
26,192,129311,1,0,0:0:0:0:
384,192,129483,128,0,130345:0:0:0:0:
282,192,129483,128,0,130517:0:0:0:0:
128,192,129483,1,0,0:0:0:0:
128,192,129569,1,0,0:0:0:0:
26,192,129655,1,0,0:0:0:0:
231,192,129655,1,0,0:0:0:0:
26,192,129828,1,0,0:0:0:0:
180,192,129828,1,0,0:0:0:0:
26,192,130000,1,0,0:0:0:0:
128,192,130000,1,0,0:0:0:0:
77,192,130173,1,0,0:0:0:0:
26,192,130173,1,0,0:0:0:0:
128,192,130345,1,0,0:0:0:0:
26,192,130345,1,0,0:0:0:0:
77,192,130431,1,0,0:0:0:0:
384,192,130517,128,0,130690:0:0:0:0:
180,192,130517,1,0,0:0:0:0:
26,192,130517,1,0,0:0:0:0:
333,192,130690,128,0,130862:0:0:0:0:
231,192,130690,1,0,0:0:0:0:
128,192,130690,1,0,0:0:0:0:
435,192,130862,128,0,131724:0:0:0:0:
180,192,130862,1,0,0:0:0:0:
76,192,130948,1,0,0:0:0:0:
231,192,131035,1,0,0:0:0:0:
332,192,131121,128,0,131207:0:0:0:0:
180,192,131121,1,0,0:0:0:0:
128,192,131207,1,0,0:0:0:0:
180,192,131293,1,0,0:0:0:0:
128,192,131380,1,0,0:0:0:0:
77,192,131466,1,0,0:0:0:0:
128,192,131552,1,0,0:0:0:0:
77,192,131638,1,0,0:0:0:0:
26,192,131724,1,0,0:0:0:0:
77,192,131811,1,0,0:0:0:0:
128,192,131897,1,0,0:0:0:0:
77,192,131983,1,0,0:0:0:0:
486,192,132069,128,0,132155:0:0:0:0:
128,192,132069,1,0,0:0:0:0:
180,192,132155,1,0,0:0:0:0:
486,192,132242,128,0,132586:0:0:0:0:
128,192,132242,1,0,0:0:0:0:
180,192,132328,1,0,0:0:0:0:
231,192,132414,1,0,0:0:0:0:
26,192,132414,1,0,0:0:0:0:
436,192,132759,128,0,132845:0:0:0:0:
180,192,132759,1,0,0:0:0:0:
77,192,132931,1,0,0:0:0:0:
384,192,132931,128,0,133276:0:0:0:0:
128,192,133104,1,0,0:0:0:0:
230,192,133190,1,0,0:0:0:0:
76,192,133276,1,0,0:0:0:0:
179,192,133362,1,0,0:0:0:0:
282,192,133448,128,0,133535:0:0:0:0:
26,192,133448,1,0,0:0:0:0:
230,192,133535,1,0,0:0:0:0:
128,192,133621,1,0,0:0:0:0:
486,192,133707,1,0,0:0:0:0:
25,192,133707,1,0,0:0:0:0:
332,192,133793,1,0,0:0:0:0:
281,192,133793,128,0,134311:0:0:0:0:
76,192,133793,128,0,134311:0:0:0:0:
435,192,133793,128,0,134311:0:0:0:0:
179,192,133966,128,0,134311:0:0:0:0:
384,192,133966,128,0,134311:0:0:0:0:
332,192,134138,128,0,134311:0:0:0:0:
128,192,134138,128,0,134311:0:0:0:0:
230,192,134311,1,0,0:0:0:0:
128,192,134483,1,0,0:0:0:0:
25,192,134483,1,0,0:0:0:0:
486,192,134483,128,0,135173:0:0:0:0:
384,192,134655,128,0,135000:0:0:0:0:
281,192,134828,128,0,134914:0:0:0:0:
179,192,135000,1,0,0:0:0:0:
76,192,135000,1,0,0:0:0:0:
332,192,135345,128,0,135690:0:0:0:0:
435,192,135345,128,0,135690:0:0:0:0:
128,192,135345,1,0,0:0:0:0:
25,192,135345,1,0,0:0:0:0:
384,192,135517,128,0,135690:0:0:0:0:
230,192,135517,128,0,135690:0:0:0:0:
128,192,135517,1,0,0:0:0:0:
25,192,135517,1,0,0:0:0:0:
25,192,135862,128,0,136035:0:0:0:0:
281,192,135862,1,0,0:0:0:0:
128,192,135905,1,0,0:0:0:0:
76,192,136035,128,0,136207:0:0:0:0:
332,192,136035,1,0,0:0:0:0:
435,192,136035,1,0,0:0:0:0:
179,192,136078,1,0,0:0:0:0:
128,192,136207,128,0,136380:0:0:0:0:
230,192,136250,1,0,0:0:0:0:
179,192,136380,128,0,136552:0:0:0:0:
384,192,136380,1,0,0:0:0:0:
486,192,136380,1,0,0:0:0:0:
230,192,136466,1,0,0:0:0:0:
435,192,136552,128,0,137069:0:0:0:0:
76,192,136552,128,0,137069:0:0:0:0:
281,192,136552,128,0,137069:0:0:0:0:
230,192,136724,128,0,137069:0:0:0:0:
384,192,136724,128,0,137069:0:0:0:0:
332,192,136897,128,0,137069:0:0:0:0:
128,192,136897,128,0,137069:0:0:0:0:
486,192,137069,1,0,0:0:0:0:
332,192,137242,1,0,0:0:0:0:
25,192,137242,128,0,137931:0:0:0:0:
128,192,137414,128,0,137759:0:0:0:0:
384,192,137586,1,0,0:0:0:0:
486,192,137586,1,0,0:0:0:0:
230,192,137586,128,0,137673:0:0:0:0:
281,192,137759,1,0,0:0:0:0:
435,192,137759,1,0,0:0:0:0:
179,192,137931,1,0,0:0:0:0:
384,192,138104,128,0,138190:0:0:0:0:
486,192,138104,128,0,138190:0:0:0:0:
76,192,138104,1,0,0:0:0:0:
230,192,138104,1,0,0:0:0:0:
486,192,138276,128,0,138621:0:0:0:0:
384,192,138276,128,0,138621:0:0:0:0:
179,192,138276,1,0,0:0:0:0:
25,192,138276,1,0,0:0:0:0:
128,192,138448,1,0,0:0:0:0:
25,192,138621,128,0,138966:0:0:0:0:
332,192,138621,1,0,0:0:0:0:
281,192,138707,1,0,0:0:0:0:
230,192,138793,1,0,0:0:0:0:
179,192,138880,1,0,0:0:0:0:
128,192,138966,128,0,139311:0:0:0:0:
486,192,138966,1,0,0:0:0:0:
435,192,139023,1,0,0:0:0:0:
332,192,139081,1,0,0:0:0:0:
281,192,139138,1,0,0:0:0:0:
486,192,139196,1,0,0:0:0:0:
435,192,139253,1,0,0:0:0:0:
384,192,139311,1,0,0:0:0:0:
281,192,139311,1,0,0:0:0:0:
25,192,139311,128,0,139397:0:0:0:0:
179,192,139311,128,0,139397:0:0:0:0:
332,192,139483,128,0,139569:0:0:0:0:
486,192,139483,128,0,139569:0:0:0:0:
179,192,139655,128,0,139742:0:0:0:0:
25,192,139655,128,0,139742:0:0:0:0:
128,192,139655,128,0,139828:0:0:0:0:
230,192,139828,1,0,0:0:0:0:
281,192,140000,1,0,0:0:0:0:
435,192,140000,1,0,0:0:0:0:
76,192,140173,128,0,140345:0:0:0:0:
332,192,140173,128,0,140345:0:0:0:0:
384,192,140345,128,0,140431:0:0:0:0:
486,192,140345,128,0,140431:0:0:0:0:
230,192,140345,1,0,0:0:0:0:
128,192,140345,1,0,0:0:0:0:
384,192,140517,128,0,140690:0:0:0:0:
486,192,140517,128,0,140690:0:0:0:0:
128,192,140517,1,0,0:0:0:0:
230,192,140517,1,0,0:0:0:0:
332,192,140862,128,0,140948:0:0:0:0:
435,192,140862,128,0,140948:0:0:0:0:
179,192,140862,1,0,0:0:0:0:
76,192,140862,1,0,0:0:0:0:
332,192,141035,128,0,141207:0:0:0:0:
435,192,141035,128,0,141207:0:0:0:0:
76,192,141035,1,0,0:0:0:0:
179,192,141035,1,0,0:0:0:0:
128,192,141380,1,0,0:0:0:0:
230,192,141380,1,0,0:0:0:0:
25,192,141466,1,0,0:0:0:0:
128,192,141552,1,0,0:0:0:0:
281,192,141552,128,0,141724:0:0:0:0:
384,192,141552,128,0,141724:0:0:0:0:
76,192,141638,1,0,0:0:0:0:
179,192,141724,1,0,0:0:0:0:
230,192,141724,1,0,0:0:0:0:
332,192,141724,128,0,141897:0:0:0:0:
435,192,141724,128,0,141811:0:0:0:0:
179,192,141897,1,0,0:0:0:0:
230,192,141897,1,0,0:0:0:0:
435,192,141897,128,0,142069:0:0:0:0:
384,192,141897,128,0,142069:0:0:0:0:
128,192,142069,1,0,0:0:0:0:
25,192,142069,1,0,0:0:0:0:
486,192,142242,128,0,142328:0:0:0:0:
281,192,142242,128,0,142328:0:0:0:0:
281,192,142414,128,0,142586:0:0:0:0:
486,192,142414,128,0,142586:0:0:0:0:
128,192,142586,1,0,0:0:0:0:
25,192,142586,1,0,0:0:0:0:
179,192,142759,1,0,0:0:0:0:
76,192,142759,1,0,0:0:0:0:
332,192,142931,128,0,143017:0:0:0:0:
435,192,142931,128,0,143017:0:0:0:0:
435,192,143104,128,0,143190:0:0:0:0:
332,192,143104,128,0,143190:0:0:0:0:
179,192,143104,1,0,0:0:0:0:
76,192,143104,1,0,0:0:0:0:
435,192,143276,128,0,143448:0:0:0:0:
332,192,143276,128,0,143448:0:0:0:0:
230,192,143276,1,0,0:0:0:0:
128,192,143276,1,0,0:0:0:0:
230,192,143621,1,0,0:0:0:0:
76,192,143621,1,0,0:0:0:0:
384,192,143621,128,0,143707:0:0:0:0:
486,192,143621,128,0,143707:0:0:0:0:
128,192,143793,1,0,0:0:0:0:
384,192,143793,128,0,143966:0:0:0:0:
486,192,143793,128,0,143966:0:0:0:0:
179,192,143966,1,0,0:0:0:0:
76,192,143966,1,0,0:0:0:0:
128,192,144138,1,0,0:0:0:0:
25,192,144138,1,0,0:0:0:0:
25,192,144311,1,0,0:0:0:0:
128,192,144311,1,0,0:0:0:0:
281,192,144311,128,0,144397:0:0:0:0:
384,192,144311,128,0,144397:0:0:0:0:
128,192,144483,1,0,0:0:0:0:
25,192,144483,1,0,0:0:0:0:
332,192,144483,128,0,144569:0:0:0:0:
435,192,144483,128,0,144569:0:0:0:0:
486,192,144655,128,0,144742:0:0:0:0:
384,192,144655,128,0,144742:0:0:0:0:
76,192,144828,1,0,0:0:0:0:
179,192,144828,1,0,0:0:0:0:
281,192,144828,1,0,0:0:0:0:
435,192,144828,1,0,0:0:0:0:
179,192,145173,1,0,0:0:0:0:
25,192,145173,1,0,0:0:0:0:
230,192,145173,1,0,0:0:0:0:
384,192,145345,1,0,0:0:0:0:
486,192,145345,1,0,0:0:0:0:
76,192,145517,1,0,0:0:0:0:
179,192,145604,1,0,0:0:0:0:
76,192,145690,1,0,0:0:0:0:
332,192,145862,1,0,0:0:0:0:
435,192,145862,1,0,0:0:0:0:
230,192,145862,1,0,0:0:0:0:
25,192,145862,1,0,0:0:0:0:
128,192,145862,1,0,0:0:0:0:
384,192,146035,1,0,0:0:0:0:
281,192,146207,1,0,0:0:0:0:
486,192,146207,1,0,0:0:0:0:
25,192,146207,1,0,0:0:0:0:
128,192,146207,1,0,0:0:0:0:
332,192,146380,1,0,0:0:0:0:
384,192,146552,1,0,0:0:0:0:
486,192,146552,1,0,0:0:0:0:
179,192,146552,1,0,0:0:0:0:
25,192,146552,1,0,0:0:0:0:
128,192,146724,1,0,0:0:0:0:
230,192,146811,1,0,0:0:0:0:
384,192,146897,1,0,0:0:0:0:
281,192,146897,1,0,0:0:0:0:
76,192,146897,1,0,0:0:0:0:
179,192,146983,1,0,0:0:0:0:
128,192,147069,1,0,0:0:0:0:
230,192,147242,1,0,0:0:0:0:
435,192,147242,1,0,0:0:0:0:
332,192,147242,1,0,0:0:0:0:
76,192,147242,1,0,0:0:0:0:
281,192,147414,1,0,0:0:0:0:
486,192,147586,1,0,0:0:0:0:
128,192,147586,1,0,0:0:0:0:
230,192,147586,1,0,0:0:0:0:
25,192,147586,1,0,0:0:0:0:
332,192,147759,1,0,0:0:0:0:
281,192,147931,1,0,0:0:0:0:
76,192,147931,1,0,0:0:0:0:
230,192,147931,1,0,0:0:0:0:
486,192,148104,1,0,0:0:0:0:
76,192,148190,1,0,0:0:0:0:
435,192,148276,1,0,0:0:0:0:
230,192,148276,1,0,0:0:0:0:
179,192,148362,1,0,0:0:0:0:
384,192,148448,1,0,0:0:0:0:
128,192,148448,1,0,0:0:0:0:
435,192,148621,1,0,0:0:0:0:
76,192,148621,1,0,0:0:0:0:
179,192,148621,1,0,0:0:0:0:
486,192,148793,1,0,0:0:0:0:
332,192,148966,1,0,0:0:0:0:
435,192,148966,1,0,0:0:0:0:
230,192,148966,1,0,0:0:0:0:
179,192,148966,1,0,0:0:0:0:
25,192,148966,1,0,0:0:0:0:
281,192,149138,1,0,0:0:0:0:
435,192,149311,1,0,0:0:0:0:
230,192,149311,1,0,0:0:0:0:
76,192,149397,1,0,0:0:0:0:
281,192,149483,1,0,0:0:0:0:
179,192,149483,1,0,0:0:0:0:
76,192,149569,1,0,0:0:0:0:
384,192,149655,1,0,0:0:0:0:
25,192,149655,1,0,0:0:0:0:
128,192,149742,1,0,0:0:0:0:
332,192,149828,1,0,0:0:0:0:
230,192,149828,1,0,0:0:0:0:
384,192,150000,1,0,0:0:0:0:
179,192,150000,1,0,0:0:0:0:
128,192,150000,1,0,0:0:0:0:
435,192,150173,1,0,0:0:0:0:
76,192,150173,1,0,0:0:0:0:
25,192,150173,1,0,0:0:0:0:
486,192,150345,1,0,0:0:0:0:
281,192,150345,1,0,0:0:0:0:
25,192,150345,1,0,0:0:0:0:
230,192,150345,1,0,0:0:0:0:
128,192,150345,1,0,0:0:0:0:
332,192,150517,1,0,0:0:0:0:
384,192,150690,1,0,0:0:0:0:
179,192,150690,1,0,0:0:0:0:
76,192,150690,1,0,0:0:0:0:
128,192,150690,1,0,0:0:0:0:
435,192,150862,1,0,0:0:0:0:
486,192,151035,1,0,0:0:0:0:
128,192,151035,1,0,0:0:0:0:
25,192,151035,1,0,0:0:0:0:
332,192,151121,1,0,0:0:0:0:
435,192,151207,1,0,0:0:0:0:
281,192,151207,1,0,0:0:0:0:
230,192,151293,1,0,0:0:0:0:
486,192,151380,1,0,0:0:0:0:
76,192,151380,1,0,0:0:0:0:
128,192,151380,1,0,0:0:0:0:
486,192,151552,1,0,0:0:0:0:
179,192,151552,1,0,0:0:0:0:
25,192,151552,1,0,0:0:0:0:
332,192,151724,1,0,1:0:0:0:
435,192,151724,1,0,1:0:0:0:
128,192,151724,1,0,0:0:0:0:
230,192,151724,1,0,0:0:0:0:
25,192,151724,1,0,0:0:0:0:
384,192,151897,1,0,1:0:0:0:
281,192,152069,1,0,1:0:0:0:
179,192,152069,1,0,0:0:0:0:
128,192,152069,1,0,0:0:0:0:
384,192,152242,1,0,1:0:0:0:
230,192,152242,1,0,0:0:0:0:
332,192,152328,1,0,0:0:0:0:
486,192,152414,1,0,1:0:0:0:
76,192,152414,1,0,0:0:0:0:
230,192,152500,1,0,0:0:0:0:
332,192,152586,1,0,1:0:0:0:
179,192,152586,1,0,0:0:0:0:
25,192,152586,1,0,0:0:0:0:
435,192,152759,1,0,0:0:0:0:
281,192,152759,1,0,0:0:0:0:
25,192,152759,1,0,0:0:0:0:
384,192,153104,1,0,1:0:0:0:
486,192,153104,1,0,1:0:0:0:
179,192,153104,1,0,0:0:0:0:
25,192,153104,1,0,0:0:0:0:
332,192,153276,1,0,0:0:0:0:
281,192,153448,1,0,0:0:0:0:
179,192,153448,1,0,0:0:0:0:
25,192,153448,1,0,0:0:0:0:
384,192,153621,1,0,0:0:0:0:
128,192,153621,1,0,0:0:0:0:
281,192,153707,1,0,0:0:0:0:
76,192,153793,1,0,0:0:0:0:
435,192,153880,1,0,0:0:0:0:
25,192,153966,1,0,0:0:0:0:
332,192,153966,1,0,0:0:0:0:
281,192,154138,1,0,0:0:0:0:
486,192,154138,1,0,0:0:0:0:
25,192,154138,1,0,0:0:0:0:
76,192,154224,1,0,0:0:0:0:
435,192,154311,1,0,0:0:0:0:
128,192,154311,1,0,0:0:0:0:
76,192,154397,1,0,0:0:0:0:
384,192,154483,1,0,0:0:0:0:
281,192,154483,1,0,0:0:0:0:
128,192,154483,1,0,0:0:0:0:
179,192,154569,1,0,0:0:0:0:
128,192,154655,1,0,0:0:0:0:
384,192,154655,1,0,0:0:0:0:
281,192,154655,1,0,0:0:0:0:
179,192,154742,1,0,0:0:0:0:
230,192,154828,1,0,0:0:0:0:
435,192,154828,1,0,0:0:0:0:
281,192,154914,1,0,0:0:0:0:
230,192,155000,1,0,0:0:0:0:
384,192,155000,1,0,0:0:0:0:
486,192,155000,1,0,0:0:0:0:
281,192,155086,1,0,0:0:0:0:
332,192,155173,1,0,0:0:0:0:
25,192,155173,1,0,0:0:0:0:
179,192,155173,1,0,0:0:0:0:
486,192,155259,1,0,0:0:0:0:
435,192,155345,1,0,0:0:0:0:
384,192,155431,1,0,0:0:0:0:
332,192,155517,1,0,0:0:0:0:
281,192,155604,1,0,0:0:0:0:
230,192,155690,1,0,0:0:0:0:
179,192,155776,1,0,0:0:0:0:
25,192,155862,5,0,0:0:0:0:
128,192,155862,1,0,0:0:0:0:
128,192,156207,1,0,0:0:0:0:
25,192,156552,1,0,0:0:0:0:
486,192,156552,1,0,0:0:0:0:
435,192,156724,1,0,0:0:0:0:
332,192,156897,1,0,0:0:0:0:
25,192,157242,1,0,0:0:0:0:
486,192,157242,1,0,0:0:0:0:
384,192,157586,1,0,0:0:0:0:
435,192,157759,1,0,0:0:0:0:
179,192,157759,1,0,0:0:0:0:
230,192,157931,1,0,0:0:0:0:
384,192,157931,1,0,0:0:0:0:
332,192,158104,1,0,0:0:0:0:
281,192,158276,1,0,0:0:0:0:
128,192,158276,1,0,0:0:0:0:
76,192,158621,128,0,158966:0:0:0:0:
230,192,158621,128,0,158966:0:0:0:0:
384,192,158621,128,0,158966:0:0:0:0:
332,192,158966,128,0,159311:0:0:0:0:
281,192,159311,1,0,0:0:0:0:
486,192,159311,1,0,0:0:0:0:
384,192,159483,1,0,0:0:0:0:
230,192,159655,1,0,0:0:0:0:
435,192,159655,1,0,0:0:0:0:
76,192,159655,1,0,0:0:0:0:
128,192,160000,1,0,0:0:0:0:
281,192,160000,1,0,0:0:0:0:
332,192,160173,1,0,0:0:0:0:
435,192,160345,1,0,0:0:0:0:
486,192,160517,1,0,0:0:0:0:
435,192,160539,1,0,0:0:0:0:
384,192,160690,1,0,0:0:0:0:
230,192,160690,1,0,0:0:0:0:
486,192,160862,1,0,0:0:0:0:
332,192,161035,1,0,0:0:0:0:
128,192,161035,1,0,0:0:0:0:
435,192,161207,1,0,0:0:0:0:
281,192,161380,1,0,0:0:0:0:
25,192,161380,1,0,0:0:0:0:
486,192,161724,1,0,0:0:0:0:
281,192,162069,1,0,0:0:0:0:
76,192,162069,1,0,0:0:0:0:
332,192,162242,1,0,0:0:0:0:
384,192,162414,1,0,0:0:0:0:
128,192,162759,1,0,0:0:0:0:
486,192,162759,1,0,0:0:0:0:
384,192,163104,1,0,0:0:0:0:
435,192,163276,1,0,0:0:0:0:
332,192,163448,1,0,0:0:0:0:
384,192,163621,1,0,0:0:0:0:
281,192,163793,1,0,0:0:0:0:
435,192,163793,1,0,0:0:0:0:
179,192,163966,1,0,0:0:0:0:
384,192,163966,1,0,0:0:0:0:
486,192,164138,1,0,0:0:0:0:
25,192,164138,128,0,164483:0:0:0:0:
128,192,164138,128,0,164483:0:0:0:0:
179,192,164483,128,0,164828:0:0:0:0:
281,192,164828,1,0,0:0:0:0:
384,192,165000,1,0,0:0:0:0:
281,192,165173,1,0,0:0:0:0:
179,192,165173,1,0,0:0:0:0:
76,192,165173,1,0,0:0:0:0:
281,192,165517,1,0,0:0:0:0:
25,192,165517,1,0,0:0:0:0:
384,192,165690,1,0,0:0:0:0:
486,192,165862,1,0,0:0:0:0:
281,192,166035,1,0,0:0:0:0:
435,192,166207,1,0,0:0:0:0:
281,192,166380,1,0,0:0:0:0:
384,192,166552,1,0,0:0:0:0:
128,192,166552,1,0,0:0:0:0:
332,192,166724,1,0,0:0:0:0:
230,192,166724,1,0,0:0:0:0:
487,192,166897,5,0,0:0:0:0:
384,192,166897,1,0,0:0:0:0:
128,192,167242,1,0,0:0:0:0:
384,192,167414,1,0,0:0:0:0:
487,192,167586,1,0,0:0:0:0:
26,192,167586,1,0,0:0:0:0:
281,192,167586,1,0,0:0:0:0:
77,192,167759,1,0,0:0:0:0:
180,192,167931,1,0,0:0:0:0:
281,192,167931,1,0,0:0:0:0:
487,192,168276,1,0,0:0:0:0:
26,192,168276,1,0,0:0:0:0:
128,192,168621,1,0,0:0:0:0:
333,192,168793,1,0,0:0:0:0:
77,192,168793,1,0,0:0:0:0:
282,192,168966,1,0,0:0:0:0:
128,192,168966,1,0,0:0:0:0:
384,192,168966,1,0,0:0:0:0:
180,192,169138,1,0,0:0:0:0:
384,192,169311,1,0,0:0:0:0:
231,192,169311,1,0,0:0:0:0:
128,192,169655,128,0,170000:0:0:0:0:
25,192,169655,128,0,170000:0:0:0:0:
486,192,169655,1,0,0:0:0:0:
230,192,170086,128,0,170345:0:0:0:0:
332,192,170173,1,0,0:0:0:0:
26,192,170345,1,0,0:0:0:0:
384,192,170345,1,0,0:0:0:0:
486,192,170345,1,0,0:0:0:0:
128,192,170517,1,0,0:0:0:0:
282,192,170690,1,0,0:0:0:0:
77,192,170690,1,0,0:0:0:0:
436,192,170690,1,0,0:0:0:0:
384,192,171035,1,0,0:0:0:0:
231,192,171035,1,0,0:0:0:0:
180,192,171207,1,0,0:0:0:0:
77,192,171380,1,0,0:0:0:0:
26,192,171552,1,0,0:0:0:0:
435,192,171552,1,0,0:0:0:0:
77,192,171573,1,0,0:0:0:0:
128,192,171724,1,0,0:0:0:0:
282,192,171724,1,0,0:0:0:0:
486,192,171724,1,0,0:0:0:0:
26,192,171897,1,0,0:0:0:0:
384,192,172069,1,0,0:0:0:0:
180,192,172069,1,0,0:0:0:0:
77,192,172242,1,0,0:0:0:0:
332,192,172242,1,0,0:0:0:0:
435,192,172242,1,0,0:0:0:0:
231,192,172414,1,0,0:0:0:0:
487,192,172414,1,0,0:0:0:0:
26,192,172759,1,0,0:0:0:0:
332,192,172931,1,0,0:0:0:0:
231,192,173104,1,0,0:0:0:0:
436,192,173104,1,0,0:0:0:0:
486,192,173104,1,0,0:0:0:0:
180,192,173276,1,0,0:0:0:0:
128,192,173448,1,0,0:0:0:0:
486,192,173448,1,0,0:0:0:0:
26,192,173793,1,0,0:0:0:0:
384,192,173793,1,0,0:0:0:0:
128,192,174138,1,0,0:0:0:0:
77,192,174311,1,0,0:0:0:0:
435,192,174311,1,0,0:0:0:0:
180,192,174483,1,0,0:0:0:0:
384,192,174483,1,0,0:0:0:0:
281,192,174483,1,0,0:0:0:0:
128,192,174655,1,0,0:0:0:0:
332,192,174655,128,0,174742:0:0:0:0:
77,192,174828,1,0,0:0:0:0:
231,192,174828,1,0,0:0:0:0:
384,192,174828,128,0,174914:0:0:0:0:
128,192,175000,1,0,0:0:0:0:
435,192,175000,128,0,175086:0:0:0:0:
486,192,175173,128,0,176552:0:0:0:0:
26,192,175173,1,0,0:0:0:0:
231,192,175862,1,0,0:0:0:0:
384,192,175862,128,0,176552:0:0:0:0:
128,192,176035,1,0,0:0:0:0:
231,192,176207,1,0,0:0:0:0:
25,192,176207,1,0,0:0:0:0:
231,192,176552,1,0,0:0:0:0:
332,192,176552,1,0,0:0:0:0:
128,192,176724,1,0,0:0:0:0:
281,192,176897,1,0,0:0:0:0:
179,192,177069,1,0,0:0:0:0:
332,192,177242,1,0,0:0:0:0:
230,192,177414,1,0,0:0:0:0:
281,192,177586,1,0,0:0:0:0:
384,192,177759,1,0,0:0:0:0:
128,192,177931,128,0,178276:0:0:0:0:
436,192,177931,1,0,0:0:0:0:
487,192,177931,1,0,0:0:0:0:
332,192,177931,1,0,0:0:0:0:
282,192,178104,1,0,0:0:0:0:
487,192,178276,1,0,0:0:0:0:
384,192,178276,1,0,0:0:0:0:
128,192,178448,128,0,178793:0:0:0:0:
26,192,178448,128,0,178793:0:0:0:0:
436,192,178448,1,0,0:0:0:0:
333,192,178621,1,0,0:0:0:0:
384,192,178793,1,0,0:0:0:0:
128,192,178966,128,0,179311:0:0:0:0:
26,192,178966,128,0,179311:0:0:0:0:
282,192,178966,1,0,0:0:0:0:
487,192,178966,1,0,0:0:0:0:
436,192,179138,1,0,0:0:0:0:
230,192,179138,128,0,179311:0:0:0:0:
282,192,179311,1,0,0:0:0:0:
384,192,179311,1,0,0:0:0:0:
128,192,179483,128,0,179828:0:0:0:0:
26,192,179483,128,0,179828:0:0:0:0:
333,192,179483,1,0,0:0:0:0:
487,192,179655,1,0,0:0:0:0:
282,192,179655,1,0,0:0:0:0:
179,192,179655,128,0,179828:0:0:0:0:
487,192,179828,1,0,0:0:0:0:
230,192,179828,128,0,180173:0:0:0:0:
436,192,179914,1,0,0:0:0:0:
180,192,180000,128,0,180173:0:0:0:0:
384,192,180000,1,0,0:0:0:0:
333,192,180086,1,0,0:0:0:0:
282,192,180173,1,0,0:0:0:0:
128,192,180345,128,0,180517:0:0:0:0:
436,192,180345,1,0,0:0:0:0:
333,192,180345,1,0,0:0:0:0:
230,192,180345,128,0,181380:0:0:0:0:
487,192,180517,1,0,0:0:0:0:
180,192,180690,128,0,181035:0:0:0:0:
384,192,180690,128,0,181380:0:0:0:0:
77,192,180690,128,0,181035:0:0:0:0:
487,192,180690,128,0,181380:0:0:0:0:
180,192,181207,128,0,181380:0:0:0:0:
77,192,181207,128,0,181380:0:0:0:0:
333,192,181466,1,0,0:0:0:0:
282,192,181552,128,0,181724:0:0:0:0:
179,192,181638,128,0,181724:0:0:0:0:
26,192,181724,128,0,182069:0:0:0:0:
230,192,181724,128,0,182069:0:0:0:0:
384,192,181811,1,0,0:0:0:0:
436,192,181897,128,0,182069:0:0:0:0:
76,192,181897,128,0,181983:0:0:0:0:
282,192,182069,1,0,0:0:0:0:
179,192,182069,128,0,183104:0:0:0:0:
76,192,182242,128,0,182586:0:0:0:0:
333,192,182242,1,0,0:0:0:0:
26,192,182242,128,0,182586:0:0:0:0:
282,192,182414,1,0,0:0:0:0:
384,192,182414,1,0,0:0:0:0:
333,192,182586,1,0,0:0:0:0:
435,192,182673,1,0,0:0:0:0:
332,192,182759,1,0,0:0:0:0:
76,192,182759,128,0,182931:0:0:0:0:
26,192,182759,128,0,182931:0:0:0:0:
435,192,182845,1,0,0:0:0:0:
384,192,182931,1,0,0:0:0:0:
77,192,183104,128,0,183276:0:0:0:0:
282,192,183104,1,0,0:0:0:0:
231,192,183104,128,0,183276:0:0:0:0:
486,192,183104,1,0,0:0:0:0:
180,192,183276,128,0,183448:0:0:0:0:
436,192,183276,1,0,0:0:0:0:
26,192,183276,128,0,183448:0:0:0:0:
384,192,183448,1,0,0:0:0:0:
487,192,183448,1,0,0:0:0:0:
128,192,183448,128,0,183793:0:0:0:0:
231,192,183448,128,0,183793:0:0:0:0:
333,192,183621,1,0,0:0:0:0:
282,192,183793,1,0,0:0:0:0:
384,192,183793,1,0,0:0:0:0:
231,192,183966,128,0,184311:0:0:0:0:
487,192,183966,1,0,0:0:0:0:
128,192,183966,128,0,184311:0:0:0:0:
282,192,184138,1,0,0:0:0:0:
435,192,184138,1,0,0:0:0:0:
333,192,184311,1,0,0:0:0:0:
128,192,184483,128,0,184655:0:0:0:0:
487,192,184483,1,0,0:0:0:0:
231,192,184483,128,0,184655:0:0:0:0:
384,192,184483,1,0,0:0:0:0:
25,192,184483,128,0,184742:0:0:0:0:
282,192,184655,1,0,0:0:0:0:
76,192,184742,128,0,185086:0:0:0:0:
333,192,184828,1,0,0:0:0:0:
487,192,184828,1,0,0:0:0:0:
26,192,185000,128,0,185345:0:0:0:0:
231,192,185000,128,0,185345:0:0:0:0:
282,192,185000,1,0,0:0:0:0:
435,192,185173,1,0,0:0:0:0:
384,192,185173,1,0,0:0:0:0:
179,192,185345,128,0,185690:0:0:0:0:
332,192,185345,1,0,0:0:0:0:
282,192,185431,1,0,0:0:0:0:
77,192,185517,128,0,185690:0:0:0:0:
384,192,185517,1,0,0:0:0:0:
128,192,185517,128,0,185690:0:0:0:0:
435,192,185604,1,0,0:0:0:0:
486,192,185690,1,0,0:0:0:0:
384,192,185862,1,0,0:0:0:0:
128,192,185862,128,0,185948:0:0:0:0:
76,192,185862,128,0,185948:0:0:0:0:
282,192,185862,1,0,0:0:0:0:
179,192,185862,128,0,185948:0:0:0:0:
77,192,186035,128,0,186207:0:0:0:0:
436,192,186035,1,0,0:0:0:0:
128,192,186035,128,0,186207:0:0:0:0:
230,192,186035,128,0,187586:0:0:0:0:
179,192,186207,128,0,186552:0:0:0:0:
487,192,186207,128,0,186552:0:0:0:0:
384,192,186207,128,0,186380:0:0:0:0:
26,192,186207,128,0,186552:0:0:0:0:
282,192,186552,128,0,186724:0:0:0:0:
384,192,186724,128,0,186897:0:0:0:0:
77,192,186724,1,0,0:0:0:0:
180,192,186811,1,0,0:0:0:0:
77,192,186897,128,0,187069:0:0:0:0:
333,192,186897,128,0,186983:0:0:0:0:
128,192,186897,128,0,187069:0:0:0:0:
282,192,187069,128,0,187155:0:0:0:0:
333,192,187242,128,0,187328:0:0:0:0:
128,192,187242,128,0,187328:0:0:0:0:
436,192,187242,1,0,0:0:0:0:
25,192,187242,128,0,187328:0:0:0:0:
180,192,187414,128,0,187586:0:0:0:0:
384,192,187414,128,0,187500:0:0:0:0:
77,192,187414,128,0,187586:0:0:0:0:
281,192,187586,1,0,0:0:0:0:
486,192,187586,1,0,0:0:0:0:
435,192,187673,1,0,0:0:0:0:
26,192,187759,128,0,187931:0:0:0:0:
128,192,187759,128,0,187931:0:0:0:0:
384,192,187759,1,0,0:0:0:0:
435,192,187845,1,0,0:0:0:0:
384,192,187931,1,0,0:0:0:0:
332,192,188017,1,0,0:0:0:0:
282,192,188104,1,0,0:0:0:0:
435,192,188190,1,0,0:0:0:0:
486,192,188276,1,0,0:0:0:0:
25,192,188276,1,0,0:0:0:0:
384,192,188362,1,0,0:0:0:0:
76,192,188362,1,0,0:0:0:0:
486,192,188448,1,0,0:0:0:0:
128,192,188448,1,0,0:0:0:0:
384,192,188535,1,0,0:0:0:0:
179,192,188535,1,0,0:0:0:0:
486,192,188621,1,0,0:0:0:0:
128,192,188621,1,0,0:0:0:0:
384,192,188707,1,0,0:0:0:0:
179,192,188707,1,0,0:0:0:0:
486,192,188793,1,0,0:0:0:0:
230,192,188793,1,0,0:0:0:0:
384,192,188880,1,0,0:0:0:0:
128,192,188880,1,0,0:0:0:0:
332,192,188966,1,0,0:0:0:0:
435,192,188966,1,0,0:0:0:0:
486,192,188966,128,0,189311:0:0:0:0:
25,192,188966,1,0,0:0:0:0:
230,192,188966,1,0,0:0:0:0:
281,192,188966,128,0,189311:0:0:0:0:
384,192,189311,128,0,189483:0:0:0:0:
179,192,189311,1,0,0:0:0:0:
25,192,189311,1,0,0:0:0:0:
435,192,189311,128,0,189483:0:0:0:0:
486,192,189483,128,0,190000:0:0:0:0:
76,192,189483,1,0,0:0:0:0:
332,192,189483,128,0,190000:0:0:0:0:
179,192,189569,1,0,0:0:0:0:
76,192,189655,1,0,0:0:0:0:
179,192,189742,1,0,0:0:0:0:
25,192,189828,1,0,0:0:0:0:
281,192,190000,128,0,190173:0:0:0:0:
128,192,190000,1,0,0:0:0:0:
230,192,190000,1,0,0:0:0:0:
435,192,190000,128,0,190173:0:0:0:0:
384,192,190173,128,0,190690:0:0:0:0:
76,192,190173,1,0,0:0:0:0:
486,192,190173,128,0,190690:0:0:0:0:
179,192,190259,1,0,0:0:0:0:
230,192,190345,1,0,0:0:0:0:
25,192,190345,1,0,0:0:0:0:
76,192,190517,1,0,0:0:0:0:
435,192,190690,128,0,190862:0:0:0:0:
25,192,190690,1,0,0:0:0:0:
128,192,190690,1,0,0:0:0:0:
281,192,190690,128,0,190862:0:0:0:0:
332,192,190862,128,0,191207:0:0:0:0:
179,192,190862,1,0,0:0:0:0:
384,192,190862,128,0,191207:0:0:0:0:
128,192,190948,1,0,0:0:0:0:
76,192,191035,1,0,0:0:0:0:
230,192,191121,1,0,0:0:0:0:
128,192,191207,1,0,0:0:0:0:
435,192,191380,128,0,191552:0:0:0:0:
179,192,191380,1,0,0:0:0:0:
76,192,191380,1,0,0:0:0:0:
332,192,191380,128,0,191552:0:0:0:0:
281,192,191552,128,0,192069:0:0:0:0:
230,192,191552,1,0,0:0:0:0:
486,192,191552,128,0,192069:0:0:0:0:
179,192,191638,1,0,0:0:0:0:
128,192,191724,1,0,0:0:0:0:
25,192,191724,1,0,0:0:0:0:
128,192,191897,1,0,0:0:0:0:
230,192,192069,1,0,0:0:0:0:
25,192,192069,1,0,0:0:0:0:
332,192,192242,128,0,192586:0:0:0:0:
76,192,192242,1,0,0:0:0:0:
384,192,192242,128,0,192586:0:0:0:0:
179,192,192328,1,0,0:0:0:0:
76,192,192414,1,0,0:0:0:0:
128,192,192500,1,0,0:0:0:0:
179,192,192586,1,0,0:0:0:0:
384,192,192759,128,0,193276:0:0:0:0:
25,192,192759,1,0,0:0:0:0:
128,192,192759,1,0,0:0:0:0:
486,192,192931,128,0,193276:0:0:0:0:
76,192,192931,1,0,0:0:0:0:
281,192,193104,128,0,193276:0:0:0:0:
128,192,193104,1,0,0:0:0:0:
230,192,193104,1,0,0:0:0:0:
230,192,193276,1,0,0:0:0:0:
230,192,193448,1,0,0:0:0:0:
25,192,193448,1,0,0:0:0:0:
76,192,193621,1,0,0:0:0:0:
179,192,193707,1,0,0:0:0:0:
486,192,193793,128,0,193966:0:0:0:0:
230,192,193793,1,0,0:0:0:0:
384,192,193793,128,0,193966:0:0:0:0:
128,192,193880,1,0,0:0:0:0:
435,192,193966,128,0,194138:0:0:0:0:
25,192,193966,1,0,0:0:0:0:
332,192,193966,128,0,194138:0:0:0:0:
384,192,194138,128,0,194655:0:0:0:0:
179,192,194138,1,0,0:0:0:0:
76,192,194138,1,0,0:0:0:0:
281,192,194138,128,0,194655:0:0:0:0:
25,192,194311,1,0,0:0:0:0:
128,192,194397,1,0,0:0:0:0:
179,192,194483,1,0,0:0:0:0:
230,192,194483,1,0,0:0:0:0:
128,192,194655,1,0,0:0:0:0:
435,192,194828,128,0,195000:0:0:0:0:
76,192,194828,1,0,0:0:0:0:
179,192,194828,1,0,0:0:0:0:
486,192,194828,128,0,195000:0:0:0:0:
230,192,195000,1,0,0:0:0:0:
179,192,195086,1,0,0:0:0:0:
281,192,195173,128,0,195517:0:0:0:0:
128,192,195173,1,0,0:0:0:0:
435,192,195173,128,0,195517:0:0:0:0:
76,192,195259,1,0,0:0:0:0:
25,192,195345,1,0,0:0:0:0:
230,192,195345,1,0,0:0:0:0:
384,192,195517,128,0,195862:0:0:0:0:
179,192,195517,1,0,0:0:0:0:
76,192,195517,1,0,0:0:0:0:
486,192,195517,128,0,195862:0:0:0:0:
128,192,195690,1,0,0:0:0:0:
25,192,195862,1,0,0:0:0:0:
230,192,195862,1,0,0:0:0:0:
179,192,196035,128,0,196121:0:0:0:0:
486,192,196207,128,0,196897:0:0:0:0:
128,192,196207,128,0,196293:0:0:0:0:
25,192,196207,1,0,0:0:0:0:
281,192,196207,128,0,196897:0:0:0:0:
230,192,196552,1,0,0:0:0:0:
76,192,196552,128,0,196638:0:0:0:0:
384,192,196552,128,0,196897:0:0:0:0:
332,192,196552,128,0,196897:0:0:0:0:
25,192,196724,128,0,196811:0:0:0:0:
230,192,196897,128,0,196983:0:0:0:0:
179,192,196897,1,0,0:0:0:0:
435,192,197069,128,0,197414:0:0:0:0:
128,192,197069,128,0,197155:0:0:0:0:
281,192,197069,128,0,197242:0:0:0:0:
486,192,197242,128,0,197414:0:0:0:0:
25,192,197242,1,0,0:0:0:0:
179,192,197242,1,0,0:0:0:0:
332,192,197328,128,0,197414:0:0:0:0:
384,192,197414,128,0,197586:0:0:0:0:
128,192,197414,1,0,0:0:0:0:
281,192,197586,128,0,197759:0:0:0:0:
230,192,197586,1,0,0:0:0:0:
25,192,197586,1,0,0:0:0:0:
486,192,197586,128,0,197759:0:0:0:0:
384,192,197759,128,0,198104:0:0:0:0:
179,192,197759,1,0,0:0:0:0:
435,192,197759,128,0,198104:0:0:0:0:
25,192,197931,1,0,0:0:0:0:
128,192,197931,1,0,0:0:0:0:
76,192,198104,1,0,0:0:0:0:
230,192,198104,1,0,0:0:0:0:
179,192,198190,1,0,0:0:0:0:
486,192,198276,128,0,198362:0:0:0:0:
128,192,198276,1,0,0:0:0:0:
384,192,198276,128,0,198448:0:0:0:0:
179,192,198362,1,0,0:0:0:0:
486,192,198448,128,0,198535:0:0:0:0:
76,192,198448,1,0,0:0:0:0:
332,192,198448,128,0,199311:0:0:0:0:
25,192,198535,1,0,0:0:0:0:
76,192,198707,1,0,0:0:0:0:
128,192,198793,1,0,0:0:0:0:
179,192,198880,1,0,0:0:0:0:
230,192,198966,1,0,0:0:0:0:
128,192,199052,1,0,0:0:0:0:
25,192,199138,1,0,0:0:0:0:
76,192,199224,1,0,0:0:0:0:
128,192,199311,1,0,0:0:0:0:
179,192,199397,1,0,0:0:0:0:
230,192,199483,1,0,0:0:0:0:
76,192,199569,1,0,0:0:0:0:
230,192,199655,1,0,0:0:0:0:
332,192,199655,128,0,200000:0:0:0:0:
128,192,199742,1,0,0:0:0:0:
230,192,199828,1,0,0:0:0:0:
26,192,200000,128,0,200345:0:0:0:0:
282,192,200000,1,0,0:0:0:0:
487,192,200000,1,0,0:0:0:0:
230,192,200000,128,0,200345:0:0:0:0:
128,192,200345,128,0,200517:0:0:0:0:
487,192,200345,1,0,0:0:0:0:
333,192,200345,1,0,0:0:0:0:
76,192,200345,128,0,200517:0:0:0:0:
26,192,200517,128,0,201035:0:0:0:0:
436,192,200517,1,0,0:0:0:0:
179,192,200517,128,0,201035:0:0:0:0:
282,192,200604,1,0,0:0:0:0:
487,192,200690,1,0,0:0:0:0:
333,192,200776,1,0,0:0:0:0:
436,192,200862,1,0,0:0:0:0:
230,192,201035,128,0,201207:0:0:0:0:
384,192,201035,1,0,0:0:0:0:
282,192,201035,1,0,0:0:0:0:
76,192,201035,128,0,201207:0:0:0:0:
128,192,201207,128,0,201724:0:0:0:0:
436,192,201207,1,0,0:0:0:0:
179,192,201207,128,0,201724:0:0:0:0:
333,192,201293,1,0,0:0:0:0:
384,192,201380,1,0,0:0:0:0:
487,192,201380,1,0,0:0:0:0:
487,192,201552,1,0,0:0:0:0:
77,192,201724,128,0,201897:0:0:0:0:
487,192,201724,1,0,0:0:0:0:
384,192,201724,1,0,0:0:0:0:
230,192,201724,128,0,201897:0:0:0:0:
180,192,201897,128,0,202242:0:0:0:0:
333,192,201897,1,0,0:0:0:0:
25,192,201897,128,0,202242:0:0:0:0:
436,192,201983,1,0,0:0:0:0:
333,192,202069,1,0,0:0:0:0:
384,192,202155,1,0,0:0:0:0:
281,192,202242,1,0,0:0:0:0:
128,192,202414,128,0,202586:0:0:0:0:
333,192,202414,1,0,0:0:0:0:
436,192,202414,1,0,0:0:0:0:
76,192,202414,128,0,202586:0:0:0:0:
231,192,202586,128,0,203104:0:0:0:0:
282,192,202586,1,0,0:0:0:0:
179,192,202586,128,0,203104:0:0:0:0:
333,192,202673,1,0,0:0:0:0:
487,192,202759,1,0,0:0:0:0:
384,192,202759,1,0,0:0:0:0:
281,192,202759,1,0,0:0:0:0:
281,192,202931,1,0,0:0:0:0:
384,192,202931,1,0,0:0:0:0:
486,192,202931,1,0,0:0:0:0:
332,192,203104,1,0,0:0:0:0:
435,192,203104,1,0,0:0:0:0:
180,192,203276,128,0,203621:0:0:0:0:
384,192,203276,1,0,0:0:0:0:
486,192,203276,1,0,0:0:0:0:
281,192,203276,1,0,0:0:0:0:
76,192,203276,128,0,203621:0:0:0:0:
435,192,203621,1,0,0:0:0:0:
332,192,203707,1,0,0:0:0:0:
128,192,203793,128,0,204483:0:0:0:0:
384,192,203793,1,0,0:0:0:0:
486,192,203793,1,0,0:0:0:0:
281,192,203793,1,0,0:0:0:0:
25,192,203793,128,0,204483:0:0:0:0:
332,192,203880,1,0,0:0:0:0:
435,192,203966,1,0,0:0:0:0:
384,192,204052,1,0,0:0:0:0:
486,192,204138,1,0,0:0:0:0:
281,192,204138,1,0,0:0:0:0:
435,192,204224,1,0,0:0:0:0:
384,192,204311,1,0,0:0:0:0:
332,192,204397,1,0,0:0:0:0:
435,192,204483,1,0,0:0:0:0:
179,192,204483,128,0,204655:0:0:0:0:
230,192,204483,128,0,204655:0:0:0:0:
384,192,204569,1,0,0:0:0:0:
332,192,204655,1,0,0:0:0:0:
25,192,204655,128,0,205173:0:0:0:0:
76,192,204655,128,0,205173:0:0:0:0:
281,192,204742,1,0,0:0:0:0:
332,192,204828,1,0,0:0:0:0:
486,192,204914,1,0,0:0:0:0:
384,192,205000,1,0,0:0:0:0:
486,192,205086,1,0,0:0:0:0:
128,192,205173,128,0,205431:0:0:0:0:
435,192,205173,1,0,0:0:0:0:
179,192,205173,128,0,205431:0:0:0:0:
384,192,205259,1,0,0:0:0:0:
332,192,205345,1,0,0:0:0:0:
76,192,205431,128,0,206207:0:0:0:0:
435,192,205431,1,0,0:0:0:0:
230,192,205431,128,0,206207:0:0:0:0:
384,192,205517,1,0,0:0:0:0:
281,192,205517,1,0,0:0:0:0:
332,192,205690,1,0,0:0:0:0:
384,192,205862,1,0,0:0:0:0:
281,192,205862,1,0,0:0:0:0:
435,192,206035,1,0,0:0:0:0:
486,192,206207,1,0,0:0:0:0:
281,192,206207,1,0,0:0:0:0:
332,192,206380,1,0,0:0:0:0:
435,192,206380,1,0,0:0:0:0:
25,192,206552,128,0,207759:0:0:0:0:
384,192,206552,1,0,0:0:0:0:
486,192,206552,1,0,0:0:0:0:
76,192,206552,128,0,207759:0:0:0:0:
230,192,206724,128,0,207759:0:0:0:0:
384,192,206724,1,0,0:0:0:0:
179,192,206724,128,0,207759:0:0:0:0:
435,192,206811,1,0,0:0:0:0:
486,192,206897,1,0,0:0:0:0:
281,192,206897,1,0,0:0:0:0:
486,192,207069,1,0,0:0:0:0:
332,192,207069,1,0,0:0:0:0:
486,192,207242,1,0,0:0:0:0:
384,192,207242,1,0,0:0:0:0:
435,192,207414,1,0,0:0:0:0:
486,192,207414,1,0,0:0:0:0:
384,192,207586,1,0,0:0:0:0:
486,192,207586,1,0,0:0:0:0:
332,192,207673,1,0,0:0:0:0:
128,192,207759,128,0,207931:0:0:0:0:
281,192,207759,1,0,0:0:0:0:
486,192,207759,1,0,0:0:0:0:
179,192,207931,128,0,208276:0:0:0:0:
281,192,207931,1,0,0:0:0:0:
384,192,207931,1,0,0:0:0:0:
384,192,208104,1,0,0:0:0:0:
486,192,208190,1,0,0:0:0:0:
281,192,208276,1,0,0:0:0:0:
25,192,208276,1,0,0:0:0:0:
332,192,208362,1,0,0:0:0:0:
76,192,208362,1,0,0:0:0:0:
384,192,208448,1,0,0:0:0:0:
128,192,208448,1,0,0:0:0:0:
435,192,208535,1,0,0:0:0:0:
179,192,208535,1,0,0:0:0:0:
486,192,208621,1,0,0:0:0:0:
230,192,208621,1,0,0:0:0:0:
435,192,208707,1,0,0:0:0:0:
25,192,208707,1,0,0:0:0:0:
384,192,208793,1,0,0:0:0:0:
76,192,208793,1,0,0:0:0:0:
332,192,208880,1,0,0:0:0:0:
179,192,208880,1,0,0:0:0:0:
281,192,208966,1,0,0:0:0:0:
230,192,208966,1,0,0:0:0:0:
332,192,209052,1,0,0:0:0:0:
25,192,209052,1,0,0:0:0:0:
384,192,209138,1,0,0:0:0:0:
76,192,209138,1,0,0:0:0:0:
435,192,209224,1,0,0:0:0:0:
128,192,209224,1,0,0:0:0:0:
486,192,209311,1,0,0:0:0:0:
230,192,209311,1,0,0:0:0:0:
435,192,209397,1,0,0:0:0:0:
25,192,209397,1,0,0:0:0:0:
384,192,209483,1,0,0:0:0:0:
76,192,209483,1,0,0:0:0:0:
332,192,209569,1,0,0:0:0:0:
179,192,209569,1,0,0:0:0:0:
281,192,209655,1,0,0:0:0:0:
486,192,209655,1,0,0:0:0:0:
230,192,209655,1,0,0:0:0:0:
76,192,210000,128,0,210086:0:0:0:0:
332,192,210000,1,0,0:0:0:0:
435,192,210173,1,0,0:0:0:0:
128,192,210173,128,0,210517:0:0:0:0:
230,192,210690,128,0,210776:0:0:0:0:
486,192,210690,1,0,0:0:0:0:
25,192,210690,128,0,212242:0:0:0:0:
332,192,210862,1,0,0:0:0:0:
281,192,211035,1,0,0:0:0:0:
486,192,211035,1,0,0:0:0:0:
384,192,211380,1,0,0:0:0:0:
281,192,211724,1,0,0:0:0:0:
435,192,211724,1,0,0:0:0:0:
486,192,212069,1,0,0:0:0:0:
179,192,212242,128,0,215173:0:0:0:0:
435,192,212414,1,0,0:0:0:0:
332,192,212414,1,0,0:0:0:0:
281,192,212759,1,0,0:0:0:0:
384,192,213104,1,0,0:0:0:0:
486,192,213104,1,0,0:0:0:0:
435,192,213276,1,0,0:0:0:0:
332,192,213448,1,0,0:0:0:0:
384,192,213621,1,0,0:0:0:0:
281,192,213793,1,0,0:0:0:0:
486,192,213793,1,0,0:0:0:0:
332,192,214138,1,0,0:0:0:0:
384,192,214483,1,0,0:0:0:0:
281,192,214483,1,0,0:0:0:0:
332,192,214655,1,0,0:0:0:0:
435,192,214828,1,0,0:0:0:0:
486,192,214828,1,0,0:0:0:0:
435,192,215345,1,0,0:0:0:0:
281,192,215345,1,0,0:0:0:0:
384,192,215517,1,0,0:0:0:0:
281,192,215690,1,0,0:0:0:0:
332,192,215862,1,0,0:0:0:0:
179,192,216035,1,0,0:0:0:0:
230,192,216207,1,0,0:0:0:0:
281,192,216380,128,0,216552:0:0:0:0:
76,192,216380,1,0,0:0:0:0:
332,192,216552,128,0,217586:0:0:0:0:
179,192,216552,1,0,0:0:0:0:
25,192,216552,1,0,0:0:0:0:
230,192,216724,128,0,216897:0:0:0:0:
179,192,216897,128,0,217069:0:0:0:0:
128,192,216897,1,0,0:0:0:0:
25,192,217242,1,0,0:0:0:0:
281,192,217242,1,0,0:0:0:0:
384,192,217586,128,0,217759:0:0:0:0:
230,192,217586,1,0,0:0:0:0:
435,192,217759,128,0,218793:0:0:0:0:
128,192,217759,128,0,217931:0:0:0:0:
179,192,217931,128,0,218793:0:0:0:0:
25,192,217931,1,0,0:0:0:0:
332,192,217931,1,0,0:0:0:0:
281,192,218276,1,0,0:0:0:0:
332,192,218448,1,0,0:0:0:0:
230,192,218621,1,0,0:0:0:0:
384,192,218621,1,0,0:0:0:0:
128,192,218793,128,0,218966:0:0:0:0:
281,192,218793,1,0,0:0:0:0:
230,192,218966,128,0,221035:0:0:0:0:
332,192,218966,1,0,0:0:0:0:
384,192,219138,1,0,0:0:0:0:
281,192,219311,1,0,0:0:0:0:
486,192,219311,1,0,0:0:0:0:
384,192,219655,1,0,0:0:0:0:
281,192,220000,1,0,0:0:0:0:
435,192,220000,1,0,0:0:0:0:
332,192,220173,1,0,0:0:0:0:
486,192,220345,1,0,0:0:0:0:
384,192,220345,1,0,0:0:0:0:
281,192,220345,1,0,0:0:0:0:
435,192,220690,1,0,0:0:0:0:
332,192,220690,1,0,0:0:0:0:
384,192,220862,1,0,0:0:0:0:
281,192,221035,1,0,0:0:0:0:
435,192,221207,1,0,0:0:0:0:
332,192,221380,1,0,0:0:0:0:
486,192,221552,1,0,0:0:0:0:
384,192,221724,1,0,0:0:0:0:
281,192,221724,1,0,0:0:0:0:
332,192,221897,1,0,0:0:0:0:
