osu file format v14

[General]
AudioFilename: audio.ogg
AudioLeadIn: 0
PreviewTime:47586
Countdown: 0
SampleSet: Soft
StackLeniency: 0.7
Mode: 0
LetterboxInBreaks: 0
WidescreenStoryboard: 1
EpilepsyWarning: 1

[Editor]
DistanceSpacing: 1
BeatDivisor: 4
GridSize: 4
TimelineZoom: 1.8

[Metadata]
Title:Unfinished START
TitleUnicode:未完成START
Artist:Emilia (CV: Setsunan)
ArtistUnicode:艾米莉亞 (CV: 薛南)
Creator:KennethBBG
Version:ckharv's Insane
Source:前進吧!高捷少女Initiating Station
Tags:Visual novel vn opening op Mocaotic evaotic ckharv BlackBN BlackBq eajrock (ayre records) uniparity hoskey reo shinia stellarism 希萌創意 《進め!高捷(たかめ)少女!》 Chinese pop rock Taiwan
BeatmapID:4043069
BeatmapSetID:1941061

[Difficulty]
HPDrainRate:5
CircleSize:4
OverallDifficulty:8
ApproachRate:9
SliderMultiplier:1.67
SliderTickRate:1

[Events]
//Background and Video events
0,0,"bg1.jpg",0,0
Video,-80,"OPmovie (1).mp4"
//Break Periods
//Storyboard Layer 0 (Background)
//Storyboard Layer 1 (Fail)
//Storyboard Layer 2 (Pass)
//Storyboard Layer 3 (Foreground)
//Storyboard Layer 4 (Overlay)
//Storyboard Sound Samples

[TimingPoints]
873,342.857142857143,4,2,1,20,1,0
14587,333.333333333333,4,2,1,40,1,0
14920,-100,4,2,1,70,0,0
15920,-100,4,2,1,65,0,0
26586,-125,4,2,1,40,0,0
34920,-111.111111111111,4,2,1,40,0,0
35253,-111.111111111111,4,2,1,47,0,0
35586,-111.111111111111,4,2,1,57,0,0
35920,-111.111111111111,4,2,1,70,0,0
37253,-111.111111111111,4,2,1,65,0,0
45253,-100,4,2,1,65,0,0
45586,-100,4,2,1,50,0,0
46253,-100,4,2,1,60,0,0
46420,-100,4,2,1,72,0,0
46586,-100,4,2,1,90,0,0
47920,-100,4,2,1,80,0,0
50836,-100,4,2,1,5,0,0
50920,-100,4,2,1,80,0,0
53170,-100,4,2,1,5,0,0
53253,-100,4,2,1,80,0,0
56170,-100,4,2,1,5,0,0
56253,-100,4,2,1,80,0,0
65170,-100,4,2,1,5,0,0
65253,-100,4,2,1,80,0,0
66920,-100,4,2,1,60,0,0
67753,-100,4,2,1,72,0,0
67920,-100,4,2,1,90,0,0
68003,-100,4,2,1,80,0,0
69253,-111.111111111111,4,2,1,60,0,0
73253,-111.111111111111,4,2,1,65,0,0
77253,-111.111111111111,4,2,1,75,0,0
77586,-111.111111111111,4,2,1,55,0,0
78419,-111.111111111111,4,2,1,63,0,0
78586,-111.111111111111,4,2,1,75,0,0
79086,-111.111111111111,4,2,1,50,0,0
79253,-111.111111111111,4,2,1,60,0,0
79419,-111.111111111111,4,2,1,70,0,0
79586,-111.111111111111,4,2,1,80,0,0
79753,-111.111111111111,4,2,1,90,0,0
79836,-111.111111111111,4,2,1,70,0,0
80253,-111.111111111111,4,2,1,90,0,0
80586,-111.111111111111,4,2,1,80,0,0
80919,-111.111111111111,4,2,1,70,0,0
81253,-111.111111111111,4,2,1,60,0,0
81919,-111.111111111111,4,2,1,50,0,0
82586,-111.111111111111,4,2,1,40,0,0
83586,-111.111111111111,4,2,1,30,0,0
84586,-111.111111111111,4,2,1,20,0,0
85086,-111.111111111111,4,2,1,35,0,0
85253,-111.111111111111,4,2,1,25,0,0

[Colours]
Combo1 : 204,101,9
Combo2 : 255,169,83
Combo3 : 255,198,0

[HitObjects]
256,192,11844,12,0,13215,0:0:0:0:
492,98,14587,6,0,B|472:62|472:62|489:8,1,83.5,4|0,0:0|3:2,0:0:0:0:
423,172,14920,2,0,P|364:187|289:206,1,125.25,8|0,0:0|1:2,0:0:0:0:
230,310,15253,5,10,0:0:0:0:
230,310,15337,1,10,0:0:0:0:
230,310,15420,2,0,L|174:295,1,41.75,10|10,0:0|0:0,0:0:0:0:
124,237,15586,1,10,0:0:0:0:
106,241,15670,1,10,0:0:0:0:
87,247,15753,1,10,0:0:0:0:
66,253,15836,1,10,0:0:0:0:
42,260,15920,6,0,B|-11:225|-18:156|48:100,1,167,6|8,3:2|0:0,0:0:0:0:
144,4,16420,1,8,0:0:0:0:
144,4,16503,1,8,0:0:0:0:
144,4,16586,2,0,B|165:42|165:42|155:91,1,83.5,0|0,3:2|3:2,0:0:0:0:
212,175,16920,2,0,P|261:188|313:200,1,83.5,8|0,0:0|0:0,0:0:0:0:
460,378,17253,6,0,B|515:343|516:274|473:234,1,167,2|8,3:2|0:0,0:0:0:0:
378,99,17753,1,8,0:0:0:0:
378,99,17836,1,8,0:0:0:0:
378,99,17920,2,0,B|367:152|388:130|381:195,1,83.5,0|0,3:2|3:2,0:0:0:0:
494,145,18253,1,10,0:0:0:0:
385,277,18420,1,2,0:0:0:0:
245,110,18586,6,0,P|195:112|175:226,1,167,2|8,3:2|0:0,0:0:0:0:
268,347,19086,1,8,0:0:0:0:
268,347,19170,1,8,0:0:0:0:
268,347,19253,2,0,P|269:295|254:254,1,83.5,2|0,3:2|3:2,0:0:0:0:
72,142,19586,2,0,P|61:182|63:223,1,83.5,8|2,0:0|0:0,0:0:0:0:
151,384,19836,5,2,0:0:0:0:
153,375,19920,2,0,B|141:277|176:314|161:205,2,167,2|8|2,3:2|0:0|3:2,0:0:0:0:
265,322,20753,1,0,3:2:0:0:
77,257,20920,2,0,P|40:243|0:225,1,83.5,10|2,0:0|0:0,0:0:0:0:
187,22,21253,6,0,P|231:29|240:139,1,167,6|8,3:2|0:0,0:0:0:0:
68,141,21753,2,0,P|108:130|148:118,2,83.5,8|0|0,0:0|3:2|3:2,0:0:0:0:
183,287,22253,2,0,B|165:249|165:249|175:208,1,83.5,10|2,0:0|3:2,0:0:0:0:
329,355,22586,6,0,P|404:371|504:388,1,167,2|8,0:0|0:0,0:0:0:0:
434,236,23086,1,0,3:2:0:0:
434,236,23170,1,0,3:2:0:0:
434,236,23253,2,0,P|394:248|353:259,1,83.5,0|0,3:2|3:2,0:0:0:0:
176,137,23586,1,10,0:0:0:0:
325,34,23753,1,2,0:0:0:0:
181,233,23920,6,0,B|115:248|53:213|48:123,1,167,6|10,3:2|0:0,0:0:0:0:
98,306,24420,2,0,P|78:360|61:401,1,83.5,2|0,0:0|3:2,0:0:0:0:
283,215,24753,1,2,3:2:0:0:
177,146,24920,2,0,P|162:102|151:51,1,83.5,8|0,0:0|3:2,0:0:0:0:
212,11,25170,5,0,3:2:0:0:
218,5,25253,1,14,0:0:0:0:
307,129,25420,1,2,1:2:0:0:
307,129,25503,1,0,1:2:0:0:
307,129,25586,1,2,3:2:0:0:
41,38,25753,1,14,0:0:0:0:
47,48,26086,5,8,0:0:0:0:
104,127,26253,2,0,L|143:114,2,41.75,8|8|0,0:0|0:0|1:2,0:0:0:0:
283,38,26586,6,0,B|356:57|342:28|437:54,1,133.6,4|2,3:2|3:2,0:0:0:0:
512,110,27086,1,0,0:0:0:0:
512,110,27253,2,0,P|465:128|380:169,1,133.6,2|2,3:2|3:2,0:0:0:0:
324,109,27753,1,2,0:0:0:0:
269,226,27920,6,0,P|230:220|197:205,1,66.8,2|0,3:2|0:0,0:0:0:0:
261,384,28253,2,0,P|280:358|306:337,1,66.8,2|0,3:2|0:0,0:0:0:0:
132,293,28586,2,0,P|145:323|149:356,1,66.8,2|0,3:2|0:0,0:0:0:0:
217,299,28920,2,0,P|151:313|85:324,1,133.6,2|0,3:2|3:2,0:0:0:0:
31,36,29586,6,0,B|11:66|11:66|23:114,1,66.8,2|2,3:2|0:0,0:0:0:0:
68,167,29920,2,0,B|140:137|118:168|196:134,1,133.6,2|2,3:2|3:2,0:0:0:0:
230,55,30420,1,2,0:0:0:0:
413,0,30586,6,0,P|428:40|429:81,1,66.8,2|0,3:2|0:0,0:0:0:0:
351,211,30920,2,0,P|331:149|324:60,1,133.6,2|2,3:2|3:2,0:0:0:0:
441,157,31420,1,2,0:0:0:0:
441,157,31503,1,2,0:0:0:0:
441,157,31586,2,0,P|482:168|523:175,1,66.8,2|0,3:2|0:0,0:0:0:0:
350,310,31920,6,0,P|306:349|218:341,1,133.6,4|2,3:2|3:2,0:0:0:0:
167,274,32420,1,2,0:0:0:0:
167,274,32586,2,0,B|177:238|177:238|159:187,1,66.8,0|0,3:2|0:0,0:0:0:0:
82,319,32920,2,0,P|87:360|105:400,1,66.8,2|2,3:2|0:0,0:0:0:0:
265,227,33253,6,0,P|266:182|237:96,1,133.6,2|2,3:2|3:2,0:0:0:0:
396,4,33753,2,0,P|371:65|369:132,1,133.6,2|2,0:0|0:0,0:0:0:0:
369,132,34170,1,2,3:2:0:0:
369,132,34253,1,2,3:2:0:0:
450,227,34420,1,2,0:0:0:0:
238,98,34586,5,2,3:2:0:0:
238,98,34920,2,0,B|182:98|215:115|138:108,1,75.1499977066041,2|2,3:2|0:0,0:0:0:0:
28,184,35253,2,0,P|64:192|99:206,1,75.1499977066041,0|2,3:2|0:0,0:0:0:0:
92,19,35586,2,0,P|56:32|20:41,1,75.1499977066041,0|2,3:2|0:0,0:0:0:0:
20,40,35836,1,2,0:0:0:0:
20,40,35920,1,8,3:2:0:0:
203,201,36086,5,8,3:2:0:0:
203,201,36170,1,8,3:2:0:0:
203,201,36253,1,8,3:2:0:0:
322,93,36420,1,8,3:2:0:0:
410,248,36586,1,0,1:2:0:0:
410,248,36753,1,0,1:2:0:0:
511,278,36920,1,0,3:2:0:0:
463,162,37253,5,10,3:2:0:0:
328,384,37420,2,0,B|341:294|298:316|317:216,1,150.299995413208,10|14,3:2|3:2,0:0:0:0:
315,237,38086,1,0,3:2:0:0:
134,82,38253,2,0,P|82:67|103:186,1,225.449993119812,14|0,3:2|1:2,0:0:0:0:
150,234,38836,5,0,1:2:0:0:
163,228,38920,1,0,3:2:0:0:
231,192,39086,1,0,3:2:0:0:
215,111,39253,1,2,1:2:0:0:
277,52,39420,1,0,3:2:0:0:
359,68,39586,1,2,3:2:0:0:
382,147,39753,1,0,3:2:0:0:
475,175,39920,5,10,3:2:0:0:
336,369,40086,1,10,3:2:0:0:
336,369,40420,2,0,P|268:349|161:329,1,150.299995413208,14|0,3:2|3:2,0:0:0:0:
103,383,40920,2,0,P|32:377|60:234,1,225.449993119812,14|0,3:2|1:2,0:0:0:0:
83,193,41503,5,0,1:2:0:0:
93,206,41586,1,2,3:2:0:0:
149,264,41753,1,0,3:2:0:0:
231,237,41920,1,2,3:2:0:0:
243,147,42086,1,0,3:2:0:0:
327,121,42253,1,2,3:2:0:0:
387,186,42420,1,0,3:2:0:0:
484,112,42586,5,10,3:2:0:0:
276,23,42753,1,10,3:2:0:0:
276,23,43086,2,0,P|287:68|299:179,1,150.299995413208,14|0,3:2|3:2,0:0:0:0:
139,366,43586,6,0,P|63:373|5:240,1,225.449993119812,14|8,3:2|0:0,0:0:0:0:
71,179,44253,2,0,P|134:199|175:206,1,75.1499977066041,0|0,3:2|0:0,0:0:0:0:
287,379,44586,1,8,0:0:0:0:
155,292,44753,1,0,3:2:0:0:
410,212,44920,5,2,1:2:0:0:
410,212,45003,1,2,1:2:0:0:
410,212,45086,1,0,3:2:0:0:
410,212,45170,1,2,1:2:0:0:
410,212,45253,2,0,P|376:271|258:276,1,167,6|0,3:2|3:2,0:0:0:0:
483,130,45753,5,2,3:2:0:0:
483,130,45920,2,0,P|503:178|505:231,1,83.5,8|8,3:2|3:2,0:0:0:0:
301,80,46253,2,0,P|315:0|326:-16,1,83.5,10|8,3:2|3:2,0:0:0:0:
211,210,46586,5,10,3:2:0:0:
211,210,46670,1,10,3:2:0:0:
211,210,46753,2,0,L|263:186,1,41.75,2|2,1:2|1:2,0:0:0:0:
394,113,46920,2,0,L|384:170,3,41.75,14|0|0|0,3:2|1:2|1:2|1:2,0:0:0:0:
362,369,47253,5,2,1:2:0:0:
362,369,47336,1,2,1:2:0:0:
362,369,47420,1,2,3:2:0:0:
362,369,47503,1,2,3:2:0:0:
362,369,47586,2,0,B|369:294|337:311|344:230,1,125.25,10|8,3:2|3:2,0:0:0:0:
343,246,47920,6,0,P|364:189|367:142,1,83.5,6|0,3:2|0:0,0:0:0:0:
173,16,48253,2,0,P|178:57|192:96,1,83.5,10|8,0:0|0:0,0:0:0:0:
241,168,48503,1,8,0:0:0:0:
252,174,48586,1,2,3:2:0:0:
314,47,48753,1,0,3:2:0:0:
143,204,48920,1,10,0:0:0:0:
60,91,49086,6,0,P|9:94|35:201,1,167,2|2,3:2|3:2,0:0:0:0:
102,384,49586,2,0,P|108:338|99:300,1,83.5,8|2,0:0|0:0,0:0:0:0:
280,259,49920,1,2,3:2:0:0:
114,178,50086,1,0,3:2:0:0:
267,376,50253,1,10,0:0:0:0:
267,376,50586,6,0,P|346:357|419:334,1,125.25,2|0,3:2|0:0,0:0:0:0:
388,344,50920,2,0,P|443:361|480:382,1,83.5,10|8,0:0|0:0,0:0:0:0:
352,225,51253,2,0,P|339:182|331:122,1,83.5,2|0,3:2|3:2,0:0:0:0:
460,224,51586,1,8,0:0:0:0:
243,18,51753,6,0,B|235:82|235:82|253:120|253:120|244:184,1,167,2|0,3:2|3:2,0:0:0:0:
149,375,52253,1,8,0:0:0:0:
295,303,52420,1,2,0:0:0:0:
129,216,52586,1,2,3:2:0:0:
129,216,52670,1,2,0:0:0:0:
129,216,52753,1,2,3:2:0:0:
129,216,52836,1,2,0:0:0:0:
129,216,52920,2,0,P|80:233|2:249,1,125.25,10|0,0:0|0:0,0:0:0:0:
8,248,53253,6,0,B|31:291|31:291|23:342,1,83.5,6|0,3:2|0:0,0:0:0:0:
172,125,53586,2,0,P|120:110|71:90,1,83.5,10|8,0:0|0:0,0:0:0:0:
230,288,53920,1,2,3:2:0:0:
316,158,54086,1,0,3:2:0:0:
129,216,54253,1,10,0:0:0:0:
291,379,54420,6,0,P|365:379|429:299,1,167,2|2,3:2|3:2,0:0:0:0:
500,158,54920,2,0,B|487:200|487:200|512:246,1,83.5,8|2,0:0|0:0,0:0:0:0:
285,61,55253,1,2,3:2:0:0:
398,217,55420,1,0,3:2:0:0:
452,17,55586,1,10,0:0:0:0:
264,347,55920,6,0,P|232:310|147:299,1,125.25,6|0,3:2|0:0,0:0:0:0:
159,296,56253,2,0,P|109:329|68:339,1,83.5,10|8,0:0|0:0,0:0:0:0:
25,298,56503,1,8,0:0:0:0:
11,288,56587,1,2,3:2:0:0:
108,125,56753,2,0,B|132:162|132:162|129:222,1,83.5,0|8,3:2|0:0,0:0:0:0:
306,135,57086,6,0,P|371:121|477:98,1,167,2|2,3:2|3:2,0:0:0:0:
273,52,57586,2,0,P|223:36|188:16,1,83.5,10|2,0:0|0:0,0:0:0:0:
442,196,57920,1,2,3:2:0:0:
442,196,58003,1,2,3:2:0:0:
442,196,58086,2,0,L|491:230,1,41.75,2|2,3:2|3:2,0:0:0:0:
261,383,58253,5,10,0:0:0:0:
261,383,58336,1,2,0:0:0:0:
261,383,58420,1,10,0:0:0:0:
261,383,58503,1,10,0:0:0:0:
261,383,58586,2,0,P|286:321|289:275,1,83.5,6|0,3:2|0:0,0:0:0:0:
189,72,58920,2,0,P|198:112|216:150,1,83.5,10|0,0:0|0:0,0:0:0:0:
256,215,59170,1,2,3:2:0:0:
275,225,59253,1,2,3:2:0:0:
351,154,59420,1,0,3:2:0:0:
282,57,59586,1,10,0:0:0:0:
174,290,59753,6,0,P|131:312|3:341,1,167,2|0,3:2|3:2,0:0:0:0:
167,200,60253,2,0,P|197:162|216:119,1,83.5,10|0,0:0|0:0,0:0:0:0:
252,330,60586,2,0,P|293:370|331:393,1,83.5,2|0,3:2|3:2,0:0:0:0:
78,232,60920,1,10,0:0:0:0:
229,26,61086,5,2,2:2:0:0:
229,26,61170,1,2,2:2:0:0:
229,26,61253,2,0,P|237:91|282:212,1,167,2|8,3:2|0:0,0:0:0:0:
338,319,61753,1,2,3:2:0:0:
338,319,61836,1,2,3:2:0:0:
338,319,61920,1,2,3:2:0:0:
431,369,62086,1,0,3:2:0:0:
499,275,62253,1,8,0:0:0:0:
438,188,62586,5,6,3:2:0:0:
217,358,62753,2,0,P|172:375|128:382,1,83.5,0|8,0:0|0:0,0:0:0:0:
137,381,63086,2,0,B|73:347|62:281|117:213,1,167,6|0,3:2|3:2,0:0:0:0:
255,29,63586,5,10,0:0:0:0:
255,29,63670,1,0,3:2:0:0:
255,29,63753,1,0,3:2:0:0:
255,29,63836,1,0,3:2:0:0:
255,29,63920,2,0,B|263:83|238:65|249:119,1,83.5,14|0,0:0|3:2,0:0:0:0:
246,203,64253,1,0,3:2:0:0:
392,337,64420,2,0,P|460:325|491:235,1,167,14|0,0:0|3:2,0:0:0:0:
292,340,64920,2,0,P|245:362|146:388,1,125.25,14|0,0:0|0:0,0:0:0:0:
174,383,65253,6,0,P|151:324|144:276,1,83.5,12|0,0:0|3:2,0:0:0:0:
62,372,65586,1,0,3:2:0:0:
249,168,65753,2,0,P|244:217|230:273,1,83.5,12|0,0:0|3:2,0:0:0:0:
133,181,66086,1,0,3:2:0:0:
300,356,66253,2,0,P|359:373|407:376,1,83.5,14|0,0:0|3:2,0:0:0:0:
488,268,66586,6,0,P|511:212|482:104,1,167,14|0,0:0|3:2,0:0:0:0:
305,24,67086,1,10,0:0:0:0:
408,145,67253,1,8,0:0:0:0:
300,264,67420,1,8,0:0:0:0:
145,176,67586,1,10,0:0:0:0:
262,108,67753,1,8,0:0:0:0:
171,281,67920,5,8,0:0:0:0:
73,64,68086,1,0,3:2:0:0:
253,209,68253,2,0,P|308:195|354:179,1,83.5,12|0,0:0|0:0,0:0:0:0:
61,364,68586,5,8,0:0:0:0:
61,364,68670,1,8,0:0:0:0:
61,364,68753,1,8,0:0:0:0:
61,364,68836,1,8,0:0:0:0:
61,364,68920,2,0,P|42:355|24:346,1,41.75,2|0,1:2|1:2,0:0:0:0:
183,129,69086,5,10,0:0:0:0:
183,129,69170,1,8,0:0:0:0:
183,129,69253,2,0,P|176:176|143:302,2,150.299995413208,6|10|2,3:2|0:0|3:2,0:0:0:0:
105,52,70086,2,0,P|59:71|24:84,1,75.1499977066041,2|8,3:2|0:0,0:0:0:0:
264,215,70420,5,2,0:0:0:0:
264,215,70503,1,2,0:0:0:0:
264,215,70586,2,0,P|320:217|401:161,1,150.299995413208,0|10,3:2|0:0,0:0:0:0:
310,107,71086,1,8,0:0:0:0:
310,107,71170,1,8,0:0:0:0:
310,107,71253,2,0,P|291:54|288:15,1,75.1499977066041,2|2,3:2|3:2,0:0:0:0:
482,160,71586,2,0,P|477:201|459:257,1,75.1499977066041,8|2,0:0|0:0,0:0:0:0:
485,382,71836,5,2,0:0:0:0:
484,372,71920,2,0,P|456:329|346:315,1,150.299995413208,2|8,3:2|0:0,0:0:0:0:
252,260,72420,1,8,0:0:0:0:
252,260,72503,1,8,0:0:0:0:
252,260,72586,1,2,3:2:0:0:
356,185,72753,1,2,3:2:0:0:
255,357,72920,2,0,P|210:377|166:389,1,75.1499977066041,8|10,0:0|0:0,0:0:0:0:
0,257,73253,6,0,P|66:288|139:310,1,150.299995413208,0|10,3:2|0:0,0:0:0:0:
266,221,73753,1,2,1:2:0:0:
266,221,73836,1,0,1:2:0:0:
266,221,73920,2,0,P|280:172|282:136,1,75.1499977066041,8|2,0:0|3:2,0:0:0:0:
163,9,74253,2,0,P|165:55|181:109,1,75.1499977066041,8|2,0:0|0:0,0:0:0:0:
85,200,74586,5,0,1:2:0:0:
85,200,74670,1,0,3:2:0:0:
85,200,74753,2,0,P|103:194|121:188,1,37.574998853302,0|0,3:2|0:0,0:0:0:0:
295,51,74920,2,0,P|357:47|451:116,1,150.299995413208,12|2,0:0|3:2,0:0:0:0:
497,150,75420,1,0,3:2:0:0:
463,228,75586,1,8,0:0:0:0:
291,384,75753,6,0,B|275:302|316:324|293:209,1,150.299995413208,6|0,3:2|3:2,0:0:0:0:
172,122,76253,2,0,P|180:175|195:217,1,75.1499977066041,8|0,0:0|3:2,0:0:0:0:
297,149,76586,5,10,0:0:0:0:
297,149,76753,1,0,3:2:0:0:
188,291,76920,1,10,0:0:0:0:
188,291,77086,1,0,3:2:0:0:
81,105,77253,6,0,P|43:96|15:198,1,150.299995413208,14|0,0:0|3:2,0:0:0:0:
203,106,77753,1,2,3:2:0:0:
203,106,77920,2,0,P|216:52|221:9,1,75.1499977066041,10|8,0:0|0:0,0:0:0:0:
82,206,78253,2,0,P|88:257|99:298,1,75.1499977066041,8|10,0:0|0:0,0:0:0:0:
296,261,78586,5,10,0:0:0:0:
148,374,78753,1,8,0:0:0:0:
208,204,78920,1,8,0:0:0:0:
336,363,79086,5,10,0:0:0:0:
336,363,79170,1,8,0:0:0:0:
336,363,79253,2,0,P|375:375|398:380,1,37.574998853302,10|8,0:0|0:0,0:0:0:0:
432,318,79420,2,0,P|461:307|486:296,1,37.574998853302,8|8,0:0|0:0,0:0:0:0:
508,231,79586,1,8,0:0:0:0:
503,181,79670,1,8,0:0:0:0:
473,146,79753,1,8,0:0:0:0:
431,138,79836,1,8,0:0:0:0:
263,228,80086,5,2,0:0:0:0:
263,228,80170,1,2,0:0:0:0:
263,228,80253,1,6,3:2:0:0:
256,192,80336,12,0,85253,0:0:0:0:
