osu file format v14

[General]
AudioFilename: audio.ogg
AudioLeadIn: 0
PreviewTime: 47586
Countdown: 0
SampleSet: Soft
StackLeniency: 0.7
Mode: 0
LetterboxInBreaks: 0
EpilepsyWarning: 1
WidescreenStoryboard: 0

[Editor]
Bookmarks: 70023,222023
DistanceSpacing: 1
BeatDivisor: 5
GridSize: 4
TimelineZoom: 1.8

[Metadata]
Title:Unfinished START
TitleUnicode:未完成START
Artist:Emilia (CV: Setsunan)
ArtistUnicode:艾米莉亞 (CV: 薛南)
Creator:KennethBBG
Version:Unfinished Journey
Source:前進吧!高捷少女Initiating Station
Tags:Visual novel vn opening op Mocaotic evaotic ckharv BlackBN BlackBq eajrock (ayre records) uniparity hoskey reo shinia stellarism 希萌創意 《進め!高捷(たかめ)少女!》 Chinese pop rock Taiwan
BeatmapID:4014186
BeatmapSetID:1941061

[Difficulty]
HPDrainRate:6
CircleSize:4
OverallDifficulty:8.5
ApproachRate:9.2
SliderMultiplier:1.82
SliderTickRate:1

[Events]
//Background and Video events
0,0,"bg3.jpg",0,0
Video,-80,"OPmovie (1).mp4"
//Break Periods
//Storyboard Layer 0 (Background)
//Storyboard Layer 1 (Fail)
//Storyboard Layer 2 (Pass)
//Storyboard Layer 3 (Foreground)
//Storyboard Layer 4 (Overlay)
//Storyboard Sound Samples

[TimingPoints]
873,342.857142857143,4,2,1,20,1,0
14587,333.333333333333,4,2,1,40,1,0
14920,-125,4,2,1,70,0,0
15920,-125,4,2,1,65,0,0
23920,-111.111111111111,4,2,1,65,0,0
26586,-166.666666666667,4,2,1,40,0,0
35253,-142.857142857143,4,2,1,47,0,0
35586,-142.857142857143,4,2,1,57,0,0
35920,-117.647058823529,4,2,1,70,0,0
37253,-117.647058823529,4,2,1,65,0,0
44920,-105.263157894737,4,2,1,65,0,0
45502,-105.263157894737,4,2,1,65,0,0
45586,-100,4,2,1,50,0,0
45753,-100,4,2,1,50,0,0
45920,-100,4,2,1,50,0,0
46086,-100,4,2,1,50,0,0
46253,-100,4,2,1,60,0,0
46420,-100,4,2,1,72,0,0
46586,-100,4,2,1,90,0,0
47920,-100,4,2,1,80,0,1
48170,-100,4,2,1,5,0,1
48253,-100,4,2,1,80,0,1
53503,-100,4,2,1,5,0,1
53586,-100,4,2,1,80,0,1
58836,-100,4,2,1,5,0,1
58920,-100,4,2,1,80,0,1
66253,-153.846153846153,4,2,1,80,0,1
66586,-100,4,2,1,80,0,1
66920,-100,4,2,1,60,0,1
67086,-100,4,2,1,60,0,1
67253,-100,4,2,1,60,0,1
67420,-100,4,2,1,60,0,1
67586,-100,4,2,1,60,0,1
67753,-100,4,2,1,72,0,1
67920,-100,4,2,1,90,0,1
68003,-100,4,2,1,80,0,1
68503,-100,4,2,1,5,0,1
68586,-100,4,2,1,80,0,1
69253,-111.111111111111,4,2,1,60,0,0
73253,-100,4,2,1,65,0,0
73503,-100,4,2,1,5,0,0
73586,-100,4,2,1,65,0,0
75170,-100,4,2,1,5,0,0
75253,-100,4,2,1,65,0,0
77253,-111.111111111111,4,2,1,75,0,0
77502,-111.111111111111,4,2,1,5,0,0
77586,-111.111111111111,4,2,1,55,0,0
77753,-111.111111111111,4,2,1,55,0,0
77919,-111.111111111111,4,2,1,55,0,0
78086,-111.111111111111,4,2,1,55,0,0
78253,-111.111111111111,4,2,1,55,0,0
78419,-111.111111111111,4,2,1,63,0,0
78586,-111.111111111111,4,2,1,75,0,0
79086,-111.111111111111,4,2,1,50,0,0
79253,-111.111111111111,4,2,1,60,0,0
79419,-111.111111111111,4,2,1,70,0,0
79586,-111.111111111111,4,2,1,80,0,0
79753,-111.111111111111,4,2,1,90,0,0
79836,-111.111111111111,4,2,1,70,0,0
80253,-111.111111111111,4,2,1,90,0,0
80586,-111.111111111111,4,2,1,80,0,0
80919,-111.111111111111,4,2,1,70,0,0
81253,-111.111111111111,4,2,1,60,0,0
81919,-111.111111111111,4,2,1,50,0,0
82586,-111.111111111111,4,2,1,40,0,0
83586,-111.111111111111,4,2,1,30,0,0
84586,-111.111111111111,4,2,1,20,0,0
85086,-111.111111111111,4,2,1,35,0,0
85253,-111.111111111111,4,2,1,25,0,0

[Colours]
Combo1 : 0,128,255
Combo2 : 180,237,146
Combo3 : 117,219,255
Combo4 : 115,209,46

[HitObjects]
466,334,14753,5,0,3:2:0:0:
382,383,14920,2,0,P|364:343|374:301,1,72.8,8|0,0:0|1:2,0:0:0:0:
384,294,15170,1,0,1:2:0:0:
384,294,15253,2,0,L|391:233,1,36.4,10|10,0:0|0:0,0:0:0:0:
512,125,15420,5,10,0:0:0:0:
495,148,15503,1,10,0:0:0:0:
472,166,15586,1,10,0:0:0:0:
445,175,15670,1,10,0:0:0:0:
416,175,15753,1,10,0:0:0:0:
388,165,15836,1,10,0:0:0:0:
357,143,15920,6,0,P|344:71|325:-23,2,145.6,6|8|0,3:2|0:0|3:2,0:0:0:0:
268,306,16753,1,0,3:2:0:0:
389,258,16920,2,0,P|350:236|302:237,1,72.8,8|0,0:0|0:0,0:0:0:0:
167,351,17253,6,0,P|182:262|200:174,1,145.6,2|8,3:2|0:0,0:0:0:0:
92,87,17753,1,8,0:0:0:0:
92,87,17836,1,8,0:0:0:0:
92,87,17920,2,0,P|100:131|114:182,1,72.8,0|0,3:2|3:2,0:0:0:0:
21,234,18253,1,10,0:0:0:0:
201,97,18420,5,2,0:0:0:0:
201,97,18503,1,2,0:0:0:0:
201,97,18586,2,0,P|272:109|344:123,1,145.6,2|8,3:2|0:0,0:0:0:0:
476,12,19086,1,8,0:0:0:0:
476,12,19170,1,8,0:0:0:0:
476,12,19253,2,0,P|414:29|376:44,1,72.8,2|0,3:2|3:2,0:0:0:0:
302,163,19586,2,0,P|309:198|332:225,1,72.8,8|2,0:0|0:0,0:0:0:0:
486,270,19920,6,0,B|395:295|452:314|349:343,1,145.6,2|8,3:2|0:0,0:0:0:0:
221,252,20420,1,0,0:0:0:0:
343,350,20586,1,2,3:2:0:0:
178,384,20753,1,0,3:2:0:0:
333,226,20920,1,10,0:0:0:0:
144,139,21086,5,2,0:0:0:0:
144,139,21170,1,2,0:0:0:0:
144,139,21253,2,0,P|69:153|-2:168,1,145.6,6|8,3:2|0:0,0:0:0:0:
94,52,21753,1,8,0:0:0:0:
170,227,21920,2,0,P|212:233|264:242,1,72.8,0|0,3:2|3:2,0:0:0:0:
377,72,22253,1,10,0:0:0:0:
252,124,22420,1,2,3:2:0:0:
325,304,22586,6,0,P|337:232|351:160,2,145.6,2|8|0,0:0|0:0|3:2,0:0:0:0:
383,384,23420,1,0,3:2:0:0:
235,247,23586,1,10,0:0:0:0:
449,176,23753,1,2,0:0:0:0:
230,349,23920,6,0,B|128:320|192:298|89:270,1,163.799995001221,6|10,3:2|0:0,0:0:0:0:
223,169,24420,2,0,P|237:206|233:247,1,81.8999975006104,2|0,0:0|3:2,0:0:0:0:
80,364,24753,2,0,B|38:362|0:351,1,81.8999975006104,2|8,3:2|0:0,0:0:0:0:
18,140,25086,5,0,3:2:0:0:
18,140,25170,1,0,3:2:0:0:
18,140,25253,2,0,P|58:145|98:152,1,81.8999975006104,14|2,0:0|1:2,0:0:0:0:
133,161,25503,1,0,1:2:0:0:
133,161,25586,1,2,3:2:0:0:
320,41,25753,1,14,0:0:0:0:
320,41,26086,5,8,0:0:0:0:
279,155,26253,1,8,0:0:0:0:
279,155,26336,1,8,0:0:0:0:
279,155,26420,1,0,1:2:0:0:
183,58,26586,5,4,3:2:0:0:
183,58,26920,2,0,L|195:130,1,54.5999983337403,2|0,3:2|0:0,0:0:0:0:
70,204,27253,2,0,P|113:192|188:230,1,109.199996667481,2|2,3:2|3:2,0:0:0:0:
155,305,27753,1,2,0:0:0:0:
249,379,27920,6,0,P|283:370|321:361,1,54.5999983337403,2|0,3:2|0:0,0:0:0:0:
418,309,28253,2,0,P|384:300|346:291,1,54.5999983337403,2|0,3:2|0:0,0:0:0:0:
239,369,28586,2,0,P|275:359|316:349,1,54.5999983337403,2|0,3:2|0:0,0:0:0:0:
421,295,28920,2,0,P|384:285|343:275,1,54.5999983337403,2|0,3:2|0:0,0:0:0:0:
256,144,29253,5,0,3:2:0:0:
256,144,29586,6,0,P|266:181|276:222,1,54.5999983337403,2|2,3:2|0:0,0:0:0:0:
323,66,29920,2,0,P|269:45|207:55,1,109.199996667481,2|2,3:2|3:2,0:0:0:0:
168,183,30420,1,2,0:0:0:0:
78,101,30586,6,0,P|85:127|91:153,1,54.5999983337403,2|0,3:2|0:0,0:0:0:0:
145,317,30920,2,0,P|151:290|159:264,1,54.5999983337403,2|0,3:2|0:0,0:0:0:0:
220,169,31253,2,0,P|193:175|167:183,1,54.5999983337403,2|2,3:2|0:0,0:0:0:0:
28,224,31503,1,2,0:0:0:0:
28,224,31586,2,0,P|65:234|106:244,1,54.5999983337403,2|0,3:2|0:0,0:0:0:0:
240,346,31920,5,4,3:2:0:0:
240,346,32253,2,0,P|265:339|292:331,1,54.5999983337403,2|2,3:2|0:0,0:0:0:0:
401,384,32586,2,0,P|391:319|384:276,1,109.199996667481,0|2,3:2|3:2,0:0:0:0:
493,231,33086,1,2,0:0:0:0:
317,168,33253,2,0,P|361:194|416:183,1,109.199996667481,2|2,3:2|3:2,0:0:0:0:
361,54,33753,6,0,P|368:80|374:106,1,54.5999983337403,2|0,0:0|3:2,0:0:0:0:
492,148,34086,2,0,P|498:121|506:95,1,54.5999983337403,2|2,0:0|3:2,0:0:0:0:
449,27,34420,1,2,0:0:0:0:
332,152,34586,6,0,P|260:168|216:180,1,109.199996667481,2|2,3:2|3:2,0:0:0:0:
112,111,35086,2,0,P|138:118|164:124,1,54.5999983337403,2|0,0:0|3:2,0:0:0:0:
305,245,35420,2,0,P|278:251|233:266,1,63.6999980560303,2|0,0:0|3:2,0:0:0:0:
121,369,35753,5,2,0:0:0:0:
121,369,35836,1,2,0:0:0:0:
121,369,35920,1,8,3:2:0:0:
206,285,36086,1,8,3:2:0:0:
206,285,36170,1,8,3:2:0:0:
206,285,36253,1,8,3:2:0:0:
27,201,36420,1,8,3:2:0:0:
107,290,36586,5,0,1:2:0:0:
126,212,36753,1,0,1:2:0:0:
141,130,36920,1,0,3:2:0:0:
27,201,37086,2,0,P|34:231|41:263,1,38.6750007376671,0|0,3:2|3:2,0:0:0:0:
151,384,37253,5,10,3:2:0:0:
372,175,37420,1,10,3:2:0:0:
372,175,37753,2,0,P|300:198|212:230,1,154.700002950668,14|0,3:2|3:2,0:0:0:0:
101,29,38253,6,0,P|168:25|248:109,1,154.700002950668,14|0,3:2|0:0,0:0:0:0:
130,129,38753,1,0,1:2:0:0:
109,125,38836,1,0,1:2:0:0:
88,123,38920,2,0,P|40:115|12:110,1,77.3500014753342,0|0,3:2|3:2,0:0:0:0:
82,269,39253,1,2,1:2:0:0:
229,152,39420,1,0,3:2:0:0:
193,342,39586,2,0,P|183:292|170:244,1,77.3500014753342,2|0,3:2|3:2,0:0:0:0:
380,384,39920,5,10,3:2:0:0:
512,223,40086,1,10,3:2:0:0:
512,223,40420,6,0,B|429:243|363:262,1,154.700002950668,14|0,3:2|3:2,0:0:0:0:
159,342,40920,2,0,B|181:351|198:366|198:366|241:318|193:252,1,154.700002950668,14|0,3:2|0:0,0:0:0:0:
150,148,41420,1,0,1:2:0:0:
176,152,41503,1,0,1:2:0:0:
202,155,41586,2,0,P|262:165|297:171,1,77.3500014753342,2|0,3:2|3:2,0:0:0:0:
429,30,41920,1,2,3:2:0:0:
278,74,42086,1,0,3:2:0:0:
362,262,42253,2,0,P|372:212|385:164,1,77.3500014753342,2|0,3:2|3:2,0:0:0:0:
36,235,42586,5,10,3:2:0:0:
283,316,42753,1,10,3:2:0:0:
283,316,43086,6,0,B|201:330|233:362|135:385,1,154.700002950668,14|0,3:2|3:2,0:0:0:0:
179,163,43586,2,0,B|138:152|118:192|118:192|133:222|147:267,1,154.700002950668,14|0,3:2|0:0,0:0:0:0:
323,208,44086,1,8,0:0:0:0:
411,368,44253,1,0,3:2:0:0:
283,316,44420,1,0,0:0:0:0:
461,205,44586,5,8,0:0:0:0:
257,80,44753,1,0,3:2:0:0:
424,27,44920,2,0,P|414:68|402:120,1,86.449997691536,2|0,1:2|3:2,0:0:0:0:
461,205,45170,5,2,1:2:0:0:
461,205,45253,2,0,P|400:198|343:254,1,129.674996537304,6|0,3:2|3:2,0:0:0:0:
349,326,45586,5,0,3:2:0:0:
226,199,45753,1,2,3:2:0:0:
403,111,45920,1,8,3:2:0:0:
234,294,46086,1,8,3:2:0:0:
482,384,46253,1,10,3:2:0:0:
324,180,46420,1,8,3:2:0:0:
188,384,46586,5,10,3:2:0:0:
188,384,46670,1,10,3:2:0:0:
188,384,46753,2,0,P|160:377|130:373,1,45.5,2|2,1:2|1:2,0:0:0:0:
0,278,46920,1,14,3:2:0:0:
0,278,47003,1,0,1:2:0:0:
0,278,47086,2,0,P|28:271|58:267,1,45.5,0|0,1:2|1:2,0:0:0:0:
135,243,47253,6,0,L|126:287,3,45.5,2|2|2|2,1:2|1:2|3:2|3:2,0:0:0:0:
35,33,47586,5,10,3:2:0:0:
37,58,47670,1,8,3:2:0:0:
39,85,47753,1,8,3:2:0:0:
40,112,47836,1,8,3:2:0:0:
41,138,47920,6,0,P|107:151|162:114,1,136.5,6|0,3:2|0:0,0:0:0:0:
301,32,48253,2,0,P|288:85|279:138,1,91,10|8,0:0|0:0,0:0:0:0:
213,237,48586,1,2,3:2:0:0:
389,161,48753,1,0,3:2:0:0:
303,383,48920,1,10,0:0:0:0:
34,269,49086,6,0,P|136:251|232:234,1,182,2|2,3:2|3:2,0:0:0:0:
389,161,49586,1,8,0:0:0:0:
243,320,49753,1,2,0:0:0:0:
434,374,49920,2,0,P|425:329|414:285,1,91,2|0,3:2|3:2,0:0:0:0:
301,32,50253,2,0,P|289:76|281:120,1,91,10|0,0:0|0:0,0:0:0:0:
34,269,50586,6,0,P|18:180|74:112,2,182,2|10|2,3:2|0:0|3:2,0:0:0:0:
226,277,51420,1,0,3:2:0:0:
179,111,51586,1,8,0:0:0:0:
121,205,51753,6,0,P|210:190|300:174,1,182,2|0,3:2|3:2,0:0:0:0:
314,7,52253,2,0,P|284:29|264:79,1,91,8|2,0:0|0:0,0:0:0:0:
333,298,52586,1,2,3:2:0:0:
480,154,52753,1,2,3:2:0:0:
300,173,52920,2,0,P|344:184|388:191,1,91,10|0,0:0|0:0,0:0:0:0:
247,383,53253,6,0,P|191:346|126:359,1,136.5,6|0,3:2|0:0,0:0:0:0:
26,312,53586,2,0,P|17:267|6:223,1,91,10|8,0:0|0:0,0:0:0:0:
176,76,53920,1,2,3:2:0:0:
0,129,54086,1,0,3:2:0:0:
77,0,54253,1,10,0:0:0:0:
252,181,54420,6,0,B|264:117|280:61|280:61|257:27|239:-2,1,182,2|2,3:2|3:2,0:0:0:0:
160,193,54920,1,8,0:0:0:0:
353,241,55086,1,2,0:0:0:0:
118,363,55253,2,0,P|105:322|98:274,1,91,2|0,3:2|3:2,0:0:0:0:
252,181,55586,2,0,P|265:224|271:269,1,91,10|0,0:0|0:0,0:0:0:0:
3,232,55920,6,0,P|66:176|159:192,2,182,6|10|2,3:2|0:0|3:2,0:0:0:0:
210,384,56753,1,0,3:2:0:0:
252,181,56920,1,8,0:0:0:0:
99,275,57086,6,0,P|193:289|297:310,1,182,2|2,3:2|3:2,0:0:0:0:
388,182,57586,1,10,0:0:0:0:
267,69,57753,1,2,0:0:0:0:
316,289,57920,1,2,3:2:0:0:
512,124,58086,1,2,3:2:0:0:
396,358,58253,1,10,0:0:0:0:
282,179,58420,5,10,0:0:0:0:
282,179,58503,1,10,0:0:0:0:
282,179,58586,2,0,P|207:159|142:195,1,136.5,6|0,3:2|0:0,0:0:0:0:
198,356,58920,2,0,P|206:311|217:267,1,91,10|0,0:0|0:0,0:0:0:0:
156,69,59253,1,2,3:2:0:0:
282,179,59420,1,0,3:2:0:0:
84,279,59586,1,10,0:0:0:0:
0,23,59753,6,0,P|70:80|158:69,1,182,2|0,3:2|3:2,0:0:0:0:
370,160,60253,2,0,P|325:168|281:179,1,91,10|0,0:0|0:0,0:0:0:0:
103,0,60586,1,2,3:2:0:0:
295,61,60753,1,0,3:2:0:0:
143,216,60920,2,0,P|134:171|123:127,1,91,10|2,0:0|2:2,0:0:0:0:
337,255,61253,6,0,P|423:257|476:187,1,182,2|8,3:2|0:0,0:0:0:0:
488,344,61753,1,2,3:2:0:0:
370,160,61920,2,0,P|378:115|389:71,1,91,2|0,3:2|3:2,0:0:0:0:
244,125,62253,1,8,0:0:0:0:
258,320,62420,5,2,0:0:0:0:
258,320,62503,1,2,0:0:0:0:
258,320,62586,2,0,P|213:308|169:300,1,91,6|0,3:2|0:0,0:0:0:0:
370,160,62920,1,8,0:0:0:0:
112,382,63086,6,0,P|134:297|73:234,1,182,6|0,3:2|3:2,0:0:0:0:
175,0,63586,1,10,0:0:0:0:
1,112,63753,1,0,3:2:0:0:
1,112,63836,1,0,3:2:0:0:
1,112,63920,2,0,P|45:100|89:92,1,91,14|0,0:0|3:2,0:0:0:0:
212,178,64253,1,0,3:2:0:0:
316,60,64420,5,14,0:0:0:0:
255,265,64586,1,0,3:2:0:0:
255,265,64753,1,0,3:2:0:0:
89,92,64920,5,14,0:0:0:0:
321,148,65086,1,0,3:2:0:0:
220,345,65253,5,12,0:0:0:0:
180,93,65420,1,0,3:2:0:0:
180,93,65586,1,0,3:2:0:0:
11,325,65753,5,12,0:0:0:0:
89,92,65920,1,0,3:2:0:0:
89,92,66086,1,0,3:2:0:0:
306,351,66253,2,0,P|349:346|384:319,1,88.724995938492,14|0,0:0|0:0,0:0:0:0:
429,225,66586,6,0,B|413:93|378:173|357:32,1,182,14|0,0:0|3:2,0:0:0:0:
143,339,67086,5,10,0:0:0:0:
89,92,67253,1,8,0:0:0:0:
289,239,67420,1,8,0:0:0:0:
30,327,67586,5,10,0:0:0:0:
212,27,67753,1,8,0:0:0:0:
143,339,67920,5,8,0:0:0:0:
19,59,68086,1,0,3:2:0:0:
264,284,68253,6,0,P|327:274|415:264,1,136.5,12|0,0:0|0:0,0:0:0:0:
442,243,68586,1,8,0:0:0:0:
442,243,68670,1,8,0:0:0:0:
442,243,68753,2,0,L|456:167,1,45.5,8|8,0:0|0:0,0:0:0:0:
225,71,68920,1,2,1:2:0:0:
225,71,69003,1,0,1:2:0:0:
225,71,69086,2,0,L|239:147,1,45.5,10|8,0:0|0:0,0:0:0:0:
321,361,69253,6,0,P|260:381|180:327,2,163.799995001221,6|10|2,3:2|0:0|3:2,0:0:0:0:
278,204,70086,2,0,L|259:304,1,81.8999975006104,2|8,3:2|0:0,0:0:0:0:
118,270,70420,1,2,0:0:0:0:
53,354,70586,6,0,L|34:254,1,81.8999975006104,0|0,3:2|0:0,0:0:0:0:
0,123,70920,2,0,P|62:172|140:159,1,163.799995001221,10|2,0:0|3:2,0:0:0:0:
203,51,71420,1,2,3:2:0:0:
93,72,71586,1,8,0:0:0:0:
259,166,71753,1,2,0:0:0:0:
259,166,71836,1,2,0:0:0:0:
259,166,71920,6,0,P|236:254|222:350,1,163.799995001221,2|8,3:2|0:0,0:0:0:0:
154,255,72420,1,8,0:0:0:0:
154,255,72503,1,8,0:0:0:0:
154,255,72586,1,2,3:2:0:0:
308,342,72753,2,0,P|348:334|387:324,1,81.8999975006104,2|8,3:2|0:0,0:0:0:0:
479,186,73086,1,10,0:0:0:0:
401,151,73253,6,0,B|336:160|255:183,1,136.5,0|0,3:2|0:0,0:0:0:0:
251,187,73586,1,10,0:0:0:0:
330,74,73753,1,2,1:2:0:0:
388,243,73920,1,8,0:0:0:0:
388,243,74003,1,8,0:0:0:0:
388,243,74086,2,0,L|378:307,1,45.5,2|0,3:2|1:2,0:0:0:0:
217,358,74253,2,0,P|189:299|210:251,1,91,8|2,0:0|0:0,0:0:0:0:
251,187,74586,5,0,1:2:0:0:
251,187,74670,1,0,3:2:0:0:
251,187,74753,1,0,3:2:0:0:
356,384,74920,2,0,P|421:364|487:348,1,136.5,12|0,0:0|0:0,0:0:0:0:
508,331,75253,1,2,3:2:0:0:
405,237,75420,1,0,3:2:0:0:
474,109,75586,1,8,0:0:0:0:
267,252,75753,5,6,3:2:0:0:
267,252,76086,1,0,3:2:0:0:
356,145,76253,2,0,P|311:138|263:124,1,91,8|0,0:0|3:2,0:0:0:0:
132,3,76586,5,10,0:0:0:0:
66,231,76753,1,0,3:2:0:0:
246,108,76920,5,10,0:0:0:0:
292,314,77086,1,0,3:2:0:0:
66,231,77253,6,0,P|120:203|180:211,1,122.849996250916,14|0,0:0|0:0,0:0:0:0:
211,225,77586,1,0,3:2:0:0:
211,225,77753,1,2,3:2:0:0:
141,310,77920,1,10,0:0:0:0:
141,310,78086,1,8,0:0:0:0:
78,197,78253,1,8,0:0:0:0:
78,197,78420,1,10,0:0:0:0:
5,314,78586,5,10,0:0:0:0:
111,105,78753,1,8,0:0:0:0:
268,291,78920,1,8,0:0:0:0:
315,35,79086,2,0,L|255:24,1,40.9499987503052,10|8,0:0|0:0,0:0:0:0:
170,232,79253,5,10,0:0:0:0:
170,232,79336,1,8,0:0:0:0:
170,232,79420,2,0,L|230:221,1,40.9499987503052,8|8,0:0|0:0,0:0:0:0:
397,31,79586,1,8,0:0:0:0:
394,62,79670,1,8,0:0:0:0:
391,93,79753,1,8,0:0:0:0:
388,123,79836,1,8,0:0:0:0:
385,152,79920,1,0,0:0:0:0:
256,192,80253,5,6,3:2:0:0:
256,192,80336,12,0,85086,0:0:0:0:
