osu file format v14

[General]
AudioFilename: audio.ogg
AudioLeadIn: 0
PreviewTime:47586
Countdown: 0
SampleSet: Soft
StackLeniency: 0.7
Mode: 0
LetterboxInBreaks: 0
WidescreenStoryboard: 1
EpilepsyWarning: 1

[Editor]
Bookmarks: 70023,222023
DistanceSpacing: 1
BeatDivisor: 2
GridSize: 4
TimelineZoom: 1.8

[Metadata]
Title:Unfinished START
TitleUnicode:未完成START
Artist:Emilia (CV: Setsunan)
ArtistUnicode:艾米莉亞 (CV: 薛南)
Creator:KennethBBG
Version:Mocaotic's Normal
Source:前進吧!高捷少女Initiating Station
Tags:Visual novel vn opening op Mocaotic evaotic ckharv BlackBN BlackBq eajrock (ayre records) uniparity hoskey reo shinia stellarism 希萌創意 《進め!高捷(たかめ)少女!》 Chinese pop rock Taiwan
BeatmapID:4024123
BeatmapSetID:1941061

[Difficulty]
HPDrainRate:4
CircleSize:3.4
OverallDifficulty:4
ApproachRate:5
SliderMultiplier:0.999999999999999
SliderTickRate:1

[Events]
//Background and Video events
0,0,"bg2.jpg",0,0
Video,-80,"OPmovie (1).mp4"
//Break Periods
//Storyboard Layer 0 (Background)
//Storyboard Layer 1 (Fail)
//Storyboard Layer 2 (Pass)
//Storyboard Layer 3 (Foreground)
//Storyboard Layer 4 (Overlay)
//Storyboard Sound Samples

[TimingPoints]
873,342.857142857143,4,2,1,20,1,0
14587,333.333333333333,4,2,1,40,1,0
14920,-100,4,2,1,70,0,0
15920,-100,4,2,1,65,0,0
26586,-111.111111111111,4,2,1,40,0,0
35253,-111.111111111111,4,2,1,47,0,0
35586,-111.111111111111,4,2,1,57,0,0
35920,-111.111111111111,4,2,1,70,0,0
37253,-100,4,2,1,65,0,0
45586,-100,4,2,1,50,0,0
46253,-100,4,2,1,60,0,0
46420,-100,4,2,1,72,0,0
46586,-100,4,2,1,90,0,0
47920,-95.2380952380952,4,2,1,80,0,1
66920,-95.2380952380952,4,2,1,60,0,1
67753,-95.2380952380952,4,2,1,72,0,1
67920,-95.2380952380952,4,2,1,90,0,1
68003,-95.2380952380952,4,2,1,80,0,1
69253,-100,4,2,1,60,0,0
73253,-100,4,2,1,65,0,0
77253,-100,4,2,1,75,0,0
77586,-100,4,2,1,55,0,0
78419,-100,4,2,1,63,0,0
78586,-100,4,2,1,75,0,0
79086,-100,4,2,1,50,0,0
79253,-100,4,2,1,60,0,0
79419,-100,4,2,1,70,0,0
79586,-100,4,2,1,80,0,0
79753,-100,4,2,1,90,0,0
79836,-100,4,2,1,70,0,0
80253,-100,4,2,1,90,0,0
80586,-100,4,2,1,80,0,0
80919,-100,4,2,1,70,0,0
81253,-100,4,2,1,60,0,0
81919,-100,4,2,1,50,0,0
82586,-100,4,2,1,40,0,0
83586,-100,4,2,1,30,0,0
84586,-100,4,2,1,20,0,0
85086,-100,4,2,1,35,0,0
85253,-100,4,2,1,25,0,0

[Colours]
Combo1 : 0,128,255
Combo2 : 255,156,108
Combo3 : 170,170,191
Combo4 : 213,191,43

[HitObjects]
445,290,14587,6,0,P|459:252|475:224,2,50,4|0|8,0:0|3:2|0:0,0:0:0:0:
408,382,15253,2,0,P|361:348|260:349,1,150,10|10,0:0|0:0,0:0:0:0:
228,371,15920,6,0,P|159:361|142:333,1,99.9999999999999,6|8,3:2|0:0,0:0:0:0:
54,296,16586,2,0,P|29:302|-4:308,2,50,0|0|8,3:2|3:2|0:0,0:0:0:0:
109,212,17253,2,0,P|94:148|75:103,1,99.9999999999999,2|8,3:2|0:0,0:0:0:0:
131,29,17920,2,0,P|155:22|189:16,1,50,0|0,3:2|3:2,0:0:0:0:
229,14,18253,1,10,0:0:0:0:
321,51,18586,6,0,P|331:99|348:146,1,99.9999999999999,2|8,3:2|0:0,0:0:0:0:
422,222,19253,2,0,P|460:211|480:207,2,50,2|0|8,3:2|3:2|0:0,0:0:0:0:
365,305,19920,2,0,P|318:287|269:277,1,99.9999999999999,2|8,3:2|0:0,0:0:0:0:
174,309,20586,1,2,3:2:0:0:
102,239,20920,2,0,P|107:209|115:186,1,50,10|2,0:0|0:0,0:0:0:0:
147,154,21253,6,0,P|198:140|244:160,1,99.9999999999999,6|8,3:2|0:0,0:0:0:0:
307,231,21920,2,0,P|302:261|294:284,2,50,0|0|10,3:2|3:2|0:0,0:0:0:0:
349,202,22420,1,2,3:2:0:0:
349,202,22586,2,0,P|365:133|382:90,1,99.9999999999999,2|8,0:0|0:0,0:0:0:0:
439,28,23253,1,0,3:2:0:0:
342,1,23586,2,0,P|312:6|289:14,1,50,10|2,0:0|0:0,0:0:0:0:
256,46,23920,6,0,P|208:27|147:18,1,99.9999999999999,6|10,3:2|0:0,0:0:0:0:
111,6,24420,1,2,0:0:0:0:
62,93,24753,2,0,P|37:99|12:109,2,50,2|8|0,3:2|0:0|3:2,0:0:0:0:
107,114,25253,2,0,P|113:139|123:164,1,50,14|2,0:0|1:2,0:0:0:0:
100,209,25586,1,2,3:2:0:0:
100,209,25753,2,0,P|124:272|134:325,1,99.9999999999999,14|8,0:0|0:0,0:0:0:0:
119,352,26253,1,8,0:0:0:0:
204,378,26586,6,0,P|266:366|286:326,1,89.999997253418,4|2,3:2|3:2,0:0:0:0:
310,314,27086,1,0,0:0:0:0:
310,314,27253,2,0,P|292:240|279:205,1,89.999997253418,2|2,3:2|3:2,0:0:0:0:
204,192,27920,2,0,P|130:210|95:223,2,89.999997253418,2|2|2,3:2|3:2|3:2,0:0:0:0:
240,109,28920,2,0,P|284:99|327:86,1,89.999997253418,2|0,3:2|3:2,0:0:0:0:
407,45,29586,6,0,P|393:10|389:0,2,44.999998626709,2|2|2,3:2|0:0|3:2,0:0:0:0:
490,80,30253,2,0,P|497:101|506:121,1,44.999998626709,2|2,3:2|0:0,0:0:0:0:
496,165,30586,1,2,3:2:0:0:
433,230,30920,1,2,3:2:0:0:
348,198,31253,2,0,P|308:208|258:227,1,89.999997253418,2|2,3:2|3:2,0:0:0:0:
199,290,31920,6,0,P|154:296|113:264,1,89.999997253418,4|2,3:2|3:2,0:0:0:0:
85,250,32420,1,2,0:0:0:0:
85,250,32586,2,0,P|109:169|127:133,1,89.999997253418,0|2,3:2|3:2,0:0:0:0:
39,109,33253,2,0,P|54:66|65:23,1,89.999997253418,2|2,3:2|3:2,0:0:0:0:
107,9,33753,2,0,P|150:20|193:35,1,89.999997253418,2|2,0:0|0:0,0:0:0:0:
276,81,34420,1,2,0:0:0:0:
276,81,34586,6,0,P|318:66|362:54,1,89.999997253418,2|2,3:2|3:2,0:0:0:0:
397,27,35086,1,2,0:0:0:0:
478,64,35420,1,2,0:0:0:0:
453,153,35753,1,2,0:0:0:0:
453,153,35920,2,0,P|409:171|354:185,1,89.999997253418,8|8,3:2|3:2,0:0:0:0:
332,207,36420,1,8,3:2:0:0:
332,207,36586,2,0,P|293:192|258:187,1,44.999998626709,0|0,1:2|1:2,0:0:0:0:
251,166,36920,1,0,3:2:0:0:
175,109,37253,5,10,3:2:0:0:
175,109,37420,2,0,P|124:110|92:167,1,99.9999999999999,10|14,3:2|3:2,0:0:0:0:
28,220,38086,1,0,3:2:0:0:
28,220,38253,2,0,P|50:310|57:356,1,99.9999999999999,14|0,3:2|0:0,0:0:0:0:
92,345,38753,1,0,1:2:0:0:
92,345,38920,2,0,P|167:357|207:376,1,99.9999999999999,0|2,3:2|1:2,0:0:0:0:
275,316,39586,1,2,3:2:0:0:
372,354,39920,5,10,3:2:0:0:
372,354,40086,2,0,P|415:318|391:247,1,99.9999999999999,10|14,3:2|3:2,0:0:0:0:
464,191,40753,1,0,3:2:0:0:
464,191,40920,2,0,P|388:175|346:171,1,99.9999999999999,14|0,3:2|0:0,0:0:0:0:
328,147,41420,1,0,1:2:0:0:
328,147,41586,2,0,P|336:104|342:91,2,50,2|0|2,3:2|3:2|3:2,0:0:0:0:
246,205,42253,1,2,3:2:0:0:
154,178,42586,5,10,3:2:0:0:
154,178,42753,2,0,P|130:117|151:76,1,99.9999999999999,10|14,3:2|3:2,0:0:0:0:
207,13,43420,1,0,3:2:0:0:
207,13,43586,2,0,P|265:30|317:41,1,99.9999999999999,14|0,3:2|0:0,0:0:0:0:
357,37,44086,1,8,0:0:0:0:
357,37,44253,1,0,3:2:0:0:
432,102,44586,2,0,P|425:126|421:150,1,50,8|0,0:0|3:2,0:0:0:0:
436,198,44920,1,2,1:2:0:0:
365,268,45253,6,0,P|307:269|262:221,1,99.9999999999999,6|0,3:2|3:2,0:0:0:0:
240,217,45753,1,2,3:2:0:0:
240,217,45920,2,0,P|246:192|250:168,1,50,8|8,3:2|3:2,0:0:0:0:
289,136,46253,2,0,P|293:111|299:87,1,50,10|8,3:2|3:2,0:0:0:0:
277,42,46586,1,10,3:2:0:0:
185,0,46920,2,0,P|141:10|79:17,1,99.9999999999999,14|2,3:2|1:2,0:0:0:0:
41,11,47420,1,2,3:2:0:0:
41,11,47586,1,10,3:2:0:0:
0,100,47920,6,0,P|12:134|20:175,1,52.4999983978271,6|0,3:2|0:0,0:0:0:0:
51,189,48253,2,0,P|110:196|154:139,1,104.999996795654,10|2,0:0|3:2,0:0:0:0:
219,96,48920,1,10,0:0:0:0:
219,96,49086,2,0,P|270:103|357:130,1,104.999996795654,2|2,3:2|3:2,0:0:0:0:
416,173,49753,1,2,0:0:0:0:
416,173,49920,2,0,P|403:216|400:233,1,52.4999983978271,2|0,3:2|3:2,0:0:0:0:
431,266,50253,1,10,0:0:0:0:
368,349,50586,6,0,P|312:359|254:381,1,104.999996795654,2|10,3:2|0:0,0:0:0:0:
171,334,51253,2,0,P|157:293|164:266,1,52.4999983978271,2|0,3:2|3:2,0:0:0:0:
190,244,51586,1,8,0:0:0:0:
190,244,51753,2,0,P|239:226|291:217,1,104.999996795654,2|0,3:2|3:2,0:0:0:0:
325,177,52253,2,0,P|374:194|426:203,1,104.999996795654,8|2,0:0|3:2,0:0:0:0:
476,232,52753,1,2,3:2:0:0:
476,232,52920,1,10,0:0:0:0:
512,133,53253,6,0,P|504:86|496:68,1,52.4999983978271,6|0,3:2|0:0,0:0:0:0:
471,39,53586,2,0,P|418:28|359:72,1,104.999996795654,10|2,0:0|3:2,0:0:0:0:
281,96,54253,1,10,0:0:0:0:
281,96,54420,2,0,P|193:71|151:64,1,104.999996795654,2|2,3:2|3:2,0:0:0:0:
80,89,55086,1,2,0:0:0:0:
80,89,55253,2,0,P|90:124|93:158,1,52.4999983978271,2|0,3:2|3:2,0:0:0:0:
63,184,55586,1,10,0:0:0:0:
141,253,55920,6,0,P|229:228|271:221,1,104.999996795654,6|10,3:2|0:0,0:0:0:0:
315,151,56586,2,0,P|348:163|382:172,1,52.4999983978271,2|0,3:2|3:2,0:0:0:0:
409,205,56920,1,8,0:0:0:0:
409,205,57086,2,0,P|384:293|377:335,1,104.999996795654,2|2,3:2|3:2,0:0:0:0:
387,358,57586,1,10,0:0:0:0:
284,381,57920,2,0,P|251:369|217:360,1,52.4999983978271,2|2,3:2|3:2,0:0:0:0:
191,333,58253,1,10,0:0:0:0:
96,377,58586,6,0,P|34:328|45:290,1,104.999996795654,6|10,3:2|0:0,0:0:0:0:
14,268,59086,1,0,0:0:0:0:
14,268,59253,1,2,3:2:0:0:
89,194,59586,1,10,0:0:0:0:
89,194,59753,2,0,P|173:213|215:235,1,104.999996795654,2|0,3:2|3:2,0:0:0:0:
236,243,60253,1,10,0:0:0:0:
337,215,60586,1,2,3:2:0:0:
372,115,60920,1,10,0:0:0:0:
327,20,61253,6,0,P|267:35|198:39,1,104.999996795654,2|8,3:2|0:0,0:0:0:0:
178,61,61753,1,2,3:2:0:0:
178,61,61920,2,0,P|98:41|48:41,1,104.999996795654,2|8,3:2|0:0,0:0:0:0:
0,113,62586,1,6,3:2:0:0:
0,113,62753,2,0,P|15:160|19:186,1,52.4999983978271,0|8,0:0|0:0,0:0:0:0:
50,202,63086,2,0,P|112:209|156:151,1,104.999996795654,6|0,3:2|3:2,0:0:0:0:
179,146,63586,1,10,0:0:0:0:
245,64,63920,6,0,P|284:73|316:85,1,52.4999983978271,14|0,0:0|3:2,0:0:0:0:
339,115,64253,1,0,3:2:0:0:
339,115,64420,2,0,P|319:196|319:246,1,104.999996795654,14|0,0:0|3:2,0:0:0:0:
291,262,64920,1,14,0:0:0:0:
344,351,65253,2,0,P|369:356|394:363,2,52.4999983978271,12|0|0,0:0|3:2|3:2,0:0:0:0:
300,380,65753,2,0,P|232:362|167:358,1,104.999996795654,12|0,0:0|3:2,0:0:0:0:
149,338,66253,1,14,0:0:0:0:
51,376,66586,6,0,P|18:315|44:253,1,104.999996795654,14|0,0:0|3:2,0:0:0:0:
55,242,67086,1,10,0:0:0:0:
55,242,67253,2,0,P|98:227|132:223,1,52.4999983978271,8|8,0:0|0:0,0:0:0:0:
150,199,67586,2,0,P|193:214|227:218,1,52.4999983978271,10|8,0:0|0:0,0:0:0:0:
242,246,67920,1,8,0:0:0:0:
318,317,68253,2,0,P|366:306|441:296,1,104.999996795654,12|8,0:0|0:0,0:0:0:0:
477,309,68753,1,8,0:0:0:0:
477,309,68920,1,2,1:2:0:0:
512,216,69253,6,0,P|503:154|453:115,1,99.9999999999999,6|10,3:2|0:0,0:0:0:0:
406,59,69920,2,0,P|420:26|444:-8,2,50,2|2|8,3:2|3:2|0:0,0:0:0:0:
362,77,70420,1,2,0:0:0:0:
362,77,70586,2,0,P|273:50|228:45,1,99.9999999999999,0|10,3:2|0:0,0:0:0:0:
178,97,71253,2,0,P|173:121|167:145,1,50,2|2,3:2|3:2,0:0:0:0:
179,194,71586,1,8,0:0:0:0:
97,252,71920,6,0,P|22:234|-29:227,2,99.9999999999999,2|8|2,3:2|0:0|3:2,0:0:0:0:
137,290,72753,1,2,3:2:0:0:
137,290,72920,1,8,0:0:0:0:
206,362,73253,2,0,P|279:342|336:337,1,99.9999999999999,0|10,3:2|0:0,0:0:0:0:
354,358,73753,1,2,1:2:0:0:
354,358,73920,1,8,0:0:0:0:
441,309,74253,1,8,0:0:0:0:
402,217,74586,6,0,P|415:186|424:166,2,50,0|0|12,1:2|3:2|0:0,0:0:0:0:
305,245,75253,2,0,P|282:234|258:228,1,50,2|0,3:2|3:2,0:0:0:0:
217,255,75586,1,8,0:0:0:0:
217,255,75753,2,0,P|151:244|126:205,1,99.9999999999999,6|0,3:2|3:2,0:0:0:0:
107,176,76253,1,8,0:0:0:0:
176,104,76586,1,10,0:0:0:0:
127,16,76920,1,10,0:0:0:0:
30,42,77253,6,0,P|8:93|22:147,1,99.9999999999999,14|0,0:0|3:2,0:0:0:0:
52,177,77753,1,2,3:2:0:0:
52,177,77920,2,0,P|92:190|125:207,1,50,10|8,0:0|0:0,0:0:0:0:
144,214,78253,1,8,0:0:0:0:
227,269,78586,2,0,P|302:253|347:247,1,99.9999999999999,10|8,0:0|0:0,0:0:0:0:
373,229,79086,1,10,0:0:0:0:
373,229,79253,2,0,P|418:244|452:251,1,50,10|8,0:0|0:0,0:0:0:0:
468,229,79586,2,0,P|483:184|490:150,1,50,8|8,0:0|0:0,0:0:0:0:
511,139,79920,1,0,0:0:0:0:
442,65,80253,5,6,3:2:0:0:
256,192,80420,12,0,85253,0:0:0:0:
