osu file format v14

[General]
AudioFilename: audio.ogg
AudioLeadIn: 0
PreviewTime:47586
Countdown: 0
SampleSet: Soft
StackLeniency: 0.7
Mode: 0
LetterboxInBreaks: 0
WidescreenStoryboard: 1
EpilepsyWarning: 1

[Editor]
Bookmarks: 70023,222023
DistanceSpacing: 1
BeatDivisor: 4
GridSize: 4
TimelineZoom: 1.4

[Metadata]
Title:Unfinished START
TitleUnicode:未完成START
Artist:Emilia (CV: Setsunan)
ArtistUnicode:艾米莉亞 (CV: 薛南)
Creator:KennethBBG
Version:Easy
Source:前進吧!高捷少女Initiating Station
Tags:Visual novel vn opening op Mocaotic evaotic ckharv BlackBN BlackBq eajrock (ayre records) uniparity hoskey reo shinia stellarism 希萌創意 《進め!高捷(たかめ)少女!》 Chinese pop rock Taiwan
BeatmapID:4024122
BeatmapSetID:1941061

[Difficulty]
HPDrainRate:3
CircleSize:3
OverallDifficulty:3
ApproachRate:4
SliderMultiplier:0.799999999999999
SliderTickRate:1

[Events]
//Background and Video events
0,0,"bg4.jpg",0,0
Video,-80,"OPmovie (1).mp4"
//Break Periods
//Storyboard Layer 0 (Background)
//Storyboard Layer 1 (Fail)
//Storyboard Layer 2 (Pass)
//Storyboard Layer 3 (Foreground)
//Storyboard Layer 4 (Overlay)
//Storyboard Sound Samples

[TimingPoints]
873,342.857142857143,4,2,1,20,1,0
14587,333.333333333333,4,2,1,40,1,0
14920,-100,4,2,1,70,0,0
15920,-100,4,2,1,65,0,0
26586,-100,4,2,1,40,0,0
35253,-100,4,2,1,47,0,0
35586,-100,4,2,1,57,0,0
35920,-100,4,2,1,70,0,0
37253,-100,4,2,1,65,0,0
45586,-100,4,2,1,50,0,0
46253,-100,4,2,1,60,0,0
46420,-100,4,2,1,72,0,0
46586,-100,4,2,1,90,0,0
47920,-100,4,2,1,80,0,1
66920,-100,4,2,1,60,0,1
67753,-100,4,2,1,72,0,1
67920,-100,4,2,1,90,0,1
68003,-100,4,2,1,80,0,1
69253,-100,4,2,1,60,0,0
73253,-100,4,2,1,65,0,0
77253,-100,4,2,1,75,0,0
77586,-100,4,2,1,55,0,0
78419,-100,4,2,1,63,0,0
78586,-100,4,2,1,75,0,0
79086,-100,4,2,1,50,0,0
79253,-100,4,2,1,60,0,0
79419,-100,4,2,1,70,0,0
79586,-100,4,2,1,80,0,0
79753,-100,4,2,1,90,0,0
79836,-100,4,2,1,70,0,0
80253,-100,4,2,1,90,0,0
80586,-100,4,2,1,80,0,0
80919,-100,4,2,1,70,0,0
81253,-100,4,2,1,60,0,0
81919,-100,4,2,1,50,0,0
82586,-100,4,2,1,40,0,0
83586,-100,4,2,1,30,0,0
84586,-100,4,2,1,20,0,0
85086,-100,4,2,1,35,0,0
85253,-100,4,2,1,25,0,0

[Colours]
Combo1 : 0,128,255
Combo2 : 248,106,86
Combo3 : 117,219,255
Combo4 : 115,209,46

[HitObjects]
491,17,14587,6,0,L|481:110,1,79.9999999999999,4|8,0:0|0:0,0:0:0:0:
451,170,15253,2,0,P|395:173|355:156,1,79.9999999999999,10|10,0:0|0:0,0:0:0:0:
308,117,15920,6,0,L|325:10,2,79.9999999999999,6|8|0,3:2|0:0|3:2,0:0:0:0:
246,168,16920,1,8,0:0:0:0:
180,122,17253,2,0,P|104:135|65:202,1,160,2|0,3:2|3:2,0:0:0:0:
13,263,18252,1,10,0:0:0:0:
44,336,18586,6,0,P|84:344|123:358,1,79.9999999999999,2|8,3:2|0:0,0:0:0:0:
189,315,19253,2,0,P|229:306|268:292,1,79.9999999999999,2|8,3:2|0:0,0:0:0:0:
340,321,19920,2,0,P|348:281|362:244,1,79.9999999999999,2|8,3:2|0:0,0:0:0:0:
403,175,20586,1,2,3:2:0:0:
355,110,20920,1,10,0:0:0:0:
295,162,21253,6,0,B|204:169|249:211|147:219,1,160,6|0,3:2|3:2,0:0:0:0:
69,225,22253,1,10,0:0:0:0:
23,159,22586,2,0,P|36:101|50:64,1,79.9999999999999,2|8,0:0|0:0,0:0:0:0:
122,81,23253,1,0,3:2:0:0:
179,25,23586,1,10,0:0:0:0:
256,52,23920,6,0,P|296:36|386:19,1,120,6|2,3:2|0:0,0:0:0:0:
449,39,24753,1,2,3:2:0:0:
488,152,25253,2,0,L|476:199,1,40,14|2,0:0|1:2,0:0:0:0:
433,257,25753,2,0,P|396:241|312:227,1,120,14|8,0:0|0:0,0:0:0:0:
260,283,26586,5,4,3:2:0:0:
179,283,26920,2,0,B|150:189|150:189|166:160|177:127,1,160,2|2,3:2|3:2,0:0:0:0:
137,61,27920,2,0,P|74:45|45:34,2,79.9999999999999,2|2|2,3:2|3:2|3:2,0:0:0:0:
213,37,28920,1,2,3:2:0:0:
275,86,29252,5,0,3:2:0:0:
345,47,29586,2,0,B|439:18|439:18|468:34|501:45,1,160,2|2,3:2|3:2,0:0:0:0:
488,122,30586,2,0,P|473:159|463:197,1,79.9999999999999,2|2,3:2|3:2,0:0:0:0:
401,248,31253,2,0,P|415:285|425:323,1,79.9999999999999,2|2,3:2|3:2,0:0:0:0:
355,363,31920,5,4,3:2:0:0:
280,333,32253,2,0,B|185:337|220:375|124:369,1,160,2|2,3:2|3:2,0:0:0:0:
47,363,33253,1,2,3:2:0:0:
15,289,33586,2,0,P|17:235|73:193,1,120,2|2,3:2|0:0,0:0:0:0:
162,263,34586,6,0,P|203:268|284:289,1,120,2|2,3:2|0:0,0:0:0:0:
357,272,35420,1,2,0:0:0:0:
432,178,35920,2,0,L|400:47,1,120,8|8,3:2|3:2,0:0:0:0:
327,37,36753,2,0,P|306:43|277:55,1,40,0|0,1:2|3:2,0:0:0:0:
223,95,37253,6,0,P|158:92|115:40,1,120,10|14,3:2|3:2,0:0:0:0:
21,122,38253,2,0,P|39:197|50:291,1,160,14|0,3:2|3:2,0:0:0:0:
81,352,39253,1,2,1:2:0:0:
160,364,39586,1,2,3:2:0:0:
237,344,39920,6,0,P|276:300|276:241,1,120,10|14,3:2|3:2,0:0:0:0:
183,165,40920,2,0,P|201:89|207:50,1,79.9999999999999,14|0,3:2|0:0,0:0:0:0:
261,32,41587,2,0,P|300:40|338:50,1,79.9999999999999,2|2,3:2|3:2,0:0:0:0:
418,45,42253,1,2,3:2:0:0:
475,100,42586,6,0,P|464:160|459:220,1,120,10|14,3:2|3:2,0:0:0:0:
357,282,43586,2,0,B|295:279|311:317|242:307,1,120,14|8,3:2|0:0,0:0:0:0:
203,312,44253,2,0,P|143:319|109:323,1,79.9999999999999,0|8,3:2|0:0,0:0:0:0:
61,272,44919,1,2,1:2:0:0:
16,203,45253,6,0,P|15:154|100:91,1,160,6|8,3:2|3:2,0:0:0:0:
173,112,46253,1,10,3:2:0:0:
212,43,46586,1,10,3:2:0:0:
280,84,46920,2,0,P|271:120|265:173,1,79.9999999999999,14|2,3:2|1:2,0:0:0:0:
243,239,47586,1,10,3:2:0:0:
275,312,47920,6,0,P|312:325|351:319,1,79.9999999999999,6|10,3:2|0:0,0:0:0:0:
427,343,48586,1,2,3:2:0:0:
490,293,48920,2,0,L|485:245,1,40,10|2,0:0|3:2,0:0:0:0:
509,176,49420,1,2,3:2:0:0:
439,136,49753,2,0,P|415:130|391:131,1,40,2|2,0:0|3:2,0:0:0:0:
321,147,50253,1,10,0:0:0:0:
258,196,50586,6,0,P|220:208|180:214,1,79.9999999999999,2|10,3:2|0:0,0:0:0:0:
114,168,51253,1,2,3:2:0:0:
84,51,51753,2,0,P|126:30|213:47,1,120,2|8,3:2|0:0,0:0:0:0:
272,64,52586,1,2,3:2:0:0:
341,24,52920,1,10,0:0:0:0:
405,71,53253,6,0,P|392:109|381:147,1,79.9999999999999,6|10,3:2|0:0,0:0:0:0:
399,224,53919,1,2,3:2:0:0:
372,299,54253,2,0,P|324:290|315:288,1,40,10|2,0:0|3:2,0:0:0:0:
276,234,54753,1,2,3:2:0:0:
213,284,55086,2,0,P|193:288|174:291,1,40,2|2,0:0|3:2,0:0:0:0:
99,323,55586,1,10,0:0:0:0:
59,253,55920,6,0,P|68:214|80:176,1,79.9999999999999,6|10,3:2|0:0,0:0:0:0:
52,101,56586,1,2,3:2:0:0:
130,9,57086,2,0,B|192:4|171:47|254:37,1,120,2|10,3:2|0:0,0:0:0:0:
272,112,57920,1,2,3:2:0:0:
218,171,58253,1,10,0:0:0:0:
202,249,58586,6,0,P|225:282|275:291,1,79.9999999999999,6|10,3:2|0:0,0:0:0:0:
339,313,59253,1,2,3:2:0:0:
411,278,59586,2,0,L|458:293,2,40,10|2|0,0:0|3:2|0:0,0:0:0:0:
381,203,60253,1,10,0:0:0:0:
422,134,60586,1,2,3:2:0:0:
397,57,60920,1,10,0:0:0:0:
323,27,61253,6,0,P|255:44|213:44,1,79.9999999999999,2|8,3:2|0:0,0:0:0:0:
180,91,61920,2,0,P|112:74|70:74,1,79.9999999999999,2|8,3:2|0:0,0:0:0:0:
60,141,62586,2,0,P|44:190|39:222,1,79.9999999999999,6|8,3:2|0:0,0:0:0:0:
72,240,63086,2,0,P|88:270|95:363,1,120,6|10,3:2|0:0,0:0:0:0:
174,375,63920,6,0,P|206:367|233:357,1,40,14|0,0:0|3:2,0:0:0:0:
249,293,64420,2,0,P|256:233|271:175,1,120,14|14,0:0|0:0,0:0:0:0:
237,103,65253,2,0,L|286:94,1,40,12|0,0:0|3:2,0:0:0:0:
343,52,65753,2,0,P|400:67|474:75,1,120,12|14,0:0|0:0,0:0:0:0:
477,152,66586,6,0,P|475:191|451:222,1,79.9999999999999,14|0,0:0|3:2,0:0:0:0:
372,238,67253,1,8,0:0:0:0:
305,193,67586,1,10,0:0:0:0:
236,233,67920,1,8,0:0:0:0:
157,216,68253,2,0,P|150:176|141:137,1,79.9999999999999,12|8,0:0|0:0,0:0:0:0:
109,63,68920,1,2,1:2:0:0:
173,15,69253,6,0,P|225:22|257:64,1,79.9999999999999,6|10,3:2|0:0,0:0:0:0:
292,103,69920,1,2,3:2:0:0:
317,220,70420,2,0,P|373:201|433:191,1,120,2|10,0:0|0:0,0:0:0:0:
503,229,71253,1,2,3:2:0:0:
448,335,71753,6,0,P|349:359|321:368,1,120,2|8,0:0|0:0,0:0:0:0:
255,341,72586,1,2,3:2:0:0:
193,237,73086,2,0,P|211:180|221:120,1,120,10|10,0:0|0:0,0:0:0:0:
198,87,73753,2,0,P|161:71|122:76,1,79.9999999999999,2|2,1:2|3:2,0:0:0:0:
44,95,74420,6,0,L|55:146,1,40,2|0,0:0|1:2,0:0:0:0:
63,214,74920,1,12,0:0:0:0:
31,287,75253,2,0,P|21:306|16:326,1,40,2|0,3:2|3:2,0:0:0:0:
80,372,75753,2,0,P|135:362|177:317,1,120,6|8,3:2|0:0,0:0:0:0:
209,243,76586,1,10,0:0:0:0:
144,196,76920,1,10,0:0:0:0:
138,114,77253,6,0,P|134:74|151:39,1,79.9999999999999,14|0,0:0|3:2,0:0:0:0:
231,44,77920,1,10,0:0:0:0:
298,87,78253,1,8,0:0:0:0:
367,46,78586,1,10,0:0:0:0:
429,96,78920,1,8,0:0:0:0:
470,164,79253,2,0,P|461:203|447:332,1,160,10|0,0:0|0:0,0:0:0:0:
373,353,80253,5,6,3:2:0:0:
256,192,80420,12,0,85253,0:0:0:0:
