osu file format v14

[General]
AudioFilename: audio.ogg
AudioLeadIn: 0
PreviewTime:47586
Countdown: 0
SampleSet: Soft
StackLeniency: 0.7
Mode: 0
LetterboxInBreaks: 0
WidescreenStoryboard: 1
EpilepsyWarning: 1

[Editor]
Bookmarks: 222023
DistanceSpacing: 1
BeatDivisor: 5
GridSize: 32
TimelineZoom: 1.8

[Metadata]
Title:Unfinished START
TitleUnicode:未完成START
Artist:Emilia (CV: Setsunan)
ArtistUnicode:艾米莉亞 (CV: 薛南)
Creator:KennethBBG
Version:Black's Hard
Source:前進吧!高捷少女Initiating Station
Tags:Visual novel vn opening op Mocaotic evaotic ckharv BlackBN BlackBq eajrock (ayre records) uniparity hoskey reo shinia stellarism 希萌創意 《進め!高捷(たかめ)少女!》 Chinese pop rock Taiwan
BeatmapID:4031757
BeatmapSetID:1941061

[Difficulty]
HPDrainRate:5
CircleSize:3.5
OverallDifficulty:7
ApproachRate:8
SliderMultiplier:1.3
SliderTickRate:1

[Events]
//Background and Video events
0,0,"bg5.jpg",0,0
Video,-80,"OPmovie (1).mp4"
//Break Periods
//Storyboard Layer 0 (Background)
//Storyboard Layer 1 (Fail)
//Storyboard Layer 2 (Pass)
//Storyboard Layer 3 (Foreground)
//Storyboard Layer 4 (Overlay)
//Storyboard Sound Samples

[TimingPoints]
873,342.857142857143,4,2,1,20,1,0
1215,-125,4,2,1,20,0,0
14587,333.333333333333,4,2,1,40,1,0
14587,-100,4,2,1,40,0,0
14920,-100,4,2,1,70,0,0
15920,-100,4,2,1,65,0,0
20170,-100,4,2,1,5,0,0
20253,-100,4,2,1,65,0,0
20503,-100,4,2,1,65,0,0
20586,-100,4,2,1,65,0,0
26586,-125,4,2,1,40,0,0
35253,-125,4,2,1,47,0,0
35586,-125,4,2,1,57,0,0
35920,-100,4,2,1,70,0,0
37253,-100,4,2,1,65,0,0
45586,-100,4,2,1,50,0,0
46253,-100,4,2,1,60,0,0
46420,-100,4,2,1,72,0,0
46586,-100,4,2,1,90,0,0
47920,-100,4,2,1,80,0,1
50503,-100,4,2,1,5,0,1
50586,-100,4,2,1,80,0,1
65170,-100,4,2,1,5,0,1
65253,-100,4,2,1,80,0,1
66503,-100,4,2,1,5,0,1
66586,-100,4,2,1,80,0,1
66920,-100,4,2,1,60,0,1
67753,-100,4,2,1,72,0,1
67920,-100,4,2,1,90,0,1
68003,-100,4,2,1,80,0,1
69253,-100,4,2,1,60,0,0
73253,-100,4,2,1,65,0,0
77253,-100,4,2,1,75,0,0
77586,-100,4,2,1,55,0,0
78419,-100,4,2,1,63,0,0
78586,-100,4,2,1,75,0,0
79086,-100,4,2,1,50,0,0
79253,-100,4,2,1,60,0,0
79419,-100,4,2,1,70,0,0
79586,-100,4,2,1,80,0,0
79753,-100,4,2,1,90,0,0
79836,-100,4,2,1,70,0,0
80253,-100,4,2,1,90,0,0
80586,-100,4,2,1,80,0,0
80919,-100,4,2,1,70,0,0
81253,-100,4,2,1,60,0,0
81919,-100,4,2,1,50,0,0
82586,-100,4,2,1,40,0,0
83586,-100,4,2,1,30,0,0
84586,-100,4,2,1,20,0,0
85086,-100,4,2,1,35,0,0
85253,-100,4,2,1,25,0,0

[Colours]
Combo1 : 255,128,64
Combo2 : 180,237,146
Combo3 : 117,219,255
Combo4 : 115,209,46
Combo5 : 0,128,255

[HitObjects]
100,203,701,6,0,P|111:203|120:205,3,21.6666666666667,2|2|2|2,0:0|0:0|0:0|0:0,0:0:0:0:
164,44,1215,6,0,P|188:33|230:39,1,52,2|2,0:0|0:0,0:0:0:0:
288,69,1558,2,0,P|274:127|263:183,1,104,2|2,0:0|0:0,0:0:0:0:
339,209,2073,1,2,0:0:0:0:
415,177,2244,6,0,P|444:170|488:161,2,52,2|0|2,0:0|0:0|0:0,0:0:0:0:
453,251,2758,2,0,P|479:293|469:348,1,104
396,382,3273,1,2,0:0:0:0:
237,332,3615,6,0,P|291:321|342:313,1,104,2|2,0:0|0:0,0:0:0:0:
373,237,4130,1,2,0:0:0:0:
373,237,4301,2,0,P|319:226|268:218,1,104,2|2,0:0|0:0,0:0:0:0:
126,138,4987,6,0,P|157:96|219:107,1,104,2|2,0:0|0:0,0:0:0:0:
343,1,5673,2,0,P|336:29|330:60,2,52,2|0|2,0:0|0:0|0:0,0:0:0:0:
463,116,6358,6,0,P|473:168|489:239,1,104,2|0,0:0|0:0,0:0:0:0:
429,281,6873,2,0,P|354:249|330:274,1,104,2|0,0:0|0:0,0:0:0:0:
279,202,7387,1,2,0:0:0:0:
172,329,7730,6,0,P|183:278|193:227,1,104,2|0,0:0|0:0,0:0:0:0:
150,155,8244,2,0,P|118:80|143:56,1,104,2|0,0:0|0:0,0:0:0:0:
195,26,8758,1,2,0:0:0:0:
356,66,9101,6,0,P|297:77|233:91,1,104,2|0,0:0|0:0,0:0:0:0:
218,161,9615,1,0,0:0:0:0:
318,294,9958,1,0,0:0:0:0:
158,342,10301,1,2,0:0:0:0:
158,342,10473,6,0,P|99:329|34:320,1,104,2|2,0:0|0:0,0:0:0:0:
16,250,10987,2,0,P|25:214|30:179,1,52,2|0,0:0|0:0,0:0:0:0:
99,156,11330,2,0,P|162:161|195:132,1,104,2|0,0:0|0:0,0:0:0:0:
256,192,11844,12,0,13215,0:0:0:0:
397,95,14587,6,0,P|430:100|461:107,2,65,4|0|8,0:0|3:2|0:0,0:0:0:0:
235,44,15253,6,0,P|205:48|175:55,3,32.5,10|10|10|10,0:0|0:0|0:0|0:0,0:0:0:0:
165,69,15586,2,0,P|135:73|105:80,3,32.5,10|10|10|10,0:0|0:0|0:0|0:0,0:0:0:0:
97,49,15920,6,0,P|81:117|67:188,1,130,6|8,3:2|0:0,0:0:0:0:
145,235,16420,1,8,0:0:0:0:
145,235,16503,1,8,0:0:0:0:
145,235,16586,2,0,P|184:219|223:237,1,65,0|0,3:2|3:2,0:0:0:0:
272,172,16920,1,8,0:0:0:0:
376,336,17253,6,0,P|364:261|351:198,1,130,2|8,3:2|0:0,0:0:0:0:
429,163,17753,2,0,P|433:137|441:108,2,32.5,8|8|0,0:0|0:0|3:2,0:0:0:0:
488,222,18086,1,0,3:2:0:0:
458,301,18253,2,0,P|402:289|353:281,1,97.5,10|2,0:0|0:0,0:0:0:0:
328,256,18586,6,0,B|286:247|259:270|271:275|243:302|189:285,1,130,2|8,3:2|0:0,0:0:0:0:
151,353,19086,1,8,0:0:0:0:
151,353,19170,1,8,0:0:0:0:
151,353,19253,2,0,P|110:350|76:335,1,65,2|0,3:2|3:2,0:0:0:0:
55,263,19586,1,8,0:0:0:0:
232,186,19920,6,0,P|184:194|136:206,1,97.5,2|0,3:2|0:0,0:0:0:0:
109,173,20253,2,0,P|84:155|31:162,1,65,8|0,0:0|0:0,0:0:0:0:
0,84,20586,2,0,P|9:45|15:5,1,65,2|0,3:2|3:2,0:0:0:0:
97,40,20920,2,0,P|122:22|175:29,1,65,10|2,0:0|0:0,0:0:0:0:
233,117,21253,6,0,P|220:188|209:250,1,130,6|8,3:2|0:0,0:0:0:0:
146,301,21753,1,8,0:0:0:0:
146,301,21836,1,8,0:0:0:0:
146,301,21920,2,0,P|112:281|69:284,1,65,0|0,3:2|3:2,0:0:0:0:
54,201,22253,2,0,P|60:167|67:136,1,65,10|2,0:0|3:2,0:0:0:0:
124,74,22586,6,0,P|196:68|237:124,1,130,2|8,0:0|0:0,0:0:0:0:
178,172,23086,1,0,3:2:0:0:
178,172,23170,1,0,3:2:0:0:
178,172,23253,2,0,P|171:210|160:256,1,65,0|0,3:2|3:2,0:0:0:0:
215,305,23586,2,0,P|217:323|227:361,2,32.5,10|0|2,0:0|0:0|0:0,0:0:0:0:
338,285,23920,6,0,P|399:297|466:312,1,130,6|10,3:2|0:0,0:0:0:0:
483,229,24420,2,0,P|419:214|355:202,1,130,2|2,0:0|3:2,0:0:0:0:
304,134,24920,1,8,0:0:0:0:
368,79,25086,1,0,3:2:0:0:
368,79,25170,1,0,3:2:0:0:
368,79,25253,6,0,P|367:37|340:10,1,65,14|2,0:0|1:2,0:0:0:0:
319,6,25503,1,0,1:2:0:0:
319,6,25586,1,2,3:2:0:0:
200,43,25753,5,14,0:0:0:0:
31,27,26086,2,0,P|39:60|44:92,1,65,8|8,0:0|0:0,0:0:0:0:
44,90,26336,1,8,0:0:0:0:
44,90,26420,1,0,1:2:0:0:
114,155,26586,6,0,P|101:210|88:275,1,104,4|2,3:2|3:2,0:0:0:0:
134,330,27086,1,0,0:0:0:0:
197,275,27253,2,0,P|242:263|289:290,1,104,2|2,3:2|3:2,0:0:0:0:
323,367,27753,1,2,0:0:0:0:
396,326,27920,6,0,P|446:314|497:305,1,104,2|2,3:2|3:2,0:0:0:0:
369,200,28586,2,0,P|318:188|267:179,1,104,2|2,3:2|3:2,0:0:0:0:
197,31,29253,5,0,3:2:0:0:
197,31,29586,2,0,P|169:35|146:41,2,52,2|2|2,3:2|0:0|3:2,0:0:0:0:
31,19,30253,2,0,P|25:45|19:78,1,52,2|2,3:2|0:0,0:0:0:0:
70,163,30586,6,0,P|78:217|47:270,2,104,2|2|2,3:2|3:2|3:2,0:0:0:0:
141,119,31420,2,0,P|155:114|185:109,2,26,2|2|2,0:0|0:0|3:2,0:0:0:0:
302,178,31920,5,4,3:2:0:0:
302,178,32253,2,0,P|332:169|367:163,1,52,2|2,3:2|0:0,0:0:0:0:
396,94,32586,2,0,P|444:88|474:145,1,104,0|2,3:2|3:2,0:0:0:0:
439,204,33086,1,2,0:0:0:0:
501,305,33253,6,0,P|447:298|393:324,1,104,2|2,3:2|3:2,0:0:0:0:
330,274,33753,2,0,P|339:242|345:200,1,52,2|0,0:0|3:2,0:0:0:0:
261,202,34086,2,0,P|252:234|245:275,1,52,2|2,0:0|3:2,0:0:0:0:
182,304,34420,1,2,0:0:0:0:
182,304,34586,6,0,P|121:315|65:328,1,104,2|2,3:2|3:2,0:0:0:0:
19,266,35086,2,0,P|14:231|4:196,1,52,2|0,0:0|3:2,0:0:0:0:
84,176,35420,2,0,P|89:141|98:106,1,52,2|0,0:0|3:2,0:0:0:0:
41,59,35753,1,2,0:0:0:0:
156,11,35920,6,0,P|190:9|223:27,1,65,8|8,3:2|3:2,0:0:0:0:
231,67,36170,1,8,3:2:0:0:
231,67,36253,1,8,3:2:0:0:
307,103,36420,2,0,P|340:93|375:87,1,65,8|0,3:2|1:2,0:0:0:0:
423,21,36753,1,0,1:2:0:0:
486,76,36920,2,0,P|473:127|461:191,1,97.5,0|0,3:2|3:2,0:0:0:0:
433,200,37253,5,10,3:2:0:0:
442,304,37420,1,10,3:2:0:0:
336,171,37753,2,0,P|278:156|220:209,1,130,14|0,3:2|3:2,0:0:0:0:
225,195,38253,5,14,3:2:0:0:
24,347,38753,1,0,1:2:0:0:
24,347,38836,1,0,1:2:0:0:
24,347,38920,2,0,P|65:347|99:374,1,65,0|0,3:2|3:2,0:0:0:0:
137,290,39253,2,0,P|168:283|200:278,1,65,2|0,1:2|3:2,0:0:0:0:
248,348,39586,2,0,P|280:352|311:360,1,65,2|0,3:2|3:2,0:0:0:0:
374,302,39920,5,10,3:2:0:0:
383,199,40086,1,10,3:2:0:0:
256,86,40420,2,0,B|219:65|195:74|199:82|169:94|124:69,1,130,14|0,3:2|3:2,0:0:0:0:
130,72,40920,5,14,3:2:0:0:
390,24,41420,1,0,1:2:0:0:
390,24,41503,1,0,1:2:0:0:
390,24,41586,2,0,P|406:54|403:86,1,65,2|0,3:2|3:2,0:0:0:0:
473,133,41920,2,0,P|455:161|425:175,1,65,2|0,3:2|3:2,0:0:0:0:
432,259,42253,2,0,P|398:257|371:239,1,65,2|0,3:2|3:2,0:0:0:0:
304,290,42586,5,10,3:2:0:0:
204,257,42753,1,10,3:2:0:0:
322,137,43086,2,0,P|326:65|266:29,1,130,14|0,3:2|3:2,0:0:0:0:
284,31,43586,5,14,3:2:0:0:
60,147,44086,1,8,0:0:0:0:
60,147,44253,2,0,P|98:138|145:127,1,65,0|0,3:2|0:0,0:0:0:0:
185,75,44586,1,8,0:0:0:0:
185,75,44753,1,0,3:2:0:0:
251,127,44920,2,0,P|243:159|237:191,1,65,2|0,1:2|3:2,0:0:0:0:
339,181,45253,6,0,P|398:162|442:205,1,130,6|0,3:2|3:2,0:0:0:0:
403,278,45753,2,0,P|410:310|417:345,1,65,2|8,3:2|3:2,0:0:0:0:
499,316,46086,1,8,3:2:0:0:
499,316,46253,2,0,P|505:284|512:252,1,65,10|8,3:2|3:2,0:0:0:0:
466,180,46586,1,10,3:2:0:0:
304,46,46920,6,0,B|281:30|257:37|261:48|233:57|200:37,1,97.5,14|0,3:2|1:2,0:0:0:0:
178,70,47253,2,0,P|172:92|167:123,3,32.5,2|2|2|2,1:2|1:2|3:2|3:2,0:0:0:0:
195,136,47586,2,0,P|252:162|295:131,1,97.5,10|8,3:2|3:2,0:0:0:0:
295,110,47920,6,0,P|329:101|365:95,1,65,6|0,3:2|0:0,0:0:0:0:
409,29,48253,2,0,P|440:34|472:43,1,65,10|8,0:0|0:0,0:0:0:0:
493,86,48503,1,8,0:0:0:0:
493,86,48586,2,0,P|498:123|472:165,1,65,2|0,3:2|3:2,0:0:0:0:
504,236,48920,1,10,0:0:0:0:
504,236,49086,6,0,P|496:270|488:309,1,65,2|0,3:2|0:0,0:0:0:0:
420,350,49420,2,0,P|413:318|406:286,1,65,2|8,3:2|0:0,0:0:0:0:
338,235,49753,1,2,0:0:0:0:
338,235,49836,1,0,0:0:0:0:
338,235,49920,2,0,P|299:218|257:225,1,65,2|0,3:2|3:2,0:0:0:0:
209,281,50253,2,0,P|156:291|91:306,1,97.5,10|0,0:0|0:0,0:0:0:0:
75,282,50586,6,0,P|59:207|102:165,1,130,2|10,3:2|0:0,0:0:0:0:
157,118,51086,1,8,0:0:0:0:
157,118,51253,2,0,P|188:122|234:133,1,65,2|0,3:2|3:2,0:0:0:0:
250,208,51586,1,8,0:0:0:0:
360,154,51753,6,0,P|346:85|330:16,1,130,2|0,3:2|3:2,0:0:0:0:
257,0,52253,1,8,0:0:0:0:
257,0,52420,1,2,0:0:0:0:
188,49,52586,2,0,P|150:40|107:34,1,65,2|2,3:2|3:2,0:0:0:0:
56,88,52920,2,0,P|53:122|74:160,1,65,10|0,0:0|0:0,0:0:0:0:
27,267,53253,6,0,B|67:284|101:273|95:264|124:253|166:272,1,130,6|10,3:2|0:0,0:0:0:0:
204,348,53753,1,8,0:0:0:0:
204,348,53836,1,8,0:0:0:0:
204,348,53920,2,0,P|240:340|296:328,1,65,2|0,3:2|3:2,0:0:0:0:
313,263,54253,1,10,0:0:0:0:
243,215,54420,6,0,P|235:172|225:134,1,65,2|0,3:2|0:0,0:0:0:0:
310,125,54753,2,0,P|315:93|322:61,1,65,2|8,3:2|0:0,0:0:0:0:
403,30,55086,1,2,0:0:0:0:
403,30,55253,2,0,P|427:68|421:114,1,65,2|0,3:2|3:2,0:0:0:0:
493,141,55586,2,0,P|472:180|429:198,1,65,10|0,0:0|0:0,0:0:0:0:
470,276,55920,6,0,P|404:260|343:249,1,130,6|10,3:2|0:0,0:0:0:0:
273,298,56420,1,8,0:0:0:0:
273,298,56586,2,0,P|219:289|199:269,1,65,2|0,3:2|3:2,0:0:0:0:
263,216,56920,1,8,0:0:0:0:
181,123,57086,6,0,P|111:136|44:152,1,130,2|2,3:2|3:2,0:0:0:0:
3,218,57586,2,0,P|42:227|78:232,1,65,10|2,0:0|0:0,0:0:0:0:
95,270,57836,1,2,0:0:0:0:
95,270,57920,2,0,P|141:281|177:267,1,65,2|2,3:2|3:2,0:0:0:0:
239,257,58253,2,0,P|233:289|226:320,1,65,10|10,0:0|0:0,0:0:0:0:
264,349,58503,1,10,0:0:0:0:
264,349,58586,6,0,P|353:347|396:301,1,130,6|10,3:2|0:0,0:0:0:0:
448,269,59086,1,0,0:0:0:0:
448,269,59170,1,2,3:2:0:0:
448,269,59253,2,0,P|440:222|431:179,1,65,2|0,3:2|3:2,0:0:0:0:
470,127,59586,1,10,0:0:0:0:
406,71,59753,6,0,B|366:88|332:77|338:68|309:57|267:76,1,130,2|0,3:2|3:2,0:0:0:0:
205,29,60253,2,0,P|167:35|146:61,1,65,10|0,0:0|0:0,0:0:0:0:
79,101,60586,2,0,P|103:130|136:135,1,65,2|0,3:2|3:2,0:0:0:0:
204,174,60920,2,0,P|217:138|204:107,1,65,10|2,0:0|2:2,0:0:0:0:
280,68,61253,6,0,P|350:80|421:98,1,130,2|8,3:2|0:0,0:0:0:0:
487,65,61753,1,2,3:2:0:0:
512,145,61920,2,0,P|505:177|497:216,2,65,2|0|8,3:2|3:2|0:0,0:0:0:0:
323,303,62586,6,0,P|265:246|218:274,1,130,6|8,3:2|0:0,0:0:0:0:
182,330,63086,2,0,P|121:339|88:287,1,130,6|0,3:2|3:2,0:0:0:0:
149,228,63586,2,0,P|157:186|166:143,1,65,10|0,0:0|3:2,0:0:0:0:
56,96,63920,6,0,P|64:138|73:180,1,65,14|0,0:0|3:2,0:0:0:0:
14,233,64253,1,0,3:2:0:0:
81,294,64420,2,0,P|132:309|170:299,2,65,14|0|0,0:0|3:2|3:2,0:0:0:0:
103,205,64920,2,0,P|152:193|216:180,1,97.5,14|0,0:0|0:0,0:0:0:0:
228,217,65253,6,0,P|220:251|214:282,1,65,12|0,0:0|3:2,0:0:0:0:
280,345,65586,1,0,3:2:0:0:
362,306,65753,2,0,P|368:274|375:242,1,65,12|0,0:0|3:2,0:0:0:0:
325,171,66086,1,0,3:2:0:0:
325,171,66253,2,0,P|347:104|326:59,1,97.5,14|0,0:0|0:0,0:0:0:0:
304,53,66586,6,0,P|243:62|172:77,1,130,14|0,0:0|3:2,0:0:0:0:
90,30,67086,2,0,P|82:64|76:95,1,65,10|8,0:0|0:0,0:0:0:0:
142,166,67420,1,8,0:0:0:0:
57,214,67586,1,10,0:0:0:0:
57,214,67753,1,8,0:0:0:0:
109,297,67920,2,0,P|161:300|187:322,1,65,8|0,0:0|3:2,0:0:0:0:
241,364,68253,6,0,P|311:348|376:335,1,130,12|8,0:0|0:0,0:0:0:0:
434,274,68753,2,0,P|450:276|470:281,2,32.5,8|8|2,0:0|0:0|1:2,0:0:0:0:
390,203,69086,1,10,0:0:0:0:
390,203,69170,1,8,0:0:0:0:
390,203,69253,6,0,P|333:143|277:153,1,130,6|10,3:2|0:0,0:0:0:0:
247,218,69753,1,8,0:0:0:0:
172,189,69920,1,2,3:2:0:0:
172,189,70086,2,0,P|132:196|96:205,1,65,2|8,3:2|0:0,0:0:0:0:
51,145,70420,1,2,0:0:0:0:
51,145,70586,6,0,P|62:106|99:81,1,65,0|0,3:2|0:0,0:0:0:0:
128,20,70920,2,0,P|162:26|191:34,1,65,10|8,0:0|0:0,0:0:0:0:
248,104,71253,1,2,3:2:0:0:
248,104,71420,2,0,P|279:95|311:89,1,65,2|8,3:2|0:0,0:0:0:0:
374,33,71753,1,2,0:0:0:0:
426,99,71920,6,0,P|479:137|477:201,1,130,2|8,3:2|0:0,0:0:0:0:
422,257,72420,1,8,0:0:0:0:
422,257,72503,1,8,0:0:0:0:
422,257,72586,1,2,3:2:0:0:
353,204,72753,2,0,P|315:210|281:249,1,65,2|8,3:2|0:0,0:0:0:0:
244,295,73086,1,10,0:0:0:0:
244,295,73253,6,0,P|212:288|180:283,1,65,0|0,3:2|3:2,0:0:0:0:
110,331,73586,1,10,0:0:0:0:
40,282,73753,2,0,P|24:285|8:288,2,32.5,2|0|8,1:2|1:2|0:0,0:0:0:0:
91,213,74086,2,0,P|111:178|90:136,1,65,2|8,3:2|0:0,0:0:0:0:
30,118,74420,1,2,0:0:0:0:
81,50,74586,6,0,P|86:24|94:-9,2,32.5,0|0|0,1:2|3:2|3:2,0:0:0:0:
199,51,74920,1,12,0:0:0:0:
365,19,75253,2,0,P|374:54|382:94,2,65,2|0|8,3:2|3:2|0:0,0:0:0:0:
289,117,75753,6,0,B|257:151|267:184|278:184|290:221|252:255,1,130,6|0,3:2|3:2,0:0:0:0:
308,318,76253,1,8,0:0:0:0:
308,318,76420,1,0,3:2:0:0:
365,257,76586,2,0,P|400:250|429:244,1,65,10|0,0:0|3:2,0:0:0:0:
470,169,76920,2,0,P|435:162|406:156,1,65,10|0,0:0|3:2,0:0:0:0:
328,67,77253,6,0,P|264:79|200:93,1,130,14|0,0:0|3:2,0:0:0:0:
143,155,77753,1,2,3:2:0:0:
143,155,77920,2,0,P|118:178|73:179,1,65,10|8,0:0|0:0,0:0:0:0:
19,133,78253,1,8,0:0:0:0:
57,59,78420,1,10,0:0:0:0:
57,59,78586,6,0,L|126:74,1,65,10|8,0:0|0:0,0:0:0:0:
194,31,78920,1,8,0:0:0:0:
256,102,79086,1,10,0:0:0:0:
256,102,79170,1,8,0:0:0:0:
256,102,79253,2,0,P|253:118|248:134,3,32.5,10|8|8|8,0:0|0:0|0:0|0:0,0:0:0:0:
219,163,79586,2,0,P|223:178|227:194,3,32.5,8|8|8|8,0:0|0:0|0:0|0:0,0:0:0:0:
50,339,80253,5,6,3:2:0:0:
256,192,80420,12,0,85086,0:0:0:0:
