osu file format v14

[General]
AudioFilename: audio.mp3
AudioLeadIn: 0
PreviewTime: 47177
Countdown: 0
SampleSet: Soft
StackLeniency: 0.7
Mode: 3
LetterboxInBreaks: 0
SpecialStyle: 0
WidescreenStoryboard: 1

[Editor]
DistanceSpacing: 0.9
BeatDivisor: 4
GridSize: 16
TimelineZoom: 2.699999

[Metadata]
Title:Stay Alive
TitleUnicode:Stay Alive
Artist:Emilia (CV: Rie Takahashi)
ArtistUnicode:Emilia (CV: Rie Takahashi)
Creator:leqek
Version:7K EMT
Source:Re:ゼロから始める異世界生活
Tags:re:Zero kara Hajimeru Isekai Seikatsu arpia97
BeatmapID:1133035
BeatmapSetID:534865

[Difficulty]
HPDrainRate:7.4
CircleSize:7
OverallDifficulty:6.9
ApproachRate:5
SliderMultiplier:1.4
SliderTickRate:1

[Events]
//Background and Video events
0,0,"BG.jpg",0,0
//Break Periods
//Storyboard Layer 0 (Background)
//Storyboard Layer 1 (Fail)
//Storyboard Layer 2 (Pass)
//Storyboard Layer 3 (Foreground)
//Storyboard Sound Samples

[TimingPoints]
106,857.142857142857,4,2,0,22,1,0
48105,-100,4,2,0,22,0,1
75534,851.063829787234,4,2,0,22,1,0
75534,-100,4,2,0,22,0,0
78938,848.056537102474,4,2,0,22,1,0
82330,845.070422535211,4,2,0,22,1,0

[HitObjects]
329,192,106,128,0,963:0:0:0:0:
109,192,106,1,0,0:0:0:0:
36,192,534,128,0,963:0:0:0:0:
182,192,748,128,0,963:0:0:0:0:
475,192,963,128,0,2677:0:0:0:0:
402,192,963,1,0,0:0:0:0:
256,192,1177,128,0,2677:0:0:0:0:
109,192,1391,128,0,3534:0:0:0:0:
182,192,1391,1,0,0:0:0:0:
36,192,1820,1,0,0:0:0:0:
329,192,2248,1,0,0:0:0:0:
182,192,2677,1,0,0:0:0:0:
329,192,3105,1,0,0:0:0:0:
402,192,3534,128,0,4391:0:0:0:0:
182,192,3534,1,0,0:0:0:0:
256,192,3963,128,0,4391:0:0:0:0:
109,192,4177,128,0,4391:0:0:0:0:
36,192,4391,128,0,6105:0:0:0:0:
329,192,4391,1,0,0:0:0:0:
182,192,4605,128,0,6105:0:0:0:0:
475,192,4820,128,0,6963:0:0:0:0:
402,192,4820,1,0,0:0:0:0:
256,192,5248,1,0,0:0:0:0:
329,192,5677,1,0,0:0:0:0:
109,192,6105,1,0,0:0:0:0:
182,192,6320,1,0,0:0:0:0:
256,192,6534,1,0,0:0:0:0:
329,192,6748,1,0,0:0:0:0:
109,192,6963,128,0,7820:0:0:0:0:
402,192,6963,1,0,0:0:0:0:
182,192,7391,128,0,7820:0:0:0:0:
329,192,7605,128,0,7820:0:0:0:0:
475,192,7820,128,0,9534:0:0:0:0:
402,192,7820,1,0,0:0:0:0:
256,192,8034,128,0,9534:0:0:0:0:
182,192,8248,128,0,10391:0:0:0:0:
36,192,8248,1,0,0:0:0:0:
109,192,8677,1,0,0:0:0:0:
402,192,9105,1,0,0:0:0:0:
329,192,9534,1,0,0:0:0:0:
256,192,9748,1,0,0:0:0:0:
402,192,9963,1,0,0:0:0:0:
329,192,10177,1,0,0:0:0:0:
36,192,10391,1,0,0:0:0:0:
256,192,10391,128,0,11248:0:0:0:0:
402,192,10391,128,0,11248:0:0:0:0:
109,192,10820,128,0,11248:0:0:0:0:
329,192,10820,128,0,11248:0:0:0:0:
182,192,11248,128,0,12963:0:0:0:0:
329,192,11463,128,0,12963:0:0:0:0:
36,192,11677,128,0,12963:0:0:0:0:
475,192,11677,128,0,12963:0:0:0:0:
109,192,12105,1,0,0:0:0:0:
256,192,12534,1,0,0:0:0:0:
402,192,12963,1,0,0:0:0:0:
329,192,13177,1,0,0:0:0:0:
182,192,13391,1,0,0:0:0:0:
109,192,13605,1,0,0:0:0:0:
329,192,13820,1,0,0:0:0:0:
402,192,13820,1,0,0:0:0:0:
475,192,13820,1,0,0:0:0:0:
256,192,13820,1,0,0:0:0:0:
36,192,13820,1,0,0:0:0:0:
182,192,14248,1,0,0:0:0:0:
109,192,14248,1,0,0:0:0:0:
36,192,14248,1,0,0:0:0:0:
36,192,14320,1,0,0:0:0:0:
109,192,14320,1,0,0:0:0:0:
182,192,14320,1,0,0:0:0:0:
182,192,14391,1,0,0:0:0:0:
109,192,14391,1,0,0:0:0:0:
36,192,14391,1,0,0:0:0:0:
36,192,14463,1,0,0:0:0:0:
109,192,14463,1,0,0:0:0:0:
182,192,14463,1,0,0:0:0:0:
329,192,14463,1,0,0:0:0:0:
402,192,14463,1,0,0:0:0:0:
475,192,14463,1,0,0:0:0:0:
182,192,14534,1,0,0:0:0:0:
109,192,14534,1,0,0:0:0:0:
36,192,14534,1,0,0:0:0:0:
36,192,14605,1,0,0:0:0:0:
109,192,14605,1,0,0:0:0:0:
182,192,14605,1,0,0:0:0:0:
182,192,14677,1,0,0:0:0:0:
109,192,14677,1,0,0:0:0:0:
36,192,14677,1,0,0:0:0:0:
402,192,14677,1,0,0:0:0:0:
329,192,14677,1,0,0:0:0:0:
256,192,14677,1,0,0:0:0:0:
182,192,15105,1,0,0:0:0:0:
329,192,15105,1,0,0:0:0:0:
475,192,15105,1,0,0:0:0:0:
256,192,15105,1,0,0:0:0:0:
109,192,15320,1,0,0:0:0:0:
182,192,15320,1,0,0:0:0:0:
256,192,15320,1,0,0:0:0:0:
402,192,15320,1,0,0:0:0:0:
36,192,15748,1,0,0:0:0:0:
109,192,15748,1,0,0:0:0:0:
182,192,15748,1,0,0:0:0:0:
329,192,15748,1,0,0:0:0:0:
256,192,15963,1,0,0:0:0:0:
402,192,15963,1,0,0:0:0:0:
475,192,15963,1,0,0:0:0:0:
109,192,15963,1,0,0:0:0:0:
182,192,16391,128,0,16820:0:0:0:0:
36,192,16391,1,0,0:0:0:0:
402,192,16820,128,0,17248:0:0:0:0:
256,192,16820,1,0,0:0:0:0:
329,192,17248,1,0,0:0:0:0:
475,192,17248,1,0,0:0:0:0:
109,192,17248,1,0,0:0:0:0:
36,192,17248,1,0,0:0:0:0:
476,192,17677,1,0,0:0:0:0:
403,192,17677,1,0,0:0:0:0:
330,192,17677,1,0,0:0:0:0:
476,192,17748,1,0,0:0:0:0:
403,192,17748,1,0,0:0:0:0:
330,192,17748,1,0,0:0:0:0:
476,192,17820,1,0,0:0:0:0:
403,192,17820,1,0,0:0:0:0:
330,192,17820,1,0,0:0:0:0:
476,192,17891,1,0,0:0:0:0:
330,192,17891,1,0,0:0:0:0:
403,192,17891,1,0,0:0:0:0:
330,192,17963,1,0,0:0:0:0:
476,192,17963,1,0,0:0:0:0:
403,192,17963,1,0,0:0:0:0:
330,192,18034,1,0,0:0:0:0:
476,192,18034,1,0,0:0:0:0:
403,192,18034,1,0,0:0:0:0:
403,192,18105,1,0,0:0:0:0:
330,192,18105,1,0,0:0:0:0:
476,192,18105,1,0,0:0:0:0:
256,192,18105,1,0,0:0:0:0:
36,192,18105,1,0,0:0:0:0:
109,192,18105,1,0,0:0:0:0:
37,192,18534,1,0,0:0:0:0:
330,192,18534,1,0,0:0:0:0:
256,192,18534,1,0,0:0:0:0:
183,192,18534,1,0,0:0:0:0:
403,192,18748,1,0,0:0:0:0:
330,192,18748,1,0,0:0:0:0:
256,192,18748,1,0,0:0:0:0:
110,192,18748,1,0,0:0:0:0:
330,192,19177,1,0,0:0:0:0:
476,192,19177,1,0,0:0:0:0:
403,192,19177,1,0,0:0:0:0:
183,192,19177,1,0,0:0:0:0:
403,192,19391,1,0,0:0:0:0:
256,192,19391,1,0,0:0:0:0:
37,192,19391,1,0,0:0:0:0:
110,192,19391,1,0,0:0:0:0:
36,192,19820,1,0,0:0:0:0:
182,192,19820,1,0,0:0:0:0:
329,192,19820,1,0,0:0:0:0:
475,192,19820,1,0,0:0:0:0:
109,192,20034,1,0,0:0:0:0:
402,192,20034,1,0,0:0:0:0:
256,192,20248,1,0,0:0:0:0:
329,192,20248,1,0,0:0:0:0:
475,192,20248,1,0,0:0:0:0:
36,192,20248,1,0,0:0:0:0:
182,192,20248,1,0,0:0:0:0:
109,192,20463,1,0,0:0:0:0:
256,192,20463,1,0,0:0:0:0:
402,192,20463,1,0,0:0:0:0:
182,192,20677,1,0,0:0:0:0:
329,192,20677,1,0,0:0:0:0:
475,192,20677,1,0,0:0:0:0:
36,192,20677,1,0,0:0:0:0:
256,192,20677,1,0,0:0:0:0:
402,192,21105,1,0,0:0:0:0:
256,192,21105,1,0,0:0:0:0:
475,192,21105,1,0,0:0:0:0:
256,192,21177,1,0,0:0:0:0:
402,192,21177,1,0,0:0:0:0:
475,192,21177,1,0,0:0:0:0:
475,192,21248,1,0,0:0:0:0:
402,192,21248,1,0,0:0:0:0:
256,192,21248,1,0,0:0:0:0:
256,192,21320,1,0,0:0:0:0:
402,192,21320,1,0,0:0:0:0:
475,192,21320,1,0,0:0:0:0:
475,192,21391,1,0,0:0:0:0:
402,192,21391,1,0,0:0:0:0:
256,192,21391,1,0,0:0:0:0:
256,192,21463,1,0,0:0:0:0:
402,192,21463,1,0,0:0:0:0:
475,192,21463,1,0,0:0:0:0:
475,192,21534,1,0,0:0:0:0:
402,192,21534,1,0,0:0:0:0:
256,192,21534,1,0,0:0:0:0:
329,192,21534,1,0,0:0:0:0:
109,192,21534,1,0,0:0:0:0:
36,192,21534,1,0,0:0:0:0:
109,192,21963,1,0,0:0:0:0:
36,192,21963,1,0,0:0:0:0:
182,192,21963,1,0,0:0:0:0:
256,192,21963,1,0,0:0:0:0:
256,192,22177,1,0,0:0:0:0:
182,192,22177,1,0,0:0:0:0:
109,192,22177,1,0,0:0:0:0:
36,192,22177,1,0,0:0:0:0:
329,192,22605,1,0,0:0:0:0:
109,192,22605,1,0,0:0:0:0:
36,192,22605,1,0,0:0:0:0:
256,192,22605,1,0,0:0:0:0:
475,192,22820,1,0,0:0:0:0:
182,192,22820,1,0,0:0:0:0:
256,192,22820,1,0,0:0:0:0:
402,192,22820,1,0,0:0:0:0:
36,192,23248,1,0,0:0:0:0:
109,192,23248,1,0,0:0:0:0:
182,192,23248,128,0,23677:0:0:0:0:
475,192,23677,128,0,24105:0:0:0:0:
329,192,23677,1,0,0:0:0:0:
402,192,23677,1,0,0:0:0:0:
256,192,23891,1,0,0:0:0:0:
182,192,24105,1,0,0:0:0:0:
329,192,24105,1,0,0:0:0:0:
402,192,24105,1,0,0:0:0:0:
109,192,24105,1,0,0:0:0:0:
36,192,24105,1,0,0:0:0:0:
110,192,24534,1,0,0:0:0:0:
256,192,24534,1,0,0:0:0:0:
37,192,24534,1,0,0:0:0:0:
256,192,24605,1,0,0:0:0:0:
110,192,24605,1,0,0:0:0:0:
37,192,24605,1,0,0:0:0:0:
37,192,24677,1,0,0:0:0:0:
110,192,24677,1,0,0:0:0:0:
256,192,24677,1,0,0:0:0:0:
256,192,24748,1,0,0:0:0:0:
110,192,24748,1,0,0:0:0:0:
37,192,24748,1,0,0:0:0:0:
37,192,24820,1,0,0:0:0:0:
110,192,24820,1,0,0:0:0:0:
256,192,24820,1,0,0:0:0:0:
256,192,24891,1,0,0:0:0:0:
110,192,24891,1,0,0:0:0:0:
37,192,24891,1,0,0:0:0:0:
37,192,24963,1,0,0:0:0:0:
110,192,24963,1,0,0:0:0:0:
256,192,24963,1,0,0:0:0:0:
183,192,24963,1,0,0:0:0:0:
403,192,24963,1,0,0:0:0:0:
476,192,24963,1,0,0:0:0:0:
403,192,25391,1,0,0:0:0:0:
476,192,25391,1,0,0:0:0:0:
330,192,25391,1,0,0:0:0:0:
256,192,25391,1,0,0:0:0:0:
256,192,25605,1,0,0:0:0:0:
330,192,25605,1,0,0:0:0:0:
403,192,25605,1,0,0:0:0:0:
476,192,25605,1,0,0:0:0:0:
183,192,26034,1,0,0:0:0:0:
403,192,26034,1,0,0:0:0:0:
476,192,26034,1,0,0:0:0:0:
256,192,26034,1,0,0:0:0:0:
37,192,26248,1,0,0:0:0:0:
330,192,26248,1,0,0:0:0:0:
256,192,26248,1,0,0:0:0:0:
110,192,26248,1,0,0:0:0:0:
36,192,26463,1,0,0:0:0:0:
182,192,26463,1,0,0:0:0:0:
402,192,26463,1,0,0:0:0:0:
109,192,26570,1,0,0:0:0:0:
329,192,26570,1,0,0:0:0:0:
475,192,26677,1,0,0:0:0:0:
36,192,26677,1,0,0:0:0:0:
256,192,26677,1,0,0:0:0:0:
182,192,26677,1,0,0:0:0:0:
402,192,26677,1,0,0:0:0:0:
182,192,26891,1,0,0:0:0:0:
402,192,26891,1,0,0:0:0:0:
476,192,27105,1,0,0:0:0:0:
110,192,27105,1,0,0:0:0:0:
330,192,27105,1,0,0:0:0:0:
183,192,27213,1,0,0:0:0:0:
403,192,27213,1,0,0:0:0:0:
110,192,27320,1,0,0:0:0:0:
256,192,27320,1,0,0:0:0:0:
476,192,27320,1,0,0:0:0:0:
37,192,27320,1,0,0:0:0:0:
330,192,27320,1,0,0:0:0:0:
182,192,27534,1,0,0:0:0:0:
109,192,27534,1,0,0:0:0:0:
36,192,27534,1,0,0:0:0:0:
475,192,27534,1,0,0:0:0:0:
256,192,27534,1,0,0:0:0:0:
402,192,27534,1,0,0:0:0:0:
36,192,27748,1,0,0:0:0:0:
329,192,27748,1,0,0:0:0:0:
475,192,27748,1,0,0:0:0:0:
402,192,27963,1,0,0:0:0:0:
256,192,27963,1,0,0:0:0:0:
182,192,28177,1,0,0:0:0:0:
109,192,28177,1,0,0:0:0:0:
256,192,28391,1,0,0:0:0:0:
475,192,28391,1,0,0:0:0:0:
402,192,28391,1,0,0:0:0:0:
36,192,28391,1,0,0:0:0:0:
182,192,28605,1,0,0:0:0:0:
329,192,28605,1,0,0:0:0:0:
109,192,28820,1,0,0:0:0:0:
475,192,28820,1,0,0:0:0:0:
182,192,29034,1,0,0:0:0:0:
402,192,29034,1,0,0:0:0:0:
36,192,29034,1,0,0:0:0:0:
109,192,29248,1,0,0:0:0:0:
329,192,29248,1,0,0:0:0:0:
256,192,29248,1,0,0:0:0:0:
182,192,29463,1,0,0:0:0:0:
475,192,29463,1,0,0:0:0:0:
36,192,29463,1,0,0:0:0:0:
256,192,29677,1,0,0:0:0:0:
402,192,29677,1,0,0:0:0:0:
329,192,29891,1,0,0:0:0:0:
109,192,29891,1,0,0:0:0:0:
182,192,30105,1,0,0:0:0:0:
256,192,30105,1,0,0:0:0:0:
36,192,30105,1,0,0:0:0:0:
475,192,30105,1,0,0:0:0:0:
329,192,30320,1,0,0:0:0:0:
109,192,30534,1,0,0:0:0:0:
402,192,30534,1,0,0:0:0:0:
36,192,30534,1,0,0:0:0:0:
182,192,30748,1,0,0:0:0:0:
329,192,30748,1,0,0:0:0:0:
256,192,30855,1,0,0:0:0:0:
36,192,30963,1,0,0:0:0:0:
402,192,30963,1,0,0:0:0:0:
475,192,30963,1,0,0:0:0:0:
182,192,30963,1,0,0:0:0:0:
329,192,31177,1,0,0:0:0:0:
109,192,31177,1,0,0:0:0:0:
475,192,31391,1,0,0:0:0:0:
182,192,31391,1,0,0:0:0:0:
402,192,31605,1,0,0:0:0:0:
36,192,31605,1,0,0:0:0:0:
256,192,31820,1,0,0:0:0:0:
475,192,31820,1,0,0:0:0:0:
182,192,31820,1,0,0:0:0:0:
329,192,32034,1,0,0:0:0:0:
109,192,32034,1,0,0:0:0:0:
402,192,32248,1,0,0:0:0:0:
182,192,32248,1,0,0:0:0:0:
36,192,32463,1,0,0:0:0:0:
256,192,32463,1,0,0:0:0:0:
329,192,32463,1,0,0:0:0:0:
109,192,32677,1,0,0:0:0:0:
402,192,32677,1,0,0:0:0:0:
475,192,32677,1,0,0:0:0:0:
329,192,32891,1,0,0:0:0:0:
182,192,32891,1,0,0:0:0:0:
36,192,32891,1,0,0:0:0:0:
256,192,33105,1,0,0:0:0:0:
109,192,33105,1,0,0:0:0:0:
402,192,33320,1,0,0:0:0:0:
182,192,33320,1,0,0:0:0:0:
329,192,33534,1,0,0:0:0:0:
475,192,33534,1,0,0:0:0:0:
256,192,33534,1,0,0:0:0:0:
109,192,33534,1,0,0:0:0:0:
182,192,33748,1,0,0:0:0:0:
329,192,33748,1,0,0:0:0:0:
402,192,33748,1,0,0:0:0:0:
36,192,33963,1,0,0:0:0:0:
109,192,33963,1,0,0:0:0:0:
475,192,33963,1,0,0:0:0:0:
256,192,33963,1,0,0:0:0:0:
36,192,34177,1,0,0:0:0:0:
182,192,34177,1,0,0:0:0:0:
402,192,34177,1,0,0:0:0:0:
329,192,34391,1,0,0:0:0:0:
256,192,34391,1,0,0:0:0:0:
109,192,34391,1,0,0:0:0:0:
475,192,34391,1,0,0:0:0:0:
36,192,34391,1,0,0:0:0:0:
182,192,34605,1,0,0:0:0:0:
402,192,34605,1,0,0:0:0:0:
109,192,34820,1,0,0:0:0:0:
329,192,34820,1,0,0:0:0:0:
256,192,34820,1,0,0:0:0:0:
182,192,35034,1,0,0:0:0:0:
36,192,35034,1,0,0:0:0:0:
329,192,35248,1,0,0:0:0:0:
475,192,35248,1,0,0:0:0:0:
402,192,35248,1,0,0:0:0:0:
36,192,35248,1,0,0:0:0:0:
109,192,35463,1,0,0:0:0:0:
256,192,35463,1,0,0:0:0:0:
182,192,35677,1,0,0:0:0:0:
402,192,35677,1,0,0:0:0:0:
109,192,35891,1,0,0:0:0:0:
329,192,35891,1,0,0:0:0:0:
475,192,35891,1,0,0:0:0:0:
402,192,36105,1,0,0:0:0:0:
36,192,36105,1,0,0:0:0:0:
182,192,36105,1,0,0:0:0:0:
256,192,36320,1,0,0:0:0:0:
475,192,36320,1,0,0:0:0:0:
109,192,36320,1,0,0:0:0:0:
182,192,36534,1,0,0:0:0:0:
402,192,36534,1,0,0:0:0:0:
329,192,36748,1,0,0:0:0:0:
109,192,36748,1,0,0:0:0:0:
182,192,36963,1,0,0:0:0:0:
36,192,36963,1,0,0:0:0:0:
475,192,36963,1,0,0:0:0:0:
256,192,36963,1,0,0:0:0:0:
256,192,37391,1,0,0:0:0:0:
402,192,37391,1,0,0:0:0:0:
109,192,37391,1,0,0:0:0:0:
182,192,37605,1,0,0:0:0:0:
329,192,37605,1,0,0:0:0:0:
256,192,37713,1,0,0:0:0:0:
329,192,37820,1,0,0:0:0:0:
475,192,37820,1,0,0:0:0:0:
109,192,37820,1,0,0:0:0:0:
36,192,37820,1,0,0:0:0:0:
182,192,38034,1,0,0:0:0:0:
402,192,38034,1,0,0:0:0:0:
109,192,38248,1,0,0:0:0:0:
475,192,38248,1,0,0:0:0:0:
329,192,38463,1,0,0:0:0:0:
36,192,38463,1,0,0:0:0:0:
256,192,38677,1,0,0:0:0:0:
402,192,38677,1,0,0:0:0:0:
109,192,38677,1,0,0:0:0:0:
475,192,38677,1,0,0:0:0:0:
182,192,38891,1,0,0:0:0:0:
36,192,39105,1,0,0:0:0:0:
475,192,39105,1,0,0:0:0:0:
402,192,39105,1,0,0:0:0:0:
256,192,39320,1,0,0:0:0:0:
109,192,39320,1,0,0:0:0:0:
329,192,39320,1,0,0:0:0:0:
329,192,39534,1,0,0:0:0:0:
36,192,39534,1,0,0:0:0:0:
182,192,39534,1,0,0:0:0:0:
475,192,39534,128,0,39963:0:0:0:0:
256,192,39963,128,0,40391:0:0:0:0:
109,192,39963,1,0,0:0:0:0:
402,192,39963,1,0,0:0:0:0:
36,192,40391,128,0,40820:0:0:0:0:
182,192,40391,1,0,0:0:0:0:
329,192,40391,1,0,0:0:0:0:
475,192,40391,1,0,0:0:0:0:
109,192,40605,1,0,0:0:0:0:
256,192,40605,1,0,0:0:0:0:
402,192,40820,128,0,41248:0:0:0:0:
182,192,40820,1,0,0:0:0:0:
329,192,40820,1,0,0:0:0:0:
256,192,41034,1,0,0:0:0:0:
475,192,41034,1,0,0:0:0:0:
109,192,41248,128,0,44677:0:0:0:0:
256,192,42963,128,0,46391:0:0:0:0:
402,192,44677,128,0,47248:0:0:0:0:
36,192,48105,1,0,0:0:0:0:
182,192,48105,1,0,0:0:0:0:
109,192,48105,1,0,0:0:0:0:
475,192,48105,1,0,0:0:0:0:
256,192,48105,1,0,0:0:0:0:
402,192,48105,1,0,0:0:0:0:
329,192,48105,1,0,0:0:0:0:
36,192,48213,1,0,0:0:0:0:
182,192,48213,1,0,0:0:0:0:
182,192,48320,1,0,0:0:0:0:
36,192,48320,1,0,0:0:0:0:
36,192,48427,1,0,0:0:0:0:
182,192,48427,1,0,0:0:0:0:
182,192,48534,1,0,0:0:0:0:
36,192,48534,1,0,0:0:0:0:
329,192,48534,1,0,0:0:0:0:
475,192,48534,1,0,0:0:0:0:
36,192,48641,1,0,0:0:0:0:
182,192,48641,1,0,0:0:0:0:
182,192,48748,1,0,0:0:0:0:
36,192,48748,1,0,0:0:0:0:
36,192,48855,1,0,0:0:0:0:
182,192,48855,1,0,0:0:0:0:
36,192,48963,1,0,0:0:0:0:
182,192,48963,1,0,0:0:0:0:
256,192,48963,1,0,0:0:0:0:
402,192,48963,1,0,0:0:0:0:
475,192,48963,1,0,0:0:0:0:
182,192,49070,1,0,0:0:0:0:
36,192,49070,1,0,0:0:0:0:
182,192,49177,1,0,0:0:0:0:
36,192,49177,1,0,0:0:0:0:
36,192,49284,1,0,0:0:0:0:
182,192,49284,1,0,0:0:0:0:
182,192,49391,1,0,0:0:0:0:
36,192,49391,1,0,0:0:0:0:
329,192,49391,1,0,0:0:0:0:
475,192,49391,1,0,0:0:0:0:
182,192,49498,1,0,0:0:0:0:
36,192,49498,1,0,0:0:0:0:
36,192,49605,1,0,0:0:0:0:
182,192,49605,1,0,0:0:0:0:
36,192,49713,1,0,0:0:0:0:
182,192,49713,1,0,0:0:0:0:
36,192,49820,1,0,0:0:0:0:
402,192,49820,1,0,0:0:0:0:
475,192,49820,1,0,0:0:0:0:
109,192,49820,1,0,0:0:0:0:
182,192,49820,1,0,0:0:0:0:
256,192,49820,1,0,0:0:0:0:
36,192,49927,1,0,0:0:0:0:
109,192,49927,1,0,0:0:0:0:
36,192,50034,1,0,0:0:0:0:
109,192,50034,1,0,0:0:0:0:
36,192,50141,1,0,0:0:0:0:
109,192,50141,1,0,0:0:0:0:
36,192,50248,1,0,0:0:0:0:
329,192,50248,1,0,0:0:0:0:
109,192,50248,1,0,0:0:0:0:
402,192,50248,1,0,0:0:0:0:
36,192,50355,1,0,0:0:0:0:
109,192,50355,1,0,0:0:0:0:
36,192,50463,1,0,0:0:0:0:
109,192,50463,1,0,0:0:0:0:
36,192,50570,1,0,0:0:0:0:
109,192,50570,1,0,0:0:0:0:
36,192,50677,1,0,0:0:0:0:
109,192,50677,1,0,0:0:0:0:
256,192,50677,1,0,0:0:0:0:
475,192,50677,1,0,0:0:0:0:
182,192,50677,1,0,0:0:0:0:
36,192,50784,1,0,0:0:0:0:
109,192,50784,1,0,0:0:0:0:
36,192,50891,1,0,0:0:0:0:
109,192,50891,1,0,0:0:0:0:
36,192,50998,1,0,0:0:0:0:
109,192,50998,1,0,0:0:0:0:
36,192,51105,1,0,0:0:0:0:
109,192,51105,1,0,0:0:0:0:
329,192,51105,1,0,0:0:0:0:
402,192,51105,1,0,0:0:0:0:
36,192,51213,1,0,0:0:0:0:
109,192,51213,1,0,0:0:0:0:
36,192,51320,1,0,0:0:0:0:
109,192,51320,1,0,0:0:0:0:
36,192,51427,1,0,0:0:0:0:
109,192,51427,1,0,0:0:0:0:
256,192,51534,1,0,0:0:0:0:
182,192,51534,1,0,0:0:0:0:
109,192,51534,1,0,0:0:0:0:
36,192,51534,1,0,0:0:0:0:
402,192,51534,1,0,0:0:0:0:
475,192,51534,1,0,0:0:0:0:
182,192,51641,1,0,0:0:0:0:
256,192,51641,1,0,0:0:0:0:
256,192,51748,1,0,0:0:0:0:
182,192,51748,1,0,0:0:0:0:
256,192,51855,1,0,0:0:0:0:
182,192,51855,1,0,0:0:0:0:
256,192,51963,1,0,0:0:0:0:
182,192,51963,1,0,0:0:0:0:
36,192,51963,1,0,0:0:0:0:
329,192,51963,1,0,0:0:0:0:
256,192,52070,1,0,0:0:0:0:
182,192,52070,1,0,0:0:0:0:
182,192,52177,1,0,0:0:0:0:
256,192,52177,1,0,0:0:0:0:
182,192,52284,1,0,0:0:0:0:
256,192,52284,1,0,0:0:0:0:
256,192,52391,1,0,0:0:0:0:
182,192,52391,1,0,0:0:0:0:
402,192,52391,1,0,0:0:0:0:
475,192,52391,1,0,0:0:0:0:
109,192,52391,1,0,0:0:0:0:
182,192,52498,1,0,0:0:0:0:
256,192,52498,1,0,0:0:0:0:
256,192,52605,1,0,0:0:0:0:
182,192,52605,1,0,0:0:0:0:
182,192,52713,1,0,0:0:0:0:
256,192,52713,1,0,0:0:0:0:
256,192,52820,1,0,0:0:0:0:
182,192,52820,1,0,0:0:0:0:
475,192,52820,1,0,0:0:0:0:
36,192,52820,1,0,0:0:0:0:
329,192,52820,1,0,0:0:0:0:
256,192,52927,1,0,0:0:0:0:
182,192,52927,1,0,0:0:0:0:
182,192,53034,1,0,0:0:0:0:
256,192,53034,1,0,0:0:0:0:
256,192,53141,1,0,0:0:0:0:
182,192,53141,1,0,0:0:0:0:
402,192,53248,1,0,0:0:0:0:
329,192,53248,1,0,0:0:0:0:
475,192,53248,1,0,0:0:0:0:
109,192,53248,1,0,0:0:0:0:
36,192,53248,1,0,0:0:0:0:
256,192,53248,1,0,0:0:0:0:
402,192,53355,1,0,0:0:0:0:
256,192,53355,1,0,0:0:0:0:
256,192,53463,1,0,0:0:0:0:
402,192,53463,1,0,0:0:0:0:
256,192,53570,1,0,0:0:0:0:
402,192,53570,1,0,0:0:0:0:
256,192,53677,1,0,0:0:0:0:
402,192,53677,1,0,0:0:0:0:
182,192,53677,1,0,0:0:0:0:
475,192,53677,1,0,0:0:0:0:
256,192,53784,1,0,0:0:0:0:
402,192,53784,1,0,0:0:0:0:
402,192,53891,1,0,0:0:0:0:
256,192,53891,1,0,0:0:0:0:
402,192,53998,1,0,0:0:0:0:
256,192,53998,1,0,0:0:0:0:
256,192,54105,1,0,0:0:0:0:
402,192,54105,1,0,0:0:0:0:
109,192,54105,1,0,0:0:0:0:
36,192,54105,1,0,0:0:0:0:
329,192,54105,1,0,0:0:0:0:
402,192,54213,1,0,0:0:0:0:
256,192,54213,1,0,0:0:0:0:
256,192,54320,1,0,0:0:0:0:
402,192,54320,1,0,0:0:0:0:
402,192,54427,1,0,0:0:0:0:
256,192,54427,1,0,0:0:0:0:
256,192,54534,1,0,0:0:0:0:
402,192,54534,1,0,0:0:0:0:
182,192,54534,1,0,0:0:0:0:
109,192,54534,1,0,0:0:0:0:
256,192,54641,1,0,0:0:0:0:
402,192,54641,1,0,0:0:0:0:
402,192,54748,1,0,0:0:0:0:
256,192,54748,1,0,0:0:0:0:
256,192,54855,1,0,0:0:0:0:
402,192,54855,1,0,0:0:0:0:
475,192,54963,1,0,0:0:0:0:
329,192,54963,1,0,0:0:0:0:
36,192,54963,1,0,0:0:0:0:
182,192,54963,1,0,0:0:0:0:
109,192,54963,1,0,0:0:0:0:
402,192,54963,1,0,0:0:0:0:
329,192,55070,1,0,0:0:0:0:
475,192,55070,1,0,0:0:0:0:
475,192,55177,1,0,0:0:0:0:
329,192,55177,1,0,0:0:0:0:
475,192,55284,1,0,0:0:0:0:
329,192,55284,1,0,0:0:0:0:
475,192,55391,1,0,0:0:0:0:
329,192,55391,1,0,0:0:0:0:
109,192,55391,1,0,0:0:0:0:
182,192,55391,1,0,0:0:0:0:
475,192,55498,1,0,0:0:0:0:
329,192,55498,1,0,0:0:0:0:
329,192,55605,1,0,0:0:0:0:
475,192,55605,1,0,0:0:0:0:
329,192,55713,1,0,0:0:0:0:
475,192,55713,1,0,0:0:0:0:
475,192,55820,1,0,0:0:0:0:
329,192,55820,1,0,0:0:0:0:
36,192,55820,1,0,0:0:0:0:
256,192,55820,1,0,0:0:0:0:
402,192,55820,1,0,0:0:0:0:
329,192,55927,1,0,0:0:0:0:
475,192,55927,1,0,0:0:0:0:
475,192,56034,1,0,0:0:0:0:
329,192,56034,1,0,0:0:0:0:
329,192,56141,1,0,0:0:0:0:
475,192,56141,1,0,0:0:0:0:
475,192,56248,1,0,0:0:0:0:
329,192,56248,1,0,0:0:0:0:
182,192,56248,1,0,0:0:0:0:
109,192,56248,1,0,0:0:0:0:
475,192,56355,1,0,0:0:0:0:
329,192,56355,1,0,0:0:0:0:
329,192,56463,1,0,0:0:0:0:
475,192,56463,1,0,0:0:0:0:
475,192,56570,1,0,0:0:0:0:
329,192,56570,1,0,0:0:0:0:
475,192,56677,1,0,0:0:0:0:
402,192,56677,1,0,0:0:0:0:
256,192,56677,1,0,0:0:0:0:
36,192,56677,1,0,0:0:0:0:
182,192,56677,1,0,0:0:0:0:
109,192,56677,1,0,0:0:0:0:
475,192,56784,1,0,0:0:0:0:
402,192,56784,1,0,0:0:0:0:
475,192,56891,1,0,0:0:0:0:
402,192,56891,1,0,0:0:0:0:
475,192,56998,1,0,0:0:0:0:
402,192,56998,1,0,0:0:0:0:
475,192,57105,1,0,0:0:0:0:
402,192,57105,1,0,0:0:0:0:
36,192,57105,1,0,0:0:0:0:
109,192,57105,1,0,0:0:0:0:
475,192,57213,1,0,0:0:0:0:
402,192,57213,1,0,0:0:0:0:
475,192,57320,1,0,0:0:0:0:
402,192,57320,1,0,0:0:0:0:
475,192,57427,1,0,0:0:0:0:
402,192,57427,1,0,0:0:0:0:
475,192,57534,1,0,0:0:0:0:
402,192,57534,1,0,0:0:0:0:
256,192,57534,1,0,0:0:0:0:
182,192,57534,1,0,0:0:0:0:
329,192,57534,1,0,0:0:0:0:
475,192,57641,1,0,0:0:0:0:
402,192,57641,1,0,0:0:0:0:
475,192,57748,1,0,0:0:0:0:
402,192,57748,1,0,0:0:0:0:
475,192,57855,1,0,0:0:0:0:
402,192,57855,1,0,0:0:0:0:
475,192,57963,1,0,0:0:0:0:
402,192,57963,1,0,0:0:0:0:
109,192,57963,1,0,0:0:0:0:
36,192,57963,1,0,0:0:0:0:
475,192,58070,1,0,0:0:0:0:
402,192,58070,1,0,0:0:0:0:
475,192,58177,1,0,0:0:0:0:
402,192,58177,1,0,0:0:0:0:
475,192,58284,1,0,0:0:0:0:
402,192,58284,1,0,0:0:0:0:
329,192,58391,1,0,0:0:0:0:
256,192,58391,1,0,0:0:0:0:
109,192,58391,1,0,0:0:0:0:
36,192,58391,1,0,0:0:0:0:
402,192,58391,1,0,0:0:0:0:
475,192,58391,1,0,0:0:0:0:
329,192,58498,1,0,0:0:0:0:
256,192,58498,1,0,0:0:0:0:
329,192,58605,1,0,0:0:0:0:
256,192,58605,1,0,0:0:0:0:
329,192,58713,1,0,0:0:0:0:
256,192,58713,1,0,0:0:0:0:
329,192,58820,1,0,0:0:0:0:
256,192,58820,1,0,0:0:0:0:
402,192,58820,1,0,0:0:0:0:
475,192,58820,1,0,0:0:0:0:
329,192,58927,1,0,0:0:0:0:
256,192,58927,1,0,0:0:0:0:
329,192,59034,1,0,0:0:0:0:
256,192,59034,1,0,0:0:0:0:
329,192,59141,1,0,0:0:0:0:
256,192,59141,1,0,0:0:0:0:
329,192,59248,1,0,0:0:0:0:
256,192,59248,1,0,0:0:0:0:
36,192,59248,1,0,0:0:0:0:
109,192,59248,1,0,0:0:0:0:
329,192,59355,1,0,0:0:0:0:
256,192,59355,1,0,0:0:0:0:
329,192,59463,1,0,0:0:0:0:
256,192,59463,1,0,0:0:0:0:
329,192,59570,1,0,0:0:0:0:
256,192,59570,1,0,0:0:0:0:
329,192,59677,1,0,0:0:0:0:
256,192,59677,1,0,0:0:0:0:
402,192,59677,1,0,0:0:0:0:
475,192,59677,1,0,0:0:0:0:
36,192,59677,1,0,0:0:0:0:
329,192,59784,1,0,0:0:0:0:
256,192,59784,1,0,0:0:0:0:
329,192,59891,1,0,0:0:0:0:
256,192,59891,1,0,0:0:0:0:
329,192,59998,1,0,0:0:0:0:
256,192,59998,1,0,0:0:0:0:
256,192,60105,1,0,0:0:0:0:
109,192,60105,1,0,0:0:0:0:
36,192,60105,1,0,0:0:0:0:
182,192,60105,1,0,0:0:0:0:
402,192,60105,1,0,0:0:0:0:
475,192,60105,1,0,0:0:0:0:
109,192,60213,1,0,0:0:0:0:
256,192,60213,1,0,0:0:0:0:
256,192,60320,1,0,0:0:0:0:
109,192,60320,1,0,0:0:0:0:
109,192,60427,1,0,0:0:0:0:
256,192,60427,1,0,0:0:0:0:
256,192,60534,1,0,0:0:0:0:
109,192,60534,1,0,0:0:0:0:
329,192,60534,1,0,0:0:0:0:
402,192,60534,1,0,0:0:0:0:
109,192,60641,1,0,0:0:0:0:
256,192,60641,1,0,0:0:0:0:
256,192,60748,1,0,0:0:0:0:
109,192,60748,1,0,0:0:0:0:
256,192,60855,1,0,0:0:0:0:
109,192,60855,1,0,0:0:0:0:
109,192,60963,1,0,0:0:0:0:
256,192,60963,1,0,0:0:0:0:
182,192,60963,1,0,0:0:0:0:
36,192,60963,1,0,0:0:0:0:
475,192,60963,1,0,0:0:0:0:
109,192,61070,1,0,0:0:0:0:
256,192,61070,1,0,0:0:0:0:
256,192,61177,1,0,0:0:0:0:
109,192,61177,1,0,0:0:0:0:
402,192,61177,1,0,0:0:0:0:
109,192,61284,1,0,0:0:0:0:
256,192,61284,1,0,0:0:0:0:
109,192,61391,1,0,0:0:0:0:
256,192,61391,1,0,0:0:0:0:
329,192,61391,1,0,0:0:0:0:
109,192,61498,1,0,0:0:0:0:
256,192,61498,1,0,0:0:0:0:
256,192,61605,1,0,0:0:0:0:
109,192,61605,1,0,0:0:0:0:
402,192,61605,1,0,0:0:0:0:
109,192,61713,1,0,0:0:0:0:
256,192,61713,1,0,0:0:0:0:
36,192,61820,1,0,0:0:0:0:
182,192,61820,1,0,0:0:0:0:
109,192,61820,1,0,0:0:0:0:
475,192,61820,1,0,0:0:0:0:
256,192,61820,1,0,0:0:0:0:
329,192,61820,1,0,0:0:0:0:
36,192,61927,1,0,0:0:0:0:
109,192,61927,1,0,0:0:0:0:
182,192,61927,1,0,0:0:0:0:
36,192,62034,1,0,0:0:0:0:
109,192,62034,1,0,0:0:0:0:
182,192,62034,1,0,0:0:0:0:
182,192,62141,1,0,0:0:0:0:
109,192,62141,1,0,0:0:0:0:
36,192,62141,1,0,0:0:0:0:
36,192,62248,1,0,0:0:0:0:
109,192,62248,1,0,0:0:0:0:
182,192,62248,1,0,0:0:0:0:
256,192,62248,1,0,0:0:0:0:
402,192,62248,1,0,0:0:0:0:
182,192,62355,1,0,0:0:0:0:
109,192,62355,1,0,0:0:0:0:
36,192,62355,1,0,0:0:0:0:
36,192,62463,1,0,0:0:0:0:
109,192,62463,1,0,0:0:0:0:
182,192,62463,1,0,0:0:0:0:
182,192,62570,1,0,0:0:0:0:
109,192,62570,1,0,0:0:0:0:
36,192,62570,1,0,0:0:0:0:
329,192,62677,1,0,0:0:0:0:
402,192,62677,1,0,0:0:0:0:
475,192,62677,1,0,0:0:0:0:
256,192,62677,1,0,0:0:0:0:
182,192,62677,1,0,0:0:0:0:
109,192,62677,1,0,0:0:0:0:
36,192,62677,1,0,0:0:0:0:
475,192,62784,1,0,0:0:0:0:
329,192,62784,1,0,0:0:0:0:
402,192,62784,1,0,0:0:0:0:
329,192,62891,1,0,0:0:0:0:
402,192,62891,1,0,0:0:0:0:
475,192,62891,1,0,0:0:0:0:
475,192,62998,1,0,0:0:0:0:
329,192,62998,1,0,0:0:0:0:
402,192,62998,1,0,0:0:0:0:
475,192,63105,1,0,0:0:0:0:
329,192,63105,1,0,0:0:0:0:
402,192,63105,1,0,0:0:0:0:
182,192,63105,1,0,0:0:0:0:
36,192,63105,1,0,0:0:0:0:
475,192,63213,1,0,0:0:0:0:
402,192,63213,1,0,0:0:0:0:
329,192,63213,1,0,0:0:0:0:
402,192,63320,1,0,0:0:0:0:
329,192,63320,1,0,0:0:0:0:
475,192,63320,1,0,0:0:0:0:
329,192,63427,1,0,0:0:0:0:
475,192,63427,1,0,0:0:0:0:
402,192,63427,1,0,0:0:0:0:
109,192,63534,1,0,0:0:0:0:
256,192,63534,1,0,0:0:0:0:
329,192,63534,1,0,0:0:0:0:
182,192,63534,1,0,0:0:0:0:
36,192,63534,1,0,0:0:0:0:
329,192,63641,1,0,0:0:0:0:
109,192,63641,1,0,0:0:0:0:
256,192,63641,1,0,0:0:0:0:
109,192,63748,1,0,0:0:0:0:
256,192,63748,1,0,0:0:0:0:
329,192,63748,1,0,0:0:0:0:
329,192,63855,1,0,0:0:0:0:
109,192,63855,1,0,0:0:0:0:
256,192,63855,1,0,0:0:0:0:
329,192,63963,1,0,0:0:0:0:
109,192,63963,1,0,0:0:0:0:
256,192,63963,1,0,0:0:0:0:
402,192,63963,1,0,0:0:0:0:
475,192,63963,1,0,0:0:0:0:
329,192,64070,1,0,0:0:0:0:
256,192,64070,1,0,0:0:0:0:
109,192,64070,1,0,0:0:0:0:
256,192,64177,1,0,0:0:0:0:
109,192,64177,1,0,0:0:0:0:
329,192,64177,1,0,0:0:0:0:
109,192,64284,1,0,0:0:0:0:
329,192,64284,1,0,0:0:0:0:
256,192,64284,1,0,0:0:0:0:
182,192,64391,1,0,0:0:0:0:
36,192,64391,1,0,0:0:0:0:
256,192,64391,1,0,0:0:0:0:
402,192,64391,1,0,0:0:0:0:
475,192,64391,1,0,0:0:0:0:
109,192,64391,1,0,0:0:0:0:
182,192,64498,1,0,0:0:0:0:
36,192,64498,1,0,0:0:0:0:
256,192,64498,1,0,0:0:0:0:
256,192,64605,1,0,0:0:0:0:
182,192,64605,1,0,0:0:0:0:
36,192,64605,1,0,0:0:0:0:
182,192,64713,1,0,0:0:0:0:
36,192,64713,1,0,0:0:0:0:
256,192,64713,1,0,0:0:0:0:
182,192,64820,1,0,0:0:0:0:
36,192,64820,1,0,0:0:0:0:
256,192,64820,1,0,0:0:0:0:
329,192,64820,1,0,0:0:0:0:
402,192,64820,1,0,0:0:0:0:
36,192,64927,1,0,0:0:0:0:
182,192,64927,1,0,0:0:0:0:
256,192,64927,1,0,0:0:0:0:
256,192,65034,1,0,0:0:0:0:
36,192,65034,1,0,0:0:0:0:
182,192,65034,1,0,0:0:0:0:
182,192,65141,1,0,0:0:0:0:
256,192,65141,1,0,0:0:0:0:
36,192,65141,1,0,0:0:0:0:
330,192,65248,1,0,0:0:0:0:
476,192,65248,1,0,0:0:0:0:
403,192,65248,1,0,0:0:0:0:
109,192,65248,1,0,0:0:0:0:
36,192,65248,1,0,0:0:0:0:
256,192,65248,1,0,0:0:0:0:
182,192,65248,1,0,0:0:0:0:
403,192,65355,1,0,0:0:0:0:
476,192,65355,1,0,0:0:0:0:
330,192,65355,1,0,0:0:0:0:
476,192,65463,1,0,0:0:0:0:
330,192,65463,1,0,0:0:0:0:
403,192,65463,1,0,0:0:0:0:
330,192,65570,1,0,0:0:0:0:
476,192,65570,1,0,0:0:0:0:
403,192,65570,1,0,0:0:0:0:
330,192,65677,1,0,0:0:0:0:
403,192,65677,1,0,0:0:0:0:
476,192,65677,1,0,0:0:0:0:
36,192,65677,1,0,0:0:0:0:
182,192,65677,1,0,0:0:0:0:
109,192,65677,1,0,0:0:0:0:
330,192,65784,1,0,0:0:0:0:
403,192,65784,1,0,0:0:0:0:
476,192,65784,1,0,0:0:0:0:
403,192,65891,1,0,0:0:0:0:
476,192,65891,1,0,0:0:0:0:
330,192,65891,1,0,0:0:0:0:
403,192,65998,1,0,0:0:0:0:
330,192,65998,1,0,0:0:0:0:
476,192,65998,1,0,0:0:0:0:
183,192,66105,1,0,0:0:0:0:
110,192,66105,1,0,0:0:0:0:
37,192,66105,1,0,0:0:0:0:
256,192,66105,1,0,0:0:0:0:
329,192,66105,1,0,0:0:0:0:
402,192,66105,1,0,0:0:0:0:
475,192,66105,1,0,0:0:0:0:
183,192,66213,1,0,0:0:0:0:
110,192,66213,1,0,0:0:0:0:
37,192,66213,1,0,0:0:0:0:
110,192,66320,1,0,0:0:0:0:
183,192,66320,1,0,0:0:0:0:
37,192,66320,1,0,0:0:0:0:
183,192,66427,1,0,0:0:0:0:
37,192,66427,1,0,0:0:0:0:
110,192,66427,1,0,0:0:0:0:
183,192,66534,1,0,0:0:0:0:
37,192,66534,1,0,0:0:0:0:
110,192,66534,1,0,0:0:0:0:
329,192,66534,1,0,0:0:0:0:
402,192,66534,1,0,0:0:0:0:
475,192,66534,1,0,0:0:0:0:
110,192,66641,1,0,0:0:0:0:
37,192,66641,1,0,0:0:0:0:
183,192,66641,1,0,0:0:0:0:
110,192,66748,1,0,0:0:0:0:
37,192,66748,1,0,0:0:0:0:
183,192,66748,1,0,0:0:0:0:
37,192,66855,1,0,0:0:0:0:
183,192,66855,1,0,0:0:0:0:
110,192,66855,1,0,0:0:0:0:
183,192,66963,1,0,0:0:0:0:
403,192,66963,1,0,0:0:0:0:
256,192,66963,1,0,0:0:0:0:
36,192,66963,1,0,0:0:0:0:
109,192,66963,1,0,0:0:0:0:
475,192,66963,1,0,0:0:0:0:
183,192,67070,1,0,0:0:0:0:
403,192,67070,1,0,0:0:0:0:
256,192,67070,1,0,0:0:0:0:
403,192,67177,1,0,0:0:0:0:
256,192,67177,1,0,0:0:0:0:
183,192,67177,1,0,0:0:0:0:
256,192,67284,1,0,0:0:0:0:
183,192,67284,1,0,0:0:0:0:
403,192,67284,1,0,0:0:0:0:
183,192,67391,1,0,0:0:0:0:
256,192,67391,1,0,0:0:0:0:
403,192,67391,1,0,0:0:0:0:
109,192,67391,1,0,0:0:0:0:
36,192,67391,1,0,0:0:0:0:
403,192,67498,1,0,0:0:0:0:
256,192,67498,1,0,0:0:0:0:
183,192,67498,1,0,0:0:0:0:
403,192,67605,1,0,0:0:0:0:
183,192,67605,1,0,0:0:0:0:
256,192,67605,1,0,0:0:0:0:
256,192,67713,1,0,0:0:0:0:
183,192,67713,1,0,0:0:0:0:
403,192,67713,1,0,0:0:0:0:
330,192,67820,1,0,0:0:0:0:
256,192,67820,1,0,0:0:0:0:
476,192,67820,1,0,0:0:0:0:
402,192,67820,1,0,0:0:0:0:
109,192,67820,1,0,0:0:0:0:
36,192,67820,1,0,0:0:0:0:
256,192,67927,1,0,0:0:0:0:
330,192,67927,1,0,0:0:0:0:
476,192,67927,1,0,0:0:0:0:
256,192,68034,1,0,0:0:0:0:
330,192,68034,1,0,0:0:0:0:
476,192,68034,1,0,0:0:0:0:
476,192,68141,1,0,0:0:0:0:
256,192,68141,1,0,0:0:0:0:
330,192,68141,1,0,0:0:0:0:
256,192,68248,1,0,0:0:0:0:
330,192,68248,1,0,0:0:0:0:
476,192,68248,1,0,0:0:0:0:
182,192,68248,1,0,0:0:0:0:
402,192,68248,1,0,0:0:0:0:
476,192,68355,1,0,0:0:0:0:
256,192,68355,1,0,0:0:0:0:
330,192,68355,1,0,0:0:0:0:
330,192,68463,1,0,0:0:0:0:
256,192,68463,1,0,0:0:0:0:
476,192,68463,1,0,0:0:0:0:
109,192,68463,1,0,0:0:0:0:
36,192,68463,1,0,0:0:0:0:
256,192,68570,1,0,0:0:0:0:
476,192,68570,1,0,0:0:0:0:
330,192,68570,1,0,0:0:0:0:
476,192,68677,1,0,0:0:0:0:
330,192,68677,1,0,0:0:0:0:
256,192,68677,1,0,0:0:0:0:
182,192,68677,1,0,0:0:0:0:
402,192,68677,1,0,0:0:0:0:
36,192,68677,1,0,0:0:0:0:
109,192,68677,1,0,0:0:0:0:
109,192,68784,1,0,0:0:0:0:
36,192,68784,1,0,0:0:0:0:
182,192,68784,1,0,0:0:0:0:
36,192,68891,1,0,0:0:0:0:
109,192,68891,1,0,0:0:0:0:
182,192,68891,1,0,0:0:0:0:
182,192,68998,1,0,0:0:0:0:
109,192,68998,1,0,0:0:0:0:
36,192,68998,1,0,0:0:0:0:
36,192,69105,1,0,0:0:0:0:
182,192,69105,1,0,0:0:0:0:
109,192,69105,1,0,0:0:0:0:
256,192,69105,1,0,0:0:0:0:
329,192,69105,1,0,0:0:0:0:
402,192,69105,1,0,0:0:0:0:
475,192,69105,1,0,0:0:0:0:
182,192,69213,1,0,0:0:0:0:
109,192,69213,1,0,0:0:0:0:
36,192,69213,1,0,0:0:0:0:
36,192,69320,1,0,0:0:0:0:
109,192,69320,1,0,0:0:0:0:
182,192,69320,1,0,0:0:0:0:
182,192,69427,1,0,0:0:0:0:
109,192,69427,1,0,0:0:0:0:
36,192,69427,1,0,0:0:0:0:
109,192,69534,1,0,0:0:0:0:
36,192,69534,1,0,0:0:0:0:
182,192,69534,1,0,0:0:0:0:
256,192,69534,1,0,0:0:0:0:
329,192,69534,1,0,0:0:0:0:
402,192,69534,1,0,0:0:0:0:
475,192,69534,1,0,0:0:0:0:
36,192,69641,1,0,0:0:0:0:
182,192,69641,1,0,0:0:0:0:
109,192,69641,1,0,0:0:0:0:
36,192,69748,1,0,0:0:0:0:
109,192,69748,1,0,0:0:0:0:
182,192,69748,1,0,0:0:0:0:
36,192,69855,1,0,0:0:0:0:
182,192,69855,1,0,0:0:0:0:
109,192,69855,1,0,0:0:0:0:
109,192,69963,1,0,0:0:0:0:
36,192,69963,1,0,0:0:0:0:
182,192,69963,1,0,0:0:0:0:
475,192,69963,1,0,0:0:0:0:
402,192,69963,1,0,0:0:0:0:
329,192,69963,1,0,0:0:0:0:
256,192,69963,1,0,0:0:0:0:
182,192,70070,1,0,0:0:0:0:
36,192,70070,1,0,0:0:0:0:
109,192,70070,1,0,0:0:0:0:
36,192,70177,1,0,0:0:0:0:
182,192,70177,1,0,0:0:0:0:
109,192,70177,1,0,0:0:0:0:
182,192,70284,1,0,0:0:0:0:
109,192,70284,1,0,0:0:0:0:
36,192,70284,1,0,0:0:0:0:
329,192,70391,1,0,0:0:0:0:
475,192,70391,1,0,0:0:0:0:
402,192,70391,1,0,0:0:0:0:
256,192,70391,1,0,0:0:0:0:
182,192,70391,1,0,0:0:0:0:
109,192,70391,1,0,0:0:0:0:
36,192,70391,1,0,0:0:0:0:
475,192,70498,1,0,0:0:0:0:
402,192,70498,1,0,0:0:0:0:
329,192,70498,1,0,0:0:0:0:
475,192,70605,1,0,0:0:0:0:
329,192,70605,1,0,0:0:0:0:
402,192,70605,1,0,0:0:0:0:
402,192,70713,1,0,0:0:0:0:
329,192,70713,1,0,0:0:0:0:
475,192,70713,1,0,0:0:0:0:
402,192,70820,1,0,0:0:0:0:
329,192,70820,1,0,0:0:0:0:
475,192,70820,1,0,0:0:0:0:
182,192,70820,1,0,0:0:0:0:
109,192,70820,1,0,0:0:0:0:
36,192,70820,1,0,0:0:0:0:
256,192,70820,1,0,0:0:0:0:
402,192,70927,1,0,0:0:0:0:
329,192,70927,1,0,0:0:0:0:
475,192,70927,1,0,0:0:0:0:
402,192,71034,1,0,0:0:0:0:
475,192,71034,1,0,0:0:0:0:
329,192,71034,1,0,0:0:0:0:
329,192,71141,1,0,0:0:0:0:
402,192,71141,1,0,0:0:0:0:
475,192,71141,1,0,0:0:0:0:
475,192,71248,1,0,0:0:0:0:
402,192,71248,1,0,0:0:0:0:
329,192,71248,1,0,0:0:0:0:
256,192,71248,1,0,0:0:0:0:
182,192,71248,1,0,0:0:0:0:
109,192,71248,1,0,0:0:0:0:
36,192,71248,1,0,0:0:0:0:
475,192,71355,1,0,0:0:0:0:
329,192,71355,1,0,0:0:0:0:
402,192,71355,1,0,0:0:0:0:
329,192,71463,1,0,0:0:0:0:
402,192,71463,1,0,0:0:0:0:
475,192,71463,1,0,0:0:0:0:
329,192,71570,1,0,0:0:0:0:
475,192,71570,1,0,0:0:0:0:
402,192,71570,1,0,0:0:0:0:
402,192,71677,1,0,0:0:0:0:
475,192,71677,1,0,0:0:0:0:
329,192,71677,1,0,0:0:0:0:
109,192,71677,1,0,0:0:0:0:
36,192,71677,1,0,0:0:0:0:
182,192,71677,1,0,0:0:0:0:
256,192,71677,1,0,0:0:0:0:
475,192,71784,1,0,0:0:0:0:
329,192,71784,1,0,0:0:0:0:
402,192,71784,1,0,0:0:0:0:
475,192,71891,1,0,0:0:0:0:
402,192,71891,1,0,0:0:0:0:
329,192,71891,1,0,0:0:0:0:
329,192,71998,1,0,0:0:0:0:
402,192,71998,1,0,0:0:0:0:
475,192,71998,1,0,0:0:0:0:
182,192,72105,1,0,0:0:0:0:
109,192,72105,1,0,0:0:0:0:
36,192,72105,1,0,0:0:0:0:
475,192,72105,1,0,0:0:0:0:
402,192,72105,1,0,0:0:0:0:
329,192,72105,1,0,0:0:0:0:
256,192,72105,1,0,0:0:0:0:
36,192,72213,1,0,0:0:0:0:
475,192,72213,1,0,0:0:0:0:
109,192,72213,1,0,0:0:0:0:
402,192,72213,1,0,0:0:0:0:
36,192,72320,1,0,0:0:0:0:
109,192,72320,1,0,0:0:0:0:
402,192,72320,1,0,0:0:0:0:
475,192,72320,1,0,0:0:0:0:
402,192,72427,1,0,0:0:0:0:
475,192,72427,1,0,0:0:0:0:
36,192,72427,1,0,0:0:0:0:
109,192,72427,1,0,0:0:0:0:
36,192,72534,1,0,0:0:0:0:
109,192,72534,1,0,0:0:0:0:
402,192,72534,1,0,0:0:0:0:
475,192,72534,1,0,0:0:0:0:
256,192,72534,1,0,0:0:0:0:
402,192,72641,1,0,0:0:0:0:
475,192,72641,1,0,0:0:0:0:
36,192,72641,1,0,0:0:0:0:
109,192,72641,1,0,0:0:0:0:
36,192,72748,1,0,0:0:0:0:
109,192,72748,1,0,0:0:0:0:
402,192,72748,1,0,0:0:0:0:
475,192,72748,1,0,0:0:0:0:
402,192,72855,1,0,0:0:0:0:
475,192,72855,1,0,0:0:0:0:
36,192,72855,1,0,0:0:0:0:
109,192,72855,1,0,0:0:0:0:
36,192,72963,1,0,0:0:0:0:
109,192,72963,1,0,0:0:0:0:
402,192,72963,1,0,0:0:0:0:
475,192,72963,1,0,0:0:0:0:
256,192,72963,1,0,0:0:0:0:
402,192,73070,1,0,0:0:0:0:
475,192,73070,1,0,0:0:0:0:
36,192,73070,1,0,0:0:0:0:
109,192,73070,1,0,0:0:0:0:
36,192,73177,1,0,0:0:0:0:
109,192,73177,1,0,0:0:0:0:
402,192,73177,1,0,0:0:0:0:
475,192,73177,1,0,0:0:0:0:
402,192,73284,1,0,0:0:0:0:
36,192,73284,1,0,0:0:0:0:
475,192,73284,1,0,0:0:0:0:
109,192,73284,1,0,0:0:0:0:
109,192,73391,1,0,0:0:0:0:
402,192,73391,1,0,0:0:0:0:
36,192,73391,1,0,0:0:0:0:
475,192,73391,1,0,0:0:0:0:
256,192,73391,1,0,0:0:0:0:
475,192,73498,1,0,0:0:0:0:
109,192,73498,1,0,0:0:0:0:
402,192,73498,1,0,0:0:0:0:
36,192,73498,1,0,0:0:0:0:
475,192,73605,1,0,0:0:0:0:
402,192,73605,1,0,0:0:0:0:
36,192,73605,1,0,0:0:0:0:
109,192,73605,1,0,0:0:0:0:
402,192,73713,1,0,0:0:0:0:
36,192,73713,1,0,0:0:0:0:
475,192,73713,1,0,0:0:0:0:
109,192,73713,1,0,0:0:0:0:
402,192,73820,1,0,0:0:0:0:
475,192,73820,1,0,0:0:0:0:
109,192,73820,1,0,0:0:0:0:
36,192,73820,1,0,0:0:0:0:
256,192,73820,1,0,0:0:0:0:
182,192,73820,1,0,0:0:0:0:
329,192,73820,1,0,0:0:0:0:
475,192,73927,1,0,0:0:0:0:
109,192,73927,1,0,0:0:0:0:
36,192,73927,1,0,0:0:0:0:
402,192,73927,1,0,0:0:0:0:
182,192,73927,1,0,0:0:0:0:
329,192,73927,1,0,0:0:0:0:
475,192,74034,1,0,0:0:0:0:
109,192,74034,1,0,0:0:0:0:
402,192,74034,1,0,0:0:0:0:
36,192,74034,1,0,0:0:0:0:
329,192,74034,1,0,0:0:0:0:
182,192,74034,1,0,0:0:0:0:
329,192,74141,1,0,0:0:0:0:
182,192,74141,1,0,0:0:0:0:
109,192,74141,1,0,0:0:0:0:
36,192,74141,1,0,0:0:0:0:
402,192,74141,1,0,0:0:0:0:
475,192,74141,1,0,0:0:0:0:
256,192,74248,1,0,0:0:0:0:
36,192,74248,1,0,0:0:0:0:
109,192,74248,1,0,0:0:0:0:
182,192,74248,1,0,0:0:0:0:
475,192,74248,1,0,0:0:0:0:
402,192,74248,1,0,0:0:0:0:
329,192,74248,1,0,0:0:0:0:
402,192,74355,1,0,0:0:0:0:
329,192,74355,1,0,0:0:0:0:
109,192,74355,1,0,0:0:0:0:
475,192,74355,1,0,0:0:0:0:
182,192,74355,1,0,0:0:0:0:
36,192,74355,1,0,0:0:0:0:
475,192,74463,1,0,0:0:0:0:
36,192,74463,1,0,0:0:0:0:
182,192,74463,1,0,0:0:0:0:
109,192,74463,1,0,0:0:0:0:
329,192,74463,1,0,0:0:0:0:
402,192,74463,1,0,0:0:0:0:
475,192,74570,1,0,0:0:0:0:
36,192,74570,1,0,0:0:0:0:
182,192,74570,1,0,0:0:0:0:
109,192,74570,1,0,0:0:0:0:
402,192,74570,1,0,0:0:0:0:
329,192,74570,1,0,0:0:0:0:
256,192,74677,1,0,0:0:0:0:
109,192,74677,1,0,0:0:0:0:
475,192,74677,1,0,0:0:0:0:
36,192,74677,1,0,0:0:0:0:
329,192,74677,1,0,0:0:0:0:
402,192,74677,1,0,0:0:0:0:
182,192,74677,1,0,0:0:0:0:
329,192,74748,1,0,0:0:0:0:
402,192,74748,1,0,0:0:0:0:
475,192,74748,1,0,0:0:0:0:
256,192,74784,1,0,0:0:0:0:
475,192,74820,1,0,0:0:0:0:
402,192,74820,1,0,0:0:0:0:
329,192,74820,1,0,0:0:0:0:
182,192,74820,1,0,0:0:0:0:
109,192,74820,1,0,0:0:0:0:
36,192,74820,1,0,0:0:0:0:
36,192,74891,1,0,0:0:0:0:
109,192,74891,1,0,0:0:0:0:
182,192,74891,1,0,0:0:0:0:
256,192,74891,1,0,0:0:0:0:
182,192,74963,1,0,0:0:0:0:
109,192,74963,1,0,0:0:0:0:
36,192,74963,1,0,0:0:0:0:
329,192,74963,1,0,0:0:0:0:
402,192,74963,1,0,0:0:0:0:
475,192,74963,1,0,0:0:0:0:
256,192,74998,1,0,0:0:0:0:
475,192,75034,1,0,0:0:0:0:
402,192,75034,1,0,0:0:0:0:
329,192,75034,1,0,0:0:0:0:
329,192,75105,1,0,0:0:0:0:
402,192,75105,1,0,0:0:0:0:
475,192,75105,1,0,0:0:0:0:
182,192,75105,1,0,0:0:0:0:
109,192,75105,1,0,0:0:0:0:
36,192,75105,1,0,0:0:0:0:
256,192,75105,1,0,0:0:0:0:
36,192,75177,1,0,0:0:0:0:
109,192,75177,1,0,0:0:0:0:
182,192,75177,1,0,0:0:0:0:
256,192,75213,1,0,0:0:0:0:
182,192,75248,1,0,0:0:0:0:
109,192,75248,1,0,0:0:0:0:
36,192,75248,1,0,0:0:0:0:
329,192,75248,1,0,0:0:0:0:
402,192,75248,1,0,0:0:0:0:
475,192,75248,1,0,0:0:0:0:
475,192,75320,1,0,0:0:0:0:
402,192,75320,1,0,0:0:0:0:
329,192,75320,1,0,0:0:0:0:
256,192,75320,1,0,0:0:0:0:
329,192,75391,1,0,0:0:0:0:
402,192,75391,1,0,0:0:0:0:
475,192,75391,1,0,0:0:0:0:
182,192,75391,1,0,0:0:0:0:
109,192,75391,1,0,0:0:0:0:
36,192,75391,1,0,0:0:0:0:
256,192,75427,1,0,0:0:0:0:
36,192,75463,1,0,0:0:0:0:
109,192,75463,1,0,0:0:0:0:
182,192,75463,1,0,0:0:0:0:
182,192,75534,1,0,0:0:0:0:
109,192,75534,1,0,0:0:0:0:
36,192,75534,1,0,0:0:0:0:
256,192,75534,1,0,0:0:0:0:
329,192,75534,1,0,0:0:0:0:
402,192,75534,1,0,0:0:0:0:
475,192,75534,1,0,0:0:0:0:
183,192,75959,1,0,0:0:0:0:
110,192,75959,1,0,0:0:0:0:
37,192,75959,1,0,0:0:0:0:
256,192,75959,1,0,0:0:0:0:
476,192,75959,1,0,0:0:0:0:
183,192,76030,1,0,0:0:0:0:
110,192,76030,1,0,0:0:0:0:
37,192,76030,1,0,0:0:0:0:
256,192,76030,1,0,0:0:0:0:
37,192,76101,1,0,0:0:0:0:
110,192,76101,1,0,0:0:0:0:
183,192,76101,1,0,0:0:0:0:
256,192,76101,1,0,0:0:0:0:
329,192,76101,1,0,0:0:0:0:
183,192,76172,1,0,0:0:0:0:
110,192,76172,1,0,0:0:0:0:
37,192,76172,1,0,0:0:0:0:
256,192,76172,1,0,0:0:0:0:
37,192,76243,1,0,0:0:0:0:
110,192,76243,1,0,0:0:0:0:
183,192,76243,1,0,0:0:0:0:
256,192,76243,1,0,0:0:0:0:
402,192,76243,1,0,0:0:0:0:
183,192,76314,1,0,0:0:0:0:
110,192,76314,1,0,0:0:0:0:
37,192,76314,1,0,0:0:0:0:
256,192,76314,1,0,0:0:0:0:
37,192,76385,1,0,0:0:0:0:
110,192,76385,1,0,0:0:0:0:
183,192,76385,1,0,0:0:0:0:
476,192,76385,1,0,0:0:0:0:
256,192,76385,1,0,0:0:0:0:
330,192,76385,1,0,0:0:0:0:
403,192,76385,1,0,0:0:0:0:
182,192,76810,1,0,0:0:0:0:
36,192,76810,1,0,0:0:0:0:
256,192,76810,1,0,0:0:0:0:
329,192,76810,1,0,0:0:0:0:
402,192,76810,1,0,0:0:0:0:
329,192,77023,1,0,0:0:0:0:
402,192,77023,1,0,0:0:0:0:
475,192,77023,1,0,0:0:0:0:
256,192,77023,1,0,0:0:0:0:
109,192,77023,1,0,0:0:0:0:
329,192,77448,1,0,0:0:0:0:
475,192,77448,1,0,0:0:0:0:
402,192,77448,1,0,0:0:0:0:
36,192,77448,1,0,0:0:0:0:
182,192,77448,1,0,0:0:0:0:
329,192,77661,1,0,0:0:0:0:
402,192,77661,1,0,0:0:0:0:
475,192,77661,1,0,0:0:0:0:
36,192,77661,1,0,0:0:0:0:
182,192,77661,1,0,0:0:0:0:
329,192,78087,1,0,0:0:0:0:
475,192,78087,1,0,0:0:0:0:
109,192,78087,128,0,78512:0:0:0:0:
36,192,78087,128,0,78512:0:0:0:0:
256,192,78087,1,0,0:0:0:0:
402,192,78512,128,0,78938:0:0:0:0:
475,192,78512,128,0,78938:0:0:0:0:
182,192,78512,1,0,0:0:0:0:
256,192,78512,1,0,0:0:0:0:
109,192,78938,1,0,0:0:0:0:
36,192,78938,1,0,0:0:0:0:
329,192,78938,1,0,0:0:0:0:
256,192,78938,1,0,0:0:0:0:
475,192,79362,1,0,0:0:0:0:
36,192,79362,1,0,0:0:0:0:
402,192,79362,1,0,0:0:0:0:
329,192,79362,1,0,0:0:0:0:
256,192,79362,1,0,0:0:0:0:
329,192,79432,1,0,0:0:0:0:
256,192,79432,1,0,0:0:0:0:
475,192,79432,1,0,0:0:0:0:
402,192,79432,1,0,0:0:0:0:
475,192,79503,1,0,0:0:0:0:
329,192,79503,1,0,0:0:0:0:
183,192,79503,1,0,0:0:0:0:
402,192,79503,1,0,0:0:0:0:
256,192,79503,1,0,0:0:0:0:
329,192,79574,1,0,0:0:0:0:
402,192,79574,1,0,0:0:0:0:
475,192,79574,1,0,0:0:0:0:
256,192,79574,1,0,0:0:0:0:
110,192,79644,1,0,0:0:0:0:
329,192,79644,1,0,0:0:0:0:
402,192,79644,1,0,0:0:0:0:
475,192,79644,1,0,0:0:0:0:
256,192,79644,1,0,0:0:0:0:
475,192,79715,1,0,0:0:0:0:
329,192,79715,1,0,0:0:0:0:
256,192,79715,1,0,0:0:0:0:
402,192,79715,1,0,0:0:0:0:
36,192,79786,1,0,0:0:0:0:
402,192,79786,1,0,0:0:0:0:
182,192,79786,1,0,0:0:0:0:
329,192,79786,1,0,0:0:0:0:
109,192,79786,1,0,0:0:0:0:
256,192,79786,1,0,0:0:0:0:
475,192,79786,1,0,0:0:0:0:
183,192,80210,1,0,0:0:0:0:
476,192,80210,1,0,0:0:0:0:
330,192,80210,1,0,0:0:0:0:
256,192,80210,1,0,0:0:0:0:
110,192,80210,1,0,0:0:0:0:
37,192,80422,1,0,0:0:0:0:
403,192,80422,1,0,0:0:0:0:
183,192,80422,1,0,0:0:0:0:
256,192,80422,1,0,0:0:0:0:
110,192,80422,1,0,0:0:0:0:
110,192,80846,1,0,0:0:0:0:
476,192,80846,1,0,0:0:0:0:
183,192,80846,1,0,0:0:0:0:
37,192,80846,1,0,0:0:0:0:
330,192,80846,1,0,0:0:0:0:
183,192,81058,1,0,0:0:0:0:
37,192,81058,1,0,0:0:0:0:
110,192,81058,1,0,0:0:0:0:
330,192,81058,1,0,0:0:0:0:
476,192,81058,1,0,0:0:0:0:
36,192,81482,1,0,0:0:0:0:
402,192,81482,1,0,0:0:0:0:
475,192,81482,1,0,0:0:0:0:
329,192,81482,1,0,0:0:0:0:
182,192,81482,1,0,0:0:0:0:
109,192,81694,1,0,0:0:0:0:
256,192,81694,1,0,0:0:0:0:
182,192,81764,1,0,0:0:0:0:
329,192,81764,1,0,0:0:0:0:
256,192,81835,1,0,0:0:0:0:
402,192,81835,1,0,0:0:0:0:
475,192,81906,1,0,0:0:0:0:
329,192,81906,1,0,0:0:0:0:
109,192,81906,1,0,0:0:0:0:
36,192,81906,1,0,0:0:0:0:
182,192,81906,1,0,0:0:0:0:
109,192,82118,1,0,0:0:0:0:
36,192,82118,1,0,0:0:0:0:
182,192,82118,1,0,0:0:0:0:
329,192,82118,1,0,0:0:0:0:
475,192,82118,1,0,0:0:0:0:
256,192,82330,1,0,0:0:0:0:
402,192,82330,1,0,0:0:0:0:
475,192,82330,1,0,0:0:0:0:
182,192,82330,1,0,0:0:0:0:
36,192,82330,1,0,0:0:0:0:
109,192,82330,1,0,0:0:0:0:
329,192,82330,1,0,0:0:0:0:
36,192,82752,1,0,0:0:0:0:
109,192,82752,1,0,0:0:0:0:
182,192,82752,1,0,0:0:0:0:
256,192,82752,1,0,0:0:0:0:
329,192,82752,1,0,0:0:0:0:
402,192,82752,1,0,0:0:0:0:
475,192,82752,1,0,0:0:0:0:
182,192,82822,1,0,0:0:0:0:
329,192,82822,1,0,0:0:0:0:
475,192,82822,1,0,0:0:0:0:
402,192,82822,1,0,0:0:0:0:
256,192,82822,1,0,0:0:0:0:
109,192,82822,1,0,0:0:0:0:
36,192,82822,1,0,0:0:0:0:
256,192,82893,1,0,0:0:0:0:
109,192,82893,1,0,0:0:0:0:
36,192,82893,1,0,0:0:0:0:
402,192,82893,1,0,0:0:0:0:
182,192,82893,1,0,0:0:0:0:
329,192,82893,1,0,0:0:0:0:
475,192,82893,1,0,0:0:0:0:
182,192,82963,1,0,0:0:0:0:
329,192,82963,1,0,0:0:0:0:
475,192,82963,1,0,0:0:0:0:
402,192,82963,1,0,0:0:0:0:
256,192,82963,1,0,0:0:0:0:
109,192,82963,1,0,0:0:0:0:
36,192,82963,1,0,0:0:0:0:
256,192,83034,1,0,0:0:0:0:
109,192,83034,1,0,0:0:0:0:
36,192,83034,1,0,0:0:0:0:
402,192,83034,1,0,0:0:0:0:
182,192,83034,1,0,0:0:0:0:
329,192,83034,1,0,0:0:0:0:
475,192,83034,1,0,0:0:0:0:
182,192,83104,1,0,0:0:0:0:
329,192,83104,1,0,0:0:0:0:
475,192,83104,1,0,0:0:0:0:
402,192,83104,1,0,0:0:0:0:
256,192,83104,1,0,0:0:0:0:
109,192,83104,1,0,0:0:0:0:
36,192,83104,1,0,0:0:0:0:
109,192,83175,1,0,0:0:0:0:
36,192,83175,1,0,0:0:0:0:
402,192,83175,1,0,0:0:0:0:
182,192,83175,1,0,0:0:0:0:
329,192,83175,1,0,0:0:0:0:
475,192,83175,1,0,0:0:0:0:
256,192,83175,1,0,0:0:0:0:
109,192,83597,1,0,0:0:0:0:
36,192,83597,1,0,0:0:0:0:
256,192,83597,1,0,0:0:0:0:
402,192,83597,1,0,0:0:0:0:
475,192,83597,1,0,0:0:0:0:
36,192,83808,1,0,0:0:0:0:
109,192,83808,1,0,0:0:0:0:
256,192,83808,1,0,0:0:0:0:
402,192,83808,1,0,0:0:0:0:
475,192,83808,1,0,0:0:0:0:
36,192,84231,1,0,0:0:0:0:
256,192,84231,1,0,0:0:0:0:
475,192,84231,1,0,0:0:0:0:
182,192,84231,1,0,0:0:0:0:
329,192,84231,1,0,0:0:0:0:
109,192,84442,1,0,0:0:0:0:
256,192,84442,1,0,0:0:0:0:
329,192,84442,1,0,0:0:0:0:
402,192,84442,1,0,0:0:0:0:
182,192,84442,1,0,0:0:0:0:
36,192,84653,1,0,0:0:0:0:
109,192,84653,1,0,0:0:0:0:
182,192,84865,1,0,0:0:0:0:
256,192,84865,1,0,0:0:0:0:
475,192,84865,1,0,0:0:0:0:
329,192,85076,1,0,0:0:0:0:
402,192,85076,1,0,0:0:0:0:
36,192,85287,1,0,0:0:0:0:
182,192,85287,1,0,0:0:0:0:
475,192,85287,1,0,0:0:0:0:
109,192,85499,1,0,0:0:0:0:
329,192,85499,1,0,0:0:0:0:
256,192,85710,1,0,0:0:0:0:
182,192,85710,1,0,0:0:0:0:
329,192,85710,1,0,0:0:0:0:
402,192,85710,1,0,0:0:0:0:
475,192,85710,1,0,0:0:0:0:
109,192,85710,1,0,0:0:0:0:
36,192,85710,1,0,0:0:0:0:
109,192,86132,1,0,0:0:0:0:
402,192,86132,1,0,0:0:0:0:
256,192,86132,1,0,0:0:0:0:
329,192,86132,1,0,0:0:0:0:
475,192,86132,1,0,0:0:0:0:
36,192,86132,1,0,0:0:0:0:
182,192,86132,1,0,0:0:0:0:
402,192,86203,1,0,0:0:0:0:
256,192,86203,1,0,0:0:0:0:
36,192,86203,1,0,0:0:0:0:
109,192,86203,1,0,0:0:0:0:
475,192,86203,1,0,0:0:0:0:
329,192,86203,1,0,0:0:0:0:
182,192,86203,1,0,0:0:0:0:
256,192,86273,1,0,0:0:0:0:
36,192,86273,1,0,0:0:0:0:
182,192,86273,1,0,0:0:0:0:
109,192,86273,1,0,0:0:0:0:
402,192,86273,1,0,0:0:0:0:
475,192,86273,1,0,0:0:0:0:
329,192,86273,1,0,0:0:0:0:
36,192,86344,1,0,0:0:0:0:
475,192,86344,1,0,0:0:0:0:
182,192,86344,1,0,0:0:0:0:
109,192,86344,1,0,0:0:0:0:
329,192,86344,1,0,0:0:0:0:
256,192,86344,1,0,0:0:0:0:
402,192,86344,1,0,0:0:0:0:
402,192,86414,1,0,0:0:0:0:
475,192,86414,1,0,0:0:0:0:
182,192,86414,1,0,0:0:0:0:
109,192,86414,1,0,0:0:0:0:
256,192,86414,1,0,0:0:0:0:
36,192,86414,1,0,0:0:0:0:
329,192,86414,1,0,0:0:0:0:
36,192,86484,1,0,0:0:0:0:
256,192,86484,1,0,0:0:0:0:
475,192,86484,1,0,0:0:0:0:
402,192,86484,1,0,0:0:0:0:
329,192,86484,1,0,0:0:0:0:
182,192,86484,1,0,0:0:0:0:
109,192,86484,1,0,0:0:0:0:
109,192,86555,1,0,0:0:0:0:
402,192,86555,1,0,0:0:0:0:
329,192,86555,1,0,0:0:0:0:
36,192,86555,1,0,0:0:0:0:
256,192,86555,1,0,0:0:0:0:
475,192,86555,1,0,0:0:0:0:
182,192,86555,1,0,0:0:0:0:
36,192,86977,1,0,0:0:0:0:
182,192,86977,1,0,0:0:0:0:
256,192,86977,1,0,0:0:0:0:
329,192,86977,1,0,0:0:0:0:
475,192,86977,1,0,0:0:0:0:
475,192,87189,1,0,0:0:0:0:
329,192,87189,1,0,0:0:0:0:
256,192,87189,1,0,0:0:0:0:
182,192,87189,1,0,0:0:0:0:
36,192,87189,1,0,0:0:0:0:
256,192,87611,1,0,0:0:0:0:
329,192,87611,1,0,0:0:0:0:
402,192,87611,1,0,0:0:0:0:
109,192,87611,1,0,0:0:0:0:
182,192,87611,1,0,0:0:0:0:
256,192,87822,1,0,0:0:0:0:
109,192,87822,1,0,0:0:0:0:
36,192,87822,1,0,0:0:0:0:
475,192,87822,1,0,0:0:0:0:
402,192,87822,1,0,0:0:0:0:
329,192,88034,1,0,0:0:0:0:
182,192,88034,1,0,0:0:0:0:
256,192,88034,1,0,0:0:0:0:
36,192,88245,1,0,0:0:0:0:
109,192,88245,1,0,0:0:0:0:
182,192,88245,1,0,0:0:0:0:
256,192,88245,1,0,0:0:0:0:
402,192,88245,1,0,0:0:0:0:
329,192,88245,1,0,0:0:0:0:
475,192,88245,1,0,0:0:0:0:
109,192,88456,1,0,0:0:0:0:
256,192,88456,1,0,0:0:0:0:
329,192,88456,1,0,0:0:0:0:
475,192,88456,1,0,0:0:0:0:
402,192,88456,1,0,0:0:0:0:
182,192,88456,1,0,0:0:0:0:
36,192,88456,1,0,0:0:0:0:
36,192,88668,1,0,0:0:0:0:
109,192,88668,1,0,0:0:0:0:
182,192,88668,1,0,0:0:0:0:
256,192,88668,1,0,0:0:0:0:
329,192,88668,1,0,0:0:0:0:
402,192,88668,1,0,0:0:0:0:
475,192,88668,1,0,0:0:0:0:
475,192,88879,128,0,89090:0:0:0:0:
402,192,88879,128,0,89090:0:0:0:0:
329,192,88879,128,0,89090:0:0:0:0:
182,192,88879,128,0,89090:0:0:0:0:
109,192,88879,128,0,89090:0:0:0:0:
36,192,88879,128,0,89090:0:0:0:0:
256,192,88879,128,0,89090:0:0:0:0:
