osu file format v14

[General]
AudioFilename: audio.mp3
AudioLeadIn: 0
PreviewTime: 47177
Countdown: 0
SampleSet: Soft
StackLeniency: 0.7
Mode: 3
LetterboxInBreaks: 0
SpecialStyle: 0
WidescreenStoryboard: 1

[Editor]
DistanceSpacing: 0.9
BeatDivisor: 4
GridSize: 16
TimelineZoom: 2.400001

[Metadata]
Title:Stay Alive
TitleUnicode:Stay Alive
Artist:Emilia (CV: Rie Takahashi)
ArtistUnicode:Emilia (CV: Rie Takahashi)
Creator:leqek
Version:4K MX
Source:Re:ゼロから始める異世界生活
Tags:re:Zero kara Hajimeru Isekai Seikatsu arpia97
BeatmapID:1134893
BeatmapSetID:534865

[Difficulty]
HPDrainRate:7.4
CircleSize:4
OverallDifficulty:6.9
ApproachRate:5
SliderMultiplier:1.4
SliderTickRate:1

[Events]
//Background and Video events
0,0,"BG.jpg",0,0
//Break Periods
//Storyboard Layer 0 (Background)
//Storyboard Layer 1 (Fail)
//Storyboard Layer 2 (Pass)
//Storyboard Layer 3 (Foreground)
//Storyboard Sound Samples

[TimingPoints]
106,857.142857142857,4,2,0,22,1,0
48105,-100,4,2,0,22,0,1
75534,851.063829787234,4,2,0,22,1,0
75534,-100,4,2,0,22,0,0
78938,848.056537102474,4,2,0,22,1,0
82330,845.070422535211,4,2,0,22,1,0

[HitObjects]
448,192,106,128,0,1391:0:0:0:0:
64,192,106,1,0,0:0:0:0:
192,192,534,1,0,0:0:0:0:
320,192,748,1,0,0:0:0:0:
192,192,963,1,0,0:0:0:0:
64,192,1177,1,0,0:0:0:0:
64,192,1391,128,0,3534:0:0:0:0:
192,192,1820,1,0,0:0:0:0:
320,192,2248,1,0,0:0:0:0:
448,192,2677,128,0,3534:0:0:0:0:
320,192,3534,128,0,4820:0:0:0:0:
192,192,3534,1,0,0:0:0:0:
64,192,3963,1,0,0:0:0:0:
192,192,4177,1,0,0:0:0:0:
448,192,4391,1,0,0:0:0:0:
64,192,4605,1,0,0:0:0:0:
192,192,4820,128,0,6963:0:0:0:0:
448,192,4820,1,0,0:0:0:0:
64,192,5248,1,0,0:0:0:0:
320,192,5677,1,0,0:0:0:0:
64,192,6105,1,0,0:0:0:0:
320,192,6320,1,0,0:0:0:0:
448,192,6534,1,0,0:0:0:0:
320,192,6748,1,0,0:0:0:0:
64,192,6963,128,0,8248:0:0:0:0:
448,192,6963,1,0,0:0:0:0:
320,192,7391,1,0,0:0:0:0:
192,192,7605,1,0,0:0:0:0:
320,192,7820,1,0,0:0:0:0:
448,192,8034,1,0,0:0:0:0:
448,192,8248,128,0,10391:0:0:0:0:
192,192,8677,1,0,0:0:0:0:
320,192,9105,1,0,0:0:0:0:
64,192,9534,128,0,10391:0:0:0:0:
192,192,10391,128,0,11677:0:0:0:0:
320,192,10391,1,0,0:0:0:0:
64,192,10820,1,0,0:0:0:0:
320,192,11248,1,0,0:0:0:0:
448,192,11463,1,0,0:0:0:0:
64,192,11677,1,0,0:0:0:0:
320,192,11677,128,0,13820:0:0:0:0:
192,192,12105,1,0,0:0:0:0:
64,192,12534,1,0,0:0:0:0:
448,192,12963,1,0,0:0:0:0:
192,192,13177,1,0,0:0:0:0:
64,192,13391,1,0,0:0:0:0:
192,192,13605,1,0,0:0:0:0:
64,192,13820,1,0,0:0:0:0:
448,192,13820,1,0,0:0:0:0:
192,192,13820,1,0,0:0:0:0:
448,192,14248,1,0,0:0:0:0:
320,192,14320,1,0,0:0:0:0:
192,192,14391,1,0,0:0:0:0:
448,192,14463,1,0,0:0:0:0:
64,192,14463,1,0,0:0:0:0:
320,192,14534,1,0,0:0:0:0:
192,192,14605,1,0,0:0:0:0:
448,192,14677,1,0,0:0:0:0:
320,192,14677,1,0,0:0:0:0:
64,192,14677,1,0,0:0:0:0:
320,192,15105,1,0,0:0:0:0:
448,192,15105,1,0,0:0:0:0:
192,192,15105,1,0,0:0:0:0:
448,192,15320,1,0,0:0:0:0:
320,192,15320,1,0,0:0:0:0:
192,192,15320,1,0,0:0:0:0:
192,192,15748,1,0,0:0:0:0:
320,192,15748,1,0,0:0:0:0:
64,192,15748,1,0,0:0:0:0:
64,192,15963,1,0,0:0:0:0:
192,192,15963,1,0,0:0:0:0:
320,192,15963,1,0,0:0:0:0:
192,192,16391,128,0,16820:0:0:0:0:
64,192,16391,1,0,0:0:0:0:
448,192,16820,128,0,17248:0:0:0:0:
320,192,16820,1,0,0:0:0:0:
192,192,17248,1,0,0:0:0:0:
64,192,17248,1,0,0:0:0:0:
320,192,17248,1,0,0:0:0:0:
64,192,17677,1,0,0:0:0:0:
192,192,17748,1,0,0:0:0:0:
320,192,17820,1,0,0:0:0:0:
448,192,17891,1,0,0:0:0:0:
64,192,17963,1,0,0:0:0:0:
192,192,18034,1,0,0:0:0:0:
320,192,18105,1,0,0:0:0:0:
64,192,18105,1,0,0:0:0:0:
448,192,18105,1,0,0:0:0:0:
64,192,18534,1,0,0:0:0:0:
192,192,18534,1,0,0:0:0:0:
320,192,18534,1,0,0:0:0:0:
320,192,18748,1,0,0:0:0:0:
192,192,18748,1,0,0:0:0:0:
64,192,18748,1,0,0:0:0:0:
192,192,19177,1,0,0:0:0:0:
320,192,19177,1,0,0:0:0:0:
448,192,19177,1,0,0:0:0:0:
448,192,19391,1,0,0:0:0:0:
320,192,19391,1,0,0:0:0:0:
192,192,19391,1,0,0:0:0:0:
64,192,19820,1,0,0:0:0:0:
448,192,19820,1,0,0:0:0:0:
192,192,20034,1,0,0:0:0:0:
64,192,20248,1,0,0:0:0:0:
320,192,20248,1,0,0:0:0:0:
448,192,20248,1,0,0:0:0:0:
64,192,20463,1,0,0:0:0:0:
320,192,20463,1,0,0:0:0:0:
448,192,20463,1,0,0:0:0:0:
192,192,20677,1,0,0:0:0:0:
64,192,20677,1,0,0:0:0:0:
320,192,20677,1,0,0:0:0:0:
448,192,20677,1,0,0:0:0:0:
64,192,21105,1,0,0:0:0:0:
192,192,21105,1,0,0:0:0:0:
448,192,21177,1,0,0:0:0:0:
320,192,21177,1,0,0:0:0:0:
64,192,21248,1,0,0:0:0:0:
192,192,21248,1,0,0:0:0:0:
448,192,21320,1,0,0:0:0:0:
320,192,21320,1,0,0:0:0:0:
64,192,21391,1,0,0:0:0:0:
192,192,21391,1,0,0:0:0:0:
448,192,21463,1,0,0:0:0:0:
320,192,21463,1,0,0:0:0:0:
64,192,21534,1,0,0:0:0:0:
448,192,21534,1,0,0:0:0:0:
192,192,21534,1,0,0:0:0:0:
320,192,21534,1,0,0:0:0:0:
192,192,21963,1,0,0:0:0:0:
320,192,21963,1,0,0:0:0:0:
448,192,21963,1,0,0:0:0:0:
320,192,22177,1,0,0:0:0:0:
192,192,22177,1,0,0:0:0:0:
64,192,22177,1,0,0:0:0:0:
64,192,22605,1,0,0:0:0:0:
192,192,22605,1,0,0:0:0:0:
320,192,22605,1,0,0:0:0:0:
192,192,22820,1,0,0:0:0:0:
320,192,22820,1,0,0:0:0:0:
448,192,22820,1,0,0:0:0:0:
64,192,23248,128,0,23677:0:0:0:0:
320,192,23248,1,0,0:0:0:0:
448,192,23677,128,0,24105:0:0:0:0:
192,192,23677,1,0,0:0:0:0:
320,192,23891,1,0,0:0:0:0:
192,192,24105,1,0,0:0:0:0:
64,192,24105,1,0,0:0:0:0:
320,192,24105,1,0,0:0:0:0:
448,192,24534,1,0,0:0:0:0:
320,192,24534,1,0,0:0:0:0:
192,192,24605,1,0,0:0:0:0:
64,192,24605,1,0,0:0:0:0:
448,192,24677,1,0,0:0:0:0:
320,192,24677,1,0,0:0:0:0:
64,192,24748,1,0,0:0:0:0:
192,192,24748,1,0,0:0:0:0:
448,192,24820,1,0,0:0:0:0:
320,192,24820,1,0,0:0:0:0:
192,192,24891,1,0,0:0:0:0:
64,192,24891,1,0,0:0:0:0:
64,192,24963,1,0,0:0:0:0:
320,192,24963,1,0,0:0:0:0:
192,192,24963,1,0,0:0:0:0:
448,192,24963,1,0,0:0:0:0:
320,192,25391,1,0,0:0:0:0:
448,192,25391,1,0,0:0:0:0:
64,192,25391,1,0,0:0:0:0:
192,192,25605,1,0,0:0:0:0:
64,192,25605,1,0,0:0:0:0:
448,192,25605,1,0,0:0:0:0:
192,192,26034,1,0,0:0:0:0:
64,192,26034,1,0,0:0:0:0:
448,192,26034,1,0,0:0:0:0:
320,192,26248,1,0,0:0:0:0:
448,192,26248,1,0,0:0:0:0:
64,192,26248,1,0,0:0:0:0:
192,192,26463,1,0,0:0:0:0:
320,192,26570,1,0,0:0:0:0:
448,192,26677,1,0,0:0:0:0:
64,192,26677,1,0,0:0:0:0:
192,192,26677,1,0,0:0:0:0:
320,192,26891,1,0,0:0:0:0:
192,192,26891,1,0,0:0:0:0:
320,192,27105,1,0,0:0:0:0:
448,192,27105,1,0,0:0:0:0:
192,192,27213,1,0,0:0:0:0:
64,192,27320,1,0,0:0:0:0:
320,192,27320,1,0,0:0:0:0:
192,192,27534,1,0,0:0:0:0:
64,192,27534,1,0,0:0:0:0:
448,192,27534,1,0,0:0:0:0:
320,192,27748,1,0,0:0:0:0:
448,192,27748,1,0,0:0:0:0:
64,192,27963,1,0,0:0:0:0:
192,192,28177,1,0,0:0:0:0:
320,192,28391,1,0,0:0:0:0:
448,192,28391,1,0,0:0:0:0:
64,192,28391,1,0,0:0:0:0:
192,192,28605,1,0,0:0:0:0:
320,192,28820,1,0,0:0:0:0:
64,192,29034,1,0,0:0:0:0:
448,192,29034,1,0,0:0:0:0:
192,192,29248,1,0,0:0:0:0:
320,192,29248,1,0,0:0:0:0:
448,192,29463,1,0,0:0:0:0:
64,192,29463,1,0,0:0:0:0:
320,192,29677,1,0,0:0:0:0:
192,192,29891,1,0,0:0:0:0:
448,192,30105,1,0,0:0:0:0:
64,192,30105,1,0,0:0:0:0:
320,192,30105,1,0,0:0:0:0:
192,192,30320,1,0,0:0:0:0:
320,192,30534,1,0,0:0:0:0:
448,192,30534,1,0,0:0:0:0:
192,192,30748,1,0,0:0:0:0:
320,192,30855,1,0,0:0:0:0:
448,192,30963,1,0,0:0:0:0:
64,192,30963,1,0,0:0:0:0:
192,192,30963,1,0,0:0:0:0:
320,192,31177,1,0,0:0:0:0:
448,192,31391,1,0,0:0:0:0:
64,192,31605,1,0,0:0:0:0:
320,192,31820,1,0,0:0:0:0:
192,192,31820,1,0,0:0:0:0:
448,192,31820,1,0,0:0:0:0:
64,192,32034,1,0,0:0:0:0:
192,192,32248,1,0,0:0:0:0:
320,192,32463,1,0,0:0:0:0:
64,192,32463,1,0,0:0:0:0:
192,192,32677,1,0,0:0:0:0:
448,192,32677,1,0,0:0:0:0:
320,192,32891,1,0,0:0:0:0:
448,192,32891,1,0,0:0:0:0:
192,192,33105,1,0,0:0:0:0:
320,192,33320,1,0,0:0:0:0:
192,192,33534,1,0,0:0:0:0:
64,192,33534,1,0,0:0:0:0:
448,192,33534,1,0,0:0:0:0:
320,192,33748,1,0,0:0:0:0:
192,192,33748,1,0,0:0:0:0:
448,192,33963,1,0,0:0:0:0:
320,192,33963,1,0,0:0:0:0:
64,192,33963,1,0,0:0:0:0:
192,192,34177,1,0,0:0:0:0:
320,192,34177,1,0,0:0:0:0:
192,192,34391,1,0,0:0:0:0:
64,192,34391,1,0,0:0:0:0:
320,192,34391,1,0,0:0:0:0:
448,192,34391,1,0,0:0:0:0:
192,192,34605,1,0,0:0:0:0:
64,192,34605,1,0,0:0:0:0:
320,192,34820,1,0,0:0:0:0:
448,192,34820,1,0,0:0:0:0:
448,192,35248,1,0,0:0:0:0:
64,192,35248,1,0,0:0:0:0:
192,192,35248,1,0,0:0:0:0:
320,192,35463,1,0,0:0:0:0:
192,192,35677,1,0,0:0:0:0:
64,192,35891,1,0,0:0:0:0:
320,192,35891,1,0,0:0:0:0:
192,192,36105,1,0,0:0:0:0:
448,192,36105,1,0,0:0:0:0:
64,192,36320,1,0,0:0:0:0:
192,192,36320,1,0,0:0:0:0:
448,192,36534,1,0,0:0:0:0:
320,192,36748,1,0,0:0:0:0:
192,192,36963,1,0,0:0:0:0:
448,192,36963,1,0,0:0:0:0:
64,192,36963,1,0,0:0:0:0:
192,192,37391,1,0,0:0:0:0:
320,192,37391,1,0,0:0:0:0:
64,192,37605,1,0,0:0:0:0:
192,192,37713,1,0,0:0:0:0:
64,192,37820,1,0,0:0:0:0:
320,192,37820,1,0,0:0:0:0:
448,192,37820,1,0,0:0:0:0:
192,192,38034,1,0,0:0:0:0:
448,192,38034,1,0,0:0:0:0:
320,192,38248,1,0,0:0:0:0:
192,192,38463,1,0,0:0:0:0:
64,192,38677,1,0,0:0:0:0:
320,192,38677,1,0,0:0:0:0:
448,192,38677,1,0,0:0:0:0:
192,192,38891,1,0,0:0:0:0:
320,192,39105,1,0,0:0:0:0:
448,192,39105,1,0,0:0:0:0:
192,192,39320,1,0,0:0:0:0:
64,192,39320,1,0,0:0:0:0:
320,192,39534,1,0,0:0:0:0:
64,192,39534,1,0,0:0:0:0:
448,192,39534,128,0,39963:0:0:0:0:
320,192,39963,128,0,40391:0:0:0:0:
192,192,39963,1,0,0:0:0:0:
64,192,39963,1,0,0:0:0:0:
64,192,40391,1,0,0:0:0:0:
192,192,40391,1,0,0:0:0:0:
448,192,40391,1,0,0:0:0:0:
320,192,40605,1,0,0:0:0:0:
448,192,40605,1,0,0:0:0:0:
192,192,40820,1,0,0:0:0:0:
320,192,40820,1,0,0:0:0:0:
64,192,41034,1,0,0:0:0:0:
192,192,41034,1,0,0:0:0:0:
320,192,41248,128,0,42963:0:0:0:0:
448,192,42963,128,0,44677:0:0:0:0:
192,192,44677,128,0,47248:0:0:0:0:
64,192,46391,128,0,47248:0:0:0:0:
64,192,48105,1,0,0:0:0:0:
320,192,48105,1,0,0:0:0:0:
192,192,48105,1,0,0:0:0:0:
448,192,48105,1,0,0:0:0:0:
64,192,48534,1,0,0:0:0:0:
192,192,48534,1,0,0:0:0:0:
320,192,48748,1,0,0:0:0:0:
64,192,48963,1,0,0:0:0:0:
192,192,48963,1,0,0:0:0:0:
448,192,48963,1,0,0:0:0:0:
320,192,49391,1,0,0:0:0:0:
448,192,49391,1,0,0:0:0:0:
192,192,49605,1,0,0:0:0:0:
64,192,49820,1,0,0:0:0:0:
448,192,49820,1,0,0:0:0:0:
320,192,49820,1,0,0:0:0:0:
192,192,50248,1,0,0:0:0:0:
64,192,50248,1,0,0:0:0:0:
448,192,50463,1,0,0:0:0:0:
320,192,50677,1,0,0:0:0:0:
448,192,50677,1,0,0:0:0:0:
64,192,50677,1,0,0:0:0:0:
192,192,51105,1,0,0:0:0:0:
320,192,51105,1,0,0:0:0:0:
64,192,51320,1,0,0:0:0:0:
64,192,51534,1,0,0:0:0:0:
448,192,51534,1,0,0:0:0:0:
192,192,51534,1,0,0:0:0:0:
320,192,51963,1,0,0:0:0:0:
64,192,51963,1,0,0:0:0:0:
192,192,52177,1,0,0:0:0:0:
320,192,52391,1,0,0:0:0:0:
448,192,52391,1,0,0:0:0:0:
64,192,52391,1,0,0:0:0:0:
448,192,52820,1,0,0:0:0:0:
192,192,52820,1,0,0:0:0:0:
64,192,53248,1,0,0:0:0:0:
192,192,53248,1,0,0:0:0:0:
320,192,53248,1,0,0:0:0:0:
448,192,53677,1,0,0:0:0:0:
192,192,53677,1,0,0:0:0:0:
320,192,54105,1,0,0:0:0:0:
64,192,54105,1,0,0:0:0:0:
192,192,54320,1,0,0:0:0:0:
320,192,54534,1,0,0:0:0:0:
448,192,54534,1,0,0:0:0:0:
192,192,54963,1,0,0:0:0:0:
64,192,54963,1,0,0:0:0:0:
448,192,54963,1,0,0:0:0:0:
320,192,55391,1,0,0:0:0:0:
192,192,55391,1,0,0:0:0:0:
64,192,55820,1,0,0:0:0:0:
320,192,55820,1,0,0:0:0:0:
448,192,55820,1,0,0:0:0:0:
320,192,56248,1,0,0:0:0:0:
192,192,56248,1,0,0:0:0:0:
192,192,56677,1,0,0:0:0:0:
448,192,56677,1,0,0:0:0:0:
64,192,56677,1,0,0:0:0:0:
320,192,57105,1,0,0:0:0:0:
64,192,57105,1,0,0:0:0:0:
192,192,57534,1,0,0:0:0:0:
448,192,57534,1,0,0:0:0:0:
320,192,57534,1,0,0:0:0:0:
64,192,57963,1,0,0:0:0:0:
192,192,58177,1,0,0:0:0:0:
320,192,58391,1,0,0:0:0:0:
448,192,58391,1,0,0:0:0:0:
64,192,58391,1,0,0:0:0:0:
192,192,58820,1,0,0:0:0:0:
448,192,58820,1,0,0:0:0:0:
320,192,59034,1,0,0:0:0:0:
448,192,59248,1,0,0:0:0:0:
64,192,59248,1,0,0:0:0:0:
192,192,59248,1,0,0:0:0:0:
320,192,59677,1,0,0:0:0:0:
448,192,59677,1,0,0:0:0:0:
192,192,59891,1,0,0:0:0:0:
64,192,60105,1,0,0:0:0:0:
320,192,60105,1,0,0:0:0:0:
448,192,60105,1,0,0:0:0:0:
192,192,60320,1,0,0:0:0:0:
320,192,60534,1,0,0:0:0:0:
64,192,60534,1,0,0:0:0:0:
192,192,60963,1,0,0:0:0:0:
448,192,60963,1,0,0:0:0:0:
320,192,60963,1,0,0:0:0:0:
448,192,61177,1,0,0:0:0:0:
64,192,61177,1,0,0:0:0:0:
192,192,61391,1,0,0:0:0:0:
320,192,61391,1,0,0:0:0:0:
192,192,61605,1,0,0:0:0:0:
64,192,61605,1,0,0:0:0:0:
64,192,61820,1,0,0:0:0:0:
320,192,61820,1,0,0:0:0:0:
448,192,61820,1,0,0:0:0:0:
192,192,61820,1,0,0:0:0:0:
192,192,62248,1,0,0:0:0:0:
320,192,62248,1,0,0:0:0:0:
64,192,62463,1,0,0:0:0:0:
192,192,62677,1,0,0:0:0:0:
448,192,62677,1,0,0:0:0:0:
320,192,62677,1,0,0:0:0:0:
320,192,63105,1,0,0:0:0:0:
64,192,63105,1,0,0:0:0:0:
192,192,63320,1,0,0:0:0:0:
64,192,63534,1,0,0:0:0:0:
320,192,63534,1,0,0:0:0:0:
448,192,63534,1,0,0:0:0:0:
320,192,63748,1,0,0:0:0:0:
192,192,63748,1,0,0:0:0:0:
64,192,63963,1,0,0:0:0:0:
448,192,63963,1,0,0:0:0:0:
320,192,64177,1,0,0:0:0:0:
192,192,64391,1,0,0:0:0:0:
448,192,64391,1,0,0:0:0:0:
64,192,64391,1,0,0:0:0:0:
320,192,64820,1,0,0:0:0:0:
448,192,64820,1,0,0:0:0:0:
192,192,65034,1,0,0:0:0:0:
64,192,65248,1,0,0:0:0:0:
320,192,65248,1,0,0:0:0:0:
448,192,65248,1,0,0:0:0:0:
192,192,65677,1,0,0:0:0:0:
64,192,65677,1,0,0:0:0:0:
448,192,65891,1,0,0:0:0:0:
320,192,66105,1,0,0:0:0:0:
64,192,66105,1,0,0:0:0:0:
192,192,66105,1,0,0:0:0:0:
192,192,66534,1,0,0:0:0:0:
448,192,66534,1,0,0:0:0:0:
320,192,66748,1,0,0:0:0:0:
64,192,66748,1,0,0:0:0:0:
192,192,66963,1,0,0:0:0:0:
64,192,66963,1,0,0:0:0:0:
448,192,66963,1,0,0:0:0:0:
320,192,67177,1,0,0:0:0:0:
448,192,67177,1,0,0:0:0:0:
64,192,67391,1,0,0:0:0:0:
192,192,67391,1,0,0:0:0:0:
320,192,67605,1,0,0:0:0:0:
448,192,67820,1,0,0:0:0:0:
64,192,67820,1,0,0:0:0:0:
320,192,67820,1,0,0:0:0:0:
192,192,68034,1,0,0:0:0:0:
64,192,68248,1,0,0:0:0:0:
320,192,68248,1,0,0:0:0:0:
448,192,68248,1,0,0:0:0:0:
64,192,68463,1,0,0:0:0:0:
320,192,68463,1,0,0:0:0:0:
448,192,68463,1,0,0:0:0:0:
64,192,68677,1,0,0:0:0:0:
320,192,68677,1,0,0:0:0:0:
448,192,68677,1,0,0:0:0:0:
192,192,68677,128,0,70391:0:0:0:0:
64,192,69105,1,0,0:0:0:0:
448,192,69105,1,0,0:0:0:0:
64,192,69534,1,0,0:0:0:0:
448,192,69534,1,0,0:0:0:0:
448,192,69963,1,0,0:0:0:0:
64,192,69963,1,0,0:0:0:0:
64,192,70391,128,0,72105:0:0:0:0:
320,192,70391,1,0,0:0:0:0:
448,192,70391,1,0,0:0:0:0:
320,192,70820,1,0,0:0:0:0:
192,192,70820,1,0,0:0:0:0:
192,192,71248,1,0,0:0:0:0:
320,192,71248,1,0,0:0:0:0:
192,192,71677,1,0,0:0:0:0:
320,192,71677,1,0,0:0:0:0:
320,192,72105,128,0,73820:0:0:0:0:
192,192,72105,1,0,0:0:0:0:
448,192,72105,1,0,0:0:0:0:
448,192,72534,1,0,0:0:0:0:
64,192,72534,1,0,0:0:0:0:
192,192,72534,1,0,0:0:0:0:
64,192,72963,1,0,0:0:0:0:
448,192,72963,1,0,0:0:0:0:
192,192,72963,1,0,0:0:0:0:
448,192,73391,1,0,0:0:0:0:
64,192,73391,1,0,0:0:0:0:
192,192,73391,1,0,0:0:0:0:
64,192,73820,1,0,0:0:0:0:
192,192,73820,1,0,0:0:0:0:
448,192,73820,1,0,0:0:0:0:
320,192,74034,1,0,0:0:0:0:
192,192,74034,1,0,0:0:0:0:
192,192,74248,1,0,0:0:0:0:
64,192,74248,1,0,0:0:0:0:
448,192,74463,1,0,0:0:0:0:
320,192,74463,1,0,0:0:0:0:
192,192,74677,1,0,0:0:0:0:
448,192,74677,1,0,0:0:0:0:
320,192,74820,1,0,0:0:0:0:
64,192,74820,1,0,0:0:0:0:
192,192,74963,1,0,0:0:0:0:
64,192,74963,1,0,0:0:0:0:
320,192,75105,1,0,0:0:0:0:
448,192,75105,1,0,0:0:0:0:
320,192,75248,1,0,0:0:0:0:
192,192,75248,1,0,0:0:0:0:
192,192,75391,1,0,0:0:0:0:
64,192,75391,1,0,0:0:0:0:
320,192,75534,1,0,0:0:0:0:
448,192,75534,1,0,0:0:0:0:
192,192,75534,1,0,0:0:0:0:
64,192,75534,1,0,0:0:0:0:
448,192,75959,1,0,0:0:0:0:
320,192,76030,1,0,0:0:0:0:
192,192,76101,1,0,0:0:0:0:
64,192,76172,1,0,0:0:0:0:
448,192,76243,1,0,0:0:0:0:
320,192,76314,1,0,0:0:0:0:
448,192,76385,1,0,0:0:0:0:
192,192,76385,1,0,0:0:0:0:
64,192,76385,1,0,0:0:0:0:
64,192,76810,1,0,0:0:0:0:
192,192,76810,1,0,0:0:0:0:
448,192,76810,1,0,0:0:0:0:
192,192,77023,1,0,0:0:0:0:
64,192,77023,1,0,0:0:0:0:
448,192,77023,1,0,0:0:0:0:
64,192,77448,1,0,0:0:0:0:
320,192,77448,1,0,0:0:0:0:
448,192,77448,1,0,0:0:0:0:
64,192,77661,1,0,0:0:0:0:
448,192,77661,1,0,0:0:0:0:
320,192,77661,1,0,0:0:0:0:
64,192,78087,1,0,0:0:0:0:
192,192,78087,128,0,78512:0:0:0:0:
448,192,78512,1,0,0:0:0:0:
320,192,78512,128,0,78938:0:0:0:0:
192,192,78938,1,0,0:0:0:0:
64,192,78938,1,0,0:0:0:0:
448,192,78938,1,0,0:0:0:0:
64,192,79362,1,0,0:0:0:0:
192,192,79432,1,0,0:0:0:0:
320,192,79503,1,0,0:0:0:0:
448,192,79574,1,0,0:0:0:0:
64,192,79644,1,0,0:0:0:0:
192,192,79715,1,0,0:0:0:0:
320,192,79786,1,0,0:0:0:0:
448,192,79786,1,0,0:0:0:0:
64,192,79786,1,0,0:0:0:0:
64,192,80210,1,0,0:0:0:0:
320,192,80210,1,0,0:0:0:0:
448,192,80210,1,0,0:0:0:0:
64,192,80422,1,0,0:0:0:0:
320,192,80422,1,0,0:0:0:0:
448,192,80422,1,0,0:0:0:0:
192,192,80846,1,0,0:0:0:0:
64,192,80846,1,0,0:0:0:0:
448,192,80846,1,0,0:0:0:0:
64,192,81058,1,0,0:0:0:0:
192,192,81058,1,0,0:0:0:0:
448,192,81058,1,0,0:0:0:0:
320,192,81270,1,0,0:0:0:0:
448,192,81482,1,0,0:0:0:0:
192,192,81482,1,0,0:0:0:0:
64,192,81482,1,0,0:0:0:0:
448,192,81694,1,0,0:0:0:0:
320,192,81764,1,0,0:0:0:0:
192,192,81835,1,0,0:0:0:0:
448,192,81906,1,0,0:0:0:0:
64,192,81906,1,0,0:0:0:0:
320,192,81906,1,0,0:0:0:0:
64,192,82118,1,0,0:0:0:0:
192,192,82118,1,0,0:0:0:0:
448,192,82118,1,0,0:0:0:0:
192,192,82330,1,0,0:0:0:0:
320,192,82330,1,0,0:0:0:0:
448,192,82330,1,0,0:0:0:0:
64,192,82330,1,0,0:0:0:0:
64,192,82752,1,0,0:0:0:0:
192,192,82752,1,0,0:0:0:0:
320,192,82822,1,0,0:0:0:0:
448,192,82822,1,0,0:0:0:0:
192,192,82893,1,0,0:0:0:0:
64,192,82893,1,0,0:0:0:0:
320,192,82963,1,0,0:0:0:0:
448,192,82963,1,0,0:0:0:0:
192,192,83034,1,0,0:0:0:0:
64,192,83034,1,0,0:0:0:0:
320,192,83104,1,0,0:0:0:0:
448,192,83104,1,0,0:0:0:0:
192,192,83175,1,0,0:0:0:0:
64,192,83175,1,0,0:0:0:0:
320,192,83175,1,0,0:0:0:0:
448,192,83175,1,0,0:0:0:0:
192,192,83597,1,0,0:0:0:0:
320,192,83597,1,0,0:0:0:0:
448,192,83597,1,0,0:0:0:0:
192,192,83808,1,0,0:0:0:0:
320,192,83808,1,0,0:0:0:0:
448,192,83808,1,0,0:0:0:0:
320,192,84231,1,0,0:0:0:0:
192,192,84231,1,0,0:0:0:0:
64,192,84231,1,0,0:0:0:0:
64,192,84442,1,0,0:0:0:0:
192,192,84442,1,0,0:0:0:0:
320,192,84442,1,0,0:0:0:0:
448,192,84653,1,0,0:0:0:0:
64,192,84865,128,0,85287:0:0:0:0:
320,192,84865,128,0,85287:0:0:0:0:
192,192,85287,128,0,85639:0:0:0:0:
448,192,85287,128,0,85639:0:0:0:0:
64,192,85710,1,0,0:0:0:0:
192,192,85710,1,0,0:0:0:0:
320,192,85710,1,0,0:0:0:0:
448,192,85710,1,0,0:0:0:0:
320,192,86132,1,0,0:0:0:0:
448,192,86132,1,0,0:0:0:0:
192,192,86203,1,0,0:0:0:0:
64,192,86203,1,0,0:0:0:0:
320,192,86273,1,0,0:0:0:0:
448,192,86273,1,0,0:0:0:0:
192,192,86344,1,0,0:0:0:0:
64,192,86344,1,0,0:0:0:0:
320,192,86414,1,0,0:0:0:0:
448,192,86414,1,0,0:0:0:0:
192,192,86484,1,0,0:0:0:0:
64,192,86484,1,0,0:0:0:0:
64,192,86555,1,0,0:0:0:0:
192,192,86555,1,0,0:0:0:0:
320,192,86555,1,0,0:0:0:0:
448,192,86555,1,0,0:0:0:0:
64,192,86977,1,0,0:0:0:0:
192,192,86977,1,0,0:0:0:0:
320,192,86977,1,0,0:0:0:0:
320,192,87189,1,0,0:0:0:0:
192,192,87189,1,0,0:0:0:0:
64,192,87189,1,0,0:0:0:0:
192,192,87611,1,0,0:0:0:0:
320,192,87611,1,0,0:0:0:0:
448,192,87611,1,0,0:0:0:0:
448,192,87822,1,0,0:0:0:0:
320,192,87822,1,0,0:0:0:0:
192,192,87822,1,0,0:0:0:0:
64,192,88034,1,0,0:0:0:0:
448,192,88034,1,0,0:0:0:0:
192,192,88245,1,0,0:0:0:0:
64,192,88245,1,0,0:0:0:0:
320,192,88245,1,0,0:0:0:0:
448,192,88245,1,0,0:0:0:0:
448,192,88456,1,0,0:0:0:0:
320,192,88456,1,0,0:0:0:0:
192,192,88456,1,0,0:0:0:0:
64,192,88456,1,0,0:0:0:0:
64,192,88668,1,0,0:0:0:0:
192,192,88668,1,0,0:0:0:0:
448,192,88668,1,0,0:0:0:0:
320,192,88668,1,0,0:0:0:0:
64,192,88879,128,0,89090:0:0:0:0:
192,192,88879,128,0,89090:0:0:0:0:
320,192,88879,128,0,89090:0:0:0:0:
448,192,88879,128,0,89090:0:0:0:0:
