osu file format v14

[General]
AudioFilename: audio.mp3
AudioLeadIn: 0
PreviewTime: 47201
Countdown: 0
SampleSet: Normal
StackLeniency: 0.7
Mode: 1
LetterboxInBreaks: 0
WidescreenStoryboard: 0

[Editor]
Bookmarks: 13773,27487,61773
DistanceSpacing: 1.4
BeatDivisor: 8
GridSize: 32
TimelineZoom: 1.2

[Metadata]
Title:Stay Alive (TV Size)
TitleUnicode:Stay Alive (TV Size)
Artist:Emilia (CV: Rie Takahashi)
ArtistUnicode:エミリア (CV:高橋李依)
Creator:-Kazuha
Version:Oni
Source:Re:ゼロから始める異世界生活
Tags:anime japanese jpop pop j-pop rezero re:zero kara hajimeru isekai seikatsu starting life in a another world from zero ending ed rock jrock j-rock
BeatmapID:4418451
BeatmapSetID:2105765

[Difficulty]
HPDrainRate:6
CircleSize:5
OverallDifficulty:5
ApproachRate:5
SliderMultiplier:2.8
SliderTickRate:1

[Events]
//Background and Video events
0,0,"emilia.jpg",0,120
//Break Periods
//Storyboard Layer 0 (Background)
//Storyboard Layer 1 (Fail)
//Storyboard Layer 2 (Pass)
//Storyboard Layer 3 (Foreground)
//Storyboard Layer 4 (Overlay)
//Storyboard Sound Samples

[TimingPoints]
59,857.142857142857,4,1,0,60,1,0
59,-100,4,1,0,60,0,0
13773,-100,4,1,0,80,0,0
48058,-100,4,1,0,100,0,1
75487,-100,4,1,0,100,0,0
75594,-100,4,1,0,90,0,0

[HitObjects]
349,54,59,5,8,0:0:0:0:
349,54,487,1,0,0:0:0:0:
349,54,916,1,8,0:0:0:0:
349,54,1130,1,8,0:0:0:0:
349,54,1344,1,0,0:0:0:0:
233,47,3487,5,8,0:0:0:0:
233,47,3916,1,0,0:0:0:0:
233,47,4344,1,8,0:0:0:0:
233,47,4558,1,0,0:0:0:0:
233,47,4773,1,0,0:0:0:0:
179,82,6487,1,0,0:0:0:0:
179,82,6701,1,8,0:0:0:0:
245,117,6916,1,8,0:0:0:0:
245,117,7344,1,0,0:0:0:0:
245,117,7773,1,8,0:0:0:0:
179,82,7987,1,8,0:0:0:0:
179,82,8201,1,0,0:0:0:0:
179,82,10344,1,8,0:0:0:0:
179,82,10773,1,0,0:0:0:0:
179,82,11201,1,8,0:0:0:0:
179,82,11416,1,0,0:0:0:0:
179,82,11630,1,8,0:0:0:0:
234,143,12916,1,8,0:0:0:0:
234,143,13130,1,8,0:0:0:0:
234,143,13344,1,0,0:0:0:0:
234,143,13773,1,4,0:0:0:0:
421,182,14201,1,0,0:0:0:0:
421,182,14308,1,0,0:0:0:0:
421,182,14416,1,0,0:0:0:0:
192,171,14523,1,0,0:0:0:0:
314,172,14630,1,8,0:0:0:0:
314,172,15058,1,8,0:0:0:0:
314,172,15273,1,0,0:0:0:0:
314,172,15701,1,8,0:0:0:0:
314,172,15916,1,0,0:0:0:0:
314,172,16130,1,0,0:0:0:0:
314,172,16237,1,0,0:0:0:0:
314,172,16344,1,8,0:0:0:0:
314,172,16773,1,8,0:0:0:0:
314,172,17201,1,4,0:0:0:0:
284,184,17630,1,8,0:0:0:0:
284,184,17737,1,8,0:0:0:0:
284,184,17844,1,0,0:0:0:0:
284,184,17951,1,0,0:0:0:0:
284,184,18058,1,8,0:0:0:0:
381,241,18487,1,8,0:0:0:0:
381,241,18701,1,0,0:0:0:0:
381,241,19130,1,8,0:0:0:0:
381,241,19344,1,0,0:0:0:0:
381,241,19558,1,0,0:0:0:0:
381,241,19773,1,8,0:0:0:0:
381,241,19987,1,0,0:0:0:0:
381,241,20094,1,0,0:0:0:0:
381,241,20201,1,8,0:0:0:0:
381,241,20308,1,0,0:0:0:0:
381,241,20416,1,8,0:0:0:0:
381,241,20630,1,4,0:0:0:0:
381,241,21058,1,8,0:0:0:0:
381,241,21166,1,0,0:0:0:0:
381,241,21273,1,0,0:0:0:0:
174,45,21380,1,0,0:0:0:0:
381,241,21487,1,8,0:0:0:0:
207,146,21916,1,8,0:0:0:0:
207,146,22130,1,0,0:0:0:0:
207,146,22558,1,8,0:0:0:0:
207,146,22773,1,0,0:0:0:0:
207,146,22987,1,0,0:0:0:0:
207,146,23094,1,0,0:0:0:0:
207,146,23201,1,8,0:0:0:0:
226,147,23630,1,8,0:0:0:0:
226,147,24058,1,4,0:0:0:0:
226,147,24487,1,8,0:0:0:0:
226,147,24594,1,8,0:0:0:0:
226,147,24701,1,0,0:0:0:0:
226,147,24808,1,0,0:0:0:0:
226,147,24916,1,8,0:0:0:0:
226,147,25344,1,8,0:0:0:0:
226,147,25558,1,0,0:0:0:0:
226,147,25987,1,8,0:0:0:0:
226,147,26201,1,0,0:0:0:0:
226,147,26308,1,8,0:0:0:0:
226,147,26416,1,0,0:0:0:0:
226,147,26523,1,0,0:0:0:0:
226,147,26630,1,8,0:0:0:0:
226,147,26844,1,8,0:0:0:0:
226,147,27058,1,0,0:0:0:0:
224,140,27273,1,0,0:0:0:0:
224,140,27487,1,12,0:0:0:0:
197,145,27701,1,0,0:0:0:0:
197,145,28130,1,0,0:0:0:0:
197,145,28344,1,8,0:0:0:0:
197,145,28773,1,8,0:0:0:0:
197,145,28987,1,8,0:0:0:0:
178,93,29201,1,0,0:0:0:0:
178,93,29416,1,8,0:0:0:0:
178,93,29523,1,8,0:0:0:0:
178,93,29630,1,0,0:0:0:0:
178,93,29844,1,0,0:0:0:0:
178,93,30058,1,8,0:0:0:0:
131,51,30487,1,0,0:0:0:0:
131,51,30701,1,8,0:0:0:0:
131,51,30808,1,8,0:0:0:0:
131,51,30916,1,0,0:0:0:0:
131,51,31130,1,0,0:0:0:0:
131,51,31558,1,0,0:0:0:0:
131,51,31773,1,8,0:0:0:0:
131,51,31987,1,0,0:0:0:0:
131,51,32201,1,0,0:0:0:0:
131,51,32416,1,8,0:0:0:0:
131,51,32630,1,0,0:0:0:0:
131,51,32844,1,8,0:0:0:0:
131,51,32951,1,0,0:0:0:0:
131,51,33058,1,8,0:0:0:0:
131,51,33166,1,8,0:0:0:0:
131,51,33273,1,0,0:0:0:0:
131,51,33487,1,8,0:0:0:0:
131,51,33701,1,0,0:0:0:0:
131,51,33916,1,8,0:0:0:0:
131,51,34023,1,8,0:0:0:0:
131,51,34130,1,8,0:0:0:0:
224,140,34344,1,4,0:0:0:0:
197,145,34558,1,0,0:0:0:0:
197,145,34987,1,0,0:0:0:0:
197,145,35201,1,8,0:0:0:0:
197,145,35630,1,8,0:0:0:0:
197,145,35844,1,8,0:0:0:0:
178,93,36058,1,0,0:0:0:0:
178,93,36273,1,8,0:0:0:0:
178,93,36380,1,8,0:0:0:0:
178,93,36487,1,0,0:0:0:0:
178,93,36701,1,0,0:0:0:0:
178,93,36915,1,8,0:0:0:0:
131,51,37344,1,0,0:0:0:0:
131,51,37558,1,8,0:0:0:0:
131,51,37665,1,8,0:0:0:0:
131,51,37773,1,0,0:0:0:0:
131,51,37987,1,0,0:0:0:0:
131,51,38415,1,0,0:0:0:0:
131,51,38630,1,8,0:0:0:0:
131,51,38844,1,0,0:0:0:0:
131,51,38951,1,0,0:0:0:0:
131,51,39058,1,8,0:0:0:0:
131,51,39273,1,0,0:0:0:0:
131,51,39487,1,12,0:0:0:0:
131,51,39701,1,8,0:0:0:0:
131,51,39916,1,4,0:0:0:0:
131,51,40130,1,0,0:0:0:0:
131,51,40344,1,8,0:0:0:0:
131,51,40558,1,0,0:0:0:0:
131,51,40773,1,8,0:0:0:0:
131,51,40880,1,8,0:0:0:0:
131,51,40987,1,0,0:0:0:0:
158,138,42916,1,0,0:0:0:0:
158,138,44630,1,8,0:0:0:0:
256,192,44844,12,0,46773,0:0:0:0:
130,128,47201,5,0,0:0:0:0:
119,133,48058,1,12,0:0:0:0:
126,127,48487,1,0,0:0:0:0:
126,127,48701,1,8,0:0:0:0:
126,127,48808,1,8,0:0:0:0:
126,127,48916,1,8,0:0:0:0:
126,127,49130,1,0,0:0:0:0:
126,127,49344,1,8,0:0:0:0:
126,127,49558,1,0,0:0:0:0:
126,127,49666,1,8,0:0:0:0:
126,127,49773,1,8,0:0:0:0:
149,138,49987,1,0,0:0:0:0:
149,138,50201,1,8,0:0:0:0:
149,138,50308,1,0,0:0:0:0:
149,138,50416,1,0,0:0:0:0:
229,194,50523,1,0,0:0:0:0:
149,138,50630,1,8,0:0:0:0:
149,138,50844,1,0,0:0:0:0:
149,138,51058,1,8,0:0:0:0:
149,138,51166,1,8,0:0:0:0:
149,138,51273,1,0,0:0:0:0:
151,45,51380,1,0,0:0:0:0:
149,138,51487,1,8,0:0:0:0:
149,138,51701,1,0,0:0:0:0:
149,138,51916,1,8,0:0:0:0:
149,138,52023,1,0,0:0:0:0:
149,138,52130,1,0,0:0:0:0:
149,138,52344,1,8,0:0:0:0:
149,138,52666,1,0,0:0:0:0:
149,138,52773,1,8,0:0:0:0:
149,138,52987,1,0,0:0:0:0:
149,138,53201,1,8,0:0:0:0:
149,138,53416,1,0,0:0:0:0:
149,138,53523,1,0,0:0:0:0:
149,138,53630,1,0,0:0:0:0:
149,138,53844,1,0,0:0:0:0:
149,138,54058,1,8,0:0:0:0:
197,83,54273,1,0,0:0:0:0:
149,138,54487,1,8,0:0:0:0:
197,83,54916,1,4,0:0:0:0:
197,83,55344,1,0,0:0:0:0:
197,83,55558,1,0,0:0:0:0:
197,83,55773,1,8,0:0:0:0:
197,83,55987,1,0,0:0:0:0:
197,83,56094,1,0,0:0:0:0:
197,83,56201,1,8,0:0:0:0:
197,83,56416,1,0,0:0:0:0:
197,83,56630,1,8,0:0:0:0:
161,63,56737,1,8,0:0:0:0:
197,83,56844,1,0,0:0:0:0:
197,83,57058,1,8,0:0:0:0:
197,83,57273,1,0,0:0:0:0:
197,83,57487,1,8,0:0:0:0:
197,83,57594,1,8,0:0:0:0:
197,83,57701,1,0,0:0:0:0:
197,83,57808,1,0,0:0:0:0:
197,83,57916,1,8,0:0:0:0:
197,83,58130,1,0,0:0:0:0:
197,83,58344,1,8,0:0:0:0:
212,78,58666,1,0,0:0:0:0:
212,78,58773,1,8,0:0:0:0:
212,78,58987,1,8,0:0:0:0:
212,78,59201,1,0,0:0:0:0:
212,78,59308,1,0,0:0:0:0:
212,78,59416,1,0,0:0:0:0:
212,78,59630,1,8,0:0:0:0:
212,78,59844,1,0,0:0:0:0:
154,74,59951,1,0,0:0:0:0:
212,78,60058,1,8,0:0:0:0:
212,78,60166,1,8,0:0:0:0:
212,78,60273,1,0,0:0:0:0:
212,78,60487,1,8,0:0:0:0:
212,78,60701,1,0,0:0:0:0:
212,78,60916,1,8,0:0:0:0:
212,78,61130,1,8,0:0:0:0:
212,78,61344,1,0,0:0:0:0:
212,78,61558,1,0,0:0:0:0:
119,133,61773,1,12,0:0:0:0:
126,127,62202,1,0,0:0:0:0:
126,127,62416,1,8,0:0:0:0:
126,127,62523,1,8,0:0:0:0:
126,127,62631,1,8,0:0:0:0:
126,127,62845,1,0,0:0:0:0:
126,127,63059,1,8,0:0:0:0:
126,127,63166,1,8,0:0:0:0:
126,127,63273,1,0,0:0:0:0:
126,127,63488,1,8,0:0:0:0:
149,138,63702,1,0,0:0:0:0:
149,138,63916,1,8,0:0:0:0:
149,138,64023,1,8,0:0:0:0:
149,138,64130,1,0,0:0:0:0:
229,194,64238,1,0,0:0:0:0:
149,138,64345,1,8,0:0:0:0:
149,138,64559,1,0,0:0:0:0:
149,138,64773,1,8,0:0:0:0:
149,138,64881,1,0,0:0:0:0:
149,138,64988,1,0,0:0:0:0:
151,45,65095,1,8,0:0:0:0:
149,138,65202,1,8,0:0:0:0:
149,138,65416,1,0,0:0:0:0:
149,138,65631,1,8,0:0:0:0:
149,138,65737,1,8,0:0:0:0:
149,138,65845,1,0,0:0:0:0:
149,138,66059,1,8,0:0:0:0:
149,138,66381,1,0,0:0:0:0:
149,138,66488,1,8,0:0:0:0:
149,138,66702,1,0,0:0:0:0:
149,138,66916,1,8,0:0:0:0:
149,138,67131,1,8,0:0:0:0:
149,138,67237,1,0,0:0:0:0:
149,138,67345,1,8,0:0:0:0:
246,211,67451,1,8,0:0:0:0:
149,138,67559,1,0,0:0:0:0:
149,138,67773,1,8,0:0:0:0:
197,83,67988,1,0,0:0:0:0:
149,138,68202,1,8,0:0:0:0:
151,0,68416,1,8,0:0:0:0:
197,83,68630,1,4,0:0:0:0:
197,83,69059,1,0,0:0:0:0:
197,83,69273,1,0,0:0:0:0:
197,83,69488,1,8,0:0:0:0:
197,83,69702,1,0,0:0:0:0:
197,83,69916,1,8,0:0:0:0:
197,83,70131,1,0,0:0:0:0:
129,5,70237,1,0,0:0:0:0:
197,83,70345,1,8,0:0:0:0:
158,56,70452,1,8,0:0:0:0:
197,83,70559,1,0,0:0:0:0:
197,83,70773,1,8,0:0:0:0:
197,83,70988,1,0,0:0:0:0:
197,83,71202,1,8,0:0:0:0:
197,83,71523,1,0,0:0:0:0:
197,83,71631,1,8,0:0:0:0:
197,83,71845,1,8,0:0:0:0:
197,83,72059,1,4,0:0:0:0:
212,78,72488,1,4,0:0:0:0:
212,78,72916,1,4,0:0:0:0:
212,78,73344,1,4,0:0:0:0:
212,78,73773,1,8,0:0:0:0:
212,78,73988,1,0,0:0:0:0:
212,78,74202,1,8,0:0:0:0:
197,184,74416,1,0,0:0:0:0:
212,78,74631,1,8,0:0:0:0:
212,78,74773,1,8,0:0:0:0:
212,78,74916,1,0,0:0:0:0:
212,78,75058,1,8,0:0:0:0:
212,78,75201,1,0,0:0:0:0:
174,64,75344,1,0,0:0:0:0:
174,64,75487,1,12,0:0:0:0:
421,182,75916,1,0,0:0:0:0:
421,182,76023,1,0,0:0:0:0:
421,182,76131,1,0,0:0:0:0:
106,33,76237,1,0,0:0:0:0:
314,172,76345,1,8,0:0:0:0:
314,172,76773,1,8,0:0:0:0:
314,172,76988,1,0,0:0:0:0:
314,172,77416,1,8,0:0:0:0:
314,172,77631,1,0,0:0:0:0:
314,172,77845,1,0,0:0:0:0:
314,172,77952,1,0,0:0:0:0:
314,172,78059,1,8,0:0:0:0:
314,172,78488,1,8,0:0:0:0:
314,172,78916,1,4,0:0:0:0:
284,184,79345,1,8,0:0:0:0:
284,184,79452,1,8,0:0:0:0:
284,184,79559,1,0,0:0:0:0:
284,184,79666,1,0,0:0:0:0:
284,184,79773,1,8,0:0:0:0:
381,241,80202,1,8,0:0:0:0:
381,241,80416,1,0,0:0:0:0:
381,241,80845,1,8,0:0:0:0:
381,241,81059,1,0,0:0:0:0:
381,241,81166,1,0,0:0:0:0:
381,241,81273,1,0,0:0:0:0:
381,241,81488,1,8,0:0:0:0:
381,241,81702,1,8,0:0:0:0:
381,241,81809,1,8,0:0:0:0:
381,241,81916,1,0,0:0:0:0:
381,241,82130,1,0,0:0:0:0:
381,241,82345,1,12,0:0:0:0:
381,241,82773,1,8,0:0:0:0:
381,241,82880,1,0,0:0:0:0:
381,241,82988,1,0,0:0:0:0:
106,33,83094,1,0,0:0:0:0:
381,241,83202,1,8,0:0:0:0:
207,146,83631,1,8,0:0:0:0:
207,146,83845,1,0,0:0:0:0:
207,146,84273,1,8,0:0:0:0:
207,146,84488,1,0,0:0:0:0:
207,146,84702,1,0,0:0:0:0:
207,146,84809,1,0,0:0:0:0:
207,146,84916,1,8,0:0:0:0:
226,147,85345,1,8,0:0:0:0:
226,147,85773,1,4,0:0:0:0:
226,147,86202,1,8,0:0:0:0:
226,147,86309,1,8,0:0:0:0:
226,147,86416,1,0,0:0:0:0:
226,147,86523,1,0,0:0:0:0:
226,147,86631,1,8,0:0:0:0:
226,147,87059,1,8,0:0:0:0:
226,147,87273,1,0,0:0:0:0:
226,147,87702,1,8,0:0:0:0:
226,147,87916,1,0,0:0:0:0:
226,147,88023,1,8,0:0:0:0:
226,147,88131,1,8,0:0:0:0:
226,147,88345,1,4,0:0:0:0:
226,147,88559,1,4,0:0:0:0:
226,147,88773,1,4,0:0:0:0:
224,140,88987,1,12,0:0:0:0:
