osu file format v14

[General]
AudioFilename: audio.mp3
AudioLeadIn: 0
PreviewTime: 47201
Countdown: 0
SampleSet: Normal
StackLeniency: 0.7
Mode: 1
LetterboxInBreaks: 0
WidescreenStoryboard: 1

[Editor]
Bookmarks: 13773,27487,61773
DistanceSpacing: 1.4
BeatDivisor: 4
GridSize: 32
TimelineZoom: 1.2

[Metadata]
Title:Stay Alive (TV Size)
TitleUnicode:Stay Alive (TV Size)
Artist:Emilia (CV: Rie Takahashi)
ArtistUnicode:エミリア (CV:高橋李依)
Creator:-Kazuha
Version:Kantan
Source:Re:ゼロから始める異世界生活
Tags:anime japanese jpop pop j-pop rezero re:zero kara hajimeru isekai seikatsu starting life in a another world from zero ending ed rock jrock j-rock
BeatmapID:4418449
BeatmapSetID:2105765

[Difficulty]
HPDrainRate:9
CircleSize:5
OverallDifficulty:2
ApproachRate:5
SliderMultiplier:2.8
SliderTickRate:1

[Events]
//Background and Video events
0,0,"emilia.jpg",0,120
//Break Periods
//Storyboard Layer 0 (Background)
//Storyboard Layer 1 (Fail)
//Storyboard Layer 2 (Pass)
//Storyboard Layer 3 (Foreground)
//Storyboard Layer 4 (Overlay)
//Storyboard Sound Samples

[TimingPoints]
59,857.142857142857,4,1,0,60,1,0
59,-100,4,1,0,60,0,0
13773,-100,4,1,0,80,0,0
48058,-100,4,1,0,100,0,1
75487,-100,4,1,0,100,0,0
75594,-100,4,1,0,90,0,0

[HitObjects]
349,54,59,5,8,0:0:0:0:
349,54,1344,1,8,0:0:0:0:
233,47,3487,5,0,0:0:0:0:
233,47,4773,1,0,0:0:0:0:
245,117,6916,1,0,0:0:0:0:
179,82,8201,1,8,0:0:0:0:
179,82,10344,1,8,0:0:0:0:
179,82,11630,1,0,0:0:0:0:
234,143,13773,1,4,0:0:0:0:
314,172,14630,1,8,0:0:0:0:
314,172,15273,1,0,0:0:0:0:
314,172,15916,1,0,0:0:0:0:
314,172,16344,1,8,0:0:0:0:
314,172,17201,1,4,0:0:0:0:
156,200,17630,1,8,0:0:0:0:
284,184,18058,1,8,0:0:0:0:
381,241,18701,1,0,0:0:0:0:
381,241,19344,1,8,0:0:0:0:
381,241,19773,1,8,0:0:0:0:
381,241,20630,1,4,0:0:0:0:
381,241,21487,1,8,0:0:0:0:
207,146,22130,1,0,0:0:0:0:
207,146,22773,1,0,0:0:0:0:
207,146,23201,1,8,0:0:0:0:
226,147,24058,1,4,0:0:0:0:
229,49,24487,1,0,0:0:0:0:
226,147,24916,1,8,0:0:0:0:
226,147,25558,1,0,0:0:0:0:
226,147,26201,1,8,0:0:0:0:
226,147,26630,1,8,0:0:0:0:
224,140,27487,1,4,0:0:0:0:
197,145,28344,1,8,0:0:0:0:
178,93,29630,1,0,0:0:0:0:
178,93,30058,1,8,0:0:0:0:
178,93,30487,1,8,0:0:0:0:
152,1,30916,1,0,0:0:0:0:
131,51,31773,1,8,0:0:0:0:
131,51,32630,1,8,0:0:0:0:
131,51,33058,1,8,0:0:0:0:
131,51,33487,1,8,0:0:0:0:
224,140,34344,1,4,0:0:0:0:
197,145,35201,1,8,0:0:0:0:
178,93,36058,1,0,0:0:0:0:
178,93,36487,1,0,0:0:0:0:
178,93,36915,1,8,0:0:0:0:
131,51,37773,1,8,0:0:0:0:
131,51,38630,1,8,0:0:0:0:
131,51,39487,1,4,0:0:0:0:
131,51,39916,1,4,0:0:0:0:
131,51,40344,1,12,0:0:0:0:
131,51,40987,1,0,0:0:0:0:
158,138,42916,5,0,0:0:0:0:
158,138,44630,1,8,0:0:0:0:
256,192,45058,12,0,46773,0:0:0:0:
130,128,47201,5,0,0:0:0:0:
119,133,48058,1,12,0:0:0:0:
126,127,48916,1,8,0:0:0:0:
126,127,49344,1,8,0:0:0:0:
126,127,49773,1,0,0:0:0:0:
184,6,50201,1,0,0:0:0:0:
149,138,50630,1,8,0:0:0:0:
149,138,51487,1,0,0:0:0:0:
228,114,51916,1,0,0:0:0:0:
149,138,52344,1,8,0:0:0:0:
149,138,52773,1,8,0:0:0:0:
149,138,53201,1,0,0:0:0:0:
149,138,54058,1,8,0:0:0:0:
197,83,54916,1,4,0:0:0:0:
197,83,55773,1,8,0:0:0:0:
209,166,56201,1,8,0:0:0:0:
197,83,56630,1,0,0:0:0:0:
197,83,57058,1,8,0:0:0:0:
197,83,57487,1,8,0:0:0:0:
197,83,58344,1,8,0:0:0:0:
229,143,58773,1,0,0:0:0:0:
212,78,59201,1,0,0:0:0:0:
212,78,59630,1,8,0:0:0:0:
212,78,60058,1,8,0:0:0:0:
119,133,61773,1,12,0:0:0:0:
126,127,62631,1,0,0:0:0:0:
126,127,63059,1,8,0:0:0:0:
126,127,63488,1,8,0:0:0:0:
184,6,63916,1,0,0:0:0:0:
149,138,64345,1,8,0:0:0:0:
149,138,65202,1,0,0:0:0:0:
233,165,65630,1,0,0:0:0:0:
149,138,66059,1,8,0:0:0:0:
149,138,66488,5,8,0:0:0:0:
149,138,66916,1,0,0:0:0:0:
149,138,67773,1,8,0:0:0:0:
197,83,68630,1,4,0:0:0:0:
197,83,70345,1,8,0:0:0:0:
197,83,70773,1,0,0:0:0:0:
197,83,71202,1,8,0:0:0:0:
197,83,72059,1,4,0:0:0:0:
212,78,72488,1,4,0:0:0:0:
212,78,72916,1,4,0:0:0:0:
212,78,73344,1,4,0:0:0:0:
212,78,73773,1,8,0:0:0:0:
234,143,75487,1,12,0:0:0:0:
314,172,76344,1,8,0:0:0:0:
314,172,76987,1,0,0:0:0:0:
314,172,77630,1,0,0:0:0:0:
314,172,78058,1,8,0:0:0:0:
314,172,78915,1,4,0:0:0:0:
284,184,79772,1,8,0:0:0:0:
381,241,80415,1,0,0:0:0:0:
381,241,81058,1,8,0:0:0:0:
381,241,81487,1,8,0:0:0:0:
381,241,82344,1,4,0:0:0:0:
381,241,83201,1,8,0:0:0:0:
207,146,83844,1,0,0:0:0:0:
207,146,84487,1,0,0:0:0:0:
207,146,84915,1,8,0:0:0:0:
226,147,85772,1,4,0:0:0:0:
226,147,86630,1,8,0:0:0:0:
226,147,87272,1,0,0:0:0:0:
226,147,87915,1,8,0:0:0:0:
226,147,88344,1,12,0:0:0:0:
226,147,88987,1,12,0:0:0:0:
