osu file format v14

[General]
AudioFilename: audio.mp3
AudioLeadIn: 0
PreviewTime: 47201
Countdown: 0
SampleSet: Normal
StackLeniency: 0.7
Mode: 1
LetterboxInBreaks: 0
WidescreenStoryboard: 1

[Editor]
Bookmarks: 13773,27487,61773
DistanceSpacing: 1.4
BeatDivisor: 8
GridSize: 32
TimelineZoom: 1.2

[Metadata]
Title:Stay Alive (TV Size)
TitleUnicode:Stay Alive (TV Size)
Artist:Emilia (CV: Rie Takahashi)
ArtistUnicode:エミリア (CV:高橋李依)
Creator:-Kazuha
Version:Futsuu
Source:Re:ゼロから始める異世界生活
Tags:anime japanese jpop pop j-pop rezero re:zero kara hajimeru isekai seikatsu starting life in a another world from zero ending ed rock jrock j-rock
BeatmapID:4418448
BeatmapSetID:2105765

[Difficulty]
HPDrainRate:8
CircleSize:5
OverallDifficulty:3
ApproachRate:5
SliderMultiplier:2.8
SliderTickRate:1

[Events]
//Background and Video events
0,0,"emilia.jpg",0,120
//Break Periods
//Storyboard Layer 0 (Background)
//Storyboard Layer 1 (Fail)
//Storyboard Layer 2 (Pass)
//Storyboard Layer 3 (Foreground)
//Storyboard Layer 4 (Overlay)
//Storyboard Sound Samples

[TimingPoints]
59,857.142857142857,4,1,0,60,1,0
59,-100,4,1,0,60,0,0
13773,-100,4,1,0,80,0,0
48058,-100,4,1,0,100,0,1
75487,-100,4,1,0,100,0,0
75594,-100,4,1,0,90,0,0

[HitObjects]
349,54,59,5,8,0:0:0:0:
349,54,487,1,0,0:0:0:0:
349,54,916,1,8,0:0:0:0:
349,54,1344,1,8,0:0:0:0:
233,47,3487,5,8,0:0:0:0:
233,47,3916,1,8,0:0:0:0:
233,47,4344,1,0,0:0:0:0:
233,47,4773,1,0,0:0:0:0:
179,82,6487,1,0,0:0:0:0:
245,117,6916,1,8,0:0:0:0:
245,117,7344,1,0,0:0:0:0:
245,117,7773,1,8,0:0:0:0:
179,82,8201,1,8,0:0:0:0:
179,82,10344,1,8,0:0:0:0:
179,82,10773,1,0,0:0:0:0:
179,82,11201,1,0,0:0:0:0:
179,82,11630,1,8,0:0:0:0:
234,143,12916,1,8,0:0:0:0:
234,143,13773,1,4,0:0:0:0:
421,182,14201,1,0,0:0:0:0:
421,182,14416,1,0,0:0:0:0:
314,172,14630,1,8,0:0:0:0:
314,172,15058,1,8,0:0:0:0:
314,172,15273,1,0,0:0:0:0:
314,172,15701,1,8,0:0:0:0:
314,172,15916,1,0,0:0:0:0:
314,172,16344,1,8,0:0:0:0:
314,172,17201,1,4,0:0:0:0:
284,184,17630,1,8,0:0:0:0:
284,184,17844,1,8,0:0:0:0:
284,184,18058,1,8,0:0:0:0:
381,241,18487,1,8,0:0:0:0:
381,241,18701,1,0,0:0:0:0:
381,241,19130,1,8,0:0:0:0:
381,241,19344,1,0,0:0:0:0:
381,241,19773,1,8,0:0:0:0:
381,241,20630,1,4,0:0:0:0:
381,241,21058,1,0,0:0:0:0:
381,241,21273,1,0,0:0:0:0:
381,241,21487,1,8,0:0:0:0:
207,146,21916,1,8,0:0:0:0:
207,146,22130,1,0,0:0:0:0:
207,146,22558,1,8,0:0:0:0:
207,146,22773,1,0,0:0:0:0:
207,146,23201,1,8,0:0:0:0:
226,147,24058,1,4,0:0:0:0:
226,147,24487,1,8,0:0:0:0:
226,147,24701,1,8,0:0:0:0:
226,147,24916,1,8,0:0:0:0:
226,147,25344,1,8,0:0:0:0:
226,147,25558,1,0,0:0:0:0:
226,147,25987,1,8,0:0:0:0:
226,147,26201,1,0,0:0:0:0:
226,147,26630,1,8,0:0:0:0:
218,113,26844,1,0,0:0:0:0:
226,147,27058,1,8,0:0:0:0:
224,140,27487,1,4,0:0:0:0:
197,145,28344,1,8,0:0:0:0:
197,145,28773,1,8,0:0:0:0:
197,145,28987,1,8,0:0:0:0:
178,93,29416,1,8,0:0:0:0:
178,93,29630,1,0,0:0:0:0:
178,93,30058,1,8,0:0:0:0:
262,67,30487,1,0,0:0:0:0:
131,51,30701,1,8,0:0:0:0:
131,51,30916,1,8,0:0:0:0:
131,51,31344,1,0,0:0:0:0:
131,51,31773,1,8,0:0:0:0:
131,51,32201,1,8,0:0:0:0:
131,51,32416,1,8,0:0:0:0:
131,51,32844,1,8,0:0:0:0:
131,51,33058,1,0,0:0:0:0:
131,51,33487,1,8,0:0:0:0:
248,147,33916,1,8,0:0:0:0:
224,140,34344,1,4,0:0:0:0:
197,145,35201,1,8,0:0:0:0:
197,145,35630,1,8,0:0:0:0:
197,145,35844,1,8,0:0:0:0:
178,93,36273,1,8,0:0:0:0:
178,93,36487,1,0,0:0:0:0:
178,93,36915,1,8,0:0:0:0:
216,84,37344,1,0,0:0:0:0:
131,51,37558,1,8,0:0:0:0:
131,51,37773,1,8,0:0:0:0:
131,51,38201,1,0,0:0:0:0:
131,51,38630,1,8,0:0:0:0:
131,51,39058,1,8,0:0:0:0:
131,51,39273,1,8,0:0:0:0:
131,51,39487,1,4,0:0:0:0:
131,51,39916,1,4,0:0:0:0:
131,51,40344,1,12,0:0:0:0:
131,51,40773,1,0,0:0:0:0:
131,51,40987,1,0,0:0:0:0:
158,138,42916,5,0,0:0:0:0:
158,138,44630,1,8,0:0:0:0:
256,192,45058,12,0,46773,0:0:0:0:
130,128,47201,5,0,0:0:0:0:
119,133,48058,1,12,0:0:0:0:
126,127,48487,1,8,0:0:0:0:
126,127,48701,1,8,0:0:0:0:
126,127,48916,1,0,0:0:0:0:
126,127,49344,1,8,0:0:0:0:
126,127,49558,1,8,0:0:0:0:
126,127,49773,1,0,0:0:0:0:
149,138,49987,1,8,0:0:0:0:
149,138,50201,1,0,0:0:0:0:
149,138,50416,1,0,0:0:0:0:
149,138,50630,1,8,0:0:0:0:
149,138,51058,1,8,0:0:0:0:
149,138,51273,1,8,0:0:0:0:
149,138,51487,1,0,0:0:0:0:
149,138,51916,1,0,0:0:0:0:
149,138,52130,1,0,0:0:0:0:
149,138,52344,1,8,0:0:0:0:
149,138,52558,1,0,0:0:0:0:
149,138,52773,1,8,0:0:0:0:
149,138,53201,1,8,0:0:0:0:
149,138,54058,1,8,0:0:0:0:
197,83,54273,1,8,0:0:0:0:
149,138,54487,1,8,0:0:0:0:
197,83,54916,1,4,0:0:0:0:
197,83,55773,1,8,0:0:0:0:
197,83,56201,1,8,0:0:0:0:
197,83,56630,1,8,0:0:0:0:
197,83,56844,1,0,0:0:0:0:
197,83,57058,1,8,0:0:0:0:
197,83,57487,1,8,0:0:0:0:
197,83,57701,1,8,0:0:0:0:
197,83,57916,1,0,0:0:0:0:
197,83,58130,1,8,0:0:0:0:
197,83,58344,1,0,0:0:0:0:
212,78,58773,1,8,0:0:0:0:
212,78,58987,1,8,0:0:0:0:
212,78,59201,1,0,0:0:0:0:
212,78,59630,1,8,0:0:0:0:
212,78,59844,1,0,0:0:0:0:
212,78,60058,1,0,0:0:0:0:
212,78,60273,1,8,0:0:0:0:
212,78,60487,1,8,0:0:0:0:
212,78,60916,1,0,0:0:0:0:
119,133,61773,1,12,0:0:0:0:
126,127,62202,1,8,0:0:0:0:
126,127,62416,1,8,0:0:0:0:
126,127,62631,1,0,0:0:0:0:
126,127,63059,1,8,0:0:0:0:
126,127,63273,1,8,0:0:0:0:
126,127,63488,1,0,0:0:0:0:
149,138,63702,1,8,0:0:0:0:
149,138,63916,1,0,0:0:0:0:
149,138,64131,1,0,0:0:0:0:
149,138,64345,1,8,0:0:0:0:
149,138,64773,1,8,0:0:0:0:
149,138,64988,1,0,0:0:0:0:
149,138,65202,1,0,0:0:0:0:
149,138,65631,5,0,0:0:0:0:
149,138,65845,1,8,0:0:0:0:
149,138,66059,1,8,0:0:0:0:
149,138,66273,1,0,0:0:0:0:
149,138,66488,1,8,0:0:0:0:
149,138,66916,1,8,0:0:0:0:
149,138,67345,1,0,0:0:0:0:
149,138,67559,1,0,0:0:0:0:
149,138,67773,1,8,0:0:0:0:
149,138,68202,1,8,0:0:0:0:
151,0,68416,1,8,0:0:0:0:
197,83,68630,1,4,0:0:0:0:
197,83,69488,1,8,0:0:0:0:
197,83,69916,1,0,0:0:0:0:
197,83,70345,1,8,0:0:0:0:
197,83,70773,1,0,0:0:0:0:
197,83,71202,1,8,0:0:0:0:
200,142,71416,1,0,0:0:0:0:
197,83,71631,1,8,0:0:0:0:
197,83,71844,1,8,0:0:0:0:
197,83,72059,1,4,0:0:0:0:
212,78,72488,1,4,0:0:0:0:
212,78,72916,1,4,0:0:0:0:
212,78,73344,1,4,0:0:0:0:
212,78,73773,1,8,0:0:0:0:
234,143,75487,1,12,0:0:0:0:
421,182,75915,1,0,0:0:0:0:
421,182,76130,1,0,0:0:0:0:
314,172,76344,1,8,0:0:0:0:
314,172,76772,1,8,0:0:0:0:
314,172,76987,1,0,0:0:0:0:
314,172,77415,1,8,0:0:0:0:
314,172,77630,1,0,0:0:0:0:
314,172,78058,1,8,0:0:0:0:
314,172,78915,1,4,0:0:0:0:
284,184,79344,1,8,0:0:0:0:
284,184,79558,1,8,0:0:0:0:
284,184,79772,1,8,0:0:0:0:
381,241,80201,1,8,0:0:0:0:
381,241,80415,1,0,0:0:0:0:
381,241,80844,1,8,0:0:0:0:
381,241,81058,1,0,0:0:0:0:
381,241,81487,1,8,0:0:0:0:
381,241,82344,1,4,0:0:0:0:
381,241,82772,1,0,0:0:0:0:
381,241,82987,1,0,0:0:0:0:
381,241,83201,1,8,0:0:0:0:
207,146,83630,1,8,0:0:0:0:
207,146,83844,1,0,0:0:0:0:
207,146,84272,1,8,0:0:0:0:
207,146,84487,1,0,0:0:0:0:
207,146,84915,1,8,0:0:0:0:
226,147,85772,1,4,0:0:0:0:
226,147,86201,1,8,0:0:0:0:
226,147,86415,1,8,0:0:0:0:
226,147,86630,1,8,0:0:0:0:
226,147,87058,1,8,0:0:0:0:
226,147,87272,1,0,0:0:0:0:
226,147,87701,1,8,0:0:0:0:
226,147,87915,1,0,0:0:0:0:
226,147,88344,1,12,0:0:0:0:
226,147,88772,1,12,0:0:0:0:
224,140,88987,1,12,0:0:0:0:
