osu file format v14

[General]
AudioFilename: audio.mp3
AudioLeadIn: 0
PreviewTime: 218053
Countdown: 0
SampleSet: Soft
StackLeniency: 0.2
Mode: 0
LetterboxInBreaks: 0
WidescreenStoryboard: 0

[Editor]
Bookmarks: 191178,218147,352941
DistanceSpacing: 1.3
BeatDivisor: 4
GridSize: 4
TimelineZoom: 2.5

[Metadata]
Title:Kuroiuta (International Version)
TitleUnicode:クロイウタ/日本国外向け製品収録版
Artist:Emi Evans
ArtistUnicode:Emi Evans
Creator:Melwoine
Version:Axaptice's Extra
Source:Drakengard 3
Tags:Black Song Keiichi Okabe Axaptice クロイウタ DRAG ON DRAGOON ドラッグオンドラグーン3 ドラグーン エミ エヴァンス White DRAG-ON DRAGOON 3 video game japanese kuroi uta 岡部 啓一
BeatmapID:2355038
BeatmapSetID:1076622

[Difficulty]
HPDrainRate:5
CircleSize:4
OverallDifficulty:8
ApproachRate:9
SliderMultiplier:2
SliderTickRate:1

[Events]
//Background and Video events
0,0,"bg.png",0,0
//Break Periods
//Storyboard Layer 0 (Background)
//Storyboard Layer 1 (Fail)
//Storyboard Layer 2 (Pass)
//Storyboard Layer 3 (Foreground)
//Storyboard Layer 4 (Overlay)
//Storyboard Sound Samples

[TimingPoints]
558,800,4,2,1,8,1,0
558,-166.666666666667,4,2,1,8,0,0
1358,1090.90909090909,4,2,1,8,1,8
2446,937.5,4,2,1,8,1,8
2446,-166.666666666667,4,2,1,8,0,0
3383,1090.90909090909,4,2,1,8,1,8
4453,799.467021985343,4,2,1,8,1,0
5252,952.380952380952,4,2,1,8,1,8
5728,652.173913043478,4,2,1,8,1,8
6054,588.235294117647,4,2,1,8,1,8
6348,884.955752212389,4,2,1,8,1,8
6790,1197.60479041916,4,2,1,8,1,8
7388,923.07692307692,4,2,1,8,1,0
7849,749.999999999998,4,2,1,8,1,8
8224,895.522388059699,4,2,1,8,1,8
8671,769.230769230767,4,2,1,8,1,8
9247,779.220779220777,4,2,1,8,1,8
9441,869.565217391302,4,2,1,8,1,0
9441,-166.666666666667,4,2,1,8,0,0
11180,1071.42857142857,4,2,1,8,1,8
11295,923.07692307692,4,2,1,8,1,8
11295,-166.666666666667,4,2,1,8,0,0
12218,1499.99999999999,4,2,1,8,1,8
13342,1034.48275862069,4,2,1,8,1,8
13471,645.161290322579,4,2,1,8,1,8
14116,779.220779220777,4,2,1,8,1,0
14505,618.556701030928,4,2,1,8,1,8
14814,594.059405940594,4,2,1,8,1,8
15112,722.89156626506,4,2,1,8,1,8
15473,967.741935483871,4,2,1,8,1,8
15956,1142.85714285714,4,2,1,8,1,8
16527,1200,4,2,1,8,1,8
17129,909.090909090909,4,2,1,8,1,0
17810,909.090909090909,4,2,1,8,1,8
17908,571.428571428571,4,2,1,8,1,0
17908,-166.666666666667,4,2,1,8,0,0
18479,909.090909090909,4,2,1,8,1,8
19821,1052.63157894737,4,2,1,8,1,0
20873,1111.11111111111,4,2,1,8,1,8
21984,1016.94915254237,4,2,1,8,1,8
26058,769.230769230769,4,2,1,38,1,0
26058,-153.846153846154,4,2,1,38,0,0
28365,681.818181818181,4,2,1,38,1,8
28365,-166.666666666667,4,2,1,38,0,0
29046,754.716981132075,4,2,1,38,1,0
30555,925.925925925926,4,2,1,38,1,8
31480,570.884871550904,4,2,1,38,1,8
31480,-172.413793103448,4,2,1,38,0,0
32050,882.352941176471,4,2,1,38,1,0
32050,-153.846153846154,4,2,1,38,0,0
32932,718.562874251497,4,2,1,38,1,0
33650,705.882352941176,4,2,1,38,1,8
33650,-153.846153846154,4,2,1,38,0,8
35061,740.740740740741,4,2,1,38,1,0
38089,857.142857142857,4,2,1,38,1,0
38089,-153.846153846154,4,2,1,38,0,0
38946,857.142857142857,4,2,1,38,1,0
39619,689.655172413793,4,2,1,38,1,8
40308,756.620428751576,4,2,1,38,1,8
40308,-153.846153846154,4,2,1,38,0,8
41064,845.070422535211,4,2,1,38,1,0
41064,-153.846153846154,4,2,1,38,0,0
41909,632.911392405063,4,2,1,38,1,8
42542,833.333333333333,4,2,1,38,1,8
43375,674.157303370786,4,2,1,38,1,8
43375,-153.846153846154,4,2,1,38,0,0
44039,750,4,2,1,38,1,0
44039,-153.846153846154,4,2,1,38,0,0
45539,759.493670886076,4,2,1,38,1,0
45539,-153.846153846154,4,2,1,38,0,0
47057,759.493670886076,4,2,1,38,1,0
50084,756.85903500473,4,2,1,38,1,0
50084,-153.846153846154,4,2,1,38,0,0
52354,540.540540540541,4,2,1,38,1,8
52534,555.555555555556,4,2,1,38,1,8
52534,-153.846153846154,4,2,1,38,0,0
53089,705.882352941176,4,2,1,38,1,0
54500,869.565217391304,4,2,1,38,1,8
55369,789.473684210526,4,2,1,38,1,0
55369,-153.846153846154,4,2,1,38,0,0
56079,769.230769230769,4,2,1,38,1,0
56079,-153.846153846154,4,2,1,38,0,0
56848,849.85835694051,4,2,1,38,1,0
57697,594.059405940594,4,2,1,38,1,8
57697,-153.846153846154,4,2,1,38,0,0
58291,769.230769230769,4,2,1,38,1,8
59060,810.810810810811,4,2,1,38,1,0
59060,-153.846153846154,4,2,1,38,0,0
60230,731.707317073171,4,2,1,38,1,8
60230,-153.846153846154,4,2,1,16,0,0
60595,-153.846153846154,4,2,1,20,0,0
60961,-153.846153846154,4,2,1,24,0,0
61327,-153.846153846154,4,2,1,28,0,0
61693,-153.846153846154,4,2,1,25,0,0
61694,794.701986754967,4,2,1,36,1,0
62090,764.331210191083,4,2,1,38,1,0
62090,-153.846153846154,4,2,1,38,0,0
63618,697.67441860465,4,2,1,38,1,8
64315,731.707317073171,4,2,1,38,1,8
65079,722.89156626506,4,2,1,38,1,0
65079,-153.846153846154,4,2,1,38,0,0
65801,769.230769230769,4,2,1,38,1,8
66571,681.818181818182,4,2,1,38,1,8
67252,805.369127516779,4,2,1,38,1,8
67252,-153.846153846154,4,2,1,38,0,0
68057,1153.84615384615,4,2,1,38,1,0
68057,-95.2380952380952,4,2,1,38,0,0
69595,722.89156626506,4,2,1,38,1,8
69595,-153.846153846154,4,2,1,38,0,0
71040,764.331210191083,4,2,1,38,1,0
71040,-153.846153846154,4,2,1,38,0,0
72172,813.559322033898,4,2,1,38,1,0
72578,881.704628949302,4,2,1,38,1,8
72578,-153.846153846154,4,2,1,38,0,0
74047,750,4,2,1,38,1,0
74047,-142.857142857143,4,2,1,38,0,0
101047,-133.333333333333,4,2,1,38,0,0
125047,-111.111111111111,4,2,1,38,0,0
154668,375,4,2,1,52,1,8
155043,375,4,2,1,62,1,0
155043,-83.3333333333333,4,2,1,62,0,0
218043,-83.3333333333333,4,2,1,72,0,0
218793,-68.9655172413793,4,2,1,72,0,0
246574,-68.9655172413793,4,2,1,44,0,0
246636,-68.9655172413793,4,2,1,72,0,0
272043,810.810810810811,4,2,1,38,1,0
272853,701.754385964912,4,2,1,38,1,0
273554,810.810810810811,4,2,1,38,1,0
274364,679.886685552408,4,2,1,38,1,0
275043,705.882352941176,4,2,1,38,1,0
275043,-133.333333333333,4,2,1,38,0,0
275748,795.755968169761,4,2,1,38,1,0
276543,750,4,2,1,38,1,0
278043,779.220779220779,4,2,1,38,1,0
278822,721.153846153846,4,2,1,38,1,0
279543,833.333333333333,4,2,1,38,1,0
280376,667.408231368187,4,2,1,38,1,0
281043,775.193798449612,4,2,1,38,1,0
282593,562.32427366448,4,2,1,38,1,0
283155,1000,4,2,1,38,1,0
283905,555.555555555556,4,2,1,38,1,0
284043,750,4,2,1,38,1,0
286668,791.55672823219,4,2,1,38,1,0
287063,769.230769230769,4,2,1,38,1,0
287832,740.740740740741,4,2,1,38,1,0
289313,730.149072102221,4,2,1,38,1,0
290043,760.456273764259,4,2,1,38,1,0
291563,705.882352941176,4,2,1,38,1,0
292268,775.193798449612,4,2,1,38,1,0
293043,750,4,2,1,38,1,0
294543,760.456273764259,4,2,1,38,1,0
296063,750,4,2,1,38,1,0
296813,800,4,2,1,38,1,0
297613,689.655172413793,4,2,1,38,1,0
298302,741.656365883807,4,2,1,38,1,0
299043,769.230769230769,4,2,1,38,1,0
300196,834.492350486787,4,2,1,38,1,0
300613,715.137067938021,4,2,1,38,1,0
302043,750,4,2,1,38,1,0
302793,790.513833992095,4,2,1,38,1,0
303583,730.371272063299,4,2,1,38,1,0
305043,764.331210191083,4,2,1,38,1,0
306571,731.707317073171,4,2,1,38,1,0
307668,810.810810810811,4,2,1,38,1,0
308073,750,4,2,1,38,1,0
309948,730.371272063299,4,2,1,38,1,0
311043,750,4,2,1,38,1,0
311793,760.456273764259,4,2,1,38,1,0
312553,769.230769230769,4,2,1,38,1,0
313322,721.153846153846,4,2,1,38,1,0
314043,750,4,2,1,38,1,0
314793,789.473684210526,4,2,1,38,1,0
315187,733.94495412844,4,2,1,38,1,0
315553,745.341614906832,4,2,1,38,1,0
317043,750,4,2,1,32,1,0
317043,-135.135135135135,4,2,1,32,0,0
317793,770.218228498074,4,2,1,32,1,0
318563,833.333333333333,4,2,1,32,1,0
319396,657.174151150055,4,2,1,28,1,0
319396,-133.333333333333,4,2,1,28,0,0
320053,750,4,2,1,28,1,0
324553,770.712909441233,4,2,1,28,1,0
326094,1148.32535885167,4,2,1,28,1,8
326285,972.447325769854,4,2,1,20,1,0
326285,-181.818181818182,4,2,1,20,0,0
327257,927.93071450665,4,2,1,20,1,8
328184,967.741935483871,4,2,1,20,1,8
328184,-181.818181818182,4,2,1,20,0,0
329151,1071.42857142857,4,2,1,20,1,8
330222,1463.41463414634,4,2,1,20,1,0
330953,1204.81927710843,4,2,1,20,1,8
331555,1382.48847926267,4,2,1,16,1,8
332246,1538.46153846153,4,2,1,12,1,8
333015,1153.84615384615,4,2,1,13,1,8
333591,845.070422535211,4,2,1,10,1,8
334325,909.090909090909,4,2,1,6,1,0
334325,-181.818181818182,4,2,1,20,0,0
335234,1042.57167680278,4,2,1,30,1,8
336275,1186.94362017804,4,2,1,6,1,8
336275,-181.818181818182,4,2,1,15,0,0
337462,1224.48979591837,4,2,1,6,1,8
338686,1578.94736842106,4,2,1,6,1,0
339475,967.741935483873,4,2,1,10,1,8
339958,967.741935483873,4,2,1,20,1,8
340441,1016.94915254237,4,2,1,15,1,8
340949,1304.34782608696,4,2,1,10,1,8
341600,1621.62162162163,4,2,1,6,1,8
342410,1111.11111111111,4,2,1,6,1,8
343521,1153.84615384615,4,2,1,6,1,0
344097,1003.34448160535,4,2,1,6,1,8
344597,955.414012738854,4,2,1,6,1,8
344597,-181.818181818182,4,2,1,15,0,0
346508,937.499999999999,4,2,1,6,1,8
346508,-181.818181818182,4,2,1,12,0,0
347445,999.999999999998,4,2,1,20,1,0
348445,1132.07547169811,4,2,1,14,1,8
349577,1313.6288998358,4,2,1,6,1,8
350890,2056.55526992288,4,2,1,6,1,8
352432,1518.98734177215,4,2,1,6,1,8
352527,1621.62162162162,4,2,1,6,1,0

[Colours]
Combo1 : 128,0,0
Combo2 : 255,213,255
Combo3 : 128,0,128
Combo4 : 255,198,170
Combo5 : 215,70,0
Combo6 : 166,210,210
Combo7 : 46,90,90
Combo8 : 255,147,147

[HitObjects]
14,349,558,6,0,P|78:372|147:388,1,120.149996337891,2|0,0:0|0:0,0:0:0:0:
501,312,2446,2,0,P|413:331|378:337,1,119.999996337891,2|0,0:0|0:0,0:0:0:0:
262,384,4453,6,0,L|250:366,1,12.68,2|0,0:0|0:0,0:0:0:0:
50,298,5252,6,0,P|111:331|165:365,1,100,0|2,0:0|0:0,0:0:0:0:
265,289,6054,2,0,P|239:364|232:405,1,99.66,2|2,0:0|0:0,0:0:0:0:
332,384,6790,5,2,0:0:0:0:
512,384,7388,6,0,P|493:353|472:271,1,100,2|0,0:0|0:0,0:0:0:0:
281,326,8224,2,0,P|370:375|382:384,1,100,2|0,0:0|0:0,0:0:0:0:
31,368,9247,6,0,L|35:384,2,16.6666666666667
50,379,9441,2,0,P|128:364|179:347,1,120.019996337891,2|0,0:0|0:0,0:0:0:0:
481,384,11180,6,0,L|477:371,1,12.5,2|2,0:0|0:0,0:0:0:0:
460,383,11295,2,0,L|352:324,1,119.999996337891,2|0,0:0|0:0,0:0:0:0:
191,364,13342,6,0,L|186:384,2,12.5,2|2|2,0:0|0:0|0:0,0:0:0:0:
59,384,14116,6,0,P|82:323|97:270,1,100,2|2,0:0|0:0,0:0:0:0:
241,343,14814,2,0,P|180:368|137:392,1,100,2|2,0:0|0:0,0:0:0:0:
310,287,15473,2,0,P|370:316|419:347,1,100,2|0,0:0|0:0,0:0:0:0:
377,342,16527,5,0,0:0:0:0:
502,251,17127,5,0,0:0:0:0:
293,368,17810,6,0,L|296:380,1,12.68,0|0,0:0|0:0,0:0:0:0:
323,384,17908,2,0,P|369:385|448:367,1,119.999996337891,2|0,0:0|0:0,0:0:0:0:
256,295,18933,2,0,P|189:339|142:361,1,100.17,2|2,0:0|0:0,0:0:0:0:
0,294,19821,6,0,L|7:310,1,12.65,2|0,0:0|0:0,0:0:0:0:
257,322,20873,5,2,0:0:0:0:
503,384,21984,6,0,L|509:373,1,12.61,0|0,0:0|0:0,0:0:0:0:
18,236,26058,6,0,P|55:269|124:343,2,130.038994049073,2|2|2,0:0|0:0|0:0,0:0:0:0:
136,295,28365,2,0,P|185:287|217:278,1,60.1599981689454,2|0,0:0|0:0,0:0:0:0:
496,340,29046,5,2,0:0:0:0:
488,364,30555,1,2,0:0:0:0:
388,262,31480,2,0,L|408:336,1,58.1044017700196,2|0,0:0|0:0,0:0:0:0:
233,384,32050,6,0,P|168:357|97:311,1,130.173327382406,2|0,0:0|0:0,0:0:0:0:
0,384,33650,2,0,P|55:341|98:295,1,129.999994049073,2|0,0:0|0:0,0:0:0:0:
235,384,35061,5,2,0:0:0:0:
201,352,36542,1,2,0:0:0:0:
512,384,38089,6,0,P|446:348|396:324,1,129.999994049073,2|0,0:0|0:0,0:0:0:0:
474,280,39619,1,0,0:0:0:0:
333,249,40308,2,0,P|287:282|276:288,1,64.9999970245363,2|0,0:2|0:0,0:0:0:0:
77,282,41064,6,0,P|151:325|206:344,1,129.999994049073,2|0,0:0|0:0,0:0:0:0:
221,338,42542,1,2,0:0:0:0:
13,319,43375,2,0,L|27:408,1,65.0151636912029,0|0,0:0|0:0,0:0:0:0:
250,363,44039,6,0,P|172:374|97:390,1,130.173327382406,2|0,0:0|0:0,0:0:0:0:
282,294,45539,2,0,P|338:344|391:403,1,130.173327382406
83,351,47057,5,2,0:0:0:0:
76,323,48575,1,2,0:0:0:0:
496,373,50084,6,0,P|434:343|360:323,2,130.08666071574,2|0|2,0:0|0:0|0:0,0:0:0:0:
492,232,52354,1,0,0:0:0:0:
510,253,52534,2,0,P|479:259|439:278,1,65.1039970245363,2|0,0:0|0:0,0:0:0:0:
367,232,53089,1,2,0:0:0:0:
254,344,54500,1,2,0:0:0:0:
229,339,55369,2,0,L|205:254,1,65.1018303578696,2|0,0:0|0:0,0:0:0:0:
0,254,56079,6,0,P|53:280|134:302,1,130.038994049073,2|0,0:0|0:0,0:0:0:0:
373,332,57697,2,0,P|310:348|232:380,1,129.999994049073,2|0,0:0|0:0,0:0:0:0:
125,232,59060,6,0,P|141:285|160:386,1,130.173327382406,2|0,0:0|0:0,0:0:0:0:
257,384,60230,1,2,0:0:0:0:
284,347,60595,1,2,0:0:0:0:
220,311,60961,1,2,0:0:0:0:
286,266,61327,1,2,0:0:0:0:
225,207,61693,1,2,0:0:0:0:
372,383,62090,6,0,P|427:350|508:314,2,129.999994049073,2|2|2,0:0|0:0|0:0,0:0:0:0:
258,323,64315,1,2,0:0:0:0:
241,335,64680,1,2,0:0:0:0:
1,342,65079,6,0,P|51:337|129:309,1,129.999994049073,2|0,0:0|0:0,0:0:0:0:
152,283,66570,1,2,0:0:0:0:
300,367,67252,2,0,L|284:279,1,65.1213303578696,2|0,0:0|0:0,0:0:0:0:
466,268,68057,6,0,P|440:320|404:399,1,131.249995994568,2|0,0:0|0:0,0:0:0:0:
442,369,69210,1,2,0:0:0:0:
343,291,69595,2,0,P|295:347|238:395,1,130.129994049073,2|0,0:0|0:0,0:0:0:0:
4,237,71040,6,0,P|51:270|142:303,1,130.173327382406,2|0,0:0|0:0,0:0:0:0:
104,273,72172,1,0,0:0:0:0:
0,384,72578,2,0,P|54:374|91:363,1,65.151663691203,2|0,0:0|0:0,0:0:0:0:
270,283,73459,2,0,P|286:250|292:221,1,64.9999970245363
327,207,74047,6,0,L|343:335,2,105.093330128987,8|8|6,0:1|0:1|0:3,0:0:0:0:
437,304,75547,2,0,P|388:297|358:287,1,70.1866645304363,0|2,0:0|0:0,0:0:0:0:
189,272,76297,2,0,P|218:253|250:238,1,70.1866645304363,2|0,0:0|0:0,0:0:0:0:
79,202,77047,6,0,L|49:243,5,35.0186655985515,8|2|2|8|2|0,0:1|0:0|0:0|0:1|0:0|0:0,0:0:0:0:
179,269,78172,2,0,L|184:353,1,70.1866645304363,8|4,0:1|0:3,0:0:0:0:
264,257,78734,1,4,0:3:0:0:
260,271,78922,1,4,0:3:0:0:
405,312,79297,1,8,0:3:0:0:
384,315,79484,1,8,0:3:0:0:
361,319,79672,1,8,0:3:0:0:
151,198,80047,6,0,P|208:214|270:235,2,105.093330128987,2|8|2,0:0|0:1|0:0,0:0:0:0:
272,257,81547,2,0,L|327:224,2,35.0933322652181,2|0|0,0:0|0:0|0:0,0:0:0:0:
412,267,82297,2,0,P|422:218|434:184,1,70.1866645304363,2|0,0:0|0:0,0:0:0:0:
173,298,83047,6,0,L|185:346,2,35.0186655985515,2|0|0,0:2|0:2|0:2,0:0:0:0:
261,289,83609,2,0,L|349:266,1,69.9999978637696,8|0,0:1|0:0,0:0:0:0:
89,336,84172,2,0,L|10:301,1,69.9999978637696,8|0,0:1|0:1,0:0:0:0:
101,202,84734,1,2,0:0:0:0:
74,210,84922,1,8,0:1:0:0:
196,251,85297,1,4,0:3:0:0:
215,261,85484,1,4,0:3:0:0:
237,270,85672,1,4,0:3:0:0:
439,186,86047,6,0,P|387:204|315:220,2,105.093330128987,2|8|2,0:0|0:1|0:0,0:0:0:0:
504,264,87547,1,0,0:0:0:0:
257,216,87922,1,2,0:0:0:0:
188,251,88297,1,2,0:0:0:0:
115,182,88672,1,2,0:0:0:0:
24,266,89047,6,0,L|-11:231,5,35.0186655985515,8|2|2|2|2|2,0:1|0:0|0:0|0:0|0:0|0:0,0:0:0:0:
103,234,90172,2,0,L|152:168,1,70.1866645304363,8|0,0:1|0:0,0:0:0:0:
225,246,90734,1,0,0:0:0:0:
219,223,90922,1,0,0:0:0:0:
327,208,91297,1,2,0:0:0:0:
309,192,91484,1,0,0:0:0:0:
292,178,91672,1,0,0:0:0:0:
484,255,92047,6,0,P|497:199|517:142,2,105.093330128987,4|8|2,0:3|0:1|0:3,0:0:0:0:
353,247,93547,2,0,P|386:282|403:308,1,70.1866645304363,2|0,0:0|0:0,0:0:0:0:
267,247,94297,2,0,P|226:242|188:241,1,70.1866645304363,2|0,0:0|0:0,0:0:0:0:
370,225,95047,6,0,L|400:187,2,35.0186655985515,2|0|0,0:2|0:2|0:2,0:0:0:0:
465,208,95609,2,0,L|546:182,1,69.9999978637696,8|0,0:1|0:0,0:0:0:0:
287,236,96172,2,0,L|211:202,1,70.1866645304363,8|2,0:1|0:0,0:0:0:0:
208,291,96734,1,0,0:0:0:0:
189,310,96922,1,2,0:0:0:0:
135,201,97297,1,2,0:0:0:0:
127,219,97484,1,0,0:0:0:0:
119,238,97672,1,2,0:0:0:0:
0,177,98047,6,0,P|18:234|32:300,2,105.093330128987,2|8|2,0:0|0:1|0:3,0:0:0:0:
110,260,99547,2,0,P|166:276|274:293,1,140.186662394206,2|0,0:0|0:0,0:0:0:0:
261,286,100672,1,0,0:0:0:0:
512,147,101047,6,0,P|447:157|338:157,2,150.000005722046,4|0|2,0:3|0:0|0:3,0:0:0:0:
484,138,102922,1,2,0:0:0:0:
418,188,103297,1,2,0:0:0:0:
293,159,103672,1,2,0:0:0:0:
264,253,104047,2,0,L|208:260,5,37.5200014305115,2|0|2|2|8|0,0:0|0:1|0:3|0:0|0:1|0:1,0:0:0:0:
176,321,105172,2,0,L|121:301,1,37.6000014305115,0|0,0:3|0:0,0:0:0:0:
103,140,105547,5,2,0:0:0:0:
160,194,106109,1,0,0:3:0:0:
104,250,106672,1,4,0:3:0:0:
280,139,107047,6,0,P|264:218|253:306,2,150.000005722046,2|0|2,0:3|0:0|0:0,0:0:0:0:
472,172,109297,2,0,P|432:195|397:226,1,75.0000028610231,2|0,0:0|0:0,0:0:0:0:
262,197,110047,6,0,L|218:176,5,37.5200014305115,2|0|2|2|0|0,0:0|0:0|0:0|0:3|0:0|0:0,0:0:0:0:
158,263,111172,2,0,L|209:249,1,37.6000014305115,8|0,0:1|0:0,0:0:0:0:
86,138,111547,5,2,0:0:0:0:
156,201,111922,1,2,0:0:0:0:
249,212,112297,1,2,0:3:0:0:
331,167,112672,1,2,0:0:0:0:
23,119,113047,6,0,P|40:173|54:273,2,150.000005722046,2|2|2,0:0|0:0|0:0,0:0:0:0:
11,149,114922,1,2,0:0:0:0:
106,196,115297,1,2,0:0:0:0:
151,108,115672,1,2,0:0:0:0:
263,204,116047,6,0,L|249:152,5,37.5200014305115,2|0|2|2|0|0,0:0|0:3|0:0|0:3|0:3|0:0,0:0:0:0:
343,225,117172,2,0,L|313:309,1,75.0000028610231,0|0,0:3|0:0,0:0:0:0:
413,264,117734,1,0,0:0:0:0:
438,257,117922,1,0,0:0:0:0:
405,149,118297,1,2,0:0:0:0:
433,157,118484,1,0,0:0:0:0:
464,167,118672,1,8,0:1:0:0:
259,114,119047,6,0,P|251:175|237:257,2,112.500004291535,2|2|2,0:3|0:3|0:0,0:0:0:0:
241,139,120547,1,2,0:0:0:0:
142,113,120922,1,2,0:0:0:0:
0,184,121297,2,0,P|40:154|85:130,1,75.0000028610231,2|0,0:0|0:0,0:0:0:0:
141,238,122047,6,0,L|127:192,5,37.5200014305115,2|0|2|2|0|0,0:0|0:0|0:0|0:3|0:0|0:0,0:0:0:0:
206,149,123172,2,0,L|240:63,1,75.0000028610231,2|0,0:3|0:0,0:0:0:0:
244,237,123734,1,0,0:3:0:0:
259,253,123922,1,0,0:3:0:0:
361,166,124297,1,4,0:3:0:0:
331,171,124484,1,0,0:3:0:0:
301,175,124672,1,2,0:3:0:0:
18,56,125047,6,0,P|79:80|209:141,2,180.119994506836,2|0|2,0:0|0:0|0:0,0:0:0:0:
19,86,126922,1,2,0:0:0:0:
116,94,127297,1,2,0:0:0:0:
201,34,127672,1,2,0:0:0:0:
105,130,128047,6,0,L|131:181,5,45.023998626709,2|2|2|4|2|0,0:0|0:0|0:0|0:3|0:3|0:0,0:0:0:0:
194,65,129172,1,2,0:3:0:0:
318,83,129453,6,0,L|323:65,2,11.3399996566773,0|0|2,0:0|0:0|0:0,0:0:0:0:
420,173,129922,1,0,0:3:0:0:
512,156,130109,2,0,P|507:90|504:14,1,135.359995880127,2|4,0:0|0:3,0:0:0:0:
261,0,131047,6,0,P|279:57|311:212,2,180.119994506836,2|0|2,0:3|0:0|0:0,0:0:0:0:
249,24,132922,1,0,0:0:0:0:
212,122,133297,1,2,0:0:0:0:
119,82,133672,1,2,0:0:0:0:
43,144,134047,6,0,L|19:106,5,45.023998626709,2|0|2|8|0|2,0:0|0:0|0:0|0:1|0:0|0:0,0:0:0:0:
129,104,135172,2,0,P|175:119|217:139,1,90.2399972534181,2|0,0:3|0:0,0:0:0:0:
222,153,135922,1,0,0:3:0:0:
137,87,136297,1,4,0:3:0:0:
133,62,136484,1,0,0:0:0:0:
127,37,136672,1,8,0:1:0:0:
384,47,137047,6,0,P|312:99|214:152,2,180.119994506836,2|0|2,0:0|0:0|0:0,0:0:0:0:
372,82,138922,1,2,0:0:0:0:
416,151,139297,1,2,0:0:0:0:
491,105,139672,1,2,0:0:0:0:
339,80,140047,6,0,L|292:120,5,45.023998626709,2|0|2|4|2|0,0:0|0:0|0:0|0:3|0:3|0:3,0:0:0:0:
276,32,141172,2,0,L|167:8,1,90.2399972534181,8|2,0:1|0:0,0:0:0:0:
201,93,141734,1,2,0:0:0:0:
206,119,141922,1,0,0:0:0:0:
105,53,142297,2,0,P|64:17|12:-10,1,90.2399972534181,2|0,0:0|0:0,0:0:0:0:
321,35,143047,6,0,P|399:11|466:-3,2,135.119995880127,2|0|2,0:0|0:0|0:0,0:0:0:0:
345,49,144547,1,2,0:0:0:0:
269,107,144922,1,2,0:0:0:0:
201,46,145297,2,0,P|147:29|95:16,1,90.2399972534181,2|0,0:0|0:0,0:0:0:0:
0,96,146047,6,0,L|55:84,5,45.023998626709,2|0|2|4|0|2,0:0|0:0|0:0|0:3|0:0|0:0,0:0:0:0:
111,146,147172,1,8,0:1:0:0:
240,36,147547,2,0,P|222:90|213:128,1,90.2399972534181,2|0,0:0|0:0,0:0:0:0:
340,54,148297,1,2,0:0:0:0:
350,77,148484,1,0,0:0:0:0:
359,100,148672,1,8,0:1:0:0:
101,0,149047,6,0,P|106:84|117:150,2,135.119995880127,2|2|2,0:0|0:0|0:0,0:0:0:0:
247,111,150547,2,0,P|239:53|228:12,1,90.2399972534181,2|2,0:0|0:0,0:0:0:0:
431,89,151297,2,0,P|448:33|455:-8,1,90.2399972534181,2|2,0:0|0:0,0:0:0:0:
200,35,152047,6,0,B|183:285|323:81|302:386,1,360.239989013672,6|6,0:0|0:0,0:0:0:0:
299,367,154297,1,0,0:0:0:0:
275,359,154668,5,2,0:0:0:0:
248,311,154761,1,2,0:0:0:0:
281,251,154855,1,2,0:0:0:0:
322,191,154949,1,2,0:0:0:0:
289,123,155043,6,0,P|178:150|11:177,1,240.639992675781,6|4,0:0|0:3,0:0:0:0:
39,152,155605,1,0,0:0:0:0:
284,164,155793,2,0,P|377:209|430:247,1,119.679996337891,2|0,0:3|0:0,0:0:0:0:
430,313,156168,1,8,0:3:0:0:
386,225,156355,1,4,0:3:0:0:
452,23,156543,5,2,0:0:0:0:
407,40,156636,1,0,0:0:0:0:
370,27,156730,1,4,0:3:0:0:
345,14,156824,1,0,0:0:0:0:
325,22,156918,1,8,0:3:0:0:
68,25,157105,1,2,0:0:0:0:
41,36,157199,1,0,0:0:0:0:
17,22,157293,2,0,P|-2:74|33:174,1,119.679996337891,8|2,0:3|0:0,0:0:0:0:
0,344,157668,2,0,P|58:274|114:219,1,119.679996337891,10|4,0:3|0:3,0:0:0:0:
267,44,158043,6,0,P|168:83|3:131,1,239.999992675781,10|4,0:1|0:3,0:0:0:0:
26,100,158605,1,2,0:3:0:0:
112,76,158793,1,10,0:0:0:0:
185,147,158980,1,0,0:0:0:0:
395,22,159168,2,0,P|314:35|295:113,1,119.679996337891,4|4,0:3|0:3,0:0:0:0:
323,277,159543,6,0,L|307:134,1,119.999996337891,12|10,0:2|0:2,0:0:0:0:
295,170,159824,2,0,L|437:154,1,119.999996337891,2|0,0:2|0:2,0:0:0:0:
334,264,160105,2,0,L|215:277,1,119.999996337891,10|2,0:3|0:2,0:0:0:0:
212,261,160480,1,2,0:0:0:0:
455,287,160668,2,0,P|506:211|535:140,1,119.679996337891,8|2,0:0|0:3,0:0:0:0:
188,265,161043,6,0,B|154:274|154:274|93:67,1,240.639992675781,12|4,0:1|0:3,0:0:0:0:
89,48,161605,1,8,0:0:0:0:
143,105,161793,1,8,0:3:0:0:
86,279,161980,2,0,P|42:342|-8:389,2,120.319996337891,2|2|4,0:1|0:3|0:3,0:0:0:0:
133,371,162543,5,12,0:0:0:0:
87,360,162636,1,0,0:0:0:0:
53,365,162730,1,0,0:0:0:0:
31,376,162824,1,2,0:0:0:0:
16,384,162918,1,4,0:3:0:0:
235,210,163105,1,8,0:0:0:0:
275,260,163199,1,0,0:0:0:0:
326,272,163293,2,0,P|435:224|516:193,2,179.839994506836,2|2|6,0:1|0:1|0:3,0:0:0:0:
6,197,164043,6,0,P|98:208|95:370,1,239.999992675781,2|6,0:0|0:3,0:0:0:0:
106,353,164605,1,2,0:0:0:0:
164,268,164793,1,8,0:3:0:0:
125,199,164980,1,0,0:0:0:0:
198,10,165168,1,8,0:0:0:0:
106,38,165355,5,2,0:0:0:0:
117,66,165449,1,2,0:0:0:0:
141,81,165543,1,6,0:3:0:0:
168,83,165636,1,0,0:0:0:0:
194,78,165730,1,2,0:0:0:0:
212,92,165824,1,2,0:0:0:0:
220,117,165918,1,6,0:3:0:0:
215,137,166011,1,0,0:0:0:0:
203,167,166105,5,2,0:0:0:0:
201,207,166199,1,2,0:0:0:0:
237,245,166293,1,4,0:3:0:0:
292,242,166386,1,2,0:0:0:0:
331,197,166480,1,2,0:0:0:0:
312,143,166574,1,2,0:0:0:0:
311,84,166668,1,4,0:3:0:0:
345,141,166761,1,4,0:3:0:0:
310,204,166855,1,4,0:3:0:0:
349,270,166949,1,4,0:3:0:0:
324,344,167043,6,0,B|318:347|307:356|307:356|311:299|340:243|375:197|444:131,1,239.999992675781,12|2,0:0|0:3,0:0:0:0:
433,152,167605,1,0,0:0:0:0:
270,276,167793,2,0,P|182:269|163:213,1,119.679996337891,4|0,0:3|0:0,0:0:0:0:
188,161,168168,1,8,0:1:0:0:
151,81,168355,1,8,0:1:0:0:
0,324,168543,5,10,0:1:0:0:
49,320,168636,1,0,0:0:0:0:
72,343,168730,1,2,0:0:0:0:
87,360,168824,1,2,0:0:0:0:
114,358,168918,1,4,0:3:0:0:
214,342,169105,1,4,0:3:0:0:
512,384,169293,2,0,P|397:354|248:265,1,239.999992675781,10|4,0:1|0:3,0:0:0:0:
313,282,169855,1,8,0:3:0:0:
500,205,170043,5,4,0:0:0:0:
510,154,170136,1,0,0:0:0:0:
503,129,170230,1,0,0:0:0:0:
436,54,170418,2,0,P|342:75|275:95,1,119.679996337891,8|2,0:3|0:0,0:0:0:0:
164,180,170793,2,0,P|90:145|0:112,1,119.679996337891,10|0,0:1|0:0,0:0:0:0:
18,140,171168,1,4,0:3:0:0:
222,102,171355,1,0,0:0:0:0:
237,149,171449,1,0,0:0:0:0:
245,172,171543,6,0,B|254:198|254:198|466:51,1,239.999992675781,10|6,0:0|0:3,0:0:0:0:
418,61,172105,1,4,0:3:0:0:
302,214,172293,2,0,P|309:278|329:361,1,119.679996337891,10|0,0:0|0:0,0:0:0:0:
170,383,172668,2,0,P|185:318|193:251,1,119.679996337891,8|4,0:3|0:3,0:0:0:0:
492,122,173043,6,0,P|448:250|435:384,1,239.999992675781,10|4,0:3|0:3,0:0:0:0:
458,363,173605,1,2,0:3:0:0:
428,167,173793,2,0,L|265:115,1,119.679996337891,10|0,0:1|0:0,0:0:0:0:
227,173,174168,1,8,0:0:0:0:
167,103,174355,1,8,0:3:0:0:
511,13,174543,5,4,0:2:0:0:
449,36,174636,1,0,0:0:0:0:
433,77,174730,1,0,0:0:0:0:
460,111,174824,1,0,0:0:0:0:
484,105,174918,1,4,0:3:0:0:
342,24,175105,1,2,0:0:0:0:
149,199,175293,2,0,B|135:213|125:219|120:218|120:218|82:186|58:99|72:38|94:-23,1,239.999992675781,2|8,0:1|0:3,0:0:0:0:
100,26,175855,1,10,0:3:0:0:
45,347,176043,6,0,B|438:308|124:192|514:151,2,479.999985351563,6|10|8,0:0|0:1|0:1,0:0:0:0:
51,243,177730,1,2,0:0:0:0:
110,226,177824,1,2,0:0:0:0:
146,230,177918,1,8,0:3:0:0:
220,288,178105,1,2,0:0:0:0:
280,222,178293,1,6,0:3:0:0:
215,160,178480,1,0,0:0:0:0:
307,11,178668,1,10,0:3:0:0:
297,0,178855,1,0,0:0:0:0:
314,209,179043,6,0,P|393:115|494:186,1,239.999992675781,6|4,0:2|0:3,0:0:0:0:
492,184,179605,1,2,0:0:0:0:
252,77,179793,2,0,P|149:113|99:134,1,119.679996337891,2|0,0:1|0:0,0:0:0:0:
50,168,180168,1,8,0:3:0:0:
0,238,180355,1,4,0:3:0:0:
25,16,180543,5,2,0:1:0:0:
76,38,180636,1,2,0:0:0:0:
109,33,180730,1,2,0:0:0:0:
129,21,180824,1,2,0:0:0:0:
139,8,180918,1,2,0:0:0:0:
222,51,181105,1,4,0:3:0:0:
415,34,181293,2,0,P|323:66|149:97,1,239.999992675781,2|4,0:1|0:3,0:0:0:0:
75,169,181855,1,4,0:3:0:0:
104,163,181949,1,0,0:0:0:0:
150,178,182043,6,0,P|207:241|114:379,1,239.999992675781,6|4,0:0|0:3,0:0:0:0:
124,378,182605,1,4,0:3:0:0:
256,219,182793,2,0,B|266:249|266:249|410:263,1,119.679996337891,10|0,0:1|0:0,0:0:0:0:
512,40,183168,2,0,L|386:127,1,119.679996337891,2|0,0:1|0:0,0:0:0:0:
186,13,183543,5,4,0:3:0:0:
227,53,183636,1,2,0:0:0:0:
205,94,183730,1,2,0:0:0:0:
191,119,183824,1,2,0:0:0:0:
205,133,183918,2,0,L|181:-18,1,119.679996337891,4|2,0:3|0:0,0:0:0:0:
0,0,184293,2,0,P|54:137|96:276,1,239.999992675781,2|8,0:3|0:0,0:0:0:0:
77,246,184855,1,8,0:3:0:0:
326,149,185043,6,0,P|251:147|255:295,1,239.999992675781,6|4,0:0|0:3,0:0:0:0:
254,278,185605,1,2,0:0:0:0:
332,257,185793,1,2,0:3:0:0:
496,369,185980,2,0,L|462:214,1,120.319996337891,2|8,0:0|0:3,0:0:0:0:
500,174,186355,1,0,0:0:0:0:
286,293,186543,5,2,0:1:0:0:
236,278,186636,1,2,0:0:0:0:
202,281,186730,1,4,0:3:0:0:
176,293,186824,1,2,0:0:0:0:
161,308,186918,1,8,0:1:0:0:
11,270,187105,2,0,P|104:234|144:207,1,120.319996337891,2|8,0:1|0:3,0:0:0:0:
141,197,187386,1,0,0:0:0:0:
141,177,187480,1,0,0:0:0:0:
77,113,187668,1,4,0:3:0:0:
257,2,187855,1,2,0:0:0:0:
236,52,187949,1,0,0:0:0:0:
246,117,188043,6,0,B|252:142|252:142|515:73,1,239.999992675781,6|4,0:0|0:3,0:0:0:0:
480,65,188605,1,4,0:3:0:0:
311,181,188793,2,0,L|275:339,1,119.679996337891,2|0,0:1|0:0,0:0:0:0:
489,384,189168,2,0,L|460:253,1,119.679996337891,10|2,0:3|0:3,0:0:0:0:
255,302,189543,6,0,P|153:273|-10:179,1,239.999992675781,6|2,0:0|0:0,0:0:0:0:
24,185,190105,1,2,0:0:0:0:
101,215,190293,1,4,0:3:0:0:
65,289,190480,1,0,0:0:0:0:
250,327,190668,1,8,0:0:0:0:
257,355,190855,1,0,0:0:0:0:
489,213,191043,6,0,B|466:248|466:248|282:220,1,179.519994506836,6|0,0:0|0:0,0:0:0:0:
308,234,191418,2,0,P|357:283|435:341,1,119.679996337891,6|0,0:3|0:0,0:0:0:0:
172,132,191793,2,0,P|144:22|137:-38,1,119.679996337891,6|0,0:3|0:0,0:0:0:0:
161,15,192168,1,2,0:3:0:0:
94,85,192355,1,2,0:0:0:0:
15,0,192543,6,0,P|57:118|85:285,1,239.999992675781,10|0,0:3|0:0,0:0:0:0:
0,333,193105,1,8,0:1:0:0:
8,364,193199,1,8,0:1:0:0:
27,384,193293,2,0,L|123:256,1,119.679996337891,10|2,0:1|0:3,0:0:0:0:
397,335,193668,2,0,L|246:366,1,119.679996337891,6|10,0:3|0:3,0:0:0:0:
124,89,194043,6,0,B|123:111|124:116|129:129|129:129|156:145|196:151|254:133|289:126,1,179.519994506836,6|2,0:0|0:0,0:0:0:0:
286,144,194418,2,0,L|148:250,1,119.679996337891,4|2,0:3|0:0,0:0:0:0:
420,77,194793,2,0,P|483:86|497:178,1,119.679996337891,2|0,0:1|0:0,0:0:0:0:
437,197,195168,1,6,0:3:0:0:
431,218,195261,1,2,0:3:0:0:
445,235,195355,1,8,0:3:0:0:
510,341,195543,5,2,0:1:0:0:
436,320,195730,1,2,0:0:0:0:
338,371,195918,1,8,0:1:0:0:
226,282,196105,1,8,0:1:0:0:
21,355,196293,2,0,P|46:212|66:71,1,239.999992675781,10|8,0:1|0:1,0:0:0:0:
83,215,196855,1,8,0:3:0:0:
108,220,196949,1,0,0:0:0:0:
160,190,197043,6,0,B|193:183|193:183|381:250,1,179.519994506836,6|0,0:0|0:0,0:0:0:0:
366,233,197418,2,0,P|329:161|309:94,1,119.679996337891,4|2,0:3|0:0,0:0:0:0:
80,0,197793,2,0,P|97:79|99:149,1,119.679996337891,2|2,0:1|0:0,0:0:0:0:
69,199,198168,1,6,0:3:0:0:
1,252,198355,1,0,0:0:0:0:
279,170,198543,5,6,0:0:0:0:
336,156,198636,1,2,0:0:0:0:
375,171,198730,1,8,0:1:0:0:
403,184,198824,1,2,0:0:0:0:
440,180,198918,2,0,P|360:222|311:256,1,119.679996337891,2|2,0:0|0:0,0:0:0:0:
54,206,199293,2,0,P|216:256|313:287,1,239.999992675781,2|8,0:1|0:1,0:0:0:0:
279,298,199855,1,8,0:1:0:0:
489,147,200043,6,0,B|525:160|525:160|487:-9,1,179.519994506836,6|2,0:0|0:0,0:0:0:0:
475,0,200418,2,0,P|379:17|318:16,1,119.679996337891,8|8,0:1|0:0,0:0:0:0:
35,61,200793,2,0,P|126:104|196:127,1,119.679996337891,2|0,0:1|0:0,0:0:0:0:
189,35,201168,1,6,0:3:0:0:
115,0,201355,1,0,0:0:0:0:
312,191,201543,5,4,0:3:0:0:
389,148,201730,1,2,0:0:0:0:
410,124,201824,1,2,0:0:0:0:
421,103,201918,1,4,0:3:0:0:
434,17,202105,1,0,0:0:0:0:
484,292,202293,5,2,0:0:0:0:
461,246,202386,1,2,0:0:0:0:
406,222,202480,1,2,0:0:0:0:
349,252,202574,1,2,0:0:0:0:
301,303,202668,1,4,0:3:0:0:
238,309,202761,1,4,0:3:0:0:
202,263,202855,1,4,0:3:0:0:
129,260,202949,1,4,0:3:0:0:
90,201,203043,6,0,B|110:176|110:176|142:360,1,179.519994506836,6|0,0:0|0:0,0:0:0:0:
105,384,203418,2,0,P|130:293|155:230,1,119.679996337891,2|0,0:1|0:0,0:0:0:0:
28,39,203793,2,0,P|43:131|67:212,1,119.679996337891,2|0,0:1|0:0,0:0:0:0:
146,139,204168,1,8,0:1:0:0:
230,182,204355,1,4,0:3:0:0:
344,5,204543,5,6,0:0:0:0:
329,46,204636,1,0,0:0:0:0:
338,80,204730,1,0,0:0:0:0:
225,318,204918,2,0,P|204:186|164:50,2,239.999992675781,10|2|8,0:3|0:1|0:3,0:0:0:0:
201,303,205855,1,8,0:1:0:0:
457,158,206043,6,0,B|479:155|497:172|497:172|499:206|491:242|468:285|435:335,1,179.519994506836,6|0,0:0|0:0,0:0:0:0:
435,373,206418,2,0,P|406:288|377:226,1,119.679996337891,4|2,0:3|0:3,0:0:0:0:
512,7,206793,2,0,P|482:88|444:148,1,119.679996337891,10|4,0:1|0:3,0:0:0:0:
444,106,207168,1,10,0:3:0:0:
353,61,207355,1,0,0:0:0:0:
123,234,207543,6,0,P|87:134|-1:-28,1,239.999992675781,6|2,0:0|0:0,0:0:0:0:
114,76,208105,1,8,0:1:0:0:
99,110,208199,1,8,0:1:0:0:
89,130,208293,2,0,L|240:101,1,119.679996337891,8|2,0:1|0:3,0:0:0:0:
456,184,208668,2,0,L|487:26,1,119.679996337891,2|0,0:1|0:0,0:0:0:0:
457,374,209043,6,0,B|285:338|285:338|177:220|177:220|-4:185,2,479.999985351563,12|4|6,0:0|0:3|0:0,0:0:0:0:
421,327,210730,1,4,0:3:0:0:
374,342,210824,1,2,0:0:0:0:
343,352,210918,1,4,0:3:0:0:
257,317,211105,1,2,0:3:0:0:
290,241,211293,1,2,0:1:0:0:
244,43,211480,1,4,0:3:0:0:
260,26,211668,1,4,0:3:0:0:
150,148,211855,1,8,0:3:0:0:
131,116,211949,1,0,0:0:0:0:
107,68,212043,6,0,P|92:154|29:355,1,239.999992675781,6|8,0:1|0:1,0:0:0:0:
28,318,212605,1,0,0:0:0:0:
233,164,212793,2,0,P|221:69|224:-1,1,119.679996337891,8|0,0:1|0:0,0:0:0:0:
247,52,213168,1,10,0:0:0:0:
141,107,213355,1,0,0:0:0:0:
91,0,213543,6,0,P|97:60|105:170,1,119.679996337891,6|0,0:0|0:0,0:0:0:0:
385,266,213918,2,0,P|394:164|413:47,1,179.519994506836,2|0,0:1|0:0,0:0:0:0:
451,84,214293,2,0,L|322:336,1,239.999992675781,4|10,0:3|0:1,0:0:0:0:
71,251,214855,1,0,0:0:0:0:
494,211,215043,5,12,0:1:0:0:
394,198,215230,1,10,0:3:0:0:
406,260,215324,1,2,0:0:0:0:
419,320,215418,1,2,0:0:0:0:
227,110,215605,5,2,0:0:0:0:
245,89,215699,1,2,0:0:0:0:
274,54,215793,1,2,0:0:0:0:
257,122,215886,1,2,0:0:0:0:
281,164,215980,1,2,0:0:0:0:
260,208,216074,1,2,0:0:0:0:
273,234,216168,1,6,0:0:0:0:
280,245,216261,1,0,0:0:0:0:
284,253,216355,1,6,0:3:0:0:
289,262,216449,1,2,0:0:0:0:
294,271,216543,1,6,0:3:0:0:
40,361,216730,5,8,0:1:0:0:
59,372,216824,1,2,0:0:0:0:
85,371,216918,1,2,0:0:0:0:
110,356,217011,1,2,0:0:0:0:
125,332,217105,1,2,0:0:0:0:
118,294,217199,1,2,0:0:0:0:
89,266,217293,1,8,0:3:0:0:
36,271,217386,1,2,0:0:0:0:
4,238,217480,1,2,0:0:0:0:
0,183,217574,1,2,0:0:0:0:
39,132,217668,1,10,0:3:0:0:
97,139,217761,1,6,0:3:0:0:
147,97,217855,1,6,0:3:0:0:
139,24,217949,1,6,0:3:0:0:
60,0,218043,6,0,B|42:32|42:32|62:120|117:283,1,239.999992675781,6|8,0:0|0:1,0:0:0:0:
42,346,218605,1,8,0:1:0:0:
90,114,218793,2,0,P|149:171|221:149,1,144.613337758382,2|0,0:3|0:0,0:0:0:0:
370,86,219168,2,0,P|439:80|485:133,1,144.613337758382,6|4,0:3|0:3,0:0:0:0:
468,347,219543,5,6,0:0:0:0:
372,384,219730,1,2,0:0:0:0:
350,377,219824,2,0,P|345:281|357:236,1,73.0800022125245,2|0,0:0|0:0,0:0:0:0:
210,124,220105,2,0,P|207:235|190:334,2,145.000004425049,2|0|2,0:0|0:0|0:0,0:0:0:0:
173,29,220668,1,10,0:0:0:0:
77,70,220855,1,0,0:0:0:0:
0,367,221043,6,0,L|106:78,1,289.226675516765,6|4,0:0|0:3,0:0:0:0:
112,188,221605,1,8,0:3:0:0:
196,174,221793,1,0,0:0:0:0:
293,333,221980,1,2,0:0:0:0:
344,274,222168,1,10,0:3:0:0:
403,327,222355,1,2,0:3:0:0:
512,26,222543,5,12,0:0:0:0:
480,129,222730,1,2,0:0:0:0:
445,84,222824,1,2,0:0:0:0:
425,108,222918,1,6,0:3:0:0:
411,128,223011,1,2,0:0:0:0:
398,143,223105,1,6,0:3:0:0:
388,157,223199,1,2,0:0:0:0:
382,167,223293,1,6,0:3:0:0:
376,150,223386,1,0,0:0:0:0:
361,127,223480,1,0,0:0:0:0:
338,106,223574,1,0,0:0:0:0:
291,86,223668,1,10,0:3:0:0:
249,120,223761,1,2,0:0:0:0:
185,140,223855,1,6,0:3:0:0:
116,124,223949,1,2,0:0:0:0:
75,66,224043,6,0,B|108:55|108:55|310:224,1,290.000008850098,12|8,0:1|0:1,0:0:0:0:
310,248,224605,1,8,0:1:0:0:
71,345,224793,2,0,L|233:328,1,144.613337758382,2|0,0:1|0:0,0:0:0:0:
512,384,225168,2,0,L|336:337,1,144.613337758382,6|2,0:3|0:0,0:0:0:0:
13,375,225543,5,12,0:0:0:0:
82,275,225730,1,10,0:3:0:0:
91,259,225824,2,0,L|53:167,1,73.0800022125245,10|0,0:3|0:0,0:0:0:0:
189,191,226105,1,8,0:1:0:0:
199,161,226199,1,8,0:1:0:0:
214,137,226293,2,0,P|272:162|359:181,1,144.613337758382,10|0,0:1|0:0,0:0:0:0:
487,0,226668,2,0,P|481:107|475:281,1,216.920006637573,10|0,0:1|0:0,0:0:0:0:
510,272,227043,6,0,B|512:305|512:305|478:340|397:364|318:371|208:356,1,289.226675516765,6|4,0:0|0:3,0:0:0:0:
194,312,227605,1,4,0:3:0:0:
251,240,227793,1,8,0:3:0:0:
71,38,227980,1,0,0:0:0:0:
88,101,228074,1,2,0:0:0:0:
66,139,228168,1,6,0:3:0:0:
110,257,228355,1,4,0:3:0:0:
85,289,228449,1,0,0:0:0:0:
97,326,228543,1,12,0:0:0:0:
124,323,228636,1,0,0:0:0:0:
143,322,228730,1,0,0:0:0:0:
155,321,228824,1,2,0:0:0:0:
164,320,228918,1,4,0:3:0:0:
485,383,229105,5,4,0:3:0:0:
471,384,229199,1,0,0:0:0:0:
428,370,229293,1,6,0:3:0:0:
419,331,229386,1,2,0:0:0:0:
435,300,229480,1,6,0:3:0:0:
465,279,229574,1,2,0:0:0:0:
485,220,229668,1,10,0:3:0:0:
455,178,229761,1,2,0:0:0:0:
456,117,229855,1,10,0:3:0:0:
413,72,229949,1,2,0:0:0:0:
422,0,230043,6,0,B|455:15|455:15|365:296,1,289.226675516765,12|2,0:1|0:0,0:0:0:0:
390,282,230605,1,4,0:3:0:0:
447,135,230793,2,0,P|344:91|290:160,1,144.613337758382,10|0,0:1|0:0,0:0:0:0:
204,248,231168,2,0,P|101:292|47:223,1,144.613337758382,8|8,0:1|0:3,0:0:0:0:
13,7,231543,5,6,0:0:0:0:
102,48,231730,1,2,0:0:0:0:
120,56,231824,2,0,L|89:169,1,73.0800022125245,2|0,0:0|0:0,0:0:0:0:
400,7,232105,1,8,0:1:0:0:
334,63,232293,2,0,L|359:296,1,216.920006637573,8|0,0:1|0:0,0:0:0:0:
402,319,232668,2,0,P|349:216|289:148,1,144.613337758382,8|2,0:1|0:3,0:0:0:0:
51,335,233043,6,0,B|80:353|80:353|192:80,1,290.000008850098,4|6,0:1|0:3,0:0:0:0:
147,127,233605,1,0,0:0:0:0:
207,357,233793,1,10,0:3:0:0:
296,329,233980,1,2,0:0:0:0:
267,238,234168,1,10,0:3:0:0:
512,138,234355,1,8,0:0:0:0:
479,44,234543,6,0,P|365:26|311:22,2,144.613337758382,6|0|4,0:0|0:0|0:3,0:0:0:0:
512,300,235105,1,4,0:3:0:0:
467,375,235293,1,2,0:0:0:0:
443,376,235386,1,0,0:0:0:0:
424,349,235480,1,2,0:0:0:0:
398,334,235574,1,0,0:0:0:0:
367,339,235668,1,10,0:3:0:0:
322,384,235761,1,2,0:0:0:0:
261,364,235855,1,2,0:0:0:0:
224,306,235949,1,2,0:0:0:0:
230,237,236043,6,0,B|241:208|241:208|498:118,1,290.000008850098,6|8,0:0|0:3,0:0:0:0:
478,149,236605,1,2,0:3:0:0:
235,151,236793,2,0,L|116:43,1,144.613337758382,10|0,0:1|0:0,0:0:0:0:
309,243,237168,2,0,P|334:340|344:397,1,144.613337758382,8|2,0:1|0:0,0:0:0:0:
21,368,237543,5,4,0:0:0:0:
72,303,237730,1,6,0:3:0:0:
40,232,237918,1,0,0:0:0:0:
133,0,238105,1,8,0:1:0:0:
101,71,238293,1,8,0:1:0:0:
152,136,238480,1,0,0:0:0:0:
512,85,238668,1,10,0:1:0:0:
492,10,238855,1,0,0:0:0:0:
318,168,239043,6,0,B|356:169|356:169|509:401,1,290.000008850098,4|0,0:1|0:0,0:0:0:0:
512,272,239605,2,0,P|467:179|445:127,1,145.386671091716,2|2,0:0|0:3,0:0:0:0:
134,112,239980,2,0,P|200:205|295:375,1,290.000008850098,0|8,0:0|0:1,0:0:0:0:
297,99,240543,5,4,0:3:0:0:
196,135,240730,1,2,0:0:0:0:
175,97,240824,1,2,0:0:0:0:
179,24,240918,1,6,0:3:0:0:
8,150,241105,1,2,0:0:0:0:
53,179,241199,1,2,0:0:0:0:
122,186,241293,1,6,0:3:0:0:
5,347,241480,5,2,0:0:0:0:
32,345,241574,1,2,0:0:0:0:
59,324,241668,1,4,0:3:0:0:
100,319,241761,1,4,0:3:0:0:
146,282,241855,1,4,0:3:0:0:
215,274,241949,1,4,0:3:0:0:
272,226,242043,6,0,B|290:188|290:188|536:332,1,289.226675516765,6|8,0:0|0:1,0:0:0:0:
359,134,242605,2,0,P|325:207|230:169,1,145.386671091716,8|0,0:1|0:0,0:0:0:0:
0,213,242980,2,0,P|82:185|162:145,1,145.386671091716,0|4,0:0|0:3,0:0:0:0:
136,141,243355,1,4,0:3:0:0:
496,263,243543,5,6,0:0:0:0:
397,310,243730,1,2,0:0:0:0:
380,288,243824,2,0,L|414:193,1,73.0800022125245,2|0,0:0|0:0,0:0:0:0:
505,11,244105,1,8,0:1:0:0:
456,83,244293,1,2,0:1:0:0:
382,27,244480,1,0,0:0:0:0:
177,254,244668,2,0,P|203:172|231:20,1,216.920006637573,4|0,0:3|0:0,0:0:0:0:
208,0,245043,6,0,B|172:26|172:26|228:306,1,289.226675516765,6|4,0:0|0:3,0:0:0:0:
240,269,245605,1,2,0:0:0:0:
471,232,245793,1,4,0:3:0:0:
376,211,245980,2,0,P|288:258|88:386,1,290.000008850098,2|2,0:0|0:0,0:0:0:0:
209,349,246480,6,0,P|222:358|233:359,1,24.3600007375081,0|0,0:0|0:0,0:0:0:0:
241,348,246543,2,0,P|229:217|350:124,1,289.226675516765,6|6,0:0|0:3,0:0:0:0:
428,346,247105,2,0,P|347:291|366:211,1,145.386671091716,10|8,0:0|0:1,0:0:0:0:
359,229,247480,1,6,0:3:0:0:
470,158,247668,1,10,0:3:0:0:
492,136,247761,1,2,0:0:0:0:
512,95,247855,1,6,0:3:0:0:
490,39,247949,1,2,0:0:0:0:
428,6,248043,6,0,B|428:43|428:43|187:121,1,290.000008850098,6|0,0:0|0:0,0:0:0:0:
170,111,248605,1,2,0:3:0:0:
21,0,248793,2,2,P|58:94|30:152,1,144.613337758382,2|0,0:1|0:0,0:1:0:0:
68,358,249168,2,0,P|37:272|-25:196,1,144.613337758382,8|8,0:1|0:1,0:0:0:0:
261,242,249543,5,6,0:3:0:0:
343,310,249730,1,2,0:0:0:0:
368,307,249824,2,0,L|347:214,1,73.0800022125245,2|6,0:0|0:3,0:0:0:0:
83,142,250105,1,2,0:0:0:0:
165,191,250293,1,10,0:1:0:0:
194,103,250480,1,0,0:0:0:0:
357,110,250668,1,10,0:1:0:0:
334,22,250855,1,0,0:0:0:0:
419,320,251043,6,0,B|455:331|455:331|507:73,1,289.226675516765,6|8,0:0|0:1,0:0:0:0:
494,59,251605,1,2,0:0:0:0:
397,85,251793,1,8,0:1:0:0:
305,334,251980,1,0,0:0:0:0:
236,319,252074,1,2,0:0:0:0:
211,289,252168,1,6,0:3:0:0:
107,356,252355,5,2,0:0:0:0:
54,308,252449,1,2,0:0:0:0:
46,262,252543,1,2,0:0:0:0:
60,227,252636,1,0,0:0:0:0:
84,212,252730,1,0,0:0:0:0:
242,293,252918,5,4,0:3:0:0:
260,291,253011,1,0,0:0:0:0:
287,278,253105,1,10,0:3:0:0:
300,245,253199,1,2,0:0:0:0:
289,192,253293,1,6,0:3:0:0:
238,174,253386,1,2,0:0:0:0:
181,196,253480,1,2,0:0:0:0:
118,165,253574,1,2,0:0:0:0:
107,97,253668,1,4,0:3:0:0:
146,36,253761,1,4,0:3:0:0:
217,46,253855,1,4,0:3:0:0:
285,14,253949,1,4,0:3:0:0:
362,26,254043,6,0,B|346:52|346:52|83:34,1,290.000008850098,6|8,0:0|0:1,0:0:0:0:
77,53,254605,1,8,0:1:0:0:
96,287,254793,2,0,P|149:214|10:149,1,290.000008850098,10|8,0:1|0:1,0:0:0:0:
0,165,255355,1,8,0:1:0:0:
257,360,255543,5,12,0:1:0:0:
332,258,255730,1,2,0:0:0:0:
329,236,255824,2,0,L|218:262,1,73.0800022125245,2|0,0:0|0:0,0:0:0:0:
40,67,256105,1,2,0:0:0:0:
116,14,256293,1,4,0:3:0:0:
196,63,256480,1,0,0:0:0:0:
464,0,256668,1,8,0:3:0:0:
500,88,256855,1,0,0:0:0:0:
470,344,257043,6,0,B|429:360|429:360|400:109,1,289.226675516765,6|4,0:0|0:3,0:0:0:0:
425,134,257605,1,2,0:0:0:0:
462,225,257793,1,10,0:3:0:0:
288,361,257980,2,0,L|-8:271,1,290.000008850098,0|8,0:0|0:1,0:0:0:0:
110,353,258543,5,6,0:0:0:0:
120,310,258636,1,0,0:0:0:0:
153,303,258730,1,6,0:3:0:0:
177,300,258824,1,2,0:0:0:0:
186,278,258918,1,8,0:1:0:0:
446,348,259105,1,8,0:1:0:0:
352,384,259293,2,0,L|325:230,1,144.613337758382,8|2,0:3|0:3,0:0:0:0:
493,55,259668,2,0,L|474:236,1,144.613337758382,8|4,0:3|0:3,0:0:0:0:
223,110,260043,6,0,B|181:92|181:92|193:355,1,290.000008850098,6|4,0:0|0:3,0:0:0:0:
220,320,260605,2,0,L|89:42,1,290.000008850098,2|0,0:1|0:0,0:0:0:0:
13,99,261168,1,2,0:3:0:0:
56,185,261355,1,8,0:1:0:0:
348,28,261543,5,6,0:0:0:0:
484,75,261730,1,4,0:3:0:0:
468,60,261824,2,0,L|445:169,1,73.0800022125245,6|0,0:3|0:0,0:0:0:0:
378,294,262105,1,8,0:1:0:0:
404,269,262199,1,8,0:1:0:0:
439,260,262293,2,0,P|387:366|366:387,1,144.613337758382,8|0,0:1|0:0,0:0:0:0:
416,136,262668,2,0,P|342:62|293:44,1,144.613337758382,8|2,0:3|0:3,0:0:0:0:
232,252,263043,6,0,B|203:275|203:275|-6:121,1,290.000008850098,6|8,0:0|0:1,0:0:0:0:
31,127,263605,1,8,0:1:0:0:
93,341,263793,1,2,0:1:0:0:
41,264,263980,2,0,P|110:137|195:-7,1,290.000008850098,0|10,0:0|0:0,0:0:0:0:
35,41,264543,6,0,P|18:127|-5:192,2,145.000004425049,6|0|0,0:0|0:0|0:0,0:0:0:0:
242,185,265105,1,8,0:1:0:0:
328,130,265293,1,10,0:1:0:0:
365,142,265386,1,0,0:0:0:0:
377,166,265480,1,0,0:0:0:0:
375,187,265574,1,2,0:0:0:0:
348,211,265668,1,6,0:3:0:0:
386,258,265761,1,2,0:0:0:0:
452,263,265855,1,6,0:3:0:0:
506,215,265949,1,0,0:0:0:0:
483,143,266043,6,0,B|450:112|450:112|491:384,1,289.226675516765,4|8,0:1|0:1,0:0:0:0:
508,361,266605,1,8,0:1:0:0:
407,146,266793,2,0,L|258:53,1,144.613337758382,2|0,0:1|0:0,0:0:0:0:
110,143,267168,2,0,L|65:-10,1,144.613337758382,4|0,0:3|0:0,0:0:0:0:
30,323,267543,5,6,0:0:0:0:
104,222,267730,1,2,0:0:0:0:
78,230,267824,2,0,L|176:277,1,73.0800022125245,2|0,0:0|0:0,0:0:0:0:
391,367,268105,1,8,0:0:0:0:
472,314,268293,1,4,0:3:0:0:
426,238,268480,1,2,0:0:0:0:
509,11,268668,1,8,0:0:0:0:
433,68,268855,1,0,0:0:0:0:
405,46,268949,1,0,0:0:0:0:
345,33,269043,1,12,0:0:0:0:
277,293,269230,5,0,0:0:0:0:
299,277,269324,1,2,0:0:0:0:
341,267,269418,2,0,P|279:221|206:189,1,144.613337758382,2|0,0:0|0:0,0:0:0:0:
167,0,269793,1,6,0:3:0:0:
193,53,269886,1,2,0:0:0:0:
251,45,269980,2,0,B|265:40|276:47|276:47|294:88|348:151|436:212|482:239,1,290.000008850098,2|2,0:0|0:0,0:0:0:0:
261,120,270543,5,6,0:0:0:0:
202,132,270636,1,0,0:0:0:0:
172,170,270730,1,0,0:0:0:0:
173,214,270824,1,2,0:0:0:0:
200,239,270918,1,6,0:3:0:0:
232,239,271011,1,2,0:0:0:0:
246,217,271105,1,6,0:3:0:0:
233,204,271199,1,2,0:0:0:0:
196,226,271293,5,2,0:3:0:0:
204,167,271386,1,2,0:0:0:0:
271,146,271480,1,4,0:3:0:0:
324,193,271574,1,2,0:0:0:0:
313,264,271668,1,4,0:3:0:0:
296,192,271761,1,4,0:3:0:0:
319,122,271855,1,4,0:3:0:0:
298,54,271949,1,4,0:3:0:0:
346,0,272043,5,4,0:3:0:0:
285,44,272853,1,2,0:0:0:0:
214,17,273554,1,2,0:0:0:0:
169,28,274364,1,2,0:0:0:0:
20,17,275043,6,0,P|72:53|89:69,2,50.0000019073487,2|2|2,0:0|0:0|0:0,0:0:0:0:
262,19,275748,2,0,P|209:30|165:42,1,100,2|0,0:0|0:0,0:0:0:0:
115,102,276543,1,0,0:0:0:0:
276,26,276918,2,0,P|300:42|349:58,1,50,2|0,0:0|0:0,0:0:0:0:
396,34,277293,1,2,0:0:0:0:
463,0,277668,1,2,0:0:0:0:
242,15,278043,6,0,P|204:77|120:153,1,150,2|0,0:0|0:0,0:0:0:0:
100,199,278822,2,0,P|109:121|64:1,1,200,2|2,0:0|0:0,0:0:0:0:
218,21,280376,2,0,P|159:37|125:31,2,66.6666666666667
0,3,281043,6,0,P|31:48|93:185,1,200,2|0,0:0|0:0,0:0:0:0:
276,2,282593,1,2,0:0:0:0:
209,57,283155,1,2,0:0:0:0:
268,120,283655,1,0,0:0:0:0:
485,105,284043,6,0,P|420:89|281:32,2,200,2|0|2,0:0|0:0|0:0,0:0:0:0:
486,78,285918,1,0,0:0:0:0:
340,94,286293,2,0,L|228:125,1,100,2|2,0:0|0:0,0:0:0:0:
123,28,287063,6,0,P|85:64|-5:194,1,200,2|2,0:0|0:0,0:0:0:0:
28,173,288572,1,2,0:0:0:0:
268,121,289313,2,0,L|239:22,1,100,2|0,0:0|0:0,0:0:0:0:
334,154,290043,6,0,P|441:121|514:68,1,200,2|0,0:0|0:0,0:0:0:0:
331,33,291183,2,0,P|375:63|395:86,1,50.0000019073487
243,43,291563,2,0,P|211:80|166:108,1,100,2|0,0:0|0:0,0:0:0:0:
145,106,292268,1,2,0:0:0:0:
17,7,293043,5,2,0:0:0:0:
114,24,293793,1,0,0:0:0:0:
97,119,294543,1,2,0:0:0:0:
0,102,295303,1,0,0:0:0:0:
357,202,296063,6,0,P|300:105|286:35,1,150,2|0,0:0|0:0,0:0:0:0:
187,0,296813,2,0,P|201:75|210:225,1,200,2|2,0:0|0:0,0:0:0:0:
350,162,297957,1,0,0:0:0:0:
409,105,298302,1,2,0:0:0:0:
479,157,298672,1,2,0:0:0:0:
461,174,299043,1,2,0:0:0:0:
43,155,299619,5,0,0:0:0:0:
121,143,299812,2,0,P|185:169|220:198,1,100
260,47,300613,1,2,0:0:0:0:
311,123,301149,1,2,0:0:0:0:
258,203,301685,1,2,0:0:0:0:
494,236,302043,6,0,P|426:256|323:325,1,150,2|0,0:0|0:0,0:0:0:0:
288,145,302793,2,0,P|399:167|499:151,1,200,2|2,0:0|0:0,0:0:0:0:
160,246,304313,1,2,0:0:0:0:
139,220,304678,1,2,0:0:0:0:
178,163,305043,6,0,L|115:358,1,200,2|0,0:0|0:0,0:0:0:0:
104,341,306189,1,0,0:0:0:0:
278,197,306571,1,2,0:0:0:0:
234,263,307119,1,2,0:0:0:0:
292,319,307668,1,2,0:0:0:0:
21,218,308073,6,0,P|68:236|192:327,2,200,2|0|2,0:0|0:0|0:0,0:0:0:0:
27,246,309948,1,0,0:0:0:0:
127,228,310313,1,2,0:0:0:0:
96,143,310678,1,0,0:0:0:0:
223,269,311043,6,0,P|277:254|426:228,1,200,2|0,0:0|0:0,0:0:0:0:
396,240,312553,1,2,0:0:0:0:
214,255,313322,2,0,P|228:209|257:160,1,100
41,244,314043,6,0,P|73:285|95:339,1,100,2|0,0:0|0:0,0:0:0:0:
194,263,314793,1,0,0:0:0:0:
187,288,315187,1,2,0:0:0:0:
285,221,315553,1,2,0:0:0:0:
300,301,315925,1,0,0:0:0:0:
463,245,316298,2,0,P|453:293|449:357,1,100,2|0,0:0|0:0,0:0:0:0:
127,253,317043,6,0,P|213:275|426:341,1,300.000011444092,2|2,0:0|0:0,0:0:0:0:
352,294,319396,2,0,P|293:301|251:314,1,75.0000028610231
37,185,320053,6,0,P|75:218|235:247,1,200,2|0,0:0|0:0,0:0:0:0:
197,236,321178,1,0,0:0:0:0:
104,235,321553,1,0,0:0:0:0:
99,328,321928,1,2,0:0:0:0:
3,196,322303,2,0,L|21:305,1,100,2|0,0:0|0:0,0:0:0:0:
316,177,323053,6,0,P|290:259|276:388,1,200,2|0,0:0|0:0,0:0:0:0:
292,350,324553,1,2,0:0:0:0:
470,346,326094,2,0,P|478:338|491:328,1,16.6666666666667,2|0,0:0|0:0,0:0:0:0:
454,371,326286,2,0,P|406:370|345:355,1,110.000003356934,2|2,0:0|0:0,0:0:0:0:
128,366,328184,2,0,P|172:359|236:337,1,110.000003356934,2|2,0:0|0:0,0:0:0:0:
293,254,330222,1,2,0:0:0:0:
103,363,330953,6,0,P|68:305|51:266,1,100,2|2,0:0|0:0,0:0:0:0:
232,228,332246,2,0,P|200:286|181:331,1,100,2|2,0:0|0:0,0:0:0:0:
248,384,333591,1,2,0:0:0:0:
451,342,334224,6,0,L|463:344,1,12.68,0|0,0:0|0:0,0:0:0:0:
479,353,334325,2,0,P|469:313|469:240,1,110.000003356934,2|2,0:0|0:0,0:0:0:0:
279,384,336276,2,0,P|298:346|326:273,1,110.000003356934,2|2,0:0|0:0,0:0:0:0:
319,258,338686,1,2,0:0:0:0:
58,238,339475,6,0,P|119:257|168:276,1,100,2|2,0:0|0:0,0:0:0:0:
0,351,340441,2,0,P|64:332|127:324,1,100,2|2,0:0|0:0,0:0:0:0:
277,384,341600,2,0,P|215:365|181:346,1,100,2|2,0:0|0:0,0:0:0:0:
0,291,343521,6,0,P|27:343|51:411,1,100,2|2,0:0|0:0,0:0:0:0:
198,244,344597,2,0,P|200:311|197:373,1,110.044003356934,2|2,0:0|0:0,0:0:0:0:
399,311,346508,2,0,P|367:345|299:396,1,110.000003356934,2|2,0:0|0:0,0:0:0:0:
295,380,347945,1,2,0:0:0:0:
222,325,348445,1,2,0:0:0:0:
0,371,349577,6,0,P|78:375|219:386,1,200,2|2,0:0|0:0,0:0:0:0:
512,384,352432,6,0,L|499:370,1,12.5433333333333,0|0,0:0|0:0,0:0:0:0:
