osu file format v14

[General]
AudioFilename: audio.mp3
AudioLeadIn: 0
PreviewTime: 5270
Countdown: 1
SampleSet: Soft
StackLeniency: 0.7
Mode: 0
LetterboxInBreaks: 0
WidescreenStoryboard: 0

[Editor]
Bookmarks: 81,5270,10459,20837,26026,31216,41594,51972,62351,96080,116837,120729,122026,153162
DistanceSpacing: 1
BeatDivisor: 4
GridSize: 4
TimelineZoom: 1

[Metadata]
Title:Urayne/Curie Battle Theme
TitleUnicode:Urayne/Curie Battle Theme
Artist:Emdasche
ArtistUnicode:Emdasche
Creator:Nitronic Techno
Version:U-238
Source:Pokemon Uranium
Tags:Pokemon Uranium Emdasche Electric Mudkip Urayne Curie Beat Nitro Nitronic Techno
BeatmapID:1504682
BeatmapSetID:711678

[Difficulty]
HPDrainRate:7
CircleSize:4
OverallDifficulty:8
ApproachRate:9.2
SliderMultiplier:2.1
SliderTickRate:1

[Events]
//Background and Video events
0,0,"Curie.jpg",0,0
//Break Periods
2,15686,20237
2,98875,100670
2,106659,111048
//Storyboard Layer 0 (Background)
//Storyboard Layer 1 (Fail)
//Storyboard Layer 2 (Pass)
//Storyboard Layer 3 (Foreground)
//Storyboard Sound Samples

[TimingPoints]
81,324.324324324324,4,1,0,60,1,0
5270,-111.111111111111,4,1,0,60,0,0
5756,-125,4,1,0,50,0,0
6243,-142.857142857143,4,1,0,40,0,0
6729,-166.666666666667,4,1,0,30,0,0
7216,-200,4,1,0,20,0,0
7864,-111.111111111111,4,1,0,40,0,0
8350,-125,4,1,0,35,0,0
8837,-142.857142857143,4,1,0,30,0,0
9323,-166.666666666667,4,1,0,25,0,0
9810,-200,4,1,0,20,0,0
10459,-111.111111111111,4,1,0,60,0,0
20837,-111.111111111111,4,1,0,75,0,0
26026,-90.9090909090908,4,1,0,75,0,0
29918,-111.111111111111,4,1,0,75,0,0
31216,-90.9090909090908,4,1,0,50,0,0
41594,-86.9565217391304,4,2,0,50,0,0
51972,-100,4,1,0,60,0,0
62351,-100,4,1,0,65,0,0
72729,-83.3333333333333,4,1,0,70,0,1
96080,-83.3333333333333,4,1,0,70,0,0
116837,-86.9565217391304,4,1,0,75,0,0
120729,-111.111111111111,4,1,0,75,0,0
122027,-83.3333333333333,4,1,0,50,0,0
132405,-80,4,2,0,50,0,0
142783,-95.2380952380952,4,1,0,60,0,0
153162,-95.2380952380952,4,1,0,65,0,0
163540,-76.9230769230769,4,1,0,70,0,1
186891,-76.9230769230769,4,1,0,60,0,0

[HitObjects]
193,192,81,5,0,0:0:0:0:
225,192,243,1,0,0:0:0:0:
285,155,405,1,0,0:0:0:0:
285,229,567,1,0,0:0:0:0:
177,192,729,5,0,0:0:0:0:
217,192,891,1,0,0:0:0:0:
292,145,1053,1,0,0:0:0:0:
292,238,1215,1,0,0:0:0:0:
157,192,1378,5,0,0:0:0:0:
207,192,1540,1,0,0:0:0:0:
301,134,1702,1,0,0:0:0:0:
301,249,1864,1,0,0:0:0:0:
132,192,2026,5,0,0:0:0:0:
195,192,2188,1,0,0:0:0:0:
312,119,2350,1,0,0:0:0:0:
312,264,2512,1,0,0:0:0:0:
102,192,2675,5,0,0:0:0:0:
180,192,2837,1,0,0:0:0:0:
326,101,2999,1,0,0:0:0:0:
326,282,3161,1,0,0:0:0:0:
63,192,3324,5,0,0:0:0:0:
161,192,3486,1,0,0:0:0:0:
344,79,3648,1,0,0:0:0:0:
344,304,3810,1,0,0:0:0:0:
15,192,3972,5,8,0:0:0:0:
256,8,4297,1,8,0:0:0:0:
497,192,4621,1,8,0:0:0:0:
256,376,4946,1,8,0:0:0:0:
85,338,5270,6,0,L|159:164,1,188.999994232178,2|0,0:0|0:0,0:0:0:0:
182,313,5756,2,0,L|251:146,1,168,2|0,0:0|0:0,0:0:0:0:
275,291,6243,2,0,L|339:133,1,146.999995513916,2|0,0:0|0:0,0:0:0:0:
364,273,6729,2,0,L|422:129,1,125.999996154785,2|0,0:0|0:0,0:0:0:0:
458,244,7216,2,0,L|500:137,1,105,2|2,0:0|0:0,0:0:0:0:
432,73,7702,1,2,0:0:0:0:
351,24,7864,6,0,P|333:90|392:194,1,188.999994232178,2|0,0:0|0:0,0:0:0:0:
257,91,8351,2,0,P|264:145|351:248,1,168,2|0,0:0|0:0,0:0:0:0:
196,172,8837,2,0,P|209:210|288:292,1,146.999995513916,2|0,0:0|0:0,0:0:0:0:
147,243,9324,2,0,P|164:278|246:337,1,125.999996154785,2|0,0:0|0:0,0:0:0:0:
97,312,9810,2,0,P|128:347|183:388,1,105,2|2,0:0|0:0,0:0:0:0:
51,364,10297,1,2,0:0:0:0:
39,273,10459,5,4,0:0:0:0:
256,192,10540,12,4,11756,0:0:0:0:
256,192,11837,12,4,15486,0:0:0:0:
256,193,20837,5,4,0:0:0:0:
256,192,20918,12,4,22135,0:0:0:0:
256,192,22783,12,4,25864,0:0:0:0:
279,97,26026,6,0,B|336:75|382:94|395:104|395:104|411:117|461:129|517:109,1,231.000007049561,2|8,0:0|0:0,0:0:0:0:
233,287,26675,2,0,B|176:309|130:290|117:280|117:280|101:267|51:255|-5:275,1,231.000007049561,2|8,0:0|0:0,0:0:0:0:
279,287,27324,2,0,B|336:309|382:290|395:280|395:280|411:267|461:255|517:275,1,231.000007049561,2|8,0:0|0:0,0:0:0:0:
233,97,27972,2,0,B|176:75|130:94|117:104|117:104|101:117|51:129|-5:109,1,231.000007049561,2|8,0:0|0:0,0:0:0:0:
66,66,28621,6,0,L|260:198,1,231.000007049561,2|8,0:0|0:0,0:0:0:0:
453,75,29270,2,0,L|252:196,1,231.000007049561,2|8,0:0|0:0,0:0:0:0:
255,384,29918,2,0,L|256:194,1,188.999994232178,2|8,0:0|0:0,0:0:0:0:
256,191,30567,1,8,0:0:0:0:
256,191,30891,1,8,0:0:0:0:
242,149,30972,1,0,0:0:0:0:
255,115,31053,1,10,0:0:0:0:
272,80,31135,1,2,0:0:0:0:
256,44,31216,5,2,0:0:0:0:
137,75,31378,1,0,0:0:0:0:
137,132,31459,1,0,0:0:0:0:
138,189,31540,1,0,0:0:0:0:
375,309,31702,1,0,0:0:0:0:
375,252,31783,1,0,0:0:0:0:
374,195,31864,1,2,0:0:0:0:
167,256,32026,5,0,0:0:0:0:
114,282,32108,1,0,0:0:0:0:
66,249,32189,1,0,0:0:0:0:
345,128,32351,1,0,0:0:0:0:
398,102,32433,1,0,0:0:0:0:
445,134,32513,6,2,P|459:199|432:262,1,115.50000352478
397,277,32756,1,0,0:0:0:0:
340,286,32837,2,0,P|276:278|229:231,1,115.50000352478
195,207,33080,1,0,0:0:0:0:
235,164,33162,2,2,P|268:128|355:116,1,115.50000352478
388,109,33405,1,0,0:0:0:0:
445,106,33486,1,0,0:0:0:0:
234,50,33648,1,0,0:0:0:0:
179,68,33729,1,0,0:0:0:0:
125,89,33810,5,2,0:0:0:0:
159,247,33972,1,0,0:0:0:0:
116,285,34053,1,0,0:0:0:0:
72,324,34135,1,0,0:0:0:0:
352,336,34297,1,0,0:0:0:0:
395,298,34378,1,0,0:0:0:0:
439,259,34460,1,2,0:0:0:0:
378,136,34621,1,0,0:0:0:0:
338,93,34702,1,0,0:0:0:0:
326,36,34783,1,0,0:0:0:0:
134,248,34945,1,0,0:0:0:0:
174,291,35026,1,0,0:0:0:0:
186,348,35108,6,2,P|257:372|339:355,1,115.50000352478
345,339,35351,1,0,0:0:0:0:
373,288,35432,2,0,P|397:227|394:170,1,115.50000352478
357,134,35675,1,0,0:0:0:0:
306,105,35756,2,2,P|249:100|168:121,1,115.50000352478
147,147,35999,1,0,0:0:0:0:
105,186,36080,1,2,0:0:0:0:
374,187,36243,1,0,0:0:0:0:
410,141,36324,1,0,0:0:0:0:
443,93,36405,5,2,0:0:0:0:
256,40,36567,1,0,0:0:0:0:
256,97,36648,1,0,0:0:0:0:
257,154,36729,1,0,0:0:0:0:
104,158,36891,1,0,0:0:0:0:
65,114,36972,1,0,0:0:0:0:
28,69,37053,1,2,0:0:0:0:
17,215,37216,1,0,0:0:0:0:
61,251,37297,1,0,0:0:0:0:
107,285,37378,1,0,0:0:0:0:
255,363,37540,1,0,0:0:0:0:
256,305,37621,1,0,0:0:0:0:
259,247,37702,6,2,L|259:119,1,115.50000352478
347,290,38026,2,0,L|347:164,1,115.50000352478
349,116,38270,1,0,0:0:0:0:
349,58,38351,2,2,L|228:58,1,115.50000352478
165,94,38675,2,0,L|165:220,1,115.50000352478
163,268,38919,1,0,0:0:0:0:
163,326,39000,6,0,L|284:326,1,115.50000352478,2|0,0:0|0:0,0:0:0:0:
325,292,39243,1,0,0:0:0:0:
356,243,39324,2,0,P|365:176|336:123,1,115.50000352478
291,114,39567,1,0,0:0:0:0:
236,131,39648,2,0,P|161:147|120:146,1,115.50000352478,2|0,0:0|0:0,0:0:0:0:
64,145,39891,1,0,0:0:0:0:
91,195,39972,2,0,P|99:261|83:323,1,115.50000352478
125,353,40216,1,0,0:0:0:0:
182,349,40297,5,2,0:0:0:0:
262,288,40459,1,2,0:0:0:0:
334,222,40621,1,2,0:0:0:0:
88,321,40783,1,0,0:0:0:0:
88,321,40864,1,0,0:0:0:0:
88,321,40945,5,2,0:0:0:0:
201,218,41107,1,2,0:0:0:0:
311,117,41269,1,2,0:0:0:0:
172,44,41432,1,0,0:0:0:0:
172,44,41513,1,0,0:0:0:0:
172,44,41594,6,0,L|112:129,3,60.3750011515618,2|0|0|0,1:0|0:0|0:0|0:0,0:0:0:0:
185,153,41918,2,0,L|143:213,3,60.3750011515618
298,158,42243,6,0,L|350:92,3,60.3750011515618,2|0|0|0,1:0|0:0|0:0|0:0,0:0:0:0:
408,142,42567,2,0,L|451:79,3,60.3750011515618
488,190,42891,5,2,1:0:0:0:
476,236,42972,1,0,0:0:0:0:
451,277,43053,1,2,1:0:0:0:
411,306,43135,1,0,0:0:0:0:
364,320,43216,1,0,0:0:0:0:
319,302,43297,1,0,0:0:0:0:
301,256,43378,1,0,0:0:0:0:
297,207,43459,1,0,0:0:0:0:
271,247,43540,5,2,1:0:0:0:
240,284,43621,1,0,0:0:0:0:
196,303,43702,1,2,1:0:0:0:
147,299,43783,1,0,0:0:0:0:
108,270,43864,1,0,0:0:0:0:
90,225,43945,1,0,0:0:0:0:
87,176,44026,1,0,0:0:0:0:
88,127,44108,1,0,0:0:0:0:
92,78,44189,6,0,L|94:16,3,60.3750011515618,2|0|0|0,1:0|0:0|0:0|0:0,0:0:0:0:
170,78,44513,2,0,L|169:148,3,60.3750011515618
257,65,44837,6,0,L|256:153,3,60.3750011515618,2|0|0|0,1:0|0:0|0:0|0:0,0:0:0:0:
359,160,45162,2,0,L|360:85,3,60.3750011515618
456,121,45486,5,2,1:0:0:0:
460,169,45567,1,0,0:0:0:0:
443,214,45648,1,2,1:0:0:0:
406,245,45729,1,0,0:0:0:0:
357,248,45810,1,0,0:0:0:0:
317,220,45891,1,0,0:0:0:0:
304,173,45972,1,0,0:0:0:0:
318,127,46053,1,0,0:0:0:0:
360,150,46135,5,2,1:0:0:0:
377,195,46216,1,0,0:0:0:0:
360,240,46297,1,2,1:0:0:0:
326,274,46378,1,0,0:0:0:0:
278,282,46459,1,2,1:0:0:0:
231,267,46540,1,0,0:0:0:0:
202,227,46621,1,0,0:0:0:0:
200,178,46702,1,0,0:0:0:0:
218,133,46783,6,0,L|169:83,3,60.3750011515618,2|0|0|0,1:0|0:0|0:0|0:0,0:0:0:0:
97,124,47108,2,0,L|49:175,3,60.3750011515618
63,246,47432,2,0,L|109:288,3,60.3750011515618,2|0|0|0,1:0|0:0|0:0|0:0,0:0:0:0:
185,268,47756,2,0,L|245:198,3,60.3750011515618
301,130,48080,5,2,1:0:0:0:
349,136,48162,1,0,0:0:0:0:
384,169,48243,1,2,1:0:0:0:
399,214,48324,1,0,0:0:0:0:
397,262,48405,1,0,0:0:0:0:
369,301,48486,1,0,0:0:0:0:
322,313,48567,1,0,0:0:0:0:
274,304,48648,1,0,0:0:0:0:
261,257,48729,5,2,1:0:0:0:
223,226,48810,1,0,0:0:0:0:
199,183,48891,1,2,1:0:0:0:
198,128,48972,1,0,0:0:0:0:
236,89,49053,1,0,0:0:0:0:
288,72,49135,1,0,0:0:0:0:
341,80,49216,1,0,0:0:0:0:
387,108,49297,1,0,0:0:0:0:
410,156,49378,6,0,L|432:221,3,60.3750011515618,2|0|0|0,1:0|0:0|0:0|0:0,0:0:0:0:
310,181,49702,2,0,L|316:263,3,60.3750011515618
202,181,50026,2,0,L|197:241,3,60.3750011515618,2|0|0|0,1:0|0:0|0:0|0:0,0:0:0:0:
102,156,50350,2,0,L|82:213,3,60.3750011515618
39,88,50675,5,2,1:0:0:0:
18,138,50756,1,0,0:0:0:0:
12,192,50837,1,2,1:0:0:0:
24,244,50918,1,0,0:0:0:0:
55,288,50999,1,2,1:0:0:0:
105,308,51080,1,0,0:0:0:0:
159,308,51162,1,0,0:0:0:0:
212,299,51243,1,0,0:0:0:0:
258,270,51324,1,2,1:0:0:0:
285,223,51405,1,0,0:0:0:0:
277,169,51486,1,2,1:0:0:0:
231,139,51567,1,0,0:0:0:0:
180,158,51648,1,2,1:0:0:0:
182,212,51729,1,0,0:0:0:0:
228,239,51810,1,0,0:0:0:0:
271,206,51891,1,0,0:0:0:0:
321,185,51972,6,2,P|374:156|465:147,1,105,2|0,0:0|0:0,0:0:0:0:
184,236,52297,2,0,P|128:261|57:259,1,105,8|0,0:0|0:0,0:0:0:0:
192,145,52621,2,0,P|125:108|75:107,1,105,2|0,0:0|0:0,0:0:0:0:
317,236,52945,2,0,P|378:258|448:245,1,105,8|0,0:0|0:0,0:0:0:0:
313,121,53270,5,2,0:0:0:0:
120,238,53432,1,0,0:0:0:0:
300,249,53594,1,8,0:0:0:0:
167,106,53756,1,0,0:0:0:0:
148,302,53918,5,2,0:0:0:0:
256,109,54080,1,0,0:0:0:0:
329,294,54243,1,8,0:0:0:0:
117,168,54405,1,0,0:0:0:0:
377,155,54567,5,2,0:0:0:0:
143,98,54729,1,0,0:0:0:0:
104,308,54891,1,8,0:0:0:0:
362,335,55053,1,0,0:0:0:0:
254,60,55216,5,2,0:0:0:0:
334,297,55378,1,0,0:0:0:0:
130,152,55540,1,8,0:0:0:0:
380,150,55702,1,0,0:0:0:0:
179,298,55864,5,2,0:0:0:0:
115,104,56026,1,0,0:0:0:0:
282,157,56189,1,8,0:0:0:0:
22,269,56351,1,0,0:0:0:0:
490,269,56513,5,2,0:0:0:0:
230,157,56675,1,0,0:0:0:0:
397,104,56838,1,8,0:0:0:0:
332,298,57000,1,0,0:0:0:0:
161,333,57162,5,2,0:0:0:0:
225,213,57324,1,0,0:0:0:0:
105,59,57486,2,8,P|91:138|108:201,1,105
351,333,57810,5,2,0:0:0:0:
287,213,57972,1,0,0:0:0:0:
407,59,58134,2,8,P|421:138|404:201,1,105
104,123,58459,5,2,0:0:0:0:
256,267,58621,1,0,0:0:0:0:
408,123,58783,2,8,P|468:103|526:127,1,105
408,261,59108,5,2,0:0:0:0:
256,117,59270,1,0,0:0:0:0:
104,261,59432,2,8,P|44:281|-14:257,1,105
116,98,59756,5,2,0:0:0:0:
116,286,59918,1,0,0:0:0:0:
322,191,60080,2,8,L|443:192,1,105
396,98,60405,5,2,0:0:0:0:
396,286,60567,1,0,0:0:0:0:
190,191,60729,2,8,L|69:192,1,105
256,56,61053,5,2,0:0:0:0:
138,260,61216,1,0,0:0:0:0:
373,260,61378,2,8,P|428:227|435:167,1,105
256,328,61702,5,2,0:0:0:0:
138,124,61865,1,0,0:0:0:0:
373,124,62026,2,8,P|428:157|435:217,1,105
438,194,62513,6,8,P|419:146|373:124,1,105
138,124,62837,1,0,0:0:0:0:
256,328,63000,1,2,0:0:0:0:
438,189,63162,6,8,P|419:237|373:260,1,105
138,260,63486,1,0,0:0:0:0:
256,56,63649,1,2,0:0:0:0:
85,191,63810,6,8,L|190:191,1,105
396,286,64134,1,0,0:0:0:0:
396,98,64296,1,2,0:0:0:0:
426,191,64459,6,8,L|322:191,1,105
116,286,64783,1,0,0:0:0:0:
116,98,64945,1,2,0:0:0:0:
5,270,65108,6,8,P|56:280|104:261,1,105
256,117,65432,1,0,0:0:0:0:
408,261,65594,1,2,0:0:0:0:
506,113,65756,6,8,P|455:103|408:123,1,105
256,267,66080,1,0,0:0:0:0:
104,123,66242,1,2,0:0:0:0:
417,161,66405,6,8,P|420:109|407:59,1,105
287,213,66729,1,0,0:0:0:0:
351,333,66891,1,2,0:0:0:0:
94,161,67053,6,8,P|91:109|105:59,1,105
225,213,67377,1,0,0:0:0:0:
161,333,67539,1,2,0:0:0:0:
332,298,67702,5,0,0:0:0:0:
397,104,67864,1,8,0:0:0:0:
230,157,68027,1,0,0:0:0:0:
490,269,68189,1,2,0:0:0:0:
22,269,68351,5,0,0:0:0:0:
282,157,68513,1,8,0:0:0:0:
115,104,68676,1,0,0:0:0:0:
179,298,68838,1,2,0:0:0:0:
380,150,68999,5,0,0:0:0:0:
130,152,69161,1,8,0:0:0:0:
334,297,69323,1,0,0:0:0:0:
254,60,69485,1,2,0:0:0:0:
362,335,69648,5,0,0:0:0:0:
104,308,69810,1,8,0:0:0:0:
143,98,69972,1,0,0:0:0:0:
377,155,70135,1,2,0:0:0:0:
117,168,70297,5,0,0:0:0:0:
329,294,70459,1,8,0:0:0:0:
256,109,70622,1,0,0:0:0:0:
148,302,70784,1,2,0:0:0:0:
167,106,70945,5,0,0:0:0:0:
300,249,71107,1,8,0:0:0:0:
120,238,71269,1,0,0:0:0:0:
313,121,71431,1,2,0:0:0:0:
417,255,71594,6,0,P|365:256|317:236,1,105,0|8,0:0|0:0,0:0:0:0:
97,105,71918,2,0,P|148:115|192:145,1,105,0|8,0:0|0:0,0:0:0:0:
85,263,72242,2,0,P|136:258|184:236,1,105,0|8,0:0|0:0,0:0:0:0:
417,146,72567,2,0,P|366:158|321:185,1,105,0|8,0:0|0:0,0:0:0:0:
108,318,73053,5,2,0:0:0:0:
60,224,73216,1,0,0:0:0:0:
143,128,73378,2,0,P|195:90|224:34,1,125.999996154785,8|0,0:0|0:0,0:0:0:0:
196,193,73702,2,0,P|148:249|129:332,1,125.999996154785,2|0,0:0|0:0,0:0:0:0:
299,166,74026,5,2,0:0:0:0:
299,166,74067,2,0,P|333:156|306:7,1,220.499993270874,0|8,0:0|0:0,0:0:0:0:
230,206,74513,1,0,0:0:0:0:
282,277,74675,2,0,P|269:347|108:331,1,251.999992309571,2|8,0:0|0:0,0:0:0:0:
170,227,75162,1,0,0:0:0:0:
248,155,75324,6,0,L|331:58,1,125.999996154785,2|0,0:0|0:0,0:0:0:0:
168,161,75648,2,0,L|81:260,1,125.999996154785,8|0,0:0|0:0,0:0:0:0:
215,219,75972,2,0,L|318:319,1,125.999996154785,2|0,0:0|0:0,0:0:0:0:
205,91,76297,2,0,L|107:-1,1,125.999996154785,8|0,0:0|0:0,0:0:0:0:
254,155,76621,2,0,P|323:164|390:140,1,125.999996154785,2|0,0:0|0:0,0:0:0:0:
161,151,76945,2,0,P|96:155|26:192,1,125.999996154785,8|0,0:0|0:0,0:0:0:0:
96,341,77270,5,10,0:0:0:0:
199,243,77432,1,8,0:0:0:0:
312,140,77594,1,8,0:0:0:0:
416,43,77756,1,8,0:0:0:0:
449,192,77918,6,0,P|431:265|443:331,1,125.999996154785,2|0,0:0|0:0,0:0:0:0:
362,159,78243,2,0,P|373:79|353:10,1,125.999996154785,8|0,0:0|0:0,0:0:0:0:
282,187,78567,2,0,P|277:257|297:330,1,125.999996154785,2|0,0:0|0:0,0:0:0:0:
201,165,78891,2,0,P|218:68|199:15,1,125.999996154785,8|0,0:0|0:0,0:0:0:0:
95,89,79216,5,2,0:0:0:0:
63,210,79378,1,0,0:0:0:0:
164,284,79540,1,8,0:0:0:0:
194,161,79702,5,2,0:0:0:0:
341,53,79864,1,2,0:0:0:0:
489,159,80026,1,2,0:0:0:0:
434,333,80189,1,10,0:0:0:0:
252,334,80351,1,2,0:0:0:0:
52,331,80513,5,2,0:0:0:0:
52,331,80675,1,0,0:0:0:0:
52,331,80837,2,8,L|92:175,1,125.999996154785
177,43,81162,5,2,0:0:0:0:
177,43,81324,1,0,0:0:0:0:
177,43,81486,2,8,L|217:199,1,125.999996154785
278,344,81810,5,2,0:0:0:0:
278,344,81972,1,0,0:0:0:0:
278,344,82134,2,8,L|318:188,1,125.999996154785
403,56,82459,5,2,0:0:0:0:
403,56,82621,1,0,0:0:0:0:
403,56,82783,2,8,L|443:212,1,125.999996154785
452,314,83108,6,0,P|382:342|252:233,1,251.999992309571,2|8,0:0|0:0,0:0:0:0:
364,241,83594,1,0,0:0:0:0:
364,241,83675,1,0,0:0:0:0:
364,241,83756,6,0,P|400:151|389:109,1,125.999996154785,2|0,0:0|0:0,0:0:0:0:
256,47,84080,2,0,L|256:177,1,125.999996154785,8|0,0:0|0:0,0:0:0:0:
148,241,84405,1,2,0:0:0:0:
148,241,84445,2,0,P|112:151|176:49,1,220.499993270874,0|8,0:0|0:0,0:0:0:0:
228,250,84891,1,0,0:0:0:0:
470,269,85053,2,0,P|342:357|279:266,1,251.999992309571,2|8,0:0|0:0,0:0:0:0:
371,227,85540,1,0,0:0:0:0:
436,131,85702,6,0,L|310:68,1,125.999996154785,2|0,0:0|0:0,0:0:0:0:
198,74,86026,2,0,L|66:134,1,125.999996154785,8|0,0:0|0:0,0:0:0:0:
76,253,86351,2,0,L|202:316,1,125.999996154785,2|0,0:0|0:0,0:0:0:0:
314,310,86675,2,0,L|446:250,1,125.999996154785,8|0,0:0|0:0,0:0:0:0:
302,145,86999,5,2,0:0:0:0:
209,146,87162,1,0,0:0:0:0:
210,239,87324,1,8,0:0:0:0:
303,238,87486,1,0,0:0:0:0:
256,60,87648,5,10,0:0:0:0:
124,191,87811,1,8,0:0:0:0:
255,323,87973,1,8,0:0:0:0:
387,192,88135,1,8,0:0:0:0:
391,66,88297,6,0,P|321:109|282:172,1,125.999996154785,2|0,0:0|0:0,0:0:0:0:
130,57,88621,2,0,P|173:127|236:166,1,125.999996154785,8|0,0:0|0:0,0:0:0:0:
121,318,88945,2,0,P|191:275|230:212,1,125.999996154785,2|0,0:0|0:0,0:0:0:0:
382,327,89270,2,0,P|339:257|276:218,1,125.999996154785,8|0,0:0|0:0,0:0:0:0:
256,70,89594,5,2,0:0:0:0:
130,69,89756,1,0,0:0:0:0:
74,182,89918,1,8,0:0:0:0:
199,182,90080,5,2,0:0:0:0:
418,182,90243,1,2,0:0:0:0:
241,311,90405,1,2,0:0:0:0:
308,103,90567,1,10,0:0:0:0:
376,311,90729,1,2,0:0:0:0:
189,330,90891,5,2,0:0:0:0:
112,270,91053,1,0,0:0:0:0:
27,339,91216,2,8,L|27:189,1,125.999996154785
323,54,91540,5,2,0:0:0:0:
400,114,91702,1,0,0:0:0:0:
485,45,91865,2,8,L|485:195,1,125.999996154785
323,330,92189,5,2,0:0:0:0:
400,270,92351,1,0,0:0:0:0:
485,339,92514,2,8,L|485:189,1,125.999996154785
189,54,92837,5,2,0:0:0:0:
112,114,92999,1,0,0:0:0:0:
27,45,93162,2,8,L|27:195,1,125.999996154785
208,176,93486,6,0,P|263:141|209:207,1,251.999992309571,2|8,0:0|0:0,0:0:0:0:
256,68,93972,1,0,0:0:0:0:
72,117,94135,2,0,L|197:343,1,251.999992309571,2|8,0:0|0:0,0:0:0:0:
256,136,94621,1,0,0:0:0:0:
440,117,94783,1,2,0:0:0:0:
440,117,94824,2,0,L|319:332,1,220.499993270874,0|8,0:0|0:0,0:0:0:0:
256,297,95432,2,0,L|256:43,1,251.999992309571,2|8,0:0|0:0,0:0:0:0:
255,193,96080,5,4,0:0:0:0:
256,192,96162,12,0,98675,0:0:0:0:
256,190,101270,5,4,0:0:0:0:
256,192,101351,12,4,102567,0:0:0:0:
256,192,102648,12,4,106459,0:0:0:0:
255,191,111648,5,4,0:0:0:0:
256,192,111729,12,4,112945,0:0:0:0:
256,192,113594,12,2,116675,0:0:0:0:
40,353,116837,6,0,B|88:296|75:236|66:214|66:214|57:186|44:141|100:85,1,241.500004606247,2|8,0:0|0:0,0:0:0:0:
472,353,117486,2,0,B|424:296|437:236|446:214|446:214|455:186|468:141|412:85,1,241.500004606247,2|8,0:0|0:0,0:0:0:0:
157,32,118135,2,0,B|205:89|192:149|183:171|183:171|174:199|161:244|217:300,1,241.500004606247,2|8,0:0|0:0,0:0:0:0:
355,32,118783,2,0,B|307:89|320:149|329:171|329:171|338:199|351:244|295:300,1,241.500004606247,2|8,0:0|0:0,0:0:0:0:
47,157,119432,2,0,P|45:245|150:345,1,241.500004606247,2|8,0:0|0:0,0:0:0:0:
339,343,120080,2,0,P|418:278|468:122,1,241.500004606247,2|8,0:0|0:0,0:0:0:0:
354,5,120729,2,0,P|282:-7|150:11,1,188.999994232178,2|8,0:0|0:0,0:0:0:0:
256,191,121378,1,8,0:0:0:0:
256,193,121702,1,8,0:0:0:0:
242,235,121783,1,0,0:0:0:0:
255,269,121864,1,10,0:0:0:0:
272,304,121946,1,2,0:0:0:0:
256,340,122026,5,2,0:0:0:0:
339,270,122189,2,0,L|392:163,2,62.9999980773926
173,270,122513,2,0,L|120:163,2,62.9999980773926,0|0|2,0:0|0:0|0:0,0:0:0:0:
334,75,122837,1,0,0:0:0:0:
313,134,122918,1,0,0:0:0:0:
289,192,122999,1,0,0:0:0:0:
178,75,123162,1,0,0:0:0:0:
199,134,123243,1,0,0:0:0:0:
223,192,123324,6,2,P|230:279|200:336,1,125.999996154785
162,345,123567,1,0,0:0:0:0:
100,333,123648,2,0,P|57:276|56:213,1,125.999996154785
74,163,123891,1,0,0:0:0:0:
126,127,123972,2,2,P|197:103|272:124,1,125.999996154785
304,136,124216,1,0,0:0:0:0:
361,160,124297,1,0,0:0:0:0:
221,243,124459,1,0,0:0:0:0:
279,265,124540,1,0,0:0:0:0:
336,290,124621,5,2,0:0:0:0:
189,301,124783,2,0,L|152:360,2,62.9999980773926
314,192,125108,2,0,L|359:126,2,62.9999980773926,0|0|2,0:0|0:0|0:0,0:0:0:0:
213,55,125432,2,0,L|155:121,2,62.9999980773926
20,193,125756,1,0,0:0:0:0:
82,193,125837,1,0,0:0:0:0:
144,193,125918,6,2,P|219:171|252:125,1,125.999996154785
302,103,126162,1,0,0:0:0:0:
364,105,126243,2,0,P|418:165|412:255,1,125.999996154785
404,266,126486,1,0,0:0:0:0:
349,297,126567,2,2,P|282:317|213:299,1,125.999996154785
178,268,126810,1,0,0:0:0:0:
140,217,126891,2,0,P|124:153|140:89,1,125.999996154785,2|0,0:0|0:0,0:0:0:0:
185,54,127135,1,0,0:0:0:0:
247,50,127216,5,2,0:0:0:0:
147,144,127378,2,0,L|147:245,2,62.9999980773926
365,228,127702,2,0,L|365:144,2,62.9999980773926,0|0|2,0:0|0:0|0:0,0:0:0:0:
255,356,128026,1,0,0:0:0:0:
256,292,128108,1,0,0:0:0:0:
256,229,128189,1,0,0:0:0:0:
142,282,128351,1,0,0:0:0:0:
142,282,128432,1,0,0:0:0:0:
142,282,128513,6,2,L|142:140,1,125.999996154785
143,93,128756,1,0,0:0:0:0:
205,94,128837,2,0,L|354:94,1,125.999996154785
370,102,129080,1,0,0:0:0:0:
370,102,129162,2,2,L|370:233,1,125.999996154785
369,291,129405,1,0,0:0:0:0:
307,290,129486,2,0,L|158:290,1,125.999996154785
256,192,129810,5,2,0:0:0:0:
167,120,129972,2,0,L|108:76,2,62.9999980773926
345,120,130297,2,0,L|404:76,2,62.9999980773926,0|0|2,0:0|0:0|0:0,0:0:0:0:
256,269,130621,2,0,L|256:332,2,62.9999980773926
85,151,130945,1,0,0:0:0:0:
85,151,131026,1,0,0:0:0:0:
85,151,131108,5,2,0:0:0:0:
158,252,131270,1,2,0:0:0:0:
230,354,131432,1,2,0:0:0:0:
216,48,131594,1,0,0:0:0:0:
216,48,131675,1,0,0:0:0:0:
216,48,131756,5,2,0:0:0:0:
309,174,131918,1,2,0:0:0:0:
399,301,132080,1,2,0:0:0:0:
432,79,132243,1,0,0:0:0:0:
432,79,132324,1,0,0:0:0:0:
432,79,132405,6,0,L|431:169,3,65.625,2|0|0|0,1:0|0:0|0:0|0:0,0:0:0:0:
340,117,132729,2,0,L|341:37,3,65.625
256,193,133053,6,0,L|256:274,3,65.625,2|0|0|0,1:0|0:0|0:0|0:0,0:0:0:0:
176,234,133378,2,0,L|176:160,3,65.625
61,268,133702,5,2,1:0:0:0:
99,303,133783,1,0,0:0:0:0:
149,317,133864,1,2,1:0:0:0:
200,307,133945,1,0,0:0:0:0:
237,269,134026,1,0,0:0:0:0:
258,220,134108,1,0,0:0:0:0:
248,168,134189,1,0,0:0:0:0:
214,128,134270,1,0,0:0:0:0:
164,143,134351,5,2,1:0:0:0:
137,188,134432,1,0,0:0:0:0:
137,240,134513,1,2,1:0:0:0:
162,285,134594,1,0,0:0:0:0:
209,306,134675,1,0,0:0:0:0:
261,301,134756,1,0,0:0:0:0:
307,277,134837,1,0,0:0:0:0:
335,232,134918,1,0,0:0:0:0:
353,182,134999,6,0,L|420:154,3,65.625,2|0|0|0,1:0|0:0|0:0|0:0,0:0:0:0:
282,134,135324,2,0,L|217:108,3,65.625
257,250,135648,6,0,L|318:279,3,65.625,2|0|0|0,1:0|0:0|0:0|0:0,0:0:0:0:
184,299,135972,2,0,L|104:258,3,65.625
31,236,136297,5,2,1:0:0:0:
40,184,136378,1,0,0:0:0:0:
72,143,136459,1,2,1:0:0:0:
120,122,136540,1,0,0:0:0:0:
167,144,136621,1,0,0:0:0:0:
193,189,136702,1,0,0:0:0:0:
209,238,136783,1,0,0:0:0:0:
230,286,136864,1,0,0:0:0:0:
255,239,136945,5,2,1:0:0:0:
276,190,137026,1,0,0:0:0:0:
319,158,137108,1,2,1:0:0:0:
369,145,137189,1,0,0:0:0:0:
418,160,137270,1,2,1:0:0:0:
455,196,137351,1,0,0:0:0:0:
470,246,137432,1,0,0:0:0:0:
468,298,137513,1,0,0:0:0:0:
460,349,137594,6,0,L|356:349,3,65.625,2|0|0|0,1:0|0:0|0:0|0:0,0:0:0:0:
416,266,137918,2,0,L|325:266,3,65.625
387,192,138243,2,0,L|311:192,3,65.625,2|0|0|0,1:0|0:0|0:0|0:0,0:0:0:0:
328,104,138567,2,0,L|242:104,3,65.625
191,47,138891,5,2,1:0:0:0:
146,75,138972,1,0,0:0:0:0:
124,123,139053,1,2,1:0:0:0:
130,175,139135,1,0,0:0:0:0:
165,214,139216,1,0,0:0:0:0:
215,227,139297,1,0,0:0:0:0:
267,220,139378,1,0,0:0:0:0:
310,190,139459,1,0,0:0:0:0:
328,141,139540,1,2,1:0:0:0:
304,94,139621,1,0,0:0:0:0:
252,81,139702,1,2,1:0:0:0:
203,100,139783,1,0,0:0:0:0:
181,147,139864,1,0,0:0:0:0:
203,194,139945,1,0,0:0:0:0:
252,210,140026,1,0,0:0:0:0:
295,179,140108,1,0,0:0:0:0:
333,143,140189,6,0,L|387:90,1,65.625,2|0,1:0|0:0,0:0:0:0:
385,197,140351,2,0,L|326:254,1,65.625
449,260,140513,2,0,L|525:261,1,65.625
430,331,140675,2,0,L|357:330,1,65.625
295,254,140837,6,0,L|373:254,1,65.625,2|0,1:0|0:0,0:0:0:0:
317,172,140999,2,0,L|234:172,1,65.625
181,111,141162,2,0,L|180:207,1,65.625
100,212,141324,2,0,L|100:128,1,65.625
58,77,141486,5,2,1:0:0:0:
112,54,141567,1,0,0:0:0:0:
170,46,141648,1,2,1:0:0:0:
227,59,141729,1,0,0:0:0:0:
275,92,141810,1,0,0:0:0:0:
305,142,141891,1,0,0:0:0:0:
308,200,141972,1,0,0:0:0:0:
293,257,142053,1,0,0:0:0:0:
236,237,142135,5,2,1:0:0:0:
202,188,142216,1,0,0:0:0:0:
220,132,142297,1,2,1:0:0:0:
273,106,142378,1,0,0:0:0:0:
331,113,142459,1,2,1:0:0:0:
376,151,142540,1,0,0:0:0:0:
387,208,142621,1,0,0:0:0:0:
367,263,142702,1,0,0:0:0:0:
334,309,142783,6,0,P|276:337|205:323,1,110.249996635437,2|0,0:0|0:0,0:0:0:0:
178,75,143108,2,0,P|236:47|307:61,1,110.249996635437,8|0,0:0|0:0,0:0:0:0:
119,278,143432,2,0,P|99:217|111:152,1,110.249996635437,2|0,0:0|0:0,0:0:0:0:
393,106,143756,2,0,P|413:167|401:232,1,110.249996635437,8|0,0:0|0:0,0:0:0:0:
256,98,144080,5,2,0:0:0:0:
162,192,144243,1,0,0:0:0:0:
256,286,144405,1,8,0:0:0:0:
350,192,144567,1,0,0:0:0:0:
352,77,144729,5,2,0:0:0:0:
141,96,144891,1,0,0:0:0:0:
160,307,145053,1,8,0:0:0:0:
371,288,145216,1,0,0:0:0:0:
361,98,145378,5,2,0:0:0:0:
226,329,145540,1,0,0:0:0:0:
199,63,145702,1,8,0:0:0:0:
377,262,145864,1,0,0:0:0:0:
115,206,146026,5,2,0:0:0:0:
315,84,146189,1,0,0:0:0:0:
210,326,146351,1,8,0:0:0:0:
395,212,146513,1,0,0:0:0:0:
134,311,146675,5,2,0:0:0:0:
164,74,146837,1,0,0:0:0:0:
336,312,146999,1,8,0:0:0:0:
366,75,147161,1,0,0:0:0:0:
196,92,147324,5,2,0:0:0:0:
225,336,147486,1,0,0:0:0:0:
377,142,147648,1,8,0:0:0:0:
127,273,147810,1,0,0:0:0:0:
132,110,147972,5,2,0:0:0:0:
346,78,148135,1,0,0:0:0:0:
240,246,148297,2,8,P|224:313|251:363,1,110.249996635437
380,274,148621,5,2,0:0:0:0:
166,306,148784,1,0,0:0:0:0:
272,138,148946,2,8,P|288:71|261:21,1,110.249996635437
427,108,149270,5,2,0:0:0:0:
366,315,149432,1,0,0:0:0:0:
147,173,149594,2,8,P|88:157|24:180,1,110.249996635437
85,276,149918,5,2,0:0:0:0:
146,69,150080,1,0,0:0:0:0:
365,211,150242,2,8,P|424:227|488:204,1,110.249996635437
257,319,150567,5,2,0:0:0:0:
256,65,150729,1,0,0:0:0:0:
115,128,150891,2,8,P|98:192|116:250,1,110.249996635437
255,65,151216,5,2,0:0:0:0:
256,319,151378,1,0,0:0:0:0:
397,256,151540,2,8,P|414:192|396:134,1,110.249996635437
111,122,151864,5,2,0:0:0:0:
256,287,152026,1,0,0:0:0:0:
379,114,152189,2,8,P|349:40|289:31,1,110.249996635437
401,262,152513,5,2,0:0:0:0:
256,97,152675,1,0,0:0:0:0:
133,270,152838,2,8,P|163:344|223:353,1,110.249996635437
186,354,153324,6,8,P|142:322|133:270,1,110.249996635437
256,97,153649,1,0,0:0:0:0:
401,262,153811,1,2,0:0:0:0:
325,29,153972,6,8,P|369:61|379:114,1,110.249996635437
256,287,154297,1,0,0:0:0:0:
111,122,154459,1,2,0:0:0:0:
404,150,154621,6,8,P|413:204|397:256,1,110.249996635437
256,319,154945,1,0,0:0:0:0:
255,65,155107,1,2,0:0:0:0:
107,233,155270,6,8,P|98:179|115:128,1,110.249996635437
256,65,155594,1,0,0:0:0:0:
257,319,155756,1,2,0:0:0:0:
470,215,155918,6,8,P|417:226|365:211,1,110.249996635437
146,69,156242,1,0,0:0:0:0:
85,276,156404,1,2,0:0:0:0:
41,168,156567,6,8,P|94:157|147:173,1,110.249996635437
366,315,156891,1,0,0:0:0:0:
427,108,157053,1,2,0:0:0:0:
273,34,157216,6,8,P|289:86|272:138,1,110.249996635437
166,306,157540,1,0,0:0:0:0:
380,274,157703,1,2,0:0:0:0:
238,349,157864,6,8,P|222:297|240:246,1,110.249996635437
346,78,158188,1,0,0:0:0:0:
132,110,158351,1,2,0:0:0:0:
127,273,158513,5,0,0:0:0:0:
377,142,158675,1,8,0:0:0:0:
225,336,158837,1,0,0:0:0:0:
196,92,158999,1,2,0:0:0:0:
366,75,159162,5,0,0:0:0:0:
336,312,159324,1,8,0:0:0:0:
164,74,159486,1,0,0:0:0:0:
134,311,159648,1,2,0:0:0:0:
395,212,159810,5,0,0:0:0:0:
210,326,159972,1,8,0:0:0:0:
315,84,160134,1,0,0:0:0:0:
115,206,160297,1,2,0:0:0:0:
377,262,160459,5,0,0:0:0:0:
199,63,160621,1,8,0:0:0:0:
226,329,160783,1,0,0:0:0:0:
361,98,160945,1,2,0:0:0:0:
371,288,161108,5,0,0:0:0:0:
160,307,161271,1,8,0:0:0:0:
141,96,161433,1,0,0:0:0:0:
352,77,161595,1,2,0:0:0:0:
350,192,161756,5,0,0:0:0:0:
256,286,161918,1,8,0:0:0:0:
162,192,162080,1,0,0:0:0:0:
256,98,162243,1,2,0:0:0:0:
408,211,162405,6,0,P|411:157|393:106,1,110.249996635437,0|8,0:0|0:0,0:0:0:0:
103,172,162729,2,0,P|100:226|119:278,1,110.249996635437,0|8,0:0|0:0,0:0:0:0:
280,49,163053,2,0,P|225:48|178:75,1,110.249996635437,0|8,0:0|0:0,0:0:0:0:
231,334,163378,2,0,P|286:335|334:309,1,110.249996635437,0|8,0:0|0:0,0:0:0:0:
326,99,163864,5,2,0:0:0:0:
203,158,164026,1,0,0:0:0:0:
216,294,164189,2,0,P|296:294|350:254,1,136.499993751526,8|0,0:0|0:0,0:0:0:0:
189,223,164513,2,0,P|120:210|48:230,1,136.499993751526,2|0,0:0|0:0,0:0:0:0:
258,185,164837,5,2,0:0:0:0:
258,185,164878,2,0,P|296:138|183:40,1,238.874989065171,0|8,0:0|0:0,0:0:0:0:
231,258,165324,1,0,0:0:0:0:
479,288,165486,2,0,P|435:356|317:245,1,272.999987503052,2|8,0:0|0:0,0:0:0:0:
403,209,165972,1,0,0:0:0:0:
331,115,166135,6,0,L|195:40,1,136.499993751526,2|0,0:0|0:0,0:0:0:0:
127,232,166459,2,0,L|205:112,1,136.499993751526,8|0,0:0|0:0,0:0:0:0:
319,308,166783,2,0,L|184:234,1,136.499993751526,2|0,0:0|0:0,0:0:0:0:
396,115,167108,2,0,L|326:241,1,136.499993751526,8|0,0:0|0:0,0:0:0:0:
253,142,167432,2,0,P|169:126|66:150,1,136.499993751526,2|0,0:0|0:0,0:0:0:0:
296,204,167756,2,0,P|378:226|463:212,1,136.499993751526,8|0,0:0|0:0,0:0:0:0:
362,95,168080,5,10,0:0:0:0:
185,211,168243,1,8,0:0:0:0:
378,288,168405,1,8,0:0:0:0:
185,51,168567,1,8,0:0:0:0:
43,146,168729,6,0,L|85:10,1,136.499993751526,2|0,0:0|0:0,0:0:0:0:
107,229,169053,2,0,L|80:369,1,136.499993751526,8|0,0:0|0:0,0:0:0:0:
217,154,169378,2,0,L|251:4,1,136.499993751526,2|0,0:0|0:0,0:0:0:0:
288,218,169702,2,0,L|264:366,1,136.499993751526,8|0,0:0|0:0,0:0:0:0:
437,331,170026,5,2,0:0:0:0:
450,194,170189,1,0,0:0:0:0:
332,124,170351,1,8,0:0:0:0:
324,260,170513,5,2,0:0:0:0:
100,260,170675,1,2,0:0:0:0:
281,128,170837,1,2,0:0:0:0:
212,342,170999,1,10,0:0:0:0:
143,128,171162,1,2,0:0:0:0:
256,33,171324,5,2,0:0:0:0:
385,75,171486,1,0,0:0:0:0:
385,211,171648,2,8,L|385:58,1,136.499993751526
256,119,171972,5,2,0:0:0:0:
127,161,172134,1,0,0:0:0:0:
127,297,172296,2,8,L|127:144,1,136.499993751526
256,250,172621,5,2,0:0:0:0:
385,208,172783,1,0,0:0:0:0:
385,72,172945,2,8,L|385:225,1,136.499993751526
256,351,173270,5,2,0:0:0:0:
127,309,173432,1,0,0:0:0:0:
127,173,173594,2,8,L|127:326,1,136.499993751526
31,169,173918,6,0,P|90:95|226:187,1,272.999987503052,2|8,0:0|0:0,0:0:0:0:
126,240,174405,1,0,0:0:0:0:
126,240,174486,1,0,0:0:0:0:
126,240,174567,2,0,P|160:307|236:320,1,136.499993751526,2|0,0:0|0:0,0:0:0:0:
317,312,174891,2,0,P|285:241|216:224,1,136.499993751526,8|0,0:0|0:0,0:0:0:0:
76,138,175216,5,2,0:0:0:0:
76,138,175256,2,0,P|133:84|294:107,1,238.874989065171,0|8,0:0|0:0,0:0:0:0:
68,210,175702,1,0,0:0:0:0:
297,330,175864,2,0,P|214:354|42:282,1,272.999987503052,2|8,0:0|0:0,0:0:0:0:
179,224,176351,1,0,0:0:0:0:
428,154,176513,6,0,L|472:21,1,136.499993751526,2|0,0:0|0:0,0:0:0:0:
367,223,176837,2,0,L|465:360,1,136.499993751526,8|0,0:0|0:0,0:0:0:0:
313,157,177162,2,0,L|402:25,1,136.499993751526,2|0,0:0|0:0,0:0:0:0:
254,233,177486,2,0,L|332:353,1,136.499993751526,8|0,0:0|0:0,0:0:0:0:
198,153,177810,2,0,L|278:28,1,136.499993751526,2|0,0:0|0:0,0:0:0:0:
145,235,178135,2,0,L|235:364,1,136.499993751526,8|0,0:0|0:0,0:0:0:0:
66,151,178459,5,10,0:0:0:0:
255,71,178621,1,8,0:0:0:0:
446,151,178783,1,8,0:0:0:0:
255,213,178945,1,8,0:0:0:0:
79,106,179108,6,0,P|106:183|98:256,1,136.499993751526,2|0,0:0|0:0,0:0:0:0:
227,348,179432,2,0,P|194:255|198:196,1,136.499993751526,8|0,0:0|0:0,0:0:0:0:
324,39,179756,2,0,P|277:131|272:188,1,136.499993751526,2|0,0:0|0:0,0:0:0:0:
364,341,180080,2,0,P|412:251|413:187,1,136.499993751526,8|0,0:0|0:0,0:0:0:0:
255,67,180405,5,2,0:0:0:0:
201,192,180567,1,0,0:0:0:0:
311,192,180729,1,8,0:0:0:0:
256,310,180891,5,2,0:0:0:0:
143,228,181053,1,2,0:0:0:0:
186,96,181216,1,2,0:0:0:0:
325,96,181378,1,10,0:0:0:0:
368,228,181540,1,2,0:0:0:0:
481,355,181702,5,2,0:0:0:0:
410,238,181864,1,0,0:0:0:0:
322,342,182026,2,8,L|280:194,1,136.499993751526
31,355,182351,5,2,0:0:0:0:
102,238,182513,1,0,0:0:0:0:
190,342,182675,2,8,L|232:194,1,136.499993751526
31,29,182999,5,2,0:0:0:0:
102,146,183161,1,0,0:0:0:0:
190,42,183324,2,8,L|232:190,1,136.499993751526
481,29,183648,5,2,0:0:0:0:
410,146,183810,1,0,0:0:0:0:
322,42,183972,2,8,L|280:190,1,136.499993751526
176,65,184297,6,0,P|117:118|83:206,1,136.499993751526,2|0,0:0|0:0,0:0:0:0:
336,318,184621,2,0,P|387:275|420:215,1,136.499993751526,8|0,0:0|0:0,0:0:0:0:
175,318,184945,2,0,P|124:275|91:215,1,136.499993751526,2|0,0:0|0:0,0:0:0:0:
336,65,185270,2,0,P|387:108|420:168,1,136.499993751526,8|0,0:0|0:0,0:0:0:0:
256,95,185594,5,2,0:0:0:0:
256,95,185635,2,0,P|209:232|254:329,1,238.874989065171,0|8,0:0|0:0,0:0:0:0:
374,192,186080,1,0,0:0:0:0:
191,80,186243,2,0,P|147:188|224:374,1,272.999987503052,2|8,0:0|0:0,0:0:0:0:
452,193,186891,5,4,0:0:0:0:
256,192,186972,12,4,192080,0:0:0:0:
