osu file format v14

[General]
AudioFilename: audio.mp3
AudioLeadIn: 0
PreviewTime: 24628
Countdown: 0
SampleSet: None
StackLeniency: 0.3
Mode: 0
LetterboxInBreaks: 0
WidescreenStoryboard: 1

[Editor]
Bookmarks: 5486,7281,10274,24628,34200,43772,53344,62916,82060,98811,101204,110776,129920,137099,139492,149064,158636,168208,177780,187352,194531,196924
DistanceSpacing: 1.5
BeatDivisor: 4
GridSize: 8
TimelineZoom: 2.3

[Metadata]
Title:Wolf Drawn
TitleUnicode:Wolf Drawn
Artist:Emancipator
ArtistUnicode:Emancipator
Creator:Nenonious
Version:Storage diff
Source:
Tags:soon it will be cold enough, downtempo
BeatmapID:1937274
BeatmapSetID:926486

[Difficulty]
HPDrainRate:6
CircleSize:4
OverallDifficulty:8
ApproachRate:8
SliderMultiplier:1.5
SliderTickRate:1

[Events]
//Background and Video events
0,0,"bgfixed.jpg",0,0
//Break Periods
//Storyboard Layer 0 (Background)
//Storyboard Layer 1 (Fail)
//Storyboard Layer 2 (Pass)
//Storyboard Layer 3 (Foreground)
//Storyboard Sound Samples

[TimingPoints]
100,598.25310094524,4,2,0,5,1,0
5484,598.25310094524,4,2,0,5,1,0
24628,-76.9230769230769,4,2,0,20,0,0
26721,-62.5,4,2,0,20,0,0
27021,-76.9230769230769,4,2,0,20,0,0
31508,-62.5,4,2,0,20,0,0
31807,-76.9230769230769,4,2,0,20,0,0
36294,-62.5,4,2,0,20,0,0
36593,-76.9230769230769,4,2,0,20,0,0
41080,-62.5,4,2,0,20,0,0
41379,-76.9230769230769,4,2,0,20,0,0
43772,-100,4,2,0,10,0,0
44071,-83.3333333333333,4,2,0,10,0,0
62916,-76.9230769230769,4,2,0,20,0,1
65010,-47.6190476190476,4,2,0,20,0,1
65757,-76.9230769230769,4,2,0,20,0,1
74582,-47.6190476190476,4,2,0,20,0,1
75330,-76.9230769230769,4,2,0,20,0,1
77274,-76.9230769230769,4,2,0,20,0,1
82060,-76.9230769230769,4,2,2,16,0,0
82509,-86.9565217391304,4,2,2,12,0,0
82957,-100,4,2,2,10,0,0
83406,-117.647058823529,4,2,2,8,0,0
83855,-142.857142857143,4,2,2,5,0,0
84453,-76.9230769230769,4,2,2,16,0,0
84902,-86.9565217391304,4,2,2,12,0,0
85350,-100,4,2,2,10,0,0
85799,-117.647058823529,4,2,2,8,0,0
86248,-142.857142857143,4,2,2,5,0,0
86846,-76.9230769230769,4,2,2,16,0,0
87295,-86.9565217391304,4,2,2,12,0,0
87743,-100,4,2,2,10,0,0
88192,-117.647058823529,4,2,2,8,0,0
88641,-142.857142857143,4,2,2,5,0,0
89239,-76.9230769230769,4,2,2,16,0,0
89688,-86.9565217391304,4,2,2,12,0,0
90136,-100,4,2,2,10,0,0
90585,-117.647058823529,4,2,2,8,0,0
91034,-142.857142857143,4,2,2,5,0,0
91632,-76.9230769230769,4,2,2,16,0,0
92081,-86.9565217391304,4,2,2,12,0,0
92529,-100,4,2,2,10,0,0
92978,-117.647058823529,4,2,2,8,0,0
93427,-142.857142857143,4,2,2,5,0,0
94025,-76.9230769230769,4,2,2,16,0,0
94474,-86.9565217391304,4,2,2,12,0,0
94922,-100,4,2,2,10,0,0
95371,-117.647058823529,4,2,2,8,0,0
95820,-142.857142857143,4,2,2,5,0,0
96418,-76.9230769230769,4,2,2,16,0,0
96867,-86.9565217391304,4,2,2,12,0,0
97315,-100,4,2,2,10,0,0
97764,-117.647058823529,4,2,2,8,0,0
98213,-142.857142857143,4,2,2,5,0,0
98811,-55.5555555555556,4,2,0,12,0,0
101204,-55.5555555555556,4,2,0,15,0,0
103148,-200,4,2,0,15,0,0
103597,-55.5555555555556,4,2,0,15,0,0
104345,-200,4,2,0,15,0,0
104794,-55.5555555555556,4,2,0,15,0,0
105541,-200,4,2,0,15,0,0
105990,-55.5555555555556,4,2,0,15,0,0
107934,-200,4,2,0,15,0,0
108383,-55.5555555555556,4,2,0,15,0,0
110776,-55.5555555555556,4,2,0,20,0,0
129920,-55.5555555555556,4,2,0,8,0,0
139492,-50,4,2,0,18,0,1
158636,-100,4,2,0,5,0,0

[Colours]
Combo1 : 151,75,0
Combo2 : 166,217,217
Combo3 : 128,128,192
Combo4 : 192,192,192

[HitObjects]
36,320,5484,6,0,B|146:351|256:320|256:320|372:296|481:311,1,450
459,126,7877,2,0,P|432:199|362:216,1,150
399,13,9073,2,0,P|372:86|310:139,1,150
216,192,10270,6,0,P|257:352|298:192,1,450
146,130,12663,2,0,P|72:123|12:178,1,150
132,224,13859,2,0,P|64:266|26:331,1,150
158,331,15056,6,0,P|240:212|21:206,1,450
62,40,17449,2,0,P|137:25|219:51,1,150
182,141,18645,2,0,P|256:147|331:142,1,150
481,48,19842,2,0,L|31:48,1,450
256,192,22235,12,0,24029,0:0:0:0:
91,271,24628,6,0,L|202:261,1,97.4999955368044
209,285,25076,1,0,0:0:0:0:
140,174,25226,1,0,0:0:0:0:
179,92,25525,2,0,P|225:141|230:193,1,97.4999955368044
227,222,25974,1,0,0:0:0:0:
200,268,26123,1,0,0:0:0:0:
344,187,26422,2,0,L|295:191,1,48.7499977684022
450,7,26721,2,0,L|444:70,1,60
437,110,27021,6,0,P|402:162|346:180,1,97.4999955368044
384,202,27469,1,0,0:0:0:0:
341,80,27619,1,0,0:0:0:0:
460,177,27918,2,0,L|451:253,1,48.7499977684022
447,280,28217,1,0,0:0:0:0:
432,356,28367,1,0,0:0:0:0:
447,280,28516,1,0,0:0:0:0:
424,236,28666,1,0,0:0:0:0:
378,219,28815,2,0,L|298:225,1,48.7499977684022
183,159,29114,2,0,L|262:165,1,48.7499977684022
281,165,29414,6,0,P|331:158|363:123,1,97.4999955368044
371,163,29862,1,0,0:0:0:0:
401,20,30012,1,0,0:0:0:0:
467,95,30311,2,0,L|457:206,1,97.4999955368044
446,244,30760,1,0,0:0:0:0:
396,264,30909,1,0,0:0:0:0:
250,178,31208,2,0,L|298:182,1,48.7499977684022
346,284,31508,2,0,L|266:290,1,60
237,293,31807,6,0,P|189:275|165:238,1,97.4999955368044
146,278,32255,1,0,0:0:0:0:
161,126,32405,1,0,0:0:0:0:
303,269,32704,2,0,L|286:223,1,48.7499977684022,0|0,0:0|0:0,0:0:0:0:
274,193,33003,1,0,0:0:0:0:
248,122,33153,1,0,0:0:0:0:
223,52,33302,1,0,0:0:0:0:
135,290,33601,1,0,0:0:0:0:
147,215,33751,1,0,0:0:0:0:
161,142,33900,1,0,0:0:0:0:
229,279,34200,6,0,P|262:321|304:325,1,97.4999955368044
282,353,34648,1,0,0:0:0:0:
364,243,34798,1,0,0:0:0:0:
172,279,35097,2,0,L|291:289,1,97.4999955368044
322,292,35546,1,0,0:0:0:0:
375,297,35695,1,0,0:0:0:0:
265,218,35994,2,0,L|216:222,1,48.7499977684022
79,332,36294,2,0,L|85:269,1,60
90,228,36593,6,0,P|86:179|58:141,1,97.4999955368044
48,178,37041,1,0,0:0:0:0:
90,54,37191,1,0,0:0:0:0:
0,106,37490,2,0,L|53:110,1,48.7499977684022
87,114,37789,1,0,0:0:0:0:
165,118,37939,1,0,0:0:0:0:
87,114,38088,1,0,0:0:0:0:
54,150,38238,1,0,0:0:0:0:
47,198,38387,2,0,L|53:278,1,48.7499977684022
117,347,38686,2,0,L|123:268,1,48.7499977684022
125,250,38986,6,0,P|140:202|176:168,1,97.4999955368044
129,173,39434,1,0,0:0:0:0:
270,159,39584,1,0,0:0:0:0:
186,37,39883,2,0,L|196:148,1,97.4999955368044
200,187,40332,1,0,0:0:0:0:
206,240,40481,1,0,0:0:0:0:
220,372,40780,2,0,L|224:324,1,48.7499977684022
401,245,41080,2,0,L|321:251,1,60
304,251,41379,6,0,P|256:235|231:195,1,97.4999955368044
224,239,41827,1,0,0:0:0:0:
259,106,41977,1,0,0:0:0:0:
129,23,42276,2,0,L|133:71,1,48.7499977684022,0|0,0:0|0:0,0:0:0:0:
137,103,42575,1,0,0:0:0:0:
144,179,42725,1,0,0:0:0:0:
150,253,42874,1,0,0:0:0:0:
317,49,43173,1,0,0:0:0:0:
285,118,43323,1,0,0:0:0:0:
253,185,43472,1,0,0:0:0:0:
253,185,43772,6,0,L|213:268,1,75
194,303,44220,1,0,0:0:0:0:
