osu file format v14

[General]
AudioFilename: audio.mp3
AudioLeadIn: 0
PreviewTime: 54827
Countdown: 0
SampleSet: Soft
StackLeniency: 0.3
Mode: 0
LetterboxInBreaks: 0
WidescreenStoryboard: 0

[Editor]
DistanceSpacing: 1
BeatDivisor: 2
GridSize: 16
TimelineZoom: 1.1

[Metadata]
Title:Junjou Emotional
TitleUnicode:純情エモーショナル
Artist:Elze, Linze, Yae, Yumina, Sushie, Leen
ArtistUnicode:エルゼ、リンゼ、八重、ユミナ、スゥシィ、リーン
Creator:Momochikun
Version:Normal
Source:異世界はスマートフォンとともに。
Tags:Isekai wa Smartphone to Tomo ni. In a Different World with a Smartphone. ending tv size production reed gaia uchida maaya kouno marika fukuo yui uesaka sumire akasaki chinatsu yamashita nanami
BeatmapID:1357523
BeatmapSetID:638878

[Difficulty]
HPDrainRate:3
CircleSize:3
OverallDifficulty:4
ApproachRate:4
SliderMultiplier:1
SliderTickRate:1

[Events]
//Background and Video events
0,0,"BG.jpg",0,0
Video,0,"video.flv"
//Break Periods
//Storyboard Layer 0 (Background)
//Storyboard Layer 1 (Fail)
//Storyboard Layer 2 (Pass)
//Storyboard Layer 3 (Foreground)
//Storyboard Sound Samples

[TimingPoints]
605,405.405405405405,4,2,1,50,1,0
3645,-100,4,2,1,60,0,1
3746,-100,4,2,1,60,0,0
14996,-100,4,2,1,60,0,0
15503,-100,4,2,1,50,0,0
16821,-100,4,2,1,60,0,0
17226,-100,4,2,1,50,0,0
29794,-100,4,2,1,60,0,0
42767,-100,4,2,1,50,0,0
49050,-100,4,2,1,60,0,0
52294,-100,4,2,1,50,0,0
55132,-100,4,2,1,55,0,0
55537,-100,4,2,1,60,0,1
68307,-100,4,2,1,50,0,0
68510,-100,4,2,1,60,0,1
74996,-100,4,2,1,50,0,1
81483,-100,4,2,1,50,0,0
82091,-100,4,2,1,40,0,0

[Colours]
Combo1 : 81,168,255
Combo2 : 130,215,255
Combo3 : 151,151,255

[HitObjects]
256,320,605,6,0,L|366:293,1,100,2|2,1:0|1:0,0:0:0:0:
377,199,1415,2,0,L|279:222,1,100,2|2,1:0|1:0,0:0:0:0:
236,198,2023,2,0,P|190:150|205:62,1,150,2|0,0:1|1:0,0:0:0:0:
297,86,3037,2,0,L|305:34,2,50,8|8|2,0:0|0:0|0:0,0:0:0:0:
340,110,3645,6,0,P|416:137|498:120,1,150,4|8,0:0|0:0,0:0:0:0:
506,224,4659,2,0,P|481:268|475:326,1,100,8|8,0:0|0:0,0:0:0:0:
439,352,5267,2,0,P|371:369|301:312,1,150,4|8,0:0|0:0,0:0:0:0:
224,261,6280,6,0,L|60:298,2,150,8|4|8,0:0|0:0|0:0,0:0:0:0:
259,167,7902,2,0,L|356:144,1,100,8|8,0:0|0:0,0:0:0:0:
404,160,8510,2,0,P|420:251|375:300,1,150,4|8,0:0|0:0,0:0:0:0:
303,346,9523,2,0,P|286:306|230:269,1,100,4|8,0:3|0:0,0:0:0:0:
196,250,10132,6,0,L|26:300,1,150,4|8,0:0|0:0,0:0:0:0:
6,203,11145,2,0,L|101:174,1,100,8|8,0:1|0:0,0:0:0:0:
131,134,11753,2,0,P|194:91|277:100,1,150,4|8,0:0|0:0,0:0:0:0:
344,154,12767,2,0,P|393:155|435:129,1,100,8|8,0:1|0:0,0:0:0:0:
471,95,13375,6,0,L|457:224,1,100,4|8,0:0|0:0,0:0:0:0:
418,285,14186,1,0,1:0:0:0:
321,257,14591,1,0,1:0:0:0:
246,323,14996,1,4,0:0:0:0:
37,106,16213,2,0,L|22:43,2,50,2|0|8,0:0|0:0|0:0,0:0:0:0:
73,140,16821,6,0,P|126:166|191:158,1,100,4|0,0:0|1:0,0:0:0:0:
260,132,17632,2,0,P|283:175|285:225,1,100,0|0,1:0|1:0,0:0:0:0:
196,269,18442,2,0,P|198:318|221:362,1,100,0|0,1:0|1:0,0:0:0:0:
321,374,19253,1,0,1:0:0:0:
419,354,19659,1,8,0:0:0:0:
492,286,20064,6,0,P|489:236|466:192,1,100,0|0,1:0|1:0,0:0:0:0:
418,173,20672,2,0,L|288:203,1,100,2|2,0:0|0:0,0:0:0:0:
279,104,21483,2,0,B|179:81|179:81|126:108,1,150,2|0,0:0|1:0,0:0:0:0:
48,149,22496,2,0,L|31:215,1,50,0|8,1:0|0:0,0:0:0:0:
79,222,22902,2,0,L|62:288,1,50,0|0,1:0|0:0,0:0:0:0:
112,291,23307,6,0,P|175:320|242:313,1,100,4|0,0:0|1:0,0:0:0:0:
287,264,24118,2,0,P|350:235|417:242,1,100,0|0,1:0|1:0,0:0:0:0:
427,249,24726,1,0,0:0:0:0:
468,276,24929,2,0,P|414:206|416:96,1,200,0|0,1:0|1:0,0:0:0:0:
338,34,26145,5,8,0:0:0:0:
338,34,26348,2,0,L|180:65,1,150,2|0,0:0|1:0,0:0:0:0:
116,129,27361,2,0,L|104:193,2,50,0|8|8,1:0|0:0|0:0,0:0:0:0:
90,85,27969,1,8,0:0:0:0:
7,141,28375,2,0,L|26:261,1,100,8|8,0:3|0:3,0:0:0:0:
44,284,28983,2,0,P|98:314|149:311,1,100,12|8,0:0|0:0,0:0:0:0:
230,343,29794,6,0,P|284:321|326:320,1,100,4|8,0:0|0:0,0:0:0:0:
371,338,30402,2,0,L|394:169,1,150,2|8,0:0|0:0,0:0:0:0:
291,200,31415,2,0,P|268:157|268:104,1,100,0|8,1:0|0:0,0:0:0:0:
286,59,32023,2,0,L|117:36,1,150,2|8,0:0|0:0,0:0:0:0:
42,71,33037,6,0,L|60:179,1,100,0|8,1:0|0:0,0:0:0:0:
156,191,33848,2,0,L|138:299,1,100,0|8,1:0|0:0,0:0:0:0:
229,333,34659,2,0,L|245:234,2,100,0|8|0,1:0|0:0|1:0,0:0:0:0:
324,361,35875,1,8,0:0:0:0:
409,309,36280,6,0,P|434:260|425:203,1,100,4|8,0:0|0:0,0:0:0:0:
497,141,37091,2,0,P|448:116|391:125,1,100,2|8,1:0|0:0,0:0:0:0:
326,56,37902,2,0,L|208:88,1,100,4|8,0:0|0:0,0:0:0:0:
137,43,38713,2,0,L|102:166,1,100,0|8,1:0|0:0,0:0:0:0:
141,233,39523,6,0,P|197:258|254:249,1,100,4|8,0:0|0:0,0:0:0:0:
322,303,40334,2,0,L|349:206,1,100,0|8,1:0|0:0,0:0:0:0:
380,167,40942,2,0,P|328:116|228:121,1,150,12|8,0:0|0:1,0:0:0:0:
162,70,41956,2,0,P|132:122|132:170,1,100,8|8,0:3|0:3,0:0:0:0:
157,203,42564,5,4,0:3:0:0:
157,203,42767,2,0,L|50:235,2,100,4|2|8,0:0|0:0|0:0,0:0:0:0:
248,243,43983,1,8,0:0:0:0:
248,243,44186,2,0,P|316:255|384:193,1,150,10|8,0:1|0:0,0:0:0:0:
382,109,45199,2,0,L|477:80,2,100,2|8|8,0:0|0:0|0:1,0:0:0:0:
295,55,46415,5,0,0:0:0:0:
196,37,46821,2,0,P|125:81|114:152,1,150,8|10,0:0|0:1,0:0:0:0:
150,234,47834,1,8,0:1:0:0:
243,270,48240,2,0,B|334:241|334:241|399:269,1,150,2|8,0:0|0:0,0:0:0:0:
433,285,49050,6,0,L|464:124,1,150,4|8,0:0|0:0,0:0:0:0:
408,50,50064,2,0,P|359:58|326:93,1,100,8|8,0:0|0:0,0:0:0:0:
307,140,50672,2,0,P|246:152|172:93,1,150,4|8,0:0|0:0,0:0:0:0:
130,86,51483,2,0,P|110:162|118:215,1,100,2|0,0:0|0:0,0:0:0:0:
130,228,52091,2,0,L|141:290,1,50,8|0,0:0|1:0,0:0:0:0:
278,319,52902,6,0,L|382:289,1,100,2|0,1:1|1:0,0:0:0:0:
447,222,53713,2,0,L|495:235,1,50,0|12,1:0|0:0,0:0:0:0:
285,98,54929,2,0,L|333:84,1,50,8|12,0:0|0:0,0:0:0:0:
431,102,55537,6,0,P|375:173|298:170,1,150,4|8,0:0|0:0,0:0:0:0:
224,149,56550,2,0,P|190:206|189:258,1,100,2|8,1:0|0:0,0:0:0:0:
206,284,57159,1,2,1:0:0:0:
276,354,57564,2,0,L|333:339,1,50,2|8,1:0|0:0,0:0:0:0:
372,354,57969,2,0,P|411:296|394:221,1,150,2|8,1:0|0:0,0:0:0:0:
380,173,58780,6,0,P|438:212|513:195,1,150,2|8,1:0|0:0,0:0:0:0:
457,111,59794,2,0,P|395:71|324:88,1,150,0|2,1:0|1:0,0:0:0:0:
226,107,60807,2,0,L|164:92,1,50,2|8,1:0|0:0,0:0:0:0:
130,79,61213,2,0,L|159:194,1,100,2|8,0:0|0:0,0:0:0:0:
164,224,61821,1,8,0:0:0:0:
179,272,62023,6,0,P|240:308|319:291,1,150,4|8,0:0|0:0,0:0:0:0:
375,214,63037,2,0,P|436:178|515:195,2,150,8|4|8,0:0|0:0|0:0,0:0:0:0:
285,168,64659,2,0,L|297:56,1,100,2|8,0:0|0:0,0:0:0:0:
268,26,65267,6,0,L|117:68,1,150,4|8,1:2|0:0,0:0:0:0:
49,133,66280,2,0,L|59:232,1,100,12|8,0:0|0:0,0:0:0:0:
75,280,66888,2,0,B|125:248|177:259|177:259|209:224,1,150,4|8,0:0|0:0,0:0:0:0:
263,145,67902,2,0,L|279:77,2,50,8|8|2,0:0|0:0|0:0,0:0:0:0:
299,179,68510,6,0,P|361:216|454:199,1,150,4|8,0:0|0:0,0:0:0:0:
487,294,69523,2,0,P|434:298|386:323,1,100,0|8,1:0|0:0,0:0:0:0:
349,344,70132,2,0,L|175:304,1,150,2|8,0:0|0:0,0:0:0:0:
155,327,70942,2,0,P|124:275|128:206,1,100,2|0,0:0|0:0,0:0:0:0:
127,186,71550,1,8,0:0:0:0:
145,139,71753,6,0,P|223:90|303:106,1,150,2|8,0:0|0:0,0:0:0:0:
326,181,72767,2,0,P|377:196|426:191,1,100,0|8,1:0|0:0,0:0:0:0:
460,158,73375,1,2,0:0:0:0:
502,248,73780,2,0,L|491:316,1,50,2|8,0:0|0:0,0:0:0:0:
457,331,74186,2,0,P|415:356|337:346,1,100,2|8,0:0|0:0,0:0:0:0:
315,348,74794,1,8,0:0:0:0:
269,327,74996,6,0,B|216:299|216:299|105:332,1,150,4|2,0:0|0:3,0:0:0:0:
46,269,76010,1,2,0:0:0:0:
62,171,76415,1,2,0:3:0:0:
62,171,76618,2,0,P|126:180|197:126,1,150,2|2,1:0|0:3,0:0:0:0:
217,89,77429,1,2,0:3:0:0:
311,55,77834,2,0,L|365:39,1,50,0|2,1:0|0:3,0:0:0:0:
407,27,78240,6,0,L|369:178,1,150,4|2,0:0|0:3,0:0:0:0:
308,250,79253,2,0,L|330:318,2,50,8|8|8,0:3|0:0|0:0,0:0:0:0:
265,223,79861,2,0,P|189:193|103:208,1,150,4|0,0:0|1:0,0:0:0:0:
75,218,80672,1,0,1:0:0:0:
43,123,81077,1,2,0:0:0:0:
111,49,81483,6,0,B|188:31|186:93|274:62,1,150,4|0,0:0|1:0,0:0:0:0:
355,59,82496,2,0,P|402:36|454:41,2,100,0|0|0,1:0|1:0|1:0,0:0:0:0:
383,155,83713,1,0,1:0:0:0:
285,174,84118,2,0,P|255:217|252:270,1,100,0|0,0:0|1:0,0:0:0:0:
209,292,84726,5,8,0:0:0:0:
209,292,84929,2,0,P|157:289|117:258,1,100,0|0,1:0|1:0,0:0:0:0:
58,178,85740,2,0,L|27:77,1,100,0|0,1:0|1:0,0:0:0:0:
117,37,86550,2,0,L|146:132,1,100,0|0,0:0|1:0,0:0:0:0:
190,157,87159,6,0,L|249:140,1,50,8|4,0:3|0:3,0:0:0:0:
287,135,87564,2,0,L|335:148,2,50,8|8|4,0:0|0:0|0:0,0:0:0:0:
