osu file format v14

[General]
AudioFilename: audio 1.100x.mp3
AudioLeadIn: 0
PreviewTime: 0
Countdown: 0
SampleSet: None
StackLeniency: 0.7
Mode: 3
LetterboxInBreaks: 0
SpecialStyle: 0
WidescreenStoryboard: 0

[Editor]
DistanceSpacing: 1.5
BeatDivisor: 4
GridSize: 4
TimelineZoom: 1

[Metadata]
Title:SugarCrash! (wewewe Remix)
TitleUnicode:SugarCrash! (wewewe Remix)
Artist:ElyOtto
ArtistUnicode:ElyOtto
Creator:ark2000
Version:4k CRASH! 1.1x (220bpm)
Source:
Tags:beatsaber, frenchcore, hyperpop osutrainer
BeatmapID:4556953
BeatmapSetID:2160949

[Difficulty]
HPDrainRate:5
CircleSize:4
OverallDifficulty:5.8
ApproachRate:5.7
SliderMultiplier:1.4
SliderTickRate:1

[Events]
//Background and Video events
0,0,"gtcr.jpg",0,0
//Break Periods
2,36250,43772
//Storyboard Layer 0 (Background)
//Storyboard Layer 1 (Fail)
//Storyboard Layer 2 (Pass)
//Storyboard Layer 3 (Foreground)
//Storyboard Layer 4 (Overlay)
//Storyboard Sound Samples

[TimingPoints]
68,272.727272727273,4,1,0,50,1,0
35590,-40,4,2,0,25,0,0
35659,-200,4,2,0,25,0,0
35863,-40,4,2,0,25,0,0
35863,-100,4,2,0,25,0,0
35914,-200,4,2,0,25,0,0
36068,-100,4,2,0,25,0,0

[HitObjects]
64,192,68,5,0,0:0:0:0:
192,192,68,1,0,0:0:0:0:
320,192,68,1,0,0:0:0:0:
448,192,68,1,0,0:0:0:0:
64,192,1159,1,0,0:0:0:0:
320,192,1159,1,0,0:0:0:0:
448,192,1159,1,0,0:0:0:0:
192,192,1227,1,0,0:0:0:0:
320,192,1295,1,0,0:0:0:0:
448,192,1363,1,0,0:0:0:0:
320,192,1431,1,0,0:0:0:0:
64,192,1431,1,0,0:0:0:0:
192,192,1500,1,0,0:0:0:0:
64,192,1568,1,0,0:0:0:0:
192,192,1636,1,0,0:0:0:0:
320,192,1704,1,0,0:0:0:0:
448,192,1704,1,0,0:0:0:0:
192,192,1772,1,0,0:0:0:0:
64,192,1840,1,0,0:0:0:0:
192,192,1909,1,0,0:0:0:0:
320,192,1977,1,0,0:0:0:0:
448,192,2045,1,0,0:0:0:0:
320,192,2113,1,0,0:0:0:0:
192,192,2181,1,0,0:0:0:0:
64,192,2250,1,0,0:0:0:0:
320,192,2318,1,0,0:0:0:0:
448,192,2386,1,0,0:0:0:0:
320,192,2454,1,0,0:0:0:0:
192,192,2522,1,0,0:0:0:0:
64,192,2522,1,0,0:0:0:0:
320,192,2590,1,0,0:0:0:0:
192,192,2659,1,0,0:0:0:0:
64,192,2727,1,0,0:0:0:0:
192,192,2795,1,0,0:0:0:0:
320,192,2795,1,0,0:0:0:0:
448,192,2795,1,0,0:0:0:0:
64,192,2863,1,0,0:0:0:0:
192,192,2931,1,0,0:0:0:0:
320,192,3000,1,0,0:0:0:0:
192,192,3068,1,0,0:0:0:0:
64,192,3068,1,0,0:0:0:0:
320,192,3136,1,0,0:0:0:0:
448,192,3204,1,0,0:0:0:0:
320,192,3272,1,0,0:0:0:0:
192,192,3340,1,0,0:0:0:0:
64,192,3340,1,0,0:0:0:0:
320,192,3409,1,0,0:0:0:0:
448,192,3477,1,0,0:0:0:0:
320,192,3545,1,0,0:0:0:0:
192,192,3613,1,0,0:0:0:0:
64,192,3681,1,0,0:0:0:0:
192,192,3750,1,0,0:0:0:0:
320,192,3818,1,0,0:0:0:0:
192,192,3886,1,0,0:0:0:0:
64,192,3886,1,0,0:0:0:0:
320,192,4022,1,0,0:0:0:0:
448,192,4022,1,0,0:0:0:0:
192,192,4159,1,0,0:0:0:0:
64,192,4159,1,0,0:0:0:0:
320,192,4227,1,0,0:0:0:0:
448,192,4295,1,0,0:0:0:0:
320,192,4363,1,0,0:0:0:0:
192,192,4431,1,0,0:0:0:0:
64,192,4431,1,0,0:0:0:0:
320,192,4500,1,0,0:0:0:0:
192,192,4568,1,0,0:0:0:0:
64,192,4636,1,0,0:0:0:0:
320,192,4704,1,0,0:0:0:0:
448,192,4704,1,0,0:0:0:0:
192,192,4704,1,0,0:0:0:0:
192,192,4840,1,0,0:0:0:0:
64,192,4840,1,0,0:0:0:0:
320,192,4977,1,0,0:0:0:0:
448,192,4977,1,0,0:0:0:0:
320,192,5113,1,0,0:0:0:0:
192,192,5113,1,0,0:0:0:0:
192,192,5250,1,0,0:0:0:0:
64,192,5250,1,0,0:0:0:0:
320,192,5318,1,0,0:0:0:0:
448,192,5386,1,0,0:0:0:0:
320,192,5454,1,0,0:0:0:0:
192,192,5522,1,0,0:0:0:0:
64,192,5522,128,0,5795:0:0:0:0:
448,192,5659,1,0,0:0:0:0:
320,192,5659,1,0,0:0:0:0:
192,192,5659,1,0,0:0:0:0:
320,192,5795,1,0,0:0:0:0:
448,192,5795,1,0,0:0:0:0:
192,192,5863,1,0,0:0:0:0:
64,192,5931,1,0,0:0:0:0:
192,192,6000,1,0,0:0:0:0:
320,192,6068,1,0,0:0:0:0:
448,192,6068,1,0,0:0:0:0:
192,192,6136,1,0,0:0:0:0:
320,192,6204,1,0,0:0:0:0:
192,192,6272,1,0,0:0:0:0:
320,192,6340,1,0,0:0:0:0:
448,192,6340,1,0,0:0:0:0:
192,192,6613,1,0,0:0:0:0:
64,192,6613,1,0,0:0:0:0:
320,192,6681,1,0,0:0:0:0:
448,192,6750,1,0,0:0:0:0:
320,192,6818,1,0,0:0:0:0:
192,192,6886,1,0,0:0:0:0:
64,192,6886,1,0,0:0:0:0:
448,192,6954,1,0,0:0:0:0:
320,192,7022,1,0,0:0:0:0:
192,192,7090,1,0,0:0:0:0:
320,192,7159,1,0,0:0:0:0:
448,192,7159,1,0,0:0:0:0:
320,192,7295,1,0,0:0:0:0:
192,192,7295,1,0,0:0:0:0:
192,192,7431,1,0,0:0:0:0:
64,192,7431,1,0,0:0:0:0:
320,192,7500,1,0,0:0:0:0:
448,192,7568,1,0,0:0:0:0:
320,192,7636,1,0,0:0:0:0:
192,192,7704,1,0,0:0:0:0:
64,192,7704,1,0,0:0:0:0:
320,192,7840,1,0,0:0:0:0:
448,192,7840,1,0,0:0:0:0:
192,192,7977,1,0,0:0:0:0:
320,192,7977,1,0,0:0:0:0:
192,192,8113,1,0,0:0:0:0:
64,192,8113,1,0,0:0:0:0:
192,192,8250,1,0,0:0:0:0:
320,192,8250,1,0,0:0:0:0:
448,192,8318,1,0,0:0:0:0:
192,192,8386,1,0,0:0:0:0:
320,192,8386,1,0,0:0:0:0:
64,192,8454,1,0,0:0:0:0:
320,192,8522,1,0,0:0:0:0:
192,192,8522,1,0,0:0:0:0:
448,192,8590,1,0,0:0:0:0:
320,192,8659,1,0,0:0:0:0:
192,192,8659,1,0,0:0:0:0:
64,192,8727,1,0,0:0:0:0:
192,192,8795,1,0,0:0:0:0:
320,192,8863,1,0,0:0:0:0:
448,192,8931,1,0,0:0:0:0:
320,192,9000,1,0,0:0:0:0:
192,192,9068,1,0,0:0:0:0:
64,192,9068,1,0,0:0:0:0:
320,192,9136,1,0,0:0:0:0:
192,192,9204,1,0,0:0:0:0:
64,192,9272,1,0,0:0:0:0:
64,192,9409,1,0,0:0:0:0:
192,192,9409,1,0,0:0:0:0:
320,192,9409,1,0,0:0:0:0:
448,192,9409,1,0,0:0:0:0:
64,192,9681,1,0,0:0:0:0:
192,192,9681,1,0,0:0:0:0:
320,192,9681,1,0,0:0:0:0:
448,192,9681,1,0,0:0:0:0:
320,192,9818,1,0,0:0:0:0:
64,192,9886,1,0,0:0:0:0:
192,192,9886,1,0,0:0:0:0:
320,192,9954,1,0,0:0:0:0:
448,192,10022,1,0,0:0:0:0:
320,192,10090,1,0,0:0:0:0:
192,192,10159,1,0,0:0:0:0:
64,192,10159,1,0,0:0:0:0:
320,192,10227,1,0,0:0:0:0:
448,192,10295,1,0,0:0:0:0:
64,192,10295,1,0,0:0:0:0:
192,192,10363,1,0,0:0:0:0:
320,192,10431,1,0,0:0:0:0:
192,192,10500,1,0,0:0:0:0:
320,192,10568,1,0,0:0:0:0:
448,192,10636,1,0,0:0:0:0:
192,192,10636,1,0,0:0:0:0:
64,192,10704,1,0,0:0:0:0:
192,192,10772,1,0,0:0:0:0:
320,192,10840,1,0,0:0:0:0:
192,192,10909,1,0,0:0:0:0:
320,192,10977,1,0,0:0:0:0:
192,192,11045,1,0,0:0:0:0:
448,192,11045,1,0,0:0:0:0:
64,192,11113,1,0,0:0:0:0:
192,192,11181,1,0,0:0:0:0:
320,192,11250,1,0,0:0:0:0:
448,192,11318,1,0,0:0:0:0:
192,192,11318,1,0,0:0:0:0:
64,192,11386,1,0,0:0:0:0:
192,192,11454,1,0,0:0:0:0:
64,192,11522,1,0,0:0:0:0:
320,192,11522,1,0,0:0:0:0:
448,192,11590,1,0,0:0:0:0:
192,192,11659,1,0,0:0:0:0:
64,192,11727,1,0,0:0:0:0:
320,192,11795,1,0,0:0:0:0:
448,192,11795,1,0,0:0:0:0:
192,192,11795,1,0,0:0:0:0:
64,192,11863,1,0,0:0:0:0:
320,192,11931,1,0,0:0:0:0:
192,192,12068,1,0,0:0:0:0:
64,192,12068,1,0,0:0:0:0:
320,192,12068,1,0,0:0:0:0:
320,192,12204,1,0,0:0:0:0:
448,192,12204,1,0,0:0:0:0:
320,192,12340,1,0,0:0:0:0:
192,192,12340,1,0,0:0:0:0:
64,192,12477,1,0,0:0:0:0:
192,192,12477,1,0,0:0:0:0:
448,192,12477,1,0,0:0:0:0:
320,192,12613,1,0,0:0:0:0:
192,192,12613,1,0,0:0:0:0:
64,192,12750,1,0,0:0:0:0:
320,192,12750,1,0,0:0:0:0:
448,192,12750,1,0,0:0:0:0:
64,192,12886,128,0,13159:0:0:0:0:
448,192,12886,128,0,13159:0:0:0:0:
320,192,13159,1,0,0:0:0:0:
192,192,13159,1,0,0:0:0:0:
64,192,13295,1,0,0:0:0:0:
320,192,13295,1,0,0:0:0:0:
448,192,13363,1,0,0:0:0:0:
320,192,13431,1,0,0:0:0:0:
192,192,13431,1,0,0:0:0:0:
64,192,13500,1,0,0:0:0:0:
192,192,13568,1,0,0:0:0:0:
320,192,13636,1,0,0:0:0:0:
448,192,13704,1,0,0:0:0:0:
320,192,13772,1,0,0:0:0:0:
64,192,13840,1,0,0:0:0:0:
192,192,13840,1,0,0:0:0:0:
64,192,13977,1,0,0:0:0:0:
192,192,13977,1,0,0:0:0:0:
320,192,14045,1,0,0:0:0:0:
448,192,14113,1,0,0:0:0:0:
64,192,14181,1,0,0:0:0:0:
320,192,14250,1,0,0:0:0:0:
192,192,14250,1,0,0:0:0:0:
448,192,14250,1,0,0:0:0:0:
64,192,14318,1,0,0:0:0:0:
192,192,14386,1,0,0:0:0:0:
320,192,14454,1,0,0:0:0:0:
192,192,14522,1,0,0:0:0:0:
64,192,14522,1,0,0:0:0:0:
448,192,14590,1,0,0:0:0:0:
320,192,14659,1,0,0:0:0:0:
192,192,14727,1,0,0:0:0:0:
64,192,14795,1,0,0:0:0:0:
448,192,14795,1,0,0:0:0:0:
320,192,14863,1,0,0:0:0:0:
448,192,14931,1,0,0:0:0:0:
64,192,14931,1,0,0:0:0:0:
192,192,15000,1,0,0:0:0:0:
320,192,15068,1,0,0:0:0:0:
448,192,15136,1,0,0:0:0:0:
64,192,15136,1,0,0:0:0:0:
192,192,15204,1,0,0:0:0:0:
320,192,15272,1,0,0:0:0:0:
192,192,15340,1,0,0:0:0:0:
320,192,15409,1,0,0:0:0:0:
448,192,15477,1,0,0:0:0:0:
64,192,15477,1,0,0:0:0:0:
192,192,15545,1,0,0:0:0:0:
320,192,15613,1,0,0:0:0:0:
448,192,15681,1,0,0:0:0:0:
64,192,15681,1,0,0:0:0:0:
192,192,15750,1,0,0:0:0:0:
320,192,15818,1,0,0:0:0:0:
448,192,15886,1,0,0:0:0:0:
64,192,15886,1,0,0:0:0:0:
192,192,15954,1,0,0:0:0:0:
320,192,16022,1,0,0:0:0:0:
448,192,16090,1,0,0:0:0:0:
64,192,16090,1,0,0:0:0:0:
192,192,16159,1,0,0:0:0:0:
320,192,16227,1,0,0:0:0:0:
448,192,16295,1,0,0:0:0:0:
64,192,16295,1,0,0:0:0:0:
192,192,16363,1,0,0:0:0:0:
320,192,16431,1,0,0:0:0:0:
448,192,16431,1,0,0:0:0:0:
192,192,16500,1,0,0:0:0:0:
64,192,16500,1,0,0:0:0:0:
320,192,16568,1,0,0:0:0:0:
448,192,16568,1,0,0:0:0:0:
192,192,16636,1,0,0:0:0:0:
64,192,16636,1,0,0:0:0:0:
320,192,16704,1,0,0:0:0:0:
448,192,16704,1,0,0:0:0:0:
192,192,16772,1,0,0:0:0:0:
64,192,16772,1,0,0:0:0:0:
320,192,16840,1,0,0:0:0:0:
448,192,16840,1,0,0:0:0:0:
192,192,16909,1,0,0:0:0:0:
64,192,16909,1,0,0:0:0:0:
320,192,16977,1,0,0:0:0:0:
448,192,17010,1,0,0:0:0:0:
192,192,17045,1,0,0:0:0:0:
64,192,17079,1,0,0:0:0:0:
320,192,17113,1,0,0:0:0:0:
448,192,17147,1,0,0:0:0:0:
192,192,17181,1,0,0:0:0:0:
64,192,17215,1,0,0:0:0:0:
320,192,17250,1,0,0:0:0:0:
448,192,17283,1,0,0:0:0:0:
192,192,17318,1,0,0:0:0:0:
64,192,17351,1,0,0:0:0:0:
320,192,17386,1,0,0:0:0:0:
448,192,17420,1,0,0:0:0:0:
192,192,17454,1,0,0:0:0:0:
64,192,17488,1,0,0:0:0:0:
320,192,17522,1,0,0:0:0:0:
448,192,17556,1,0,0:0:0:0:
64,192,18613,1,0,0:0:0:0:
192,192,18613,1,0,0:0:0:0:
448,192,18613,1,0,0:0:0:0:
320,192,18613,128,0,18750:0:0:0:0:
448,192,18886,1,0,0:0:0:0:
192,192,18886,1,0,0:0:0:0:
64,192,18886,128,0,19022:0:0:0:0:
320,192,19022,1,0,0:0:0:0:
64,192,19159,1,0,0:0:0:0:
320,192,19159,1,0,0:0:0:0:
448,192,19159,128,0,19295:0:0:0:0:
192,192,19295,1,0,0:0:0:0:
192,192,19431,1,0,0:0:0:0:
320,192,19431,1,0,0:0:0:0:
448,192,19431,1,0,0:0:0:0:
64,192,19431,128,0,19568:0:0:0:0:
320,192,19704,1,0,0:0:0:0:
192,192,19704,1,0,0:0:0:0:
64,192,19704,1,0,0:0:0:0:
448,192,19704,128,0,19840:0:0:0:0:
192,192,19977,1,0,0:0:0:0:
448,192,19977,1,0,0:0:0:0:
320,192,19977,128,0,20113:0:0:0:0:
320,192,20250,1,0,0:0:0:0:
192,192,20250,1,0,0:0:0:0:
64,192,20250,1,0,0:0:0:0:
448,192,20250,128,0,20386:0:0:0:0:
192,192,20386,1,0,0:0:0:0:
320,192,20522,1,0,0:0:0:0:
192,192,20522,1,0,0:0:0:0:
448,192,20522,1,0,0:0:0:0:
64,192,20522,128,0,20659:0:0:0:0:
320,192,20795,1,0,0:0:0:0:
192,192,20795,1,0,0:0:0:0:
64,192,20795,128,0,20931:0:0:0:0:
64,192,21068,1,0,0:0:0:0:
448,192,21068,1,0,0:0:0:0:
320,192,21068,128,0,21204:0:0:0:0:
320,192,21340,1,0,0:0:0:0:
448,192,21340,1,0,0:0:0:0:
192,192,21340,128,0,21477:0:0:0:0:
320,192,21477,1,0,0:0:0:0:
192,192,21613,1,0,0:0:0:0:
64,192,21613,1,0,0:0:0:0:
320,192,21613,128,0,21750:0:0:0:0:
192,192,21886,1,0,0:0:0:0:
320,192,21886,1,0,0:0:0:0:
448,192,21886,1,0,0:0:0:0:
64,192,21886,128,0,22022:0:0:0:0:
192,192,22022,1,0,0:0:0:0:
320,192,22022,1,0,0:0:0:0:
64,192,22159,1,0,0:0:0:0:
192,192,22159,1,0,0:0:0:0:
448,192,22159,1,0,0:0:0:0:
192,192,22295,1,0,0:0:0:0:
320,192,22431,1,0,0:0:0:0:
64,192,22431,1,0,0:0:0:0:
192,192,22431,1,0,0:0:0:0:
448,192,22568,1,0,0:0:0:0:
320,192,22568,1,0,0:0:0:0:
192,192,22568,1,0,0:0:0:0:
192,192,22704,1,0,0:0:0:0:
320,192,22704,1,0,0:0:0:0:
64,192,22704,128,0,22840:0:0:0:0:
64,192,22977,1,0,0:0:0:0:
320,192,22977,1,0,0:0:0:0:
448,192,22977,1,0,0:0:0:0:
192,192,22977,128,0,23113:0:0:0:0:
448,192,23250,1,0,0:0:0:0:
320,192,23250,1,0,0:0:0:0:
192,192,23250,1,0,0:0:0:0:
64,192,23250,128,0,23386:0:0:0:0:
64,192,23522,1,0,0:0:0:0:
320,192,23522,1,0,0:0:0:0:
192,192,23522,128,0,23659:0:0:0:0:
448,192,23659,1,0,0:0:0:0:
320,192,23795,1,0,0:0:0:0:
192,192,23795,1,0,0:0:0:0:
64,192,23795,128,0,23931:0:0:0:0:
320,192,24068,1,0,0:0:0:0:
448,192,24068,1,0,0:0:0:0:
192,192,24068,128,0,24204:0:0:0:0:
192,192,24340,1,0,0:0:0:0:
64,192,24340,1,0,0:0:0:0:
320,192,24340,128,0,24477:0:0:0:0:
320,192,24613,1,0,0:0:0:0:
192,192,24613,1,0,0:0:0:0:
448,192,24613,1,0,0:0:0:0:
192,192,24750,1,0,0:0:0:0:
320,192,24886,1,0,0:0:0:0:
64,192,24886,1,0,0:0:0:0:
448,192,24886,128,0,25022:0:0:0:0:
192,192,25159,1,0,0:0:0:0:
320,192,25159,1,0,0:0:0:0:
64,192,25159,128,0,25295:0:0:0:0:
192,192,25431,1,0,0:0:0:0:
64,192,25431,1,0,0:0:0:0:
320,192,25431,128,0,25568:0:0:0:0:
448,192,25704,1,0,0:0:0:0:
320,192,25704,1,0,0:0:0:0:
64,192,25704,128,0,25840:0:0:0:0:
192,192,25840,1,0,0:0:0:0:
192,192,25977,1,0,0:0:0:0:
448,192,25977,1,0,0:0:0:0:
320,192,25977,128,0,26113:0:0:0:0:
320,192,26250,1,0,0:0:0:0:
192,192,26250,1,0,0:0:0:0:
64,192,26250,128,0,26386:0:0:0:0:
448,192,26386,128,0,26522:0:0:0:0:
320,192,26522,128,0,26659:0:0:0:0:
64,192,26522,1,0,0:0:0:0:
192,192,26522,1,0,0:0:0:0:
192,192,26659,128,0,26863:0:0:0:0:
448,192,26863,1,0,0:0:0:0:
320,192,26863,1,0,0:0:0:0:
64,192,26863,1,0,0:0:0:0:
320,192,27136,1,0,0:0:0:0:
192,192,27136,1,0,0:0:0:0:
64,192,27136,1,0,0:0:0:0:
448,192,27136,1,0,0:0:0:0:
64,192,27340,1,0,0:0:0:0:
320,192,27340,1,0,0:0:0:0:
192,192,27340,128,0,27477:0:0:0:0:
448,192,27477,1,0,0:0:0:0:
320,192,27613,1,0,0:0:0:0:
192,192,27613,1,0,0:0:0:0:
448,192,27613,128,0,27750:0:0:0:0:
64,192,27750,1,0,0:0:0:0:
192,192,27886,1,0,0:0:0:0:
320,192,27886,1,0,0:0:0:0:
448,192,27886,128,0,28022:0:0:0:0:
192,192,28022,1,0,0:0:0:0:
192,192,28159,1,0,0:0:0:0:
448,192,28159,1,0,0:0:0:0:
320,192,28159,128,0,28295:0:0:0:0:
448,192,28295,1,0,0:0:0:0:
320,192,28431,1,0,0:0:0:0:
64,192,28431,1,0,0:0:0:0:
192,192,28431,128,0,28568:0:0:0:0:
64,192,28568,1,0,0:0:0:0:
192,192,28704,1,0,0:0:0:0:
320,192,28704,1,0,0:0:0:0:
448,192,28704,128,0,28840:0:0:0:0:
64,192,28840,1,0,0:0:0:0:
192,192,28977,1,0,0:0:0:0:
320,192,28977,1,0,0:0:0:0:
64,192,28977,128,0,29113:0:0:0:0:
320,192,29113,1,0,0:0:0:0:
64,192,29250,1,0,0:0:0:0:
192,192,29250,1,0,0:0:0:0:
448,192,29250,1,0,0:0:0:0:
320,192,29250,128,0,29522:0:0:0:0:
192,192,29522,1,0,0:0:0:0:
64,192,29522,1,0,0:0:0:0:
448,192,29522,1,0,0:0:0:0:
64,192,29659,1,0,0:0:0:0:
192,192,29659,1,0,0:0:0:0:
192,192,29795,1,0,0:0:0:0:
320,192,29795,1,0,0:0:0:0:
448,192,29795,1,0,0:0:0:0:
64,192,29795,128,0,29931:0:0:0:0:
448,192,29931,1,0,0:0:0:0:
320,192,30068,1,0,0:0:0:0:
192,192,30068,1,0,0:0:0:0:
192,192,30204,1,0,0:0:0:0:
320,192,30204,1,0,0:0:0:0:
448,192,30340,1,0,0:0:0:0:
64,192,30340,1,0,0:0:0:0:
192,192,30340,128,0,30477:0:0:0:0:
320,192,30340,128,0,30477:0:0:0:0:
64,192,30613,1,0,0:0:0:0:
320,192,30613,1,0,0:0:0:0:
192,192,30613,128,0,30750:0:0:0:0:
448,192,30750,1,0,0:0:0:0:
192,192,30886,1,0,0:0:0:0:
320,192,30886,1,0,0:0:0:0:
448,192,30886,128,0,31022:0:0:0:0:
64,192,31022,128,0,31159:0:0:0:0:
448,192,31159,1,0,0:0:0:0:
320,192,31159,1,0,0:0:0:0:
192,192,31159,128,0,31295:0:0:0:0:
448,192,31295,1,0,0:0:0:0:
320,192,31295,128,0,31431:0:0:0:0:
64,192,31431,1,0,0:0:0:0:
192,192,31431,1,0,0:0:0:0:
448,192,31431,128,0,31568:0:0:0:0:
320,192,31568,1,0,0:0:0:0:
448,192,31704,1,0,0:0:0:0:
192,192,31704,1,0,0:0:0:0:
64,192,31840,1,0,0:0:0:0:
192,192,31977,1,0,0:0:0:0:
320,192,31977,1,0,0:0:0:0:
448,192,31977,128,0,32113:0:0:0:0:
192,192,32113,1,0,0:0:0:0:
320,192,32113,1,0,0:0:0:0:
448,192,32250,1,0,0:0:0:0:
320,192,32250,1,0,0:0:0:0:
64,192,32250,128,0,32386:0:0:0:0:
192,192,32386,1,0,0:0:0:0:
320,192,32386,1,0,0:0:0:0:
192,192,32522,1,0,0:0:0:0:
64,192,32522,1,0,0:0:0:0:
320,192,32522,128,0,32795:0:0:0:0:
448,192,32795,1,0,0:0:0:0:
192,192,32795,1,0,0:0:0:0:
64,192,32795,1,0,0:0:0:0:
448,192,32931,1,0,0:0:0:0:
192,192,32931,1,0,0:0:0:0:
320,192,33068,1,0,0:0:0:0:
192,192,33068,1,0,0:0:0:0:
320,192,33204,1,0,0:0:0:0:
192,192,33204,1,0,0:0:0:0:
320,192,33340,1,0,0:0:0:0:
448,192,33340,1,0,0:0:0:0:
320,192,33477,1,0,0:0:0:0:
192,192,33477,1,0,0:0:0:0:
192,192,33613,1,0,0:0:0:0:
64,192,33613,1,0,0:0:0:0:
320,192,33613,128,0,33886:0:0:0:0:
192,192,33886,1,0,0:0:0:0:
448,192,33886,1,0,0:0:0:0:
192,192,34022,1,0,0:0:0:0:
64,192,34022,1,0,0:0:0:0:
448,192,34159,1,0,0:0:0:0:
320,192,34159,1,0,0:0:0:0:
448,192,34295,1,0,0:0:0:0:
192,192,34295,1,0,0:0:0:0:
64,192,34431,1,0,0:0:0:0:
192,192,34431,1,0,0:0:0:0:
320,192,34568,1,0,0:0:0:0:
64,192,34568,1,0,0:0:0:0:
448,192,34704,1,0,0:0:0:0:
192,192,34704,1,0,0:0:0:0:
448,192,34840,1,0,0:0:0:0:
64,192,34840,1,0,0:0:0:0:
192,192,34977,1,0,0:0:0:0:
320,192,34977,1,0,0:0:0:0:
64,192,35045,1,0,0:0:0:0:
448,192,35045,1,0,0:0:0:0:
320,192,35113,1,0,0:0:0:0:
192,192,35113,1,0,0:0:0:0:
64,192,35181,1,0,0:0:0:0:
448,192,35181,1,0,0:0:0:0:
192,192,35250,1,0,0:0:0:0:
320,192,35250,1,0,0:0:0:0:
64,192,35386,1,0,0:0:0:0:
448,192,35386,1,0,0:0:0:0:
448,192,35522,1,0,0:0:0:0:
64,192,35522,1,0,0:0:0:0:
192,192,35590,128,0,35863:0:0:0:0:
320,192,35590,128,0,35863:0:0:0:0:
64,192,35863,128,0,36068:0:0:0:0:
448,192,35863,128,0,36068:0:0:0:0:
64,192,44863,5,0,0:0:0:0:
320,192,44863,1,0,0:0:0:0:
448,192,44863,1,0,0:0:0:0:
192,192,44931,1,0,0:0:0:0:
320,192,45000,1,0,0:0:0:0:
448,192,45068,1,0,0:0:0:0:
192,192,45136,1,0,0:0:0:0:
320,192,45204,1,0,0:0:0:0:
64,192,45272,1,0,0:0:0:0:
192,192,45340,1,0,0:0:0:0:
320,192,45409,1,0,0:0:0:0:
448,192,45409,1,0,0:0:0:0:
64,192,45477,1,0,0:0:0:0:
192,192,45545,1,0,0:0:0:0:
448,192,45613,1,0,0:0:0:0:
320,192,45613,1,0,0:0:0:0:
64,192,45613,1,0,0:0:0:0:
192,192,45681,1,0,0:0:0:0:
320,192,45750,1,0,0:0:0:0:
448,192,45818,1,0,0:0:0:0:
64,192,45886,1,0,0:0:0:0:
320,192,45886,1,0,0:0:0:0:
192,192,46022,1,0,0:0:0:0:
448,192,46159,1,0,0:0:0:0:
64,192,46159,1,0,0:0:0:0:
320,192,46227,1,0,0:0:0:0:
192,192,46295,1,0,0:0:0:0:
64,192,46363,1,0,0:0:0:0:
320,192,46431,1,0,0:0:0:0:
192,192,46431,1,0,0:0:0:0:
448,192,46500,1,0,0:0:0:0:
320,192,46568,1,0,0:0:0:0:
192,192,46636,1,0,0:0:0:0:
448,192,46704,1,0,0:0:0:0:
64,192,46704,1,0,0:0:0:0:
320,192,46704,1,0,0:0:0:0:
192,192,46772,1,0,0:0:0:0:
320,192,46840,1,0,0:0:0:0:
448,192,46909,1,0,0:0:0:0:
192,192,46977,1,0,0:0:0:0:
64,192,46977,1,0,0:0:0:0:
320,192,47045,1,0,0:0:0:0:
448,192,47113,1,0,0:0:0:0:
192,192,47113,1,0,0:0:0:0:
64,192,47181,1,0,0:0:0:0:
320,192,47250,1,0,0:0:0:0:
448,192,47250,1,0,0:0:0:0:
192,192,47318,1,0,0:0:0:0:
64,192,47386,1,0,0:0:0:0:
320,192,47386,1,0,0:0:0:0:
448,192,47454,1,0,0:0:0:0:
320,192,47522,1,0,0:0:0:0:
448,192,47590,1,0,0:0:0:0:
64,192,47659,1,0,0:0:0:0:
320,192,47659,1,0,0:0:0:0:
192,192,47727,1,0,0:0:0:0:
320,192,47795,1,0,0:0:0:0:
448,192,47795,1,0,0:0:0:0:
64,192,47795,1,0,0:0:0:0:
64,192,48068,1,0,0:0:0:0:
320,192,48068,1,0,0:0:0:0:
192,192,48136,1,0,0:0:0:0:
320,192,48204,1,0,0:0:0:0:
448,192,48272,1,0,0:0:0:0:
192,192,48340,1,0,0:0:0:0:
64,192,48340,1,0,0:0:0:0:
320,192,48409,1,0,0:0:0:0:
448,192,48477,1,0,0:0:0:0:
320,192,48545,1,0,0:0:0:0:
192,192,48545,1,0,0:0:0:0:
64,192,48545,1,0,0:0:0:0:
448,192,48613,1,0,0:0:0:0:
320,192,48681,1,0,0:0:0:0:
192,192,48750,1,0,0:0:0:0:
64,192,48750,1,0,0:0:0:0:
448,192,48818,1,0,0:0:0:0:
320,192,48886,1,0,0:0:0:0:
64,192,48886,1,0,0:0:0:0:
192,192,48954,1,0,0:0:0:0:
64,192,49022,1,0,0:0:0:0:
192,192,49090,1,0,0:0:0:0:
320,192,49159,1,0,0:0:0:0:
448,192,49159,1,0,0:0:0:0:
192,192,49227,1,0,0:0:0:0:
64,192,49295,1,0,0:0:0:0:
192,192,49363,1,0,0:0:0:0:
320,192,49363,1,0,0:0:0:0:
448,192,49431,1,0,0:0:0:0:
64,192,49431,1,0,0:0:0:0:
192,192,49500,1,0,0:0:0:0:
320,192,49568,1,0,0:0:0:0:
448,192,49636,1,0,0:0:0:0:
64,192,49636,1,0,0:0:0:0:
320,192,49704,1,0,0:0:0:0:
192,192,49704,1,0,0:0:0:0:
64,192,49772,1,0,0:0:0:0:
192,192,49840,1,0,0:0:0:0:
320,192,49909,1,0,0:0:0:0:
448,192,49909,1,0,0:0:0:0:
192,192,49977,1,0,0:0:0:0:
64,192,50045,1,0,0:0:0:0:
320,192,50045,1,0,0:0:0:0:
448,192,50113,1,0,0:0:0:0:
320,192,50181,1,0,0:0:0:0:
192,192,50250,1,0,0:0:0:0:
64,192,50250,1,0,0:0:0:0:
320,192,50318,1,0,0:0:0:0:
448,192,50386,1,0,0:0:0:0:
192,192,50386,1,0,0:0:0:0:
64,192,50454,1,0,0:0:0:0:
192,192,50522,1,0,0:0:0:0:
320,192,50590,1,0,0:0:0:0:
448,192,50590,1,0,0:0:0:0:
192,192,50659,1,0,0:0:0:0:
64,192,50727,1,0,0:0:0:0:
320,192,50727,1,0,0:0:0:0:
448,192,50795,1,0,0:0:0:0:
192,192,50795,1,0,0:0:0:0:
64,192,50863,1,0,0:0:0:0:
192,192,50931,1,0,0:0:0:0:
320,192,51000,1,0,0:0:0:0:
448,192,51068,1,0,0:0:0:0:
192,192,51068,1,0,0:0:0:0:
64,192,51068,1,0,0:0:0:0:
320,192,51136,1,0,0:0:0:0:
192,192,51204,1,0,0:0:0:0:
64,192,51272,1,0,0:0:0:0:
192,192,51340,1,0,0:0:0:0:
320,192,51340,1,0,0:0:0:0:
448,192,51340,1,0,0:0:0:0:
64,192,51409,1,0,0:0:0:0:
192,192,51477,1,0,0:0:0:0:
320,192,51545,1,0,0:0:0:0:
448,192,51613,1,0,0:0:0:0:
64,192,51613,1,0,0:0:0:0:
320,192,51681,1,0,0:0:0:0:
448,192,51750,1,0,0:0:0:0:
192,192,51750,1,0,0:0:0:0:
64,192,51818,1,0,0:0:0:0:
320,192,51818,1,0,0:0:0:0:
192,192,51886,1,0,0:0:0:0:
64,192,51954,1,0,0:0:0:0:
448,192,51954,1,0,0:0:0:0:
320,192,51954,1,0,0:0:0:0:
192,192,52022,1,0,0:0:0:0:
320,192,52090,1,0,0:0:0:0:
448,192,52159,1,0,0:0:0:0:
64,192,52159,1,0,0:0:0:0:
320,192,52227,1,0,0:0:0:0:
192,192,52295,1,0,0:0:0:0:
64,192,52363,1,0,0:0:0:0:
320,192,52363,1,0,0:0:0:0:
320,192,52500,1,0,0:0:0:0:
448,192,52500,1,0,0:0:0:0:
192,192,52500,1,0,0:0:0:0:
64,192,52500,1,0,0:0:0:0:
64,192,53590,128,0,53795:0:0:0:0:
192,192,53590,1,0,0:0:0:0:
64,192,53863,128,0,54136:0:0:0:0:
320,192,53863,1,0,0:0:0:0:
192,192,54136,128,0,54409:0:0:0:0:
448,192,54136,1,0,0:0:0:0:
64,192,54409,1,0,0:0:0:0:
320,192,54409,1,0,0:0:0:0:
448,192,54409,128,0,54681:0:0:0:0:
64,192,54681,128,0,54886:0:0:0:0:
192,192,54681,1,0,0:0:0:0:
64,192,54954,128,0,55090:0:0:0:0:
448,192,54954,1,0,0:0:0:0:
192,192,55090,128,0,55227:0:0:0:0:
320,192,55227,1,0,0:0:0:0:
448,192,55227,128,0,55500:0:0:0:0:
64,192,55500,128,0,55772:0:0:0:0:
192,192,55500,1,0,0:0:0:0:
320,192,55500,1,0,0:0:0:0:
192,192,55772,128,0,56045:0:0:0:0:
320,192,56045,1,0,0:0:0:0:
64,192,56045,1,0,0:0:0:0:
448,192,56045,128,0,56318:0:0:0:0:
64,192,56318,128,0,56522:0:0:0:0:
320,192,56318,1,0,0:0:0:0:
64,192,56590,128,0,56863:0:0:0:0:
192,192,56590,1,0,0:0:0:0:
448,192,56590,1,0,0:0:0:0:
192,192,56863,128,0,57136:0:0:0:0:
448,192,56863,1,0,0:0:0:0:
448,192,57136,128,0,57409:0:0:0:0:
64,192,57136,1,0,0:0:0:0:
320,192,57409,128,0,57681:0:0:0:0:
192,192,57409,128,0,57681:0:0:0:0:
64,192,57409,1,0,0:0:0:0:
448,192,57681,128,0,57954:0:0:0:0:
64,192,57954,128,0,58159:0:0:0:0:
192,192,57954,1,0,0:0:0:0:
320,192,57954,1,0,0:0:0:0:
64,192,58227,128,0,58500:0:0:0:0:
320,192,58227,128,0,58500:0:0:0:0:
448,192,58227,128,0,58500:0:0:0:0:
192,192,58500,128,0,58772:0:0:0:0:
448,192,58772,128,0,59045:0:0:0:0:
320,192,58772,1,0,0:0:0:0:
64,192,59045,128,0,59250:0:0:0:0:
192,192,59045,1,0,0:0:0:0:
64,192,59318,128,0,59454:0:0:0:0:
192,192,59454,128,0,59590:0:0:0:0:
448,192,59590,128,0,59863:0:0:0:0:
320,192,59863,128,0,60136:0:0:0:0:
64,192,59863,1,0,0:0:0:0:
192,192,59863,128,0,60136:0:0:0:0:
448,192,60136,128,0,60340:0:0:0:0:
448,192,60409,128,0,60681:0:0:0:0:
64,192,60409,1,0,0:0:0:0:
192,192,60409,1,0,0:0:0:0:
320,192,60409,1,0,0:0:0:0:
64,192,60681,128,0,60954:0:0:0:0:
448,192,60954,128,0,61227:0:0:0:0:
320,192,61227,128,0,61431:0:0:0:0:
192,192,61227,1,0,0:0:0:0:
320,192,61500,128,0,61636:0:0:0:0:
192,192,61636,128,0,61772:0:0:0:0:
448,192,61772,128,0,62045:0:0:0:0:
320,192,62045,128,0,62318:0:0:0:0:
192,192,62045,1,0,0:0:0:0:
448,192,62318,128,0,62522:0:0:0:0:
64,192,62318,1,0,0:0:0:0:
320,192,62522,1,0,0:0:0:0:
192,192,62522,1,0,0:0:0:0:
64,192,62863,128,0,63136:0:0:0:0:
192,192,62863,1,0,0:0:0:0:
320,192,62863,1,0,0:0:0:0:
320,192,63136,128,0,63409:0:0:0:0:
192,192,63136,1,0,0:0:0:0:
192,192,63409,128,0,63681:0:0:0:0:
64,192,63409,1,0,0:0:0:0:
448,192,63681,128,0,63954:0:0:0:0:
320,192,63681,1,0,0:0:0:0:
320,192,63954,128,0,64227:0:0:0:0:
192,192,63954,1,0,0:0:0:0:
192,192,64227,128,0,64431:0:0:0:0:
448,192,64227,1,0,0:0:0:0:
192,192,64500,128,0,64704:0:0:0:0:
448,192,64500,1,0,0:0:0:0:
192,192,64772,128,0,65045:0:0:0:0:
320,192,64772,1,0,0:0:0:0:
64,192,65045,128,0,65318:0:0:0:0:
320,192,65045,1,0,0:0:0:0:
192,192,65318,128,0,65590:0:0:0:0:
320,192,65590,128,0,65863:0:0:0:0:
448,192,65590,1,0,0:0:0:0:
64,192,65863,128,0,66136:0:0:0:0:
192,192,65863,1,0,0:0:0:0:
320,192,66136,128,0,66409:0:0:0:0:
448,192,66136,1,0,0:0:0:0:
192,192,66409,128,0,66681:0:0:0:0:
64,192,66409,1,0,0:0:0:0:
448,192,66681,128,0,66954:0:0:0:0:
320,192,66681,1,0,0:0:0:0:
64,192,66681,1,0,0:0:0:0:
448,192,67227,128,0,67500:0:0:0:0:
320,192,67227,1,0,0:0:0:0:
192,192,67227,1,0,0:0:0:0:
320,192,67500,128,0,67704:0:0:0:0:
192,192,67500,1,0,0:0:0:0:
320,192,67772,128,0,67977:0:0:0:0:
192,192,67772,1,0,0:0:0:0:
320,192,68045,128,0,68318:0:0:0:0:
192,192,68045,1,0,0:0:0:0:
192,192,68318,128,0,68590:0:0:0:0:
64,192,68318,1,0,0:0:0:0:
448,192,68590,128,0,68727:0:0:0:0:
320,192,68727,128,0,68863:0:0:0:0:
64,192,68863,128,0,69068:0:0:0:0:
192,192,68863,1,0,0:0:0:0:
64,192,69136,128,0,69409:0:0:0:0:
192,192,69409,128,0,69613:0:0:0:0:
320,192,69409,1,0,0:0:0:0:
192,192,69681,128,0,69954:0:0:0:0:
64,192,69681,1,0,0:0:0:0:
320,192,69954,128,0,70227:0:0:0:0:
448,192,69954,1,0,0:0:0:0:
64,192,69954,1,0,0:0:0:0:
192,192,70227,128,0,70500:0:0:0:0:
64,192,70227,1,0,0:0:0:0:
320,192,70500,128,0,70772:0:0:0:0:
448,192,70500,1,0,0:0:0:0:
448,192,70772,128,0,71045:0:0:0:0:
192,192,70772,1,0,0:0:0:0:
64,192,71045,1,0,0:0:0:0:
192,192,71045,1,0,0:0:0:0:
320,192,71045,1,0,0:0:0:0:
64,192,71318,1,0,0:0:0:0:
448,192,71318,128,0,71590:0:0:0:0:
64,192,71590,1,0,0:0:0:0:
320,192,71590,128,0,71863:0:0:0:0:
64,192,71863,1,0,0:0:0:0:
448,192,71863,128,0,72136:0:0:0:0:
64,192,72136,1,0,0:0:0:0:
320,192,72136,128,0,72409:0:0:0:0:
64,192,72409,1,0,0:0:0:0:
448,192,72409,128,0,72681:0:0:0:0:
64,192,72681,1,0,0:0:0:0:
320,192,72681,128,0,72886:0:0:0:0:
64,192,72954,1,0,0:0:0:0:
320,192,72954,128,0,73227:0:0:0:0:
64,192,73227,1,0,0:0:0:0:
448,192,73227,128,0,73431:0:0:0:0:
64,192,73500,1,0,0:0:0:0:
448,192,73500,128,0,73772:0:0:0:0:
64,192,73772,1,0,0:0:0:0:
320,192,73772,128,0,73840:0:0:0:0:
320,192,73909,128,0,73977:0:0:0:0:
64,192,74045,1,0,0:0:0:0:
320,192,74045,128,0,74318:0:0:0:0:
64,192,74318,1,0,0:0:0:0:
448,192,74318,128,0,74522:0:0:0:0:
64,192,74590,1,0,0:0:0:0:
448,192,74590,128,0,74863:0:0:0:0:
64,192,74863,1,0,0:0:0:0:
320,192,74863,128,0,75136:0:0:0:0:
64,192,75136,1,0,0:0:0:0:
448,192,75136,128,0,75409:0:0:0:0:
64,192,75409,1,0,0:0:0:0:
320,192,75409,128,0,75613:0:0:0:0:
64,192,75681,1,0,0:0:0:0:
320,192,75681,128,0,75954:0:0:0:0:
64,192,75954,1,0,0:0:0:0:
448,192,75954,128,0,76159:0:0:0:0:
64,192,76227,1,0,0:0:0:0:
448,192,76227,128,0,76500:0:0:0:0:
64,192,76500,1,0,0:0:0:0:
320,192,76500,128,0,76568:0:0:0:0:
320,192,76636,128,0,76704:0:0:0:0:
64,192,76772,1,0,0:0:0:0:
320,192,76772,128,0,77045:0:0:0:0:
64,192,77045,1,0,0:0:0:0:
448,192,77045,128,0,77318:0:0:0:0:
64,192,77318,1,0,0:0:0:0:
320,192,77318,128,0,77590:0:0:0:0:
64,192,77590,1,0,0:0:0:0:
448,192,77590,128,0,77659:0:0:0:0:
448,192,77727,128,0,77795:0:0:0:0:
64,192,77863,1,0,0:0:0:0:
320,192,77863,128,0,77931:0:0:0:0:
320,192,78000,128,0,78068:0:0:0:0:
64,192,78136,1,0,0:0:0:0:
448,192,78136,128,0,78204:0:0:0:0:
448,192,78272,128,0,78340:0:0:0:0:
64,192,78409,1,0,0:0:0:0:
320,192,78409,128,0,78477:0:0:0:0:
320,192,78545,128,0,78954:0:0:0:0:
64,192,78681,1,0,0:0:0:0:
64,192,78954,1,0,0:0:0:0:
64,192,79227,1,0,0:0:0:0:
448,192,79227,128,0,79431:0:0:0:0:
320,192,79227,128,0,79431:0:0:0:0:
64,192,79500,1,0,0:0:0:0:
320,192,79500,128,0,79636:0:0:0:0:
448,192,79500,128,0,79636:0:0:0:0:
320,192,79772,1,0,0:0:0:0:
448,192,79772,1,0,0:0:0:0:
192,192,79772,1,0,0:0:0:0:
64,192,79840,1,0,0:0:0:0:
192,192,79909,1,0,0:0:0:0:
320,192,79977,1,0,0:0:0:0:
448,192,80045,1,0,0:0:0:0:
320,192,80113,1,0,0:0:0:0:
64,192,80181,1,0,0:0:0:0:
192,192,80250,1,0,0:0:0:0:
320,192,80318,1,0,0:0:0:0:
192,192,80386,1,0,0:0:0:0:
64,192,80454,1,0,0:0:0:0:
448,192,80454,1,0,0:0:0:0:
192,192,80522,1,0,0:0:0:0:
320,192,80590,1,0,0:0:0:0:
64,192,80659,1,0,0:0:0:0:
448,192,80727,1,0,0:0:0:0:
192,192,80727,1,0,0:0:0:0:
320,192,80795,1,0,0:0:0:0:
192,192,80863,1,0,0:0:0:0:
64,192,80931,1,0,0:0:0:0:
192,192,81000,1,0,0:0:0:0:
320,192,81068,1,0,0:0:0:0:
448,192,81136,1,0,0:0:0:0:
320,192,81204,1,0,0:0:0:0:
64,192,81204,1,0,0:0:0:0:
448,192,81272,1,0,0:0:0:0:
192,192,81272,1,0,0:0:0:0:
320,192,81340,1,0,0:0:0:0:
192,192,81409,1,0,0:0:0:0:
64,192,81477,1,0,0:0:0:0:
192,192,81545,1,0,0:0:0:0:
448,192,81545,1,0,0:0:0:0:
320,192,81613,1,0,0:0:0:0:
64,192,81681,1,0,0:0:0:0:
448,192,81681,1,0,0:0:0:0:
192,192,81750,1,0,0:0:0:0:
320,192,81818,1,0,0:0:0:0:
448,192,81886,1,0,0:0:0:0:
64,192,81886,1,0,0:0:0:0:
320,192,81954,1,0,0:0:0:0:
192,192,81954,1,0,0:0:0:0:
448,192,82022,1,0,0:0:0:0:
320,192,82090,1,0,0:0:0:0:
192,192,82159,1,0,0:0:0:0:
64,192,82227,1,0,0:0:0:0:
320,192,82227,1,0,0:0:0:0:
448,192,82295,1,0,0:0:0:0:
320,192,82363,1,0,0:0:0:0:
64,192,82363,1,0,0:0:0:0:
448,192,82431,1,0,0:0:0:0:
192,192,82431,1,0,0:0:0:0:
64,192,82500,1,0,0:0:0:0:
192,192,82568,1,0,0:0:0:0:
320,192,82568,1,0,0:0:0:0:
448,192,82636,1,0,0:0:0:0:
320,192,82704,1,0,0:0:0:0:
192,192,82772,1,0,0:0:0:0:
64,192,82772,1,0,0:0:0:0:
64,192,82977,1,0,0:0:0:0:
320,192,82977,1,0,0:0:0:0:
448,192,83045,1,0,0:0:0:0:
320,192,83113,1,0,0:0:0:0:
192,192,83181,1,0,0:0:0:0:
320,192,83250,1,0,0:0:0:0:
64,192,83250,1,0,0:0:0:0:
448,192,83318,1,0,0:0:0:0:
192,192,83318,1,0,0:0:0:0:
64,192,83386,1,0,0:0:0:0:
192,192,83454,1,0,0:0:0:0:
320,192,83522,1,0,0:0:0:0:
192,192,83590,1,0,0:0:0:0:
64,192,83590,1,0,0:0:0:0:
448,192,83590,1,0,0:0:0:0:
320,192,83659,1,0,0:0:0:0:
192,192,83727,1,0,0:0:0:0:
64,192,83795,1,0,0:0:0:0:
192,192,83863,1,0,0:0:0:0:
320,192,83863,1,0,0:0:0:0:
448,192,83863,1,0,0:0:0:0:
64,192,84068,1,0,0:0:0:0:
192,192,84068,1,0,0:0:0:0:
320,192,84136,1,0,0:0:0:0:
448,192,84136,1,0,0:0:0:0:
192,192,84204,1,0,0:0:0:0:
64,192,84204,1,0,0:0:0:0:
320,192,84272,1,0,0:0:0:0:
448,192,84272,1,0,0:0:0:0:
192,192,84340,1,0,0:0:0:0:
64,192,84340,1,0,0:0:0:0:
448,192,84409,1,0,0:0:0:0:
320,192,84409,1,0,0:0:0:0:
192,192,84477,1,0,0:0:0:0:
64,192,84477,1,0,0:0:0:0:
320,192,84545,1,0,0:0:0:0:
448,192,84545,1,0,0:0:0:0:
64,192,84613,1,0,0:0:0:0:
192,192,84613,1,0,0:0:0:0:
320,192,84681,1,0,0:0:0:0:
448,192,84681,1,0,0:0:0:0:
64,192,84750,1,0,0:0:0:0:
192,192,84750,1,0,0:0:0:0:
448,192,84818,1,0,0:0:0:0:
320,192,84818,1,0,0:0:0:0:
192,192,84886,1,0,0:0:0:0:
64,192,84886,1,0,0:0:0:0:
448,192,84954,1,0,0:0:0:0:
320,192,84954,1,0,0:0:0:0:
192,192,85022,1,0,0:0:0:0:
64,192,85022,1,0,0:0:0:0:
320,192,85090,1,0,0:0:0:0:
448,192,85090,1,0,0:0:0:0:
64,192,85159,1,0,0:0:0:0:
192,192,85159,1,0,0:0:0:0:
320,192,85227,1,0,0:0:0:0:
448,192,85227,1,0,0:0:0:0:
64,192,85295,1,0,0:0:0:0:
192,192,85295,1,0,0:0:0:0:
448,192,85363,1,0,0:0:0:0:
320,192,85363,1,0,0:0:0:0:
192,192,85431,1,0,0:0:0:0:
64,192,85431,1,0,0:0:0:0:
448,192,85500,1,0,0:0:0:0:
320,192,85500,1,0,0:0:0:0:
192,192,85568,1,0,0:0:0:0:
64,192,85568,1,0,0:0:0:0:
320,192,85636,1,0,0:0:0:0:
448,192,85636,1,0,0:0:0:0:
64,192,85704,1,0,0:0:0:0:
192,192,85704,1,0,0:0:0:0:
320,192,85772,1,0,0:0:0:0:
448,192,85772,1,0,0:0:0:0:
64,192,85840,1,0,0:0:0:0:
192,192,85840,1,0,0:0:0:0:
448,192,85909,1,0,0:0:0:0:
320,192,85909,1,0,0:0:0:0:
192,192,85977,1,0,0:0:0:0:
64,192,85977,1,0,0:0:0:0:
448,192,86045,1,0,0:0:0:0:
320,192,86045,1,0,0:0:0:0:
192,192,86113,1,0,0:0:0:0:
64,192,86113,1,0,0:0:0:0:
320,192,86181,1,0,0:0:0:0:
448,192,86181,1,0,0:0:0:0:
64,192,86250,1,0,0:0:0:0:
192,192,86283,1,0,0:0:0:0:
448,192,86318,1,0,0:0:0:0:
320,192,86351,1,0,0:0:0:0:
64,192,86386,1,0,0:0:0:0:
192,192,86420,1,0,0:0:0:0:
448,192,86454,1,0,0:0:0:0:
320,192,86488,1,0,0:0:0:0:
64,192,86522,1,0,0:0:0:0:
192,192,86556,1,0,0:0:0:0:
448,192,86590,1,0,0:0:0:0:
320,192,86624,1,0,0:0:0:0:
64,192,86659,1,0,0:0:0:0:
192,192,86692,1,0,0:0:0:0:
448,192,86727,1,0,0:0:0:0:
320,192,86760,1,0,0:0:0:0:
64,192,86795,1,0,0:0:0:0:
192,192,86829,1,0,0:0:0:0:
448,192,86863,1,0,0:0:0:0:
320,192,86897,1,0,0:0:0:0:
64,192,86931,1,0,0:0:0:0:
192,192,86965,1,0,0:0:0:0:
448,192,87000,1,0,0:0:0:0:
320,192,87033,1,0,0:0:0:0:
64,192,87068,1,0,0:0:0:0:
192,192,87101,1,0,0:0:0:0:
448,192,87136,1,0,0:0:0:0:
320,192,87170,1,0,0:0:0:0:
64,192,87204,1,0,0:0:0:0:
192,192,87238,1,0,0:0:0:0:
448,192,87272,1,0,0:0:0:0:
320,192,87306,1,0,0:0:0:0:
64,192,88431,128,0,88636:0:0:0:0:
192,192,88431,1,0,0:0:0:0:
320,192,88431,1,0,0:0:0:0:
320,192,88568,1,0,0:0:0:0:
64,192,88704,128,0,88977:0:0:0:0:
320,192,88704,1,0,0:0:0:0:
448,192,88704,1,0,0:0:0:0:
192,192,88840,1,0,0:0:0:0:
192,192,88977,128,0,89250:0:0:0:0:
448,192,88977,1,0,0:0:0:0:
320,192,88977,1,0,0:0:0:0:
64,192,89113,1,0,0:0:0:0:
64,192,89250,1,0,0:0:0:0:
320,192,89250,1,0,0:0:0:0:
448,192,89250,128,0,89522:0:0:0:0:
192,192,89386,1,0,0:0:0:0:
64,192,89522,128,0,89727:0:0:0:0:
192,192,89522,1,0,0:0:0:0:
320,192,89522,1,0,0:0:0:0:
448,192,89659,1,0,0:0:0:0:
64,192,89795,128,0,89931:0:0:0:0:
448,192,89795,1,0,0:0:0:0:
192,192,89795,1,0,0:0:0:0:
320,192,89795,1,0,0:0:0:0:
192,192,89931,128,0,90068:0:0:0:0:
320,192,89931,1,0,0:0:0:0:
320,192,90068,1,0,0:0:0:0:
448,192,90068,128,0,90340:0:0:0:0:
192,192,90204,1,0,0:0:0:0:
64,192,90340,128,0,90613:0:0:0:0:
192,192,90340,1,0,0:0:0:0:
320,192,90340,1,0,0:0:0:0:
320,192,90477,1,0,0:0:0:0:
192,192,90613,128,0,90886:0:0:0:0:
448,192,90613,1,0,0:0:0:0:
320,192,90613,1,0,0:0:0:0:
64,192,90750,1,0,0:0:0:0:
320,192,90886,1,0,0:0:0:0:
64,192,90886,1,0,0:0:0:0:
448,192,90886,128,0,91159:0:0:0:0:
192,192,91022,1,0,0:0:0:0:
64,192,91159,128,0,91363:0:0:0:0:
320,192,91159,1,0,0:0:0:0:
192,192,91159,1,0,0:0:0:0:
320,192,91295,1,0,0:0:0:0:
64,192,91431,128,0,91704:0:0:0:0:
448,192,91431,1,0,0:0:0:0:
320,192,91431,1,0,0:0:0:0:
448,192,91568,1,0,0:0:0:0:
192,192,91704,128,0,91977:0:0:0:0:
448,192,91704,1,0,0:0:0:0:
320,192,91704,1,0,0:0:0:0:
64,192,91840,1,0,0:0:0:0:
448,192,91977,128,0,92250:0:0:0:0:
64,192,91977,1,0,0:0:0:0:
320,192,91977,1,0,0:0:0:0:
192,192,92113,1,0,0:0:0:0:
320,192,92250,128,0,92522:0:0:0:0:
64,192,92250,1,0,0:0:0:0:
192,192,92250,1,0,0:0:0:0:
64,192,92386,1,0,0:0:0:0:
448,192,92522,128,0,92795:0:0:0:0:
64,192,92522,1,0,0:0:0:0:
192,192,92522,1,0,0:0:0:0:
320,192,92659,1,0,0:0:0:0:
64,192,92795,128,0,93000:0:0:0:0:
192,192,92795,1,0,0:0:0:0:
320,192,92795,1,0,0:0:0:0:
448,192,92931,1,0,0:0:0:0:
64,192,93068,128,0,93340:0:0:0:0:
192,192,93068,1,0,0:0:0:0:
320,192,93068,1,0,0:0:0:0:
448,192,93068,1,0,0:0:0:0:
320,192,93204,1,0,0:0:0:0:
192,192,93340,128,0,93613:0:0:0:0:
320,192,93340,1,0,0:0:0:0:
448,192,93340,1,0,0:0:0:0:
64,192,93477,1,0,0:0:0:0:
448,192,93613,128,0,93886:0:0:0:0:
320,192,93613,1,0,0:0:0:0:
64,192,93613,1,0,0:0:0:0:
192,192,93750,1,0,0:0:0:0:
64,192,93886,128,0,94090:0:0:0:0:
192,192,93886,1,0,0:0:0:0:
320,192,93886,1,0,0:0:0:0:
64,192,94159,128,0,94295:0:0:0:0:
192,192,94159,1,0,0:0:0:0:
320,192,94159,1,0,0:0:0:0:
192,192,94295,128,0,94431:0:0:0:0:
320,192,94295,1,0,0:0:0:0:
448,192,94431,128,0,94704:0:0:0:0:
320,192,94431,1,0,0:0:0:0:
64,192,94568,1,0,0:0:0:0:
320,192,94704,128,0,94977:0:0:0:0:
64,192,94704,1,0,0:0:0:0:
192,192,94704,1,0,0:0:0:0:
448,192,94840,1,0,0:0:0:0:
448,192,94977,128,0,95181:0:0:0:0:
64,192,94977,1,0,0:0:0:0:
192,192,94977,1,0,0:0:0:0:
64,192,95113,1,0,0:0:0:0:
448,192,95250,128,0,95522:0:0:0:0:
64,192,95250,1,0,0:0:0:0:
192,192,95250,1,0,0:0:0:0:
320,192,95250,1,0,0:0:0:0:
320,192,95386,1,0,0:0:0:0:
64,192,95522,128,0,95795:0:0:0:0:
192,192,95522,1,0,0:0:0:0:
320,192,95522,1,0,0:0:0:0:
448,192,95659,1,0,0:0:0:0:
448,192,95795,128,0,96068:0:0:0:0:
192,192,95795,1,0,0:0:0:0:
320,192,95795,1,0,0:0:0:0:
192,192,95931,1,0,0:0:0:0:
320,192,96068,128,0,96272:0:0:0:0:
192,192,96068,1,0,0:0:0:0:
64,192,96068,1,0,0:0:0:0:
64,192,96204,1,0,0:0:0:0:
320,192,96340,128,0,96477:0:0:0:0:
192,192,96340,1,0,0:0:0:0:
448,192,96340,1,0,0:0:0:0:
192,192,96477,128,0,96613:0:0:0:0:
448,192,96477,1,0,0:0:0:0:
64,192,96477,1,0,0:0:0:0:
448,192,96613,128,0,96886:0:0:0:0:
320,192,96613,1,0,0:0:0:0:
192,192,96750,1,0,0:0:0:0:
320,192,96886,128,0,97159:0:0:0:0:
192,192,96886,1,0,0:0:0:0:
64,192,96886,1,0,0:0:0:0:
64,192,97022,1,0,0:0:0:0:
448,192,97159,128,0,97363:0:0:0:0:
64,192,97159,1,0,0:0:0:0:
192,192,97159,1,0,0:0:0:0:
64,192,97431,1,0,0:0:0:0:
192,192,97568,1,0,0:0:0:0:
64,192,97704,128,0,97977:0:0:0:0:
320,192,97704,1,0,0:0:0:0:
448,192,97704,1,0,0:0:0:0:
448,192,97840,1,0,0:0:0:0:
320,192,97977,128,0,98250:0:0:0:0:
192,192,97977,1,0,0:0:0:0:
448,192,98113,1,0,0:0:0:0:
192,192,98250,128,0,98522:0:0:0:0:
64,192,98250,1,0,0:0:0:0:
320,192,98386,1,0,0:0:0:0:
448,192,98522,128,0,98795:0:0:0:0:
64,192,98522,1,0,0:0:0:0:
320,192,98659,1,0,0:0:0:0:
320,192,98795,128,0,99068:0:0:0:0:
192,192,98795,1,0,0:0:0:0:
64,192,98795,1,0,0:0:0:0:
448,192,98931,1,0,0:0:0:0:
192,192,99068,128,0,99272:0:0:0:0:
64,192,99068,1,0,0:0:0:0:
320,192,99204,1,0,0:0:0:0:
192,192,99340,128,0,99545:0:0:0:0:
448,192,99340,1,0,0:0:0:0:
320,192,99477,1,0,0:0:0:0:
192,192,99613,128,0,99886:0:0:0:0:
64,192,99613,1,0,0:0:0:0:
448,192,99613,1,0,0:0:0:0:
320,192,99750,1,0,0:0:0:0:
64,192,99886,128,0,100159:0:0:0:0:
448,192,99886,1,0,0:0:0:0:
320,192,100022,1,0,0:0:0:0:
192,192,100159,128,0,100431:0:0:0:0:
448,192,100159,1,0,0:0:0:0:
320,192,100159,1,0,0:0:0:0:
64,192,100295,1,0,0:0:0:0:
320,192,100431,128,0,100704:0:0:0:0:
448,192,100431,1,0,0:0:0:0:
192,192,100568,1,0,0:0:0:0:
64,192,100704,128,0,100977:0:0:0:0:
448,192,100704,1,0,0:0:0:0:
320,192,100840,1,0,0:0:0:0:
320,192,100977,128,0,101250:0:0:0:0:
192,192,100977,1,0,0:0:0:0:
448,192,100977,1,0,0:0:0:0:
64,192,101113,1,0,0:0:0:0:
192,192,101250,128,0,101522:0:0:0:0:
448,192,101250,1,0,0:0:0:0:
320,192,101386,1,0,0:0:0:0:
448,192,101522,128,0,101795:0:0:0:0:
64,192,101522,1,0,0:0:0:0:
320,192,101659,1,0,0:0:0:0:
192,192,101795,1,0,0:0:0:0:
64,192,101795,1,0,0:0:0:0:
448,192,102068,128,0,102340:0:0:0:0:
192,192,102068,1,0,0:0:0:0:
64,192,102068,1,0,0:0:0:0:
320,192,102204,1,0,0:0:0:0:
320,192,102340,128,0,102545:0:0:0:0:
192,192,102340,1,0,0:0:0:0:
64,192,102477,1,0,0:0:0:0:
320,192,102613,128,0,102818:0:0:0:0:
448,192,102613,1,0,0:0:0:0:
192,192,102750,1,0,0:0:0:0:
320,192,102886,128,0,103159:0:0:0:0:
64,192,102886,1,0,0:0:0:0:
448,192,102886,1,0,0:0:0:0:
448,192,103022,1,0,0:0:0:0:
192,192,103159,128,0,103431:0:0:0:0:
64,192,103159,1,0,0:0:0:0:
320,192,103295,1,0,0:0:0:0:
448,192,103431,128,0,103568:0:0:0:0:
64,192,103431,1,0,0:0:0:0:
320,192,103568,128,0,103704:0:0:0:0:
64,192,103704,128,0,103909:0:0:0:0:
192,192,103704,1,0,0:0:0:0:
448,192,103840,1,0,0:0:0:0:
64,192,103977,128,0,104250:0:0:0:0:
320,192,103977,1,0,0:0:0:0:
448,192,104113,1,0,0:0:0:0:
192,192,104250,128,0,104454:0:0:0:0:
320,192,104250,1,0,0:0:0:0:
448,192,104386,1,0,0:0:0:0:
192,192,104522,128,0,104795:0:0:0:0:
64,192,104522,1,0,0:0:0:0:
320,192,104522,1,0,0:0:0:0:
448,192,104659,1,0,0:0:0:0:
320,192,104795,128,0,105068:0:0:0:0:
64,192,104795,1,0,0:0:0:0:
192,192,105068,128,0,105340:0:0:0:0:
448,192,105068,1,0,0:0:0:0:
64,192,105204,1,0,0:0:0:0:
320,192,105340,128,0,105613:0:0:0:0:
448,192,105340,1,0,0:0:0:0:
64,192,105477,1,0,0:0:0:0:
448,192,105613,128,0,105886:0:0:0:0:
192,192,105613,1,0,0:0:0:0:
320,192,105750,1,0,0:0:0:0:
64,192,105886,1,0,0:0:0:0:
192,192,105886,1,0,0:0:0:0:
320,192,105886,1,0,0:0:0:0:
192,192,106159,1,0,0:0:0:0:
448,192,106159,1,0,0:0:0:0:
320,192,106227,1,0,0:0:0:0:
192,192,106295,1,0,0:0:0:0:
64,192,106363,1,0,0:0:0:0:
448,192,106431,1,0,0:0:0:0:
192,192,106431,1,0,0:0:0:0:
320,192,106500,1,0,0:0:0:0:
192,192,106568,1,0,0:0:0:0:
448,192,106636,1,0,0:0:0:0:
64,192,106704,1,0,0:0:0:0:
320,192,106704,1,0,0:0:0:0:
448,192,106772,1,0,0:0:0:0:
320,192,106840,1,0,0:0:0:0:
192,192,106909,1,0,0:0:0:0:
64,192,106977,1,0,0:0:0:0:
448,192,106977,1,0,0:0:0:0:
320,192,107045,1,0,0:0:0:0:
192,192,107113,1,0,0:0:0:0:
448,192,107181,1,0,0:0:0:0:
64,192,107250,1,0,0:0:0:0:
320,192,107250,1,0,0:0:0:0:
192,192,107318,1,0,0:0:0:0:
64,192,107386,1,0,0:0:0:0:
320,192,107454,1,0,0:0:0:0:
448,192,107522,1,0,0:0:0:0:
192,192,107522,1,0,0:0:0:0:
64,192,107590,1,0,0:0:0:0:
192,192,107659,1,0,0:0:0:0:
448,192,107727,1,0,0:0:0:0:
64,192,107795,1,0,0:0:0:0:
320,192,107795,1,0,0:0:0:0:
448,192,107863,1,0,0:0:0:0:
320,192,107931,1,0,0:0:0:0:
192,192,108000,1,0,0:0:0:0:
448,192,108068,1,0,0:0:0:0:
320,192,108068,1,0,0:0:0:0:
64,192,108136,1,0,0:0:0:0:
320,192,108204,1,0,0:0:0:0:
448,192,108272,1,0,0:0:0:0:
192,192,108340,1,0,0:0:0:0:
320,192,108340,1,0,0:0:0:0:
64,192,108409,1,0,0:0:0:0:
192,192,108477,1,0,0:0:0:0:
320,192,108545,1,0,0:0:0:0:
448,192,108613,1,0,0:0:0:0:
192,192,108613,1,0,0:0:0:0:
64,192,108681,1,0,0:0:0:0:
192,192,108750,1,0,0:0:0:0:
448,192,108818,1,0,0:0:0:0:
320,192,108886,1,0,0:0:0:0:
192,192,108886,1,0,0:0:0:0:
64,192,108954,1,0,0:0:0:0:
192,192,109022,1,0,0:0:0:0:
320,192,109090,1,0,0:0:0:0:
64,192,109159,1,0,0:0:0:0:
448,192,109159,1,0,0:0:0:0:
320,192,109227,1,0,0:0:0:0:
192,192,109295,1,0,0:0:0:0:
64,192,109363,1,0,0:0:0:0:
448,192,109431,1,0,0:0:0:0:
192,192,109431,1,0,0:0:0:0:
320,192,109500,1,0,0:0:0:0:
448,192,109568,1,0,0:0:0:0:
192,192,109636,1,0,0:0:0:0:
320,192,109704,1,0,0:0:0:0:
64,192,109704,1,0,0:0:0:0:
448,192,109772,1,0,0:0:0:0:
320,192,109840,1,0,0:0:0:0:
192,192,109909,1,0,0:0:0:0:
448,192,109977,1,0,0:0:0:0:
64,192,109977,1,0,0:0:0:0:
320,192,110045,1,0,0:0:0:0:
192,192,110045,1,0,0:0:0:0:
64,192,110113,1,0,0:0:0:0:
448,192,110113,1,0,0:0:0:0:
192,192,110181,1,0,0:0:0:0:
320,192,110250,1,0,0:0:0:0:
448,192,110250,1,0,0:0:0:0:
192,192,110318,1,0,0:0:0:0:
64,192,110386,1,0,0:0:0:0:
320,192,110454,1,0,0:0:0:0:
64,192,110522,1,0,0:0:0:0:
448,192,110522,1,0,0:0:0:0:
320,192,110590,1,0,0:0:0:0:
192,192,110659,1,0,0:0:0:0:
64,192,110727,1,0,0:0:0:0:
192,192,110795,1,0,0:0:0:0:
320,192,110795,1,0,0:0:0:0:
448,192,110863,1,0,0:0:0:0:
320,192,110931,1,0,0:0:0:0:
64,192,111000,1,0,0:0:0:0:
448,192,111068,1,0,0:0:0:0:
192,192,111068,1,0,0:0:0:0:
320,192,111136,1,0,0:0:0:0:
448,192,111204,1,0,0:0:0:0:
320,192,111272,1,0,0:0:0:0:
64,192,111340,1,0,0:0:0:0:
192,192,111340,1,0,0:0:0:0:
448,192,111409,1,0,0:0:0:0:
320,192,111477,1,0,0:0:0:0:
64,192,111545,1,0,0:0:0:0:
192,192,111613,1,0,0:0:0:0:
320,192,111613,1,0,0:0:0:0:
64,192,111681,1,0,0:0:0:0:
192,192,111750,1,0,0:0:0:0:
320,192,111818,1,0,0:0:0:0:
448,192,111886,1,0,0:0:0:0:
192,192,111886,1,0,0:0:0:0:
320,192,111954,1,0,0:0:0:0:
448,192,112022,1,0,0:0:0:0:
192,192,112090,1,0,0:0:0:0:
320,192,112159,1,0,0:0:0:0:
64,192,112159,1,0,0:0:0:0:
448,192,112227,1,0,0:0:0:0:
320,192,112295,1,0,0:0:0:0:
192,192,112363,1,0,0:0:0:0:
64,192,112431,1,0,0:0:0:0:
448,192,112431,1,0,0:0:0:0:
320,192,112500,1,0,0:0:0:0:
64,192,112568,1,0,0:0:0:0:
320,192,112636,1,0,0:0:0:0:
448,192,112704,1,0,0:0:0:0:
192,192,112704,1,0,0:0:0:0:
64,192,112772,1,0,0:0:0:0:
192,192,112840,1,0,0:0:0:0:
448,192,112909,1,0,0:0:0:0:
320,192,112977,1,0,0:0:0:0:
192,192,112977,1,0,0:0:0:0:
64,192,113045,1,0,0:0:0:0:
192,192,113113,1,0,0:0:0:0:
320,192,113181,1,0,0:0:0:0:
64,192,113250,1,0,0:0:0:0:
448,192,113250,1,0,0:0:0:0:
192,192,113318,1,0,0:0:0:0:
320,192,113386,1,0,0:0:0:0:
448,192,113454,1,0,0:0:0:0:
192,192,113522,1,0,0:0:0:0:
320,192,113522,1,0,0:0:0:0:
64,192,113590,1,0,0:0:0:0:
192,192,113659,1,0,0:0:0:0:
320,192,113727,1,0,0:0:0:0:
448,192,113795,1,0,0:0:0:0:
64,192,113795,1,0,0:0:0:0:
320,192,113863,1,0,0:0:0:0:
192,192,113931,1,0,0:0:0:0:
448,192,114000,1,0,0:0:0:0:
64,192,114136,1,0,0:0:0:0:
192,192,114136,1,0,0:0:0:0:
320,192,114136,1,0,0:0:0:0:
448,192,114136,1,0,0:0:0:0:
64,192,114409,1,0,0:0:0:0:
192,192,114409,1,0,0:0:0:0:
320,192,114409,1,0,0:0:0:0:
448,192,114409,1,0,0:0:0:0:
64,192,114613,1,0,0:0:0:0:
192,192,114613,1,0,0:0:0:0:
320,192,114681,1,0,0:0:0:0:
192,192,114750,1,0,0:0:0:0:
64,192,114818,1,0,0:0:0:0:
448,192,114886,1,0,0:0:0:0:
320,192,114886,1,0,0:0:0:0:
192,192,114954,1,0,0:0:0:0:
320,192,115022,1,0,0:0:0:0:
448,192,115090,1,0,0:0:0:0:
192,192,115159,1,0,0:0:0:0:
320,192,115159,1,0,0:0:0:0:
64,192,115227,1,0,0:0:0:0:
192,192,115295,1,0,0:0:0:0:
320,192,115363,1,0,0:0:0:0:
448,192,115431,1,0,0:0:0:0:
192,192,115431,1,0,0:0:0:0:
64,192,115500,1,0,0:0:0:0:
192,192,115568,1,0,0:0:0:0:
320,192,115636,1,0,0:0:0:0:
64,192,115704,1,0,0:0:0:0:
448,192,115704,1,0,0:0:0:0:
192,192,115772,1,0,0:0:0:0:
320,192,115840,1,0,0:0:0:0:
448,192,115909,1,0,0:0:0:0:
320,192,115977,1,0,0:0:0:0:
64,192,115977,1,0,0:0:0:0:
192,192,116045,1,0,0:0:0:0:
320,192,116113,1,0,0:0:0:0:
448,192,116181,1,0,0:0:0:0:
192,192,116250,1,0,0:0:0:0:
320,192,116250,1,0,0:0:0:0:
64,192,116318,1,0,0:0:0:0:
192,192,116386,1,0,0:0:0:0:
320,192,116454,1,0,0:0:0:0:
448,192,116522,1,0,0:0:0:0:
64,192,116522,1,0,0:0:0:0:
192,192,116590,1,0,0:0:0:0:
320,192,116659,1,0,0:0:0:0:
448,192,116727,1,0,0:0:0:0:
192,192,116795,1,0,0:0:0:0:
320,192,116795,1,0,0:0:0:0:
64,192,116863,1,0,0:0:0:0:
192,192,116931,1,0,0:0:0:0:
320,192,117000,1,0,0:0:0:0:
448,192,117068,1,0,0:0:0:0:
192,192,117068,1,0,0:0:0:0:
64,192,117136,1,0,0:0:0:0:
320,192,117204,1,0,0:0:0:0:
192,192,117272,1,0,0:0:0:0:
320,192,117340,1,0,0:0:0:0:
64,192,117340,1,0,0:0:0:0:
448,192,117409,1,0,0:0:0:0:
320,192,117477,1,0,0:0:0:0:
192,192,117545,1,0,0:0:0:0:
64,192,117613,1,0,0:0:0:0:
448,192,117613,1,0,0:0:0:0:
320,192,117681,1,0,0:0:0:0:
192,192,117750,1,0,0:0:0:0:
64,192,117818,1,0,0:0:0:0:
320,192,117886,1,0,0:0:0:0:
192,192,117886,1,0,0:0:0:0:
448,192,117954,1,0,0:0:0:0:
320,192,118022,1,0,0:0:0:0:
192,192,118090,1,0,0:0:0:0:
320,192,118159,1,0,0:0:0:0:
448,192,118159,1,0,0:0:0:0:
64,192,118227,1,0,0:0:0:0:
192,192,118295,1,0,0:0:0:0:
320,192,118363,1,0,0:0:0:0:
448,192,118431,1,0,0:0:0:0:
192,192,118431,1,0,0:0:0:0:
64,192,118500,1,0,0:0:0:0:
192,192,118568,1,0,0:0:0:0:
320,192,118636,1,0,0:0:0:0:
448,192,118704,1,0,0:0:0:0:
64,192,118704,1,0,0:0:0:0:
320,192,118772,1,0,0:0:0:0:
192,192,118840,1,0,0:0:0:0:
64,192,118909,1,0,0:0:0:0:
320,192,118977,1,0,0:0:0:0:
448,192,118977,1,0,0:0:0:0:
192,192,119045,1,0,0:0:0:0:
320,192,119113,1,0,0:0:0:0:
448,192,119181,1,0,0:0:0:0:
192,192,119250,1,0,0:0:0:0:
64,192,119250,1,0,0:0:0:0:
448,192,119318,1,0,0:0:0:0:
320,192,119386,1,0,0:0:0:0:
192,192,119454,1,0,0:0:0:0:
64,192,119522,1,0,0:0:0:0:
320,192,119522,1,0,0:0:0:0:
448,192,119590,1,0,0:0:0:0:
320,192,119659,1,0,0:0:0:0:
192,192,119727,1,0,0:0:0:0:
64,192,119795,1,0,0:0:0:0:
448,192,119795,1,0,0:0:0:0:
192,192,119863,1,0,0:0:0:0:
320,192,119931,1,0,0:0:0:0:
448,192,120000,1,0,0:0:0:0:
320,192,120068,1,0,0:0:0:0:
192,192,120068,1,0,0:0:0:0:
64,192,120136,1,0,0:0:0:0:
192,192,120204,1,0,0:0:0:0:
320,192,120272,1,0,0:0:0:0:
192,192,120340,1,0,0:0:0:0:
64,192,120340,1,0,0:0:0:0:
320,192,120409,1,0,0:0:0:0:
448,192,120477,1,0,0:0:0:0:
192,192,120545,1,0,0:0:0:0:
64,192,120613,1,0,0:0:0:0:
320,192,120613,1,0,0:0:0:0:
448,192,120681,1,0,0:0:0:0:
320,192,120750,1,0,0:0:0:0:
192,192,120818,1,0,0:0:0:0:
448,192,120886,1,0,0:0:0:0:
320,192,120886,1,0,0:0:0:0:
64,192,120954,1,0,0:0:0:0:
192,192,121022,1,0,0:0:0:0:
320,192,121090,1,0,0:0:0:0:
448,192,121159,1,0,0:0:0:0:
64,192,121159,1,0,0:0:0:0:
192,192,121227,1,0,0:0:0:0:
320,192,121295,1,0,0:0:0:0:
448,192,121363,1,0,0:0:0:0:
320,192,121431,1,0,0:0:0:0:
192,192,121431,1,0,0:0:0:0:
64,192,121500,1,0,0:0:0:0:
448,192,121568,1,0,0:0:0:0:
320,192,121636,1,0,0:0:0:0:
192,192,121704,1,0,0:0:0:0:
448,192,121704,1,0,0:0:0:0:
320,192,121772,1,0,0:0:0:0:
192,192,121840,1,0,0:0:0:0:
448,192,121909,1,0,0:0:0:0:
64,192,121909,1,0,0:0:0:0:
192,192,121977,1,0,0:0:0:0:
320,192,121977,1,0,0:0:0:0:
64,192,122045,1,0,0:0:0:0:
448,192,122045,1,0,0:0:0:0:
192,192,122113,1,0,0:0:0:0:
320,192,122181,1,0,0:0:0:0:
64,192,122250,1,0,0:0:0:0:
448,192,122250,1,0,0:0:0:0:
320,192,122318,1,0,0:0:0:0:
192,192,122318,1,0,0:0:0:0:
448,192,122386,1,0,0:0:0:0:
64,192,122386,1,0,0:0:0:0:
320,192,122454,1,0,0:0:0:0:
192,192,122454,1,0,0:0:0:0:
448,192,122522,1,0,0:0:0:0:
64,192,122522,1,0,0:0:0:0:
64,192,122659,1,0,0:0:0:0:
448,192,122659,1,0,0:0:0:0:
64,192,122863,1,0,0:0:0:0:
192,192,122863,1,0,0:0:0:0:
320,192,122863,1,0,0:0:0:0:
448,192,122863,1,0,0:0:0:0:
448,192,123136,1,0,0:0:0:0:
320,192,123136,1,0,0:0:0:0:
192,192,123136,1,0,0:0:0:0:
64,192,123136,1,0,0:0:0:0:
