osu file format v14

[General]
AudioFilename: audio 0.900x.mp3
AudioLeadIn: 0
PreviewTime: -1
Countdown: 0
SampleSet: None
StackLeniency: 0.7
Mode: 3
LetterboxInBreaks: 0
SpecialStyle: 0
WidescreenStoryboard: 0

[Editor]
DistanceSpacing: 1.5
BeatDivisor: 4
GridSize: 4
TimelineZoom: 1

[Metadata]
Title:SugarCrash! (wewewe Remix)
TitleUnicode:SugarCrash! (wewewe Remix)
Artist:ElyOtto
ArtistUnicode:ElyOtto
Creator:ark2000
Version:4k CRASH! 0.9x (180bpm)
Source:
Tags:beatsaber, frenchcore, hyperpop osutrainer
BeatmapID:4556952
BeatmapSetID:2160949

[Difficulty]
HPDrainRate:5
CircleSize:4
OverallDifficulty:4.1
ApproachRate:5
SliderMultiplier:1.4
SliderTickRate:1

[Events]
//Background and Video events
0,0,"gtcr.jpg",0,0
//Break Periods
2,44305,53500
//Storyboard Layer 0 (Background)
//Storyboard Layer 1 (Fail)
//Storyboard Layer 2 (Pass)
//Storyboard Layer 3 (Foreground)
//Storyboard Layer 4 (Overlay)
//Storyboard Sound Samples

[TimingPoints]
83,333.333333333333,4,1,0,50,1,0
43500,-40,4,2,0,25,0,0
43583,-200,4,2,0,25,0,0
43833,-40,4,2,0,25,0,0
43833,-100,4,2,0,25,0,0
43895,-200,4,2,0,25,0,0
44083,-100,4,2,0,25,0,0

[HitObjects]
64,192,83,5,0,0:0:0:0:
192,192,83,1,0,0:0:0:0:
320,192,83,1,0,0:0:0:0:
448,192,83,1,0,0:0:0:0:
64,192,1416,1,0,0:0:0:0:
320,192,1416,1,0,0:0:0:0:
448,192,1416,1,0,0:0:0:0:
192,192,1500,1,0,0:0:0:0:
320,192,1583,1,0,0:0:0:0:
448,192,1666,1,0,0:0:0:0:
320,192,1750,1,0,0:0:0:0:
64,192,1750,1,0,0:0:0:0:
192,192,1833,1,0,0:0:0:0:
64,192,1916,1,0,0:0:0:0:
192,192,2000,1,0,0:0:0:0:
320,192,2083,1,0,0:0:0:0:
448,192,2083,1,0,0:0:0:0:
192,192,2166,1,0,0:0:0:0:
64,192,2250,1,0,0:0:0:0:
192,192,2333,1,0,0:0:0:0:
320,192,2416,1,0,0:0:0:0:
448,192,2500,1,0,0:0:0:0:
320,192,2583,1,0,0:0:0:0:
192,192,2666,1,0,0:0:0:0:
64,192,2750,1,0,0:0:0:0:
320,192,2833,1,0,0:0:0:0:
448,192,2916,1,0,0:0:0:0:
320,192,3000,1,0,0:0:0:0:
192,192,3083,1,0,0:0:0:0:
64,192,3083,1,0,0:0:0:0:
320,192,3166,1,0,0:0:0:0:
192,192,3250,1,0,0:0:0:0:
64,192,3333,1,0,0:0:0:0:
192,192,3416,1,0,0:0:0:0:
320,192,3416,1,0,0:0:0:0:
448,192,3416,1,0,0:0:0:0:
64,192,3500,1,0,0:0:0:0:
192,192,3583,1,0,0:0:0:0:
320,192,3666,1,0,0:0:0:0:
192,192,3750,1,0,0:0:0:0:
64,192,3750,1,0,0:0:0:0:
320,192,3833,1,0,0:0:0:0:
448,192,3916,1,0,0:0:0:0:
320,192,4000,1,0,0:0:0:0:
192,192,4083,1,0,0:0:0:0:
64,192,4083,1,0,0:0:0:0:
320,192,4166,1,0,0:0:0:0:
448,192,4250,1,0,0:0:0:0:
320,192,4333,1,0,0:0:0:0:
192,192,4416,1,0,0:0:0:0:
64,192,4500,1,0,0:0:0:0:
192,192,4583,1,0,0:0:0:0:
320,192,4666,1,0,0:0:0:0:
192,192,4750,1,0,0:0:0:0:
64,192,4750,1,0,0:0:0:0:
320,192,4916,1,0,0:0:0:0:
448,192,4916,1,0,0:0:0:0:
192,192,5083,1,0,0:0:0:0:
64,192,5083,1,0,0:0:0:0:
320,192,5166,1,0,0:0:0:0:
448,192,5250,1,0,0:0:0:0:
320,192,5333,1,0,0:0:0:0:
192,192,5416,1,0,0:0:0:0:
64,192,5416,1,0,0:0:0:0:
320,192,5500,1,0,0:0:0:0:
192,192,5583,1,0,0:0:0:0:
64,192,5666,1,0,0:0:0:0:
320,192,5750,1,0,0:0:0:0:
448,192,5750,1,0,0:0:0:0:
192,192,5750,1,0,0:0:0:0:
192,192,5916,1,0,0:0:0:0:
64,192,5916,1,0,0:0:0:0:
320,192,6083,1,0,0:0:0:0:
448,192,6083,1,0,0:0:0:0:
320,192,6250,1,0,0:0:0:0:
192,192,6250,1,0,0:0:0:0:
192,192,6416,1,0,0:0:0:0:
64,192,6416,1,0,0:0:0:0:
320,192,6500,1,0,0:0:0:0:
448,192,6583,1,0,0:0:0:0:
320,192,6666,1,0,0:0:0:0:
192,192,6750,1,0,0:0:0:0:
64,192,6750,128,0,7083:0:0:0:0:
448,192,6916,1,0,0:0:0:0:
320,192,6916,1,0,0:0:0:0:
192,192,6916,1,0,0:0:0:0:
320,192,7083,1,0,0:0:0:0:
448,192,7083,1,0,0:0:0:0:
192,192,7166,1,0,0:0:0:0:
64,192,7250,1,0,0:0:0:0:
192,192,7333,1,0,0:0:0:0:
320,192,7416,1,0,0:0:0:0:
448,192,7416,1,0,0:0:0:0:
192,192,7500,1,0,0:0:0:0:
320,192,7583,1,0,0:0:0:0:
192,192,7666,1,0,0:0:0:0:
320,192,7750,1,0,0:0:0:0:
448,192,7750,1,0,0:0:0:0:
192,192,8083,1,0,0:0:0:0:
64,192,8083,1,0,0:0:0:0:
320,192,8166,1,0,0:0:0:0:
448,192,8250,1,0,0:0:0:0:
320,192,8333,1,0,0:0:0:0:
192,192,8416,1,0,0:0:0:0:
64,192,8416,1,0,0:0:0:0:
448,192,8500,1,0,0:0:0:0:
320,192,8583,1,0,0:0:0:0:
192,192,8666,1,0,0:0:0:0:
320,192,8750,1,0,0:0:0:0:
448,192,8750,1,0,0:0:0:0:
320,192,8916,1,0,0:0:0:0:
192,192,8916,1,0,0:0:0:0:
192,192,9083,1,0,0:0:0:0:
64,192,9083,1,0,0:0:0:0:
320,192,9166,1,0,0:0:0:0:
448,192,9250,1,0,0:0:0:0:
320,192,9333,1,0,0:0:0:0:
192,192,9416,1,0,0:0:0:0:
64,192,9416,1,0,0:0:0:0:
320,192,9583,1,0,0:0:0:0:
448,192,9583,1,0,0:0:0:0:
192,192,9750,1,0,0:0:0:0:
320,192,9750,1,0,0:0:0:0:
192,192,9916,1,0,0:0:0:0:
64,192,9916,1,0,0:0:0:0:
192,192,10083,1,0,0:0:0:0:
320,192,10083,1,0,0:0:0:0:
448,192,10166,1,0,0:0:0:0:
192,192,10250,1,0,0:0:0:0:
320,192,10250,1,0,0:0:0:0:
64,192,10333,1,0,0:0:0:0:
320,192,10416,1,0,0:0:0:0:
192,192,10416,1,0,0:0:0:0:
448,192,10500,1,0,0:0:0:0:
320,192,10583,1,0,0:0:0:0:
192,192,10583,1,0,0:0:0:0:
64,192,10666,1,0,0:0:0:0:
192,192,10750,1,0,0:0:0:0:
320,192,10833,1,0,0:0:0:0:
448,192,10916,1,0,0:0:0:0:
320,192,11000,1,0,0:0:0:0:
192,192,11083,1,0,0:0:0:0:
64,192,11083,1,0,0:0:0:0:
320,192,11166,1,0,0:0:0:0:
192,192,11250,1,0,0:0:0:0:
64,192,11333,1,0,0:0:0:0:
64,192,11500,1,0,0:0:0:0:
192,192,11500,1,0,0:0:0:0:
320,192,11500,1,0,0:0:0:0:
448,192,11500,1,0,0:0:0:0:
64,192,11833,1,0,0:0:0:0:
192,192,11833,1,0,0:0:0:0:
320,192,11833,1,0,0:0:0:0:
448,192,11833,1,0,0:0:0:0:
320,192,12000,1,0,0:0:0:0:
64,192,12083,1,0,0:0:0:0:
192,192,12083,1,0,0:0:0:0:
320,192,12166,1,0,0:0:0:0:
448,192,12250,1,0,0:0:0:0:
320,192,12333,1,0,0:0:0:0:
192,192,12416,1,0,0:0:0:0:
64,192,12416,1,0,0:0:0:0:
320,192,12500,1,0,0:0:0:0:
448,192,12583,1,0,0:0:0:0:
64,192,12583,1,0,0:0:0:0:
192,192,12666,1,0,0:0:0:0:
320,192,12750,1,0,0:0:0:0:
192,192,12833,1,0,0:0:0:0:
320,192,12916,1,0,0:0:0:0:
448,192,13000,1,0,0:0:0:0:
192,192,13000,1,0,0:0:0:0:
64,192,13083,1,0,0:0:0:0:
192,192,13166,1,0,0:0:0:0:
320,192,13250,1,0,0:0:0:0:
192,192,13333,1,0,0:0:0:0:
320,192,13416,1,0,0:0:0:0:
192,192,13500,1,0,0:0:0:0:
448,192,13500,1,0,0:0:0:0:
64,192,13583,1,0,0:0:0:0:
192,192,13666,1,0,0:0:0:0:
320,192,13750,1,0,0:0:0:0:
448,192,13833,1,0,0:0:0:0:
192,192,13833,1,0,0:0:0:0:
64,192,13916,1,0,0:0:0:0:
192,192,14000,1,0,0:0:0:0:
64,192,14083,1,0,0:0:0:0:
320,192,14083,1,0,0:0:0:0:
448,192,14166,1,0,0:0:0:0:
192,192,14250,1,0,0:0:0:0:
64,192,14333,1,0,0:0:0:0:
320,192,14416,1,0,0:0:0:0:
448,192,14416,1,0,0:0:0:0:
192,192,14416,1,0,0:0:0:0:
64,192,14500,1,0,0:0:0:0:
320,192,14583,1,0,0:0:0:0:
192,192,14750,1,0,0:0:0:0:
64,192,14750,1,0,0:0:0:0:
320,192,14750,1,0,0:0:0:0:
320,192,14916,1,0,0:0:0:0:
448,192,14916,1,0,0:0:0:0:
320,192,15083,1,0,0:0:0:0:
192,192,15083,1,0,0:0:0:0:
64,192,15250,1,0,0:0:0:0:
192,192,15250,1,0,0:0:0:0:
448,192,15250,1,0,0:0:0:0:
320,192,15416,1,0,0:0:0:0:
192,192,15416,1,0,0:0:0:0:
64,192,15583,1,0,0:0:0:0:
320,192,15583,1,0,0:0:0:0:
448,192,15583,1,0,0:0:0:0:
64,192,15750,128,0,16083:0:0:0:0:
448,192,15750,128,0,16083:0:0:0:0:
320,192,16083,1,0,0:0:0:0:
192,192,16083,1,0,0:0:0:0:
64,192,16250,1,0,0:0:0:0:
320,192,16250,1,0,0:0:0:0:
448,192,16333,1,0,0:0:0:0:
320,192,16416,1,0,0:0:0:0:
192,192,16416,1,0,0:0:0:0:
64,192,16500,1,0,0:0:0:0:
192,192,16583,1,0,0:0:0:0:
320,192,16666,1,0,0:0:0:0:
448,192,16750,1,0,0:0:0:0:
320,192,16833,1,0,0:0:0:0:
64,192,16916,1,0,0:0:0:0:
192,192,16916,1,0,0:0:0:0:
64,192,17083,1,0,0:0:0:0:
192,192,17083,1,0,0:0:0:0:
320,192,17166,1,0,0:0:0:0:
448,192,17250,1,0,0:0:0:0:
64,192,17333,1,0,0:0:0:0:
320,192,17416,1,0,0:0:0:0:
192,192,17416,1,0,0:0:0:0:
448,192,17416,1,0,0:0:0:0:
64,192,17500,1,0,0:0:0:0:
192,192,17583,1,0,0:0:0:0:
320,192,17666,1,0,0:0:0:0:
192,192,17750,1,0,0:0:0:0:
64,192,17750,1,0,0:0:0:0:
448,192,17833,1,0,0:0:0:0:
320,192,17916,1,0,0:0:0:0:
192,192,18000,1,0,0:0:0:0:
64,192,18083,1,0,0:0:0:0:
448,192,18083,1,0,0:0:0:0:
320,192,18166,1,0,0:0:0:0:
448,192,18250,1,0,0:0:0:0:
64,192,18250,1,0,0:0:0:0:
192,192,18333,1,0,0:0:0:0:
320,192,18416,1,0,0:0:0:0:
448,192,18500,1,0,0:0:0:0:
64,192,18500,1,0,0:0:0:0:
192,192,18583,1,0,0:0:0:0:
320,192,18666,1,0,0:0:0:0:
192,192,18750,1,0,0:0:0:0:
320,192,18833,1,0,0:0:0:0:
448,192,18916,1,0,0:0:0:0:
64,192,18916,1,0,0:0:0:0:
192,192,19000,1,0,0:0:0:0:
320,192,19083,1,0,0:0:0:0:
448,192,19166,1,0,0:0:0:0:
64,192,19166,1,0,0:0:0:0:
192,192,19250,1,0,0:0:0:0:
320,192,19333,1,0,0:0:0:0:
448,192,19416,1,0,0:0:0:0:
64,192,19416,1,0,0:0:0:0:
192,192,19500,1,0,0:0:0:0:
320,192,19583,1,0,0:0:0:0:
448,192,19666,1,0,0:0:0:0:
64,192,19666,1,0,0:0:0:0:
192,192,19750,1,0,0:0:0:0:
320,192,19833,1,0,0:0:0:0:
448,192,19916,1,0,0:0:0:0:
64,192,19916,1,0,0:0:0:0:
192,192,20000,1,0,0:0:0:0:
320,192,20083,1,0,0:0:0:0:
448,192,20083,1,0,0:0:0:0:
192,192,20166,1,0,0:0:0:0:
64,192,20166,1,0,0:0:0:0:
320,192,20250,1,0,0:0:0:0:
448,192,20250,1,0,0:0:0:0:
192,192,20333,1,0,0:0:0:0:
64,192,20333,1,0,0:0:0:0:
320,192,20416,1,0,0:0:0:0:
448,192,20416,1,0,0:0:0:0:
192,192,20500,1,0,0:0:0:0:
64,192,20500,1,0,0:0:0:0:
320,192,20583,1,0,0:0:0:0:
448,192,20583,1,0,0:0:0:0:
192,192,20666,1,0,0:0:0:0:
64,192,20666,1,0,0:0:0:0:
320,192,20750,1,0,0:0:0:0:
448,192,20791,1,0,0:0:0:0:
192,192,20833,1,0,0:0:0:0:
64,192,20874,1,0,0:0:0:0:
320,192,20916,1,0,0:0:0:0:
448,192,20957,1,0,0:0:0:0:
192,192,21000,1,0,0:0:0:0:
64,192,21041,1,0,0:0:0:0:
320,192,21083,1,0,0:0:0:0:
448,192,21124,1,0,0:0:0:0:
192,192,21166,1,0,0:0:0:0:
64,192,21207,1,0,0:0:0:0:
320,192,21250,1,0,0:0:0:0:
448,192,21291,1,0,0:0:0:0:
192,192,21333,1,0,0:0:0:0:
64,192,21374,1,0,0:0:0:0:
320,192,21416,1,0,0:0:0:0:
448,192,21457,1,0,0:0:0:0:
64,192,22750,1,0,0:0:0:0:
192,192,22750,1,0,0:0:0:0:
448,192,22750,1,0,0:0:0:0:
320,192,22750,128,0,22916:0:0:0:0:
448,192,23083,1,0,0:0:0:0:
192,192,23083,1,0,0:0:0:0:
64,192,23083,128,0,23250:0:0:0:0:
320,192,23250,1,0,0:0:0:0:
64,192,23416,1,0,0:0:0:0:
320,192,23416,1,0,0:0:0:0:
448,192,23416,128,0,23583:0:0:0:0:
192,192,23583,1,0,0:0:0:0:
192,192,23750,1,0,0:0:0:0:
320,192,23750,1,0,0:0:0:0:
448,192,23750,1,0,0:0:0:0:
64,192,23750,128,0,23916:0:0:0:0:
320,192,24083,1,0,0:0:0:0:
192,192,24083,1,0,0:0:0:0:
64,192,24083,1,0,0:0:0:0:
448,192,24083,128,0,24250:0:0:0:0:
192,192,24416,1,0,0:0:0:0:
448,192,24416,1,0,0:0:0:0:
320,192,24416,128,0,24583:0:0:0:0:
320,192,24750,1,0,0:0:0:0:
192,192,24750,1,0,0:0:0:0:
64,192,24750,1,0,0:0:0:0:
448,192,24750,128,0,24916:0:0:0:0:
192,192,24916,1,0,0:0:0:0:
320,192,25083,1,0,0:0:0:0:
192,192,25083,1,0,0:0:0:0:
448,192,25083,1,0,0:0:0:0:
64,192,25083,128,0,25250:0:0:0:0:
320,192,25416,1,0,0:0:0:0:
192,192,25416,1,0,0:0:0:0:
64,192,25416,128,0,25583:0:0:0:0:
64,192,25750,1,0,0:0:0:0:
448,192,25750,1,0,0:0:0:0:
320,192,25750,128,0,25916:0:0:0:0:
320,192,26083,1,0,0:0:0:0:
448,192,26083,1,0,0:0:0:0:
192,192,26083,128,0,26250:0:0:0:0:
320,192,26250,1,0,0:0:0:0:
192,192,26416,1,0,0:0:0:0:
64,192,26416,1,0,0:0:0:0:
320,192,26416,128,0,26583:0:0:0:0:
192,192,26750,1,0,0:0:0:0:
320,192,26750,1,0,0:0:0:0:
448,192,26750,1,0,0:0:0:0:
64,192,26750,128,0,26916:0:0:0:0:
192,192,26916,1,0,0:0:0:0:
320,192,26916,1,0,0:0:0:0:
64,192,27083,1,0,0:0:0:0:
192,192,27083,1,0,0:0:0:0:
448,192,27083,1,0,0:0:0:0:
192,192,27250,1,0,0:0:0:0:
320,192,27416,1,0,0:0:0:0:
64,192,27416,1,0,0:0:0:0:
192,192,27416,1,0,0:0:0:0:
448,192,27583,1,0,0:0:0:0:
320,192,27583,1,0,0:0:0:0:
192,192,27583,1,0,0:0:0:0:
192,192,27750,1,0,0:0:0:0:
320,192,27750,1,0,0:0:0:0:
64,192,27750,128,0,27916:0:0:0:0:
64,192,28083,1,0,0:0:0:0:
320,192,28083,1,0,0:0:0:0:
448,192,28083,1,0,0:0:0:0:
192,192,28083,128,0,28250:0:0:0:0:
448,192,28416,1,0,0:0:0:0:
320,192,28416,1,0,0:0:0:0:
192,192,28416,1,0,0:0:0:0:
64,192,28416,128,0,28583:0:0:0:0:
64,192,28750,1,0,0:0:0:0:
320,192,28750,1,0,0:0:0:0:
192,192,28750,128,0,28916:0:0:0:0:
448,192,28916,1,0,0:0:0:0:
320,192,29083,1,0,0:0:0:0:
192,192,29083,1,0,0:0:0:0:
64,192,29083,128,0,29250:0:0:0:0:
320,192,29416,1,0,0:0:0:0:
448,192,29416,1,0,0:0:0:0:
192,192,29416,128,0,29583:0:0:0:0:
192,192,29750,1,0,0:0:0:0:
64,192,29750,1,0,0:0:0:0:
320,192,29750,128,0,29916:0:0:0:0:
320,192,30083,1,0,0:0:0:0:
192,192,30083,1,0,0:0:0:0:
448,192,30083,1,0,0:0:0:0:
192,192,30250,1,0,0:0:0:0:
320,192,30416,1,0,0:0:0:0:
64,192,30416,1,0,0:0:0:0:
448,192,30416,128,0,30583:0:0:0:0:
192,192,30750,1,0,0:0:0:0:
320,192,30750,1,0,0:0:0:0:
64,192,30750,128,0,30916:0:0:0:0:
192,192,31083,1,0,0:0:0:0:
64,192,31083,1,0,0:0:0:0:
320,192,31083,128,0,31250:0:0:0:0:
448,192,31416,1,0,0:0:0:0:
320,192,31416,1,0,0:0:0:0:
64,192,31416,128,0,31583:0:0:0:0:
192,192,31583,1,0,0:0:0:0:
192,192,31750,1,0,0:0:0:0:
448,192,31750,1,0,0:0:0:0:
320,192,31750,128,0,31916:0:0:0:0:
320,192,32083,1,0,0:0:0:0:
192,192,32083,1,0,0:0:0:0:
64,192,32083,128,0,32250:0:0:0:0:
448,192,32250,128,0,32416:0:0:0:0:
320,192,32416,128,0,32583:0:0:0:0:
64,192,32416,1,0,0:0:0:0:
192,192,32416,1,0,0:0:0:0:
192,192,32583,128,0,32833:0:0:0:0:
448,192,32833,1,0,0:0:0:0:
320,192,32833,1,0,0:0:0:0:
64,192,32833,1,0,0:0:0:0:
320,192,33166,1,0,0:0:0:0:
192,192,33166,1,0,0:0:0:0:
64,192,33166,1,0,0:0:0:0:
448,192,33166,1,0,0:0:0:0:
64,192,33416,1,0,0:0:0:0:
320,192,33416,1,0,0:0:0:0:
192,192,33416,128,0,33583:0:0:0:0:
448,192,33583,1,0,0:0:0:0:
320,192,33750,1,0,0:0:0:0:
192,192,33750,1,0,0:0:0:0:
448,192,33750,128,0,33916:0:0:0:0:
64,192,33916,1,0,0:0:0:0:
192,192,34083,1,0,0:0:0:0:
320,192,34083,1,0,0:0:0:0:
448,192,34083,128,0,34250:0:0:0:0:
192,192,34250,1,0,0:0:0:0:
192,192,34416,1,0,0:0:0:0:
448,192,34416,1,0,0:0:0:0:
320,192,34416,128,0,34583:0:0:0:0:
448,192,34583,1,0,0:0:0:0:
320,192,34750,1,0,0:0:0:0:
64,192,34750,1,0,0:0:0:0:
192,192,34750,128,0,34916:0:0:0:0:
64,192,34916,1,0,0:0:0:0:
192,192,35083,1,0,0:0:0:0:
320,192,35083,1,0,0:0:0:0:
448,192,35083,128,0,35250:0:0:0:0:
64,192,35250,1,0,0:0:0:0:
192,192,35416,1,0,0:0:0:0:
320,192,35416,1,0,0:0:0:0:
64,192,35416,128,0,35583:0:0:0:0:
320,192,35583,1,0,0:0:0:0:
64,192,35750,1,0,0:0:0:0:
192,192,35750,1,0,0:0:0:0:
448,192,35750,1,0,0:0:0:0:
320,192,35750,128,0,36083:0:0:0:0:
192,192,36083,1,0,0:0:0:0:
64,192,36083,1,0,0:0:0:0:
448,192,36083,1,0,0:0:0:0:
64,192,36250,1,0,0:0:0:0:
192,192,36250,1,0,0:0:0:0:
192,192,36416,1,0,0:0:0:0:
320,192,36416,1,0,0:0:0:0:
448,192,36416,1,0,0:0:0:0:
64,192,36416,128,0,36583:0:0:0:0:
448,192,36583,1,0,0:0:0:0:
320,192,36750,1,0,0:0:0:0:
192,192,36750,1,0,0:0:0:0:
192,192,36916,1,0,0:0:0:0:
320,192,36916,1,0,0:0:0:0:
448,192,37083,1,0,0:0:0:0:
64,192,37083,1,0,0:0:0:0:
192,192,37083,128,0,37250:0:0:0:0:
320,192,37083,128,0,37250:0:0:0:0:
64,192,37416,1,0,0:0:0:0:
320,192,37416,1,0,0:0:0:0:
192,192,37416,128,0,37583:0:0:0:0:
448,192,37583,1,0,0:0:0:0:
192,192,37750,1,0,0:0:0:0:
320,192,37750,1,0,0:0:0:0:
448,192,37750,128,0,37916:0:0:0:0:
64,192,37916,128,0,38083:0:0:0:0:
448,192,38083,1,0,0:0:0:0:
320,192,38083,1,0,0:0:0:0:
192,192,38083,128,0,38250:0:0:0:0:
448,192,38250,1,0,0:0:0:0:
320,192,38250,128,0,38416:0:0:0:0:
64,192,38416,1,0,0:0:0:0:
192,192,38416,1,0,0:0:0:0:
448,192,38416,128,0,38583:0:0:0:0:
320,192,38583,1,0,0:0:0:0:
448,192,38750,1,0,0:0:0:0:
192,192,38750,1,0,0:0:0:0:
64,192,38916,1,0,0:0:0:0:
192,192,39083,1,0,0:0:0:0:
320,192,39083,1,0,0:0:0:0:
448,192,39083,128,0,39250:0:0:0:0:
192,192,39250,1,0,0:0:0:0:
320,192,39250,1,0,0:0:0:0:
448,192,39416,1,0,0:0:0:0:
320,192,39416,1,0,0:0:0:0:
64,192,39416,128,0,39583:0:0:0:0:
192,192,39583,1,0,0:0:0:0:
320,192,39583,1,0,0:0:0:0:
192,192,39750,1,0,0:0:0:0:
64,192,39750,1,0,0:0:0:0:
320,192,39750,128,0,40083:0:0:0:0:
448,192,40083,1,0,0:0:0:0:
192,192,40083,1,0,0:0:0:0:
64,192,40083,1,0,0:0:0:0:
448,192,40250,1,0,0:0:0:0:
192,192,40250,1,0,0:0:0:0:
320,192,40416,1,0,0:0:0:0:
192,192,40416,1,0,0:0:0:0:
320,192,40583,1,0,0:0:0:0:
192,192,40583,1,0,0:0:0:0:
320,192,40750,1,0,0:0:0:0:
448,192,40750,1,0,0:0:0:0:
320,192,40916,1,0,0:0:0:0:
192,192,40916,1,0,0:0:0:0:
192,192,41083,1,0,0:0:0:0:
64,192,41083,1,0,0:0:0:0:
320,192,41083,128,0,41416:0:0:0:0:
192,192,41416,1,0,0:0:0:0:
448,192,41416,1,0,0:0:0:0:
192,192,41583,1,0,0:0:0:0:
64,192,41583,1,0,0:0:0:0:
448,192,41750,1,0,0:0:0:0:
320,192,41750,1,0,0:0:0:0:
448,192,41916,1,0,0:0:0:0:
192,192,41916,1,0,0:0:0:0:
64,192,42083,1,0,0:0:0:0:
192,192,42083,1,0,0:0:0:0:
320,192,42250,1,0,0:0:0:0:
64,192,42250,1,0,0:0:0:0:
448,192,42416,1,0,0:0:0:0:
192,192,42416,1,0,0:0:0:0:
448,192,42583,1,0,0:0:0:0:
64,192,42583,1,0,0:0:0:0:
192,192,42750,1,0,0:0:0:0:
320,192,42750,1,0,0:0:0:0:
64,192,42833,1,0,0:0:0:0:
448,192,42833,1,0,0:0:0:0:
320,192,42916,1,0,0:0:0:0:
192,192,42916,1,0,0:0:0:0:
64,192,43000,1,0,0:0:0:0:
448,192,43000,1,0,0:0:0:0:
192,192,43083,1,0,0:0:0:0:
320,192,43083,1,0,0:0:0:0:
64,192,43250,1,0,0:0:0:0:
448,192,43250,1,0,0:0:0:0:
448,192,43416,1,0,0:0:0:0:
64,192,43416,1,0,0:0:0:0:
192,192,43500,128,0,43833:0:0:0:0:
320,192,43500,128,0,43833:0:0:0:0:
64,192,43833,128,0,44083:0:0:0:0:
448,192,43833,128,0,44083:0:0:0:0:
64,192,54833,5,0,0:0:0:0:
320,192,54833,1,0,0:0:0:0:
448,192,54833,1,0,0:0:0:0:
192,192,54916,1,0,0:0:0:0:
320,192,55000,1,0,0:0:0:0:
448,192,55083,1,0,0:0:0:0:
192,192,55166,1,0,0:0:0:0:
320,192,55250,1,0,0:0:0:0:
64,192,55333,1,0,0:0:0:0:
192,192,55416,1,0,0:0:0:0:
320,192,55500,1,0,0:0:0:0:
448,192,55500,1,0,0:0:0:0:
64,192,55583,1,0,0:0:0:0:
192,192,55666,1,0,0:0:0:0:
448,192,55750,1,0,0:0:0:0:
320,192,55750,1,0,0:0:0:0:
64,192,55750,1,0,0:0:0:0:
192,192,55833,1,0,0:0:0:0:
320,192,55916,1,0,0:0:0:0:
448,192,56000,1,0,0:0:0:0:
64,192,56083,1,0,0:0:0:0:
320,192,56083,1,0,0:0:0:0:
192,192,56250,1,0,0:0:0:0:
448,192,56416,1,0,0:0:0:0:
64,192,56416,1,0,0:0:0:0:
320,192,56500,1,0,0:0:0:0:
192,192,56583,1,0,0:0:0:0:
64,192,56666,1,0,0:0:0:0:
320,192,56750,1,0,0:0:0:0:
192,192,56750,1,0,0:0:0:0:
448,192,56833,1,0,0:0:0:0:
320,192,56916,1,0,0:0:0:0:
192,192,57000,1,0,0:0:0:0:
448,192,57083,1,0,0:0:0:0:
64,192,57083,1,0,0:0:0:0:
320,192,57083,1,0,0:0:0:0:
192,192,57166,1,0,0:0:0:0:
320,192,57250,1,0,0:0:0:0:
448,192,57333,1,0,0:0:0:0:
192,192,57416,1,0,0:0:0:0:
64,192,57416,1,0,0:0:0:0:
320,192,57500,1,0,0:0:0:0:
448,192,57583,1,0,0:0:0:0:
192,192,57583,1,0,0:0:0:0:
64,192,57666,1,0,0:0:0:0:
320,192,57750,1,0,0:0:0:0:
448,192,57750,1,0,0:0:0:0:
192,192,57833,1,0,0:0:0:0:
64,192,57916,1,0,0:0:0:0:
320,192,57916,1,0,0:0:0:0:
448,192,58000,1,0,0:0:0:0:
320,192,58083,1,0,0:0:0:0:
448,192,58166,1,0,0:0:0:0:
64,192,58250,1,0,0:0:0:0:
320,192,58250,1,0,0:0:0:0:
192,192,58333,1,0,0:0:0:0:
320,192,58416,1,0,0:0:0:0:
448,192,58416,1,0,0:0:0:0:
64,192,58416,1,0,0:0:0:0:
64,192,58750,1,0,0:0:0:0:
320,192,58750,1,0,0:0:0:0:
192,192,58833,1,0,0:0:0:0:
320,192,58916,1,0,0:0:0:0:
448,192,59000,1,0,0:0:0:0:
192,192,59083,1,0,0:0:0:0:
64,192,59083,1,0,0:0:0:0:
320,192,59166,1,0,0:0:0:0:
448,192,59250,1,0,0:0:0:0:
320,192,59333,1,0,0:0:0:0:
192,192,59333,1,0,0:0:0:0:
64,192,59333,1,0,0:0:0:0:
448,192,59416,1,0,0:0:0:0:
320,192,59500,1,0,0:0:0:0:
192,192,59583,1,0,0:0:0:0:
64,192,59583,1,0,0:0:0:0:
448,192,59666,1,0,0:0:0:0:
320,192,59750,1,0,0:0:0:0:
64,192,59750,1,0,0:0:0:0:
192,192,59833,1,0,0:0:0:0:
64,192,59916,1,0,0:0:0:0:
192,192,60000,1,0,0:0:0:0:
320,192,60083,1,0,0:0:0:0:
448,192,60083,1,0,0:0:0:0:
192,192,60166,1,0,0:0:0:0:
64,192,60250,1,0,0:0:0:0:
192,192,60333,1,0,0:0:0:0:
320,192,60333,1,0,0:0:0:0:
448,192,60416,1,0,0:0:0:0:
64,192,60416,1,0,0:0:0:0:
192,192,60500,1,0,0:0:0:0:
320,192,60583,1,0,0:0:0:0:
448,192,60666,1,0,0:0:0:0:
64,192,60666,1,0,0:0:0:0:
320,192,60750,1,0,0:0:0:0:
192,192,60750,1,0,0:0:0:0:
64,192,60833,1,0,0:0:0:0:
192,192,60916,1,0,0:0:0:0:
320,192,61000,1,0,0:0:0:0:
448,192,61000,1,0,0:0:0:0:
192,192,61083,1,0,0:0:0:0:
64,192,61166,1,0,0:0:0:0:
320,192,61166,1,0,0:0:0:0:
448,192,61250,1,0,0:0:0:0:
320,192,61333,1,0,0:0:0:0:
192,192,61416,1,0,0:0:0:0:
64,192,61416,1,0,0:0:0:0:
320,192,61500,1,0,0:0:0:0:
448,192,61583,1,0,0:0:0:0:
192,192,61583,1,0,0:0:0:0:
64,192,61666,1,0,0:0:0:0:
192,192,61750,1,0,0:0:0:0:
320,192,61833,1,0,0:0:0:0:
448,192,61833,1,0,0:0:0:0:
192,192,61916,1,0,0:0:0:0:
64,192,62000,1,0,0:0:0:0:
320,192,62000,1,0,0:0:0:0:
448,192,62083,1,0,0:0:0:0:
192,192,62083,1,0,0:0:0:0:
64,192,62166,1,0,0:0:0:0:
192,192,62250,1,0,0:0:0:0:
320,192,62333,1,0,0:0:0:0:
448,192,62416,1,0,0:0:0:0:
192,192,62416,1,0,0:0:0:0:
64,192,62416,1,0,0:0:0:0:
320,192,62500,1,0,0:0:0:0:
192,192,62583,1,0,0:0:0:0:
64,192,62666,1,0,0:0:0:0:
192,192,62750,1,0,0:0:0:0:
320,192,62750,1,0,0:0:0:0:
448,192,62750,1,0,0:0:0:0:
64,192,62833,1,0,0:0:0:0:
192,192,62916,1,0,0:0:0:0:
320,192,63000,1,0,0:0:0:0:
448,192,63083,1,0,0:0:0:0:
64,192,63083,1,0,0:0:0:0:
320,192,63166,1,0,0:0:0:0:
448,192,63250,1,0,0:0:0:0:
192,192,63250,1,0,0:0:0:0:
64,192,63333,1,0,0:0:0:0:
320,192,63333,1,0,0:0:0:0:
192,192,63416,1,0,0:0:0:0:
64,192,63500,1,0,0:0:0:0:
448,192,63500,1,0,0:0:0:0:
320,192,63500,1,0,0:0:0:0:
192,192,63583,1,0,0:0:0:0:
320,192,63666,1,0,0:0:0:0:
448,192,63750,1,0,0:0:0:0:
64,192,63750,1,0,0:0:0:0:
320,192,63833,1,0,0:0:0:0:
192,192,63916,1,0,0:0:0:0:
64,192,64000,1,0,0:0:0:0:
320,192,64000,1,0,0:0:0:0:
320,192,64166,1,0,0:0:0:0:
448,192,64166,1,0,0:0:0:0:
192,192,64166,1,0,0:0:0:0:
64,192,64166,1,0,0:0:0:0:
64,192,65500,128,0,65750:0:0:0:0:
192,192,65500,1,0,0:0:0:0:
64,192,65833,128,0,66166:0:0:0:0:
320,192,65833,1,0,0:0:0:0:
192,192,66166,128,0,66500:0:0:0:0:
448,192,66166,1,0,0:0:0:0:
64,192,66500,1,0,0:0:0:0:
320,192,66500,1,0,0:0:0:0:
448,192,66500,128,0,66833:0:0:0:0:
64,192,66833,128,0,67083:0:0:0:0:
192,192,66833,1,0,0:0:0:0:
64,192,67166,128,0,67333:0:0:0:0:
448,192,67166,1,0,0:0:0:0:
192,192,67333,128,0,67500:0:0:0:0:
320,192,67500,1,0,0:0:0:0:
448,192,67500,128,0,67833:0:0:0:0:
64,192,67833,128,0,68166:0:0:0:0:
192,192,67833,1,0,0:0:0:0:
320,192,67833,1,0,0:0:0:0:
192,192,68166,128,0,68500:0:0:0:0:
320,192,68500,1,0,0:0:0:0:
64,192,68500,1,0,0:0:0:0:
448,192,68500,128,0,68833:0:0:0:0:
64,192,68833,128,0,69083:0:0:0:0:
320,192,68833,1,0,0:0:0:0:
64,192,69166,128,0,69500:0:0:0:0:
192,192,69166,1,0,0:0:0:0:
448,192,69166,1,0,0:0:0:0:
192,192,69500,128,0,69833:0:0:0:0:
448,192,69500,1,0,0:0:0:0:
448,192,69833,128,0,70166:0:0:0:0:
64,192,69833,1,0,0:0:0:0:
320,192,70166,128,0,70500:0:0:0:0:
192,192,70166,128,0,70500:0:0:0:0:
64,192,70166,1,0,0:0:0:0:
448,192,70500,128,0,70833:0:0:0:0:
64,192,70833,128,0,71083:0:0:0:0:
192,192,70833,1,0,0:0:0:0:
320,192,70833,1,0,0:0:0:0:
64,192,71166,128,0,71500:0:0:0:0:
320,192,71166,128,0,71500:0:0:0:0:
448,192,71166,128,0,71500:0:0:0:0:
192,192,71500,128,0,71833:0:0:0:0:
448,192,71833,128,0,72166:0:0:0:0:
320,192,71833,1,0,0:0:0:0:
64,192,72166,128,0,72416:0:0:0:0:
192,192,72166,1,0,0:0:0:0:
64,192,72500,128,0,72666:0:0:0:0:
192,192,72666,128,0,72833:0:0:0:0:
448,192,72833,128,0,73166:0:0:0:0:
320,192,73166,128,0,73500:0:0:0:0:
64,192,73166,1,0,0:0:0:0:
192,192,73166,128,0,73500:0:0:0:0:
448,192,73500,128,0,73750:0:0:0:0:
448,192,73833,128,0,74166:0:0:0:0:
64,192,73833,1,0,0:0:0:0:
192,192,73833,1,0,0:0:0:0:
320,192,73833,1,0,0:0:0:0:
64,192,74166,128,0,74500:0:0:0:0:
448,192,74500,128,0,74833:0:0:0:0:
320,192,74833,128,0,75083:0:0:0:0:
192,192,74833,1,0,0:0:0:0:
320,192,75166,128,0,75333:0:0:0:0:
192,192,75333,128,0,75500:0:0:0:0:
448,192,75500,128,0,75833:0:0:0:0:
320,192,75833,128,0,76166:0:0:0:0:
192,192,75833,1,0,0:0:0:0:
448,192,76166,128,0,76416:0:0:0:0:
64,192,76166,1,0,0:0:0:0:
320,192,76416,1,0,0:0:0:0:
192,192,76416,1,0,0:0:0:0:
64,192,76833,128,0,77166:0:0:0:0:
192,192,76833,1,0,0:0:0:0:
320,192,76833,1,0,0:0:0:0:
320,192,77166,128,0,77500:0:0:0:0:
192,192,77166,1,0,0:0:0:0:
192,192,77500,128,0,77833:0:0:0:0:
64,192,77500,1,0,0:0:0:0:
448,192,77833,128,0,78166:0:0:0:0:
320,192,77833,1,0,0:0:0:0:
320,192,78166,128,0,78500:0:0:0:0:
192,192,78166,1,0,0:0:0:0:
192,192,78500,128,0,78750:0:0:0:0:
448,192,78500,1,0,0:0:0:0:
192,192,78833,128,0,79083:0:0:0:0:
448,192,78833,1,0,0:0:0:0:
192,192,79166,128,0,79500:0:0:0:0:
320,192,79166,1,0,0:0:0:0:
64,192,79500,128,0,79833:0:0:0:0:
320,192,79500,1,0,0:0:0:0:
192,192,79833,128,0,80166:0:0:0:0:
320,192,80166,128,0,80500:0:0:0:0:
448,192,80166,1,0,0:0:0:0:
64,192,80500,128,0,80833:0:0:0:0:
192,192,80500,1,0,0:0:0:0:
320,192,80833,128,0,81166:0:0:0:0:
448,192,80833,1,0,0:0:0:0:
192,192,81166,128,0,81500:0:0:0:0:
64,192,81166,1,0,0:0:0:0:
448,192,81500,128,0,81833:0:0:0:0:
320,192,81500,1,0,0:0:0:0:
64,192,81500,1,0,0:0:0:0:
448,192,82166,128,0,82500:0:0:0:0:
320,192,82166,1,0,0:0:0:0:
192,192,82166,1,0,0:0:0:0:
320,192,82500,128,0,82750:0:0:0:0:
192,192,82500,1,0,0:0:0:0:
320,192,82833,128,0,83083:0:0:0:0:
192,192,82833,1,0,0:0:0:0:
320,192,83166,128,0,83500:0:0:0:0:
192,192,83166,1,0,0:0:0:0:
192,192,83500,128,0,83833:0:0:0:0:
64,192,83500,1,0,0:0:0:0:
448,192,83833,128,0,84000:0:0:0:0:
320,192,84000,128,0,84166:0:0:0:0:
64,192,84166,128,0,84416:0:0:0:0:
192,192,84166,1,0,0:0:0:0:
64,192,84500,128,0,84833:0:0:0:0:
192,192,84833,128,0,85083:0:0:0:0:
320,192,84833,1,0,0:0:0:0:
192,192,85166,128,0,85500:0:0:0:0:
64,192,85166,1,0,0:0:0:0:
320,192,85500,128,0,85833:0:0:0:0:
448,192,85500,1,0,0:0:0:0:
64,192,85500,1,0,0:0:0:0:
192,192,85833,128,0,86166:0:0:0:0:
64,192,85833,1,0,0:0:0:0:
320,192,86166,128,0,86500:0:0:0:0:
448,192,86166,1,0,0:0:0:0:
448,192,86500,128,0,86833:0:0:0:0:
192,192,86500,1,0,0:0:0:0:
64,192,86833,1,0,0:0:0:0:
192,192,86833,1,0,0:0:0:0:
320,192,86833,1,0,0:0:0:0:
64,192,87166,1,0,0:0:0:0:
448,192,87166,128,0,87500:0:0:0:0:
64,192,87500,1,0,0:0:0:0:
320,192,87500,128,0,87833:0:0:0:0:
64,192,87833,1,0,0:0:0:0:
448,192,87833,128,0,88166:0:0:0:0:
64,192,88166,1,0,0:0:0:0:
320,192,88166,128,0,88500:0:0:0:0:
64,192,88500,1,0,0:0:0:0:
448,192,88500,128,0,88833:0:0:0:0:
64,192,88833,1,0,0:0:0:0:
320,192,88833,128,0,89083:0:0:0:0:
64,192,89166,1,0,0:0:0:0:
320,192,89166,128,0,89500:0:0:0:0:
64,192,89500,1,0,0:0:0:0:
448,192,89500,128,0,89750:0:0:0:0:
64,192,89833,1,0,0:0:0:0:
448,192,89833,128,0,90166:0:0:0:0:
64,192,90166,1,0,0:0:0:0:
320,192,90166,128,0,90250:0:0:0:0:
320,192,90333,128,0,90416:0:0:0:0:
64,192,90500,1,0,0:0:0:0:
320,192,90500,128,0,90833:0:0:0:0:
64,192,90833,1,0,0:0:0:0:
448,192,90833,128,0,91083:0:0:0:0:
64,192,91166,1,0,0:0:0:0:
448,192,91166,128,0,91500:0:0:0:0:
64,192,91500,1,0,0:0:0:0:
320,192,91500,128,0,91833:0:0:0:0:
64,192,91833,1,0,0:0:0:0:
448,192,91833,128,0,92166:0:0:0:0:
64,192,92166,1,0,0:0:0:0:
320,192,92166,128,0,92416:0:0:0:0:
64,192,92500,1,0,0:0:0:0:
320,192,92500,128,0,92833:0:0:0:0:
64,192,92833,1,0,0:0:0:0:
448,192,92833,128,0,93083:0:0:0:0:
64,192,93166,1,0,0:0:0:0:
448,192,93166,128,0,93500:0:0:0:0:
64,192,93500,1,0,0:0:0:0:
320,192,93500,128,0,93583:0:0:0:0:
320,192,93666,128,0,93750:0:0:0:0:
64,192,93833,1,0,0:0:0:0:
320,192,93833,128,0,94166:0:0:0:0:
64,192,94166,1,0,0:0:0:0:
448,192,94166,128,0,94500:0:0:0:0:
64,192,94500,1,0,0:0:0:0:
320,192,94500,128,0,94833:0:0:0:0:
64,192,94833,1,0,0:0:0:0:
448,192,94833,128,0,94916:0:0:0:0:
448,192,95000,128,0,95083:0:0:0:0:
64,192,95166,1,0,0:0:0:0:
320,192,95166,128,0,95250:0:0:0:0:
320,192,95333,128,0,95416:0:0:0:0:
64,192,95500,1,0,0:0:0:0:
448,192,95500,128,0,95583:0:0:0:0:
448,192,95666,128,0,95750:0:0:0:0:
64,192,95833,1,0,0:0:0:0:
320,192,95833,128,0,95916:0:0:0:0:
320,192,96000,128,0,96500:0:0:0:0:
64,192,96166,1,0,0:0:0:0:
64,192,96500,1,0,0:0:0:0:
64,192,96833,1,0,0:0:0:0:
448,192,96833,128,0,97083:0:0:0:0:
320,192,96833,128,0,97083:0:0:0:0:
64,192,97166,1,0,0:0:0:0:
320,192,97166,128,0,97333:0:0:0:0:
448,192,97166,128,0,97333:0:0:0:0:
320,192,97500,1,0,0:0:0:0:
448,192,97500,1,0,0:0:0:0:
192,192,97500,1,0,0:0:0:0:
64,192,97583,1,0,0:0:0:0:
192,192,97666,1,0,0:0:0:0:
320,192,97750,1,0,0:0:0:0:
448,192,97833,1,0,0:0:0:0:
320,192,97916,1,0,0:0:0:0:
64,192,98000,1,0,0:0:0:0:
192,192,98083,1,0,0:0:0:0:
320,192,98166,1,0,0:0:0:0:
192,192,98250,1,0,0:0:0:0:
64,192,98333,1,0,0:0:0:0:
448,192,98333,1,0,0:0:0:0:
192,192,98416,1,0,0:0:0:0:
320,192,98500,1,0,0:0:0:0:
64,192,98583,1,0,0:0:0:0:
448,192,98666,1,0,0:0:0:0:
192,192,98666,1,0,0:0:0:0:
320,192,98750,1,0,0:0:0:0:
192,192,98833,1,0,0:0:0:0:
64,192,98916,1,0,0:0:0:0:
192,192,99000,1,0,0:0:0:0:
320,192,99083,1,0,0:0:0:0:
448,192,99166,1,0,0:0:0:0:
320,192,99250,1,0,0:0:0:0:
64,192,99250,1,0,0:0:0:0:
448,192,99333,1,0,0:0:0:0:
192,192,99333,1,0,0:0:0:0:
320,192,99416,1,0,0:0:0:0:
192,192,99500,1,0,0:0:0:0:
64,192,99583,1,0,0:0:0:0:
192,192,99666,1,0,0:0:0:0:
448,192,99666,1,0,0:0:0:0:
320,192,99750,1,0,0:0:0:0:
64,192,99833,1,0,0:0:0:0:
448,192,99833,1,0,0:0:0:0:
192,192,99916,1,0,0:0:0:0:
320,192,100000,1,0,0:0:0:0:
448,192,100083,1,0,0:0:0:0:
64,192,100083,1,0,0:0:0:0:
320,192,100166,1,0,0:0:0:0:
192,192,100166,1,0,0:0:0:0:
448,192,100250,1,0,0:0:0:0:
320,192,100333,1,0,0:0:0:0:
192,192,100416,1,0,0:0:0:0:
64,192,100500,1,0,0:0:0:0:
320,192,100500,1,0,0:0:0:0:
448,192,100583,1,0,0:0:0:0:
320,192,100666,1,0,0:0:0:0:
64,192,100666,1,0,0:0:0:0:
448,192,100750,1,0,0:0:0:0:
192,192,100750,1,0,0:0:0:0:
64,192,100833,1,0,0:0:0:0:
192,192,100916,1,0,0:0:0:0:
320,192,100916,1,0,0:0:0:0:
448,192,101000,1,0,0:0:0:0:
320,192,101083,1,0,0:0:0:0:
192,192,101166,1,0,0:0:0:0:
64,192,101166,1,0,0:0:0:0:
64,192,101416,1,0,0:0:0:0:
320,192,101416,1,0,0:0:0:0:
448,192,101500,1,0,0:0:0:0:
320,192,101583,1,0,0:0:0:0:
192,192,101666,1,0,0:0:0:0:
320,192,101750,1,0,0:0:0:0:
64,192,101750,1,0,0:0:0:0:
448,192,101833,1,0,0:0:0:0:
192,192,101833,1,0,0:0:0:0:
64,192,101916,1,0,0:0:0:0:
192,192,102000,1,0,0:0:0:0:
320,192,102083,1,0,0:0:0:0:
192,192,102166,1,0,0:0:0:0:
64,192,102166,1,0,0:0:0:0:
448,192,102166,1,0,0:0:0:0:
320,192,102250,1,0,0:0:0:0:
192,192,102333,1,0,0:0:0:0:
64,192,102416,1,0,0:0:0:0:
192,192,102500,1,0,0:0:0:0:
320,192,102500,1,0,0:0:0:0:
448,192,102500,1,0,0:0:0:0:
64,192,102750,1,0,0:0:0:0:
192,192,102750,1,0,0:0:0:0:
320,192,102833,1,0,0:0:0:0:
448,192,102833,1,0,0:0:0:0:
192,192,102916,1,0,0:0:0:0:
64,192,102916,1,0,0:0:0:0:
320,192,103000,1,0,0:0:0:0:
448,192,103000,1,0,0:0:0:0:
192,192,103083,1,0,0:0:0:0:
64,192,103083,1,0,0:0:0:0:
448,192,103166,1,0,0:0:0:0:
320,192,103166,1,0,0:0:0:0:
192,192,103250,1,0,0:0:0:0:
64,192,103250,1,0,0:0:0:0:
320,192,103333,1,0,0:0:0:0:
448,192,103333,1,0,0:0:0:0:
64,192,103416,1,0,0:0:0:0:
192,192,103416,1,0,0:0:0:0:
320,192,103500,1,0,0:0:0:0:
448,192,103500,1,0,0:0:0:0:
64,192,103583,1,0,0:0:0:0:
192,192,103583,1,0,0:0:0:0:
448,192,103666,1,0,0:0:0:0:
320,192,103666,1,0,0:0:0:0:
192,192,103750,1,0,0:0:0:0:
64,192,103750,1,0,0:0:0:0:
448,192,103833,1,0,0:0:0:0:
320,192,103833,1,0,0:0:0:0:
192,192,103916,1,0,0:0:0:0:
64,192,103916,1,0,0:0:0:0:
320,192,104000,1,0,0:0:0:0:
448,192,104000,1,0,0:0:0:0:
64,192,104083,1,0,0:0:0:0:
192,192,104083,1,0,0:0:0:0:
320,192,104166,1,0,0:0:0:0:
448,192,104166,1,0,0:0:0:0:
64,192,104250,1,0,0:0:0:0:
192,192,104250,1,0,0:0:0:0:
448,192,104333,1,0,0:0:0:0:
320,192,104333,1,0,0:0:0:0:
192,192,104416,1,0,0:0:0:0:
64,192,104416,1,0,0:0:0:0:
448,192,104500,1,0,0:0:0:0:
320,192,104500,1,0,0:0:0:0:
192,192,104583,1,0,0:0:0:0:
64,192,104583,1,0,0:0:0:0:
320,192,104666,1,0,0:0:0:0:
448,192,104666,1,0,0:0:0:0:
64,192,104750,1,0,0:0:0:0:
192,192,104750,1,0,0:0:0:0:
320,192,104833,1,0,0:0:0:0:
448,192,104833,1,0,0:0:0:0:
64,192,104916,1,0,0:0:0:0:
192,192,104916,1,0,0:0:0:0:
448,192,105000,1,0,0:0:0:0:
320,192,105000,1,0,0:0:0:0:
192,192,105083,1,0,0:0:0:0:
64,192,105083,1,0,0:0:0:0:
448,192,105166,1,0,0:0:0:0:
320,192,105166,1,0,0:0:0:0:
192,192,105250,1,0,0:0:0:0:
64,192,105250,1,0,0:0:0:0:
320,192,105333,1,0,0:0:0:0:
448,192,105333,1,0,0:0:0:0:
64,192,105416,1,0,0:0:0:0:
192,192,105457,1,0,0:0:0:0:
448,192,105500,1,0,0:0:0:0:
320,192,105541,1,0,0:0:0:0:
64,192,105583,1,0,0:0:0:0:
192,192,105624,1,0,0:0:0:0:
448,192,105666,1,0,0:0:0:0:
320,192,105707,1,0,0:0:0:0:
64,192,105750,1,0,0:0:0:0:
192,192,105791,1,0,0:0:0:0:
448,192,105833,1,0,0:0:0:0:
320,192,105874,1,0,0:0:0:0:
64,192,105916,1,0,0:0:0:0:
192,192,105957,1,0,0:0:0:0:
448,192,106000,1,0,0:0:0:0:
320,192,106041,1,0,0:0:0:0:
64,192,106083,1,0,0:0:0:0:
192,192,106124,1,0,0:0:0:0:
448,192,106166,1,0,0:0:0:0:
320,192,106207,1,0,0:0:0:0:
64,192,106250,1,0,0:0:0:0:
192,192,106291,1,0,0:0:0:0:
448,192,106333,1,0,0:0:0:0:
320,192,106374,1,0,0:0:0:0:
64,192,106416,1,0,0:0:0:0:
192,192,106457,1,0,0:0:0:0:
448,192,106500,1,0,0:0:0:0:
320,192,106541,1,0,0:0:0:0:
64,192,106583,1,0,0:0:0:0:
192,192,106624,1,0,0:0:0:0:
448,192,106666,1,0,0:0:0:0:
320,192,106707,1,0,0:0:0:0:
64,192,108083,128,0,108333:0:0:0:0:
192,192,108083,1,0,0:0:0:0:
320,192,108083,1,0,0:0:0:0:
320,192,108250,1,0,0:0:0:0:
64,192,108416,128,0,108750:0:0:0:0:
320,192,108416,1,0,0:0:0:0:
448,192,108416,1,0,0:0:0:0:
192,192,108583,1,0,0:0:0:0:
192,192,108750,128,0,109083:0:0:0:0:
448,192,108750,1,0,0:0:0:0:
320,192,108750,1,0,0:0:0:0:
64,192,108916,1,0,0:0:0:0:
64,192,109083,1,0,0:0:0:0:
320,192,109083,1,0,0:0:0:0:
448,192,109083,128,0,109416:0:0:0:0:
192,192,109250,1,0,0:0:0:0:
64,192,109416,128,0,109666:0:0:0:0:
192,192,109416,1,0,0:0:0:0:
320,192,109416,1,0,0:0:0:0:
448,192,109583,1,0,0:0:0:0:
64,192,109750,128,0,109916:0:0:0:0:
448,192,109750,1,0,0:0:0:0:
192,192,109750,1,0,0:0:0:0:
320,192,109750,1,0,0:0:0:0:
192,192,109916,128,0,110083:0:0:0:0:
320,192,109916,1,0,0:0:0:0:
320,192,110083,1,0,0:0:0:0:
448,192,110083,128,0,110416:0:0:0:0:
192,192,110250,1,0,0:0:0:0:
64,192,110416,128,0,110750:0:0:0:0:
192,192,110416,1,0,0:0:0:0:
320,192,110416,1,0,0:0:0:0:
320,192,110583,1,0,0:0:0:0:
192,192,110750,128,0,111083:0:0:0:0:
448,192,110750,1,0,0:0:0:0:
320,192,110750,1,0,0:0:0:0:
64,192,110916,1,0,0:0:0:0:
320,192,111083,1,0,0:0:0:0:
64,192,111083,1,0,0:0:0:0:
448,192,111083,128,0,111416:0:0:0:0:
192,192,111250,1,0,0:0:0:0:
64,192,111416,128,0,111666:0:0:0:0:
320,192,111416,1,0,0:0:0:0:
192,192,111416,1,0,0:0:0:0:
320,192,111583,1,0,0:0:0:0:
64,192,111750,128,0,112083:0:0:0:0:
448,192,111750,1,0,0:0:0:0:
320,192,111750,1,0,0:0:0:0:
448,192,111916,1,0,0:0:0:0:
192,192,112083,128,0,112416:0:0:0:0:
448,192,112083,1,0,0:0:0:0:
320,192,112083,1,0,0:0:0:0:
64,192,112250,1,0,0:0:0:0:
448,192,112416,128,0,112750:0:0:0:0:
64,192,112416,1,0,0:0:0:0:
320,192,112416,1,0,0:0:0:0:
192,192,112583,1,0,0:0:0:0:
320,192,112750,128,0,113083:0:0:0:0:
64,192,112750,1,0,0:0:0:0:
192,192,112750,1,0,0:0:0:0:
64,192,112916,1,0,0:0:0:0:
448,192,113083,128,0,113416:0:0:0:0:
64,192,113083,1,0,0:0:0:0:
192,192,113083,1,0,0:0:0:0:
320,192,113250,1,0,0:0:0:0:
64,192,113416,128,0,113666:0:0:0:0:
192,192,113416,1,0,0:0:0:0:
320,192,113416,1,0,0:0:0:0:
448,192,113583,1,0,0:0:0:0:
64,192,113750,128,0,114083:0:0:0:0:
192,192,113750,1,0,0:0:0:0:
320,192,113750,1,0,0:0:0:0:
448,192,113750,1,0,0:0:0:0:
320,192,113916,1,0,0:0:0:0:
192,192,114083,128,0,114416:0:0:0:0:
320,192,114083,1,0,0:0:0:0:
448,192,114083,1,0,0:0:0:0:
64,192,114250,1,0,0:0:0:0:
448,192,114416,128,0,114750:0:0:0:0:
320,192,114416,1,0,0:0:0:0:
64,192,114416,1,0,0:0:0:0:
192,192,114583,1,0,0:0:0:0:
64,192,114750,128,0,115000:0:0:0:0:
192,192,114750,1,0,0:0:0:0:
320,192,114750,1,0,0:0:0:0:
64,192,115083,128,0,115250:0:0:0:0:
192,192,115083,1,0,0:0:0:0:
320,192,115083,1,0,0:0:0:0:
192,192,115250,128,0,115416:0:0:0:0:
320,192,115250,1,0,0:0:0:0:
448,192,115416,128,0,115750:0:0:0:0:
320,192,115416,1,0,0:0:0:0:
64,192,115583,1,0,0:0:0:0:
320,192,115750,128,0,116083:0:0:0:0:
64,192,115750,1,0,0:0:0:0:
192,192,115750,1,0,0:0:0:0:
448,192,115916,1,0,0:0:0:0:
448,192,116083,128,0,116333:0:0:0:0:
64,192,116083,1,0,0:0:0:0:
192,192,116083,1,0,0:0:0:0:
64,192,116250,1,0,0:0:0:0:
448,192,116416,128,0,116750:0:0:0:0:
64,192,116416,1,0,0:0:0:0:
192,192,116416,1,0,0:0:0:0:
320,192,116416,1,0,0:0:0:0:
320,192,116583,1,0,0:0:0:0:
64,192,116750,128,0,117083:0:0:0:0:
192,192,116750,1,0,0:0:0:0:
320,192,116750,1,0,0:0:0:0:
448,192,116916,1,0,0:0:0:0:
448,192,117083,128,0,117416:0:0:0:0:
192,192,117083,1,0,0:0:0:0:
320,192,117083,1,0,0:0:0:0:
192,192,117250,1,0,0:0:0:0:
320,192,117416,128,0,117666:0:0:0:0:
192,192,117416,1,0,0:0:0:0:
64,192,117416,1,0,0:0:0:0:
64,192,117583,1,0,0:0:0:0:
320,192,117750,128,0,117916:0:0:0:0:
192,192,117750,1,0,0:0:0:0:
448,192,117750,1,0,0:0:0:0:
192,192,117916,128,0,118083:0:0:0:0:
448,192,117916,1,0,0:0:0:0:
64,192,117916,1,0,0:0:0:0:
448,192,118083,128,0,118416:0:0:0:0:
320,192,118083,1,0,0:0:0:0:
192,192,118250,1,0,0:0:0:0:
320,192,118416,128,0,118750:0:0:0:0:
192,192,118416,1,0,0:0:0:0:
64,192,118416,1,0,0:0:0:0:
64,192,118583,1,0,0:0:0:0:
448,192,118750,128,0,119000:0:0:0:0:
64,192,118750,1,0,0:0:0:0:
192,192,118750,1,0,0:0:0:0:
64,192,119083,1,0,0:0:0:0:
192,192,119250,1,0,0:0:0:0:
64,192,119416,128,0,119750:0:0:0:0:
320,192,119416,1,0,0:0:0:0:
448,192,119416,1,0,0:0:0:0:
448,192,119583,1,0,0:0:0:0:
320,192,119750,128,0,120083:0:0:0:0:
192,192,119750,1,0,0:0:0:0:
448,192,119916,1,0,0:0:0:0:
192,192,120083,128,0,120416:0:0:0:0:
64,192,120083,1,0,0:0:0:0:
320,192,120250,1,0,0:0:0:0:
448,192,120416,128,0,120750:0:0:0:0:
64,192,120416,1,0,0:0:0:0:
320,192,120583,1,0,0:0:0:0:
320,192,120750,128,0,121083:0:0:0:0:
192,192,120750,1,0,0:0:0:0:
64,192,120750,1,0,0:0:0:0:
448,192,120916,1,0,0:0:0:0:
192,192,121083,128,0,121333:0:0:0:0:
64,192,121083,1,0,0:0:0:0:
320,192,121250,1,0,0:0:0:0:
192,192,121416,128,0,121666:0:0:0:0:
448,192,121416,1,0,0:0:0:0:
320,192,121583,1,0,0:0:0:0:
192,192,121750,128,0,122083:0:0:0:0:
64,192,121750,1,0,0:0:0:0:
448,192,121750,1,0,0:0:0:0:
320,192,121916,1,0,0:0:0:0:
64,192,122083,128,0,122416:0:0:0:0:
448,192,122083,1,0,0:0:0:0:
320,192,122250,1,0,0:0:0:0:
192,192,122416,128,0,122750:0:0:0:0:
448,192,122416,1,0,0:0:0:0:
320,192,122416,1,0,0:0:0:0:
64,192,122583,1,0,0:0:0:0:
320,192,122750,128,0,123083:0:0:0:0:
448,192,122750,1,0,0:0:0:0:
192,192,122916,1,0,0:0:0:0:
64,192,123083,128,0,123416:0:0:0:0:
448,192,123083,1,0,0:0:0:0:
320,192,123250,1,0,0:0:0:0:
320,192,123416,128,0,123750:0:0:0:0:
192,192,123416,1,0,0:0:0:0:
448,192,123416,1,0,0:0:0:0:
64,192,123583,1,0,0:0:0:0:
192,192,123750,128,0,124083:0:0:0:0:
448,192,123750,1,0,0:0:0:0:
320,192,123916,1,0,0:0:0:0:
448,192,124083,128,0,124416:0:0:0:0:
64,192,124083,1,0,0:0:0:0:
320,192,124250,1,0,0:0:0:0:
192,192,124416,1,0,0:0:0:0:
64,192,124416,1,0,0:0:0:0:
448,192,124750,128,0,125083:0:0:0:0:
192,192,124750,1,0,0:0:0:0:
64,192,124750,1,0,0:0:0:0:
320,192,124916,1,0,0:0:0:0:
320,192,125083,128,0,125333:0:0:0:0:
192,192,125083,1,0,0:0:0:0:
64,192,125250,1,0,0:0:0:0:
320,192,125416,128,0,125666:0:0:0:0:
448,192,125416,1,0,0:0:0:0:
192,192,125583,1,0,0:0:0:0:
320,192,125750,128,0,126083:0:0:0:0:
64,192,125750,1,0,0:0:0:0:
448,192,125750,1,0,0:0:0:0:
448,192,125916,1,0,0:0:0:0:
192,192,126083,128,0,126416:0:0:0:0:
64,192,126083,1,0,0:0:0:0:
320,192,126250,1,0,0:0:0:0:
448,192,126416,128,0,126583:0:0:0:0:
64,192,126416,1,0,0:0:0:0:
320,192,126583,128,0,126750:0:0:0:0:
64,192,126750,128,0,127000:0:0:0:0:
192,192,126750,1,0,0:0:0:0:
448,192,126916,1,0,0:0:0:0:
64,192,127083,128,0,127416:0:0:0:0:
320,192,127083,1,0,0:0:0:0:
448,192,127250,1,0,0:0:0:0:
192,192,127416,128,0,127666:0:0:0:0:
320,192,127416,1,0,0:0:0:0:
448,192,127583,1,0,0:0:0:0:
192,192,127750,128,0,128083:0:0:0:0:
64,192,127750,1,0,0:0:0:0:
320,192,127750,1,0,0:0:0:0:
448,192,127916,1,0,0:0:0:0:
320,192,128083,128,0,128416:0:0:0:0:
64,192,128083,1,0,0:0:0:0:
192,192,128416,128,0,128750:0:0:0:0:
448,192,128416,1,0,0:0:0:0:
64,192,128583,1,0,0:0:0:0:
320,192,128750,128,0,129083:0:0:0:0:
448,192,128750,1,0,0:0:0:0:
64,192,128916,1,0,0:0:0:0:
448,192,129083,128,0,129416:0:0:0:0:
192,192,129083,1,0,0:0:0:0:
320,192,129250,1,0,0:0:0:0:
64,192,129416,1,0,0:0:0:0:
192,192,129416,1,0,0:0:0:0:
320,192,129416,1,0,0:0:0:0:
192,192,129750,1,0,0:0:0:0:
448,192,129750,1,0,0:0:0:0:
320,192,129833,1,0,0:0:0:0:
192,192,129916,1,0,0:0:0:0:
64,192,130000,1,0,0:0:0:0:
448,192,130083,1,0,0:0:0:0:
192,192,130083,1,0,0:0:0:0:
320,192,130166,1,0,0:0:0:0:
192,192,130250,1,0,0:0:0:0:
448,192,130333,1,0,0:0:0:0:
64,192,130416,1,0,0:0:0:0:
320,192,130416,1,0,0:0:0:0:
448,192,130500,1,0,0:0:0:0:
320,192,130583,1,0,0:0:0:0:
192,192,130666,1,0,0:0:0:0:
64,192,130750,1,0,0:0:0:0:
448,192,130750,1,0,0:0:0:0:
320,192,130833,1,0,0:0:0:0:
192,192,130916,1,0,0:0:0:0:
448,192,131000,1,0,0:0:0:0:
64,192,131083,1,0,0:0:0:0:
320,192,131083,1,0,0:0:0:0:
192,192,131166,1,0,0:0:0:0:
64,192,131250,1,0,0:0:0:0:
320,192,131333,1,0,0:0:0:0:
448,192,131416,1,0,0:0:0:0:
192,192,131416,1,0,0:0:0:0:
64,192,131500,1,0,0:0:0:0:
192,192,131583,1,0,0:0:0:0:
448,192,131666,1,0,0:0:0:0:
64,192,131750,1,0,0:0:0:0:
320,192,131750,1,0,0:0:0:0:
448,192,131833,1,0,0:0:0:0:
320,192,131916,1,0,0:0:0:0:
192,192,132000,1,0,0:0:0:0:
448,192,132083,1,0,0:0:0:0:
320,192,132083,1,0,0:0:0:0:
64,192,132166,1,0,0:0:0:0:
320,192,132250,1,0,0:0:0:0:
448,192,132333,1,0,0:0:0:0:
192,192,132416,1,0,0:0:0:0:
320,192,132416,1,0,0:0:0:0:
64,192,132500,1,0,0:0:0:0:
192,192,132583,1,0,0:0:0:0:
320,192,132666,1,0,0:0:0:0:
448,192,132750,1,0,0:0:0:0:
192,192,132750,1,0,0:0:0:0:
64,192,132833,1,0,0:0:0:0:
192,192,132916,1,0,0:0:0:0:
448,192,133000,1,0,0:0:0:0:
320,192,133083,1,0,0:0:0:0:
192,192,133083,1,0,0:0:0:0:
64,192,133166,1,0,0:0:0:0:
192,192,133250,1,0,0:0:0:0:
320,192,133333,1,0,0:0:0:0:
64,192,133416,1,0,0:0:0:0:
448,192,133416,1,0,0:0:0:0:
320,192,133500,1,0,0:0:0:0:
192,192,133583,1,0,0:0:0:0:
64,192,133666,1,0,0:0:0:0:
448,192,133750,1,0,0:0:0:0:
192,192,133750,1,0,0:0:0:0:
320,192,133833,1,0,0:0:0:0:
448,192,133916,1,0,0:0:0:0:
192,192,134000,1,0,0:0:0:0:
320,192,134083,1,0,0:0:0:0:
64,192,134083,1,0,0:0:0:0:
448,192,134166,1,0,0:0:0:0:
320,192,134250,1,0,0:0:0:0:
192,192,134333,1,0,0:0:0:0:
448,192,134416,1,0,0:0:0:0:
64,192,134416,1,0,0:0:0:0:
320,192,134500,1,0,0:0:0:0:
192,192,134500,1,0,0:0:0:0:
64,192,134583,1,0,0:0:0:0:
448,192,134583,1,0,0:0:0:0:
192,192,134666,1,0,0:0:0:0:
320,192,134750,1,0,0:0:0:0:
448,192,134750,1,0,0:0:0:0:
192,192,134833,1,0,0:0:0:0:
64,192,134916,1,0,0:0:0:0:
320,192,135000,1,0,0:0:0:0:
64,192,135083,1,0,0:0:0:0:
448,192,135083,1,0,0:0:0:0:
320,192,135166,1,0,0:0:0:0:
192,192,135250,1,0,0:0:0:0:
64,192,135333,1,0,0:0:0:0:
192,192,135416,1,0,0:0:0:0:
320,192,135416,1,0,0:0:0:0:
448,192,135500,1,0,0:0:0:0:
320,192,135583,1,0,0:0:0:0:
64,192,135666,1,0,0:0:0:0:
448,192,135750,1,0,0:0:0:0:
192,192,135750,1,0,0:0:0:0:
320,192,135833,1,0,0:0:0:0:
448,192,135916,1,0,0:0:0:0:
320,192,136000,1,0,0:0:0:0:
64,192,136083,1,0,0:0:0:0:
192,192,136083,1,0,0:0:0:0:
448,192,136166,1,0,0:0:0:0:
320,192,136250,1,0,0:0:0:0:
64,192,136333,1,0,0:0:0:0:
192,192,136416,1,0,0:0:0:0:
320,192,136416,1,0,0:0:0:0:
64,192,136500,1,0,0:0:0:0:
192,192,136583,1,0,0:0:0:0:
320,192,136666,1,0,0:0:0:0:
448,192,136750,1,0,0:0:0:0:
192,192,136750,1,0,0:0:0:0:
320,192,136833,1,0,0:0:0:0:
448,192,136916,1,0,0:0:0:0:
192,192,137000,1,0,0:0:0:0:
320,192,137083,1,0,0:0:0:0:
64,192,137083,1,0,0:0:0:0:
448,192,137166,1,0,0:0:0:0:
320,192,137250,1,0,0:0:0:0:
192,192,137333,1,0,0:0:0:0:
64,192,137416,1,0,0:0:0:0:
448,192,137416,1,0,0:0:0:0:
320,192,137500,1,0,0:0:0:0:
64,192,137583,1,0,0:0:0:0:
320,192,137666,1,0,0:0:0:0:
448,192,137750,1,0,0:0:0:0:
192,192,137750,1,0,0:0:0:0:
64,192,137833,1,0,0:0:0:0:
192,192,137916,1,0,0:0:0:0:
448,192,138000,1,0,0:0:0:0:
320,192,138083,1,0,0:0:0:0:
192,192,138083,1,0,0:0:0:0:
64,192,138166,1,0,0:0:0:0:
192,192,138250,1,0,0:0:0:0:
320,192,138333,1,0,0:0:0:0:
64,192,138416,1,0,0:0:0:0:
448,192,138416,1,0,0:0:0:0:
192,192,138500,1,0,0:0:0:0:
320,192,138583,1,0,0:0:0:0:
448,192,138666,1,0,0:0:0:0:
192,192,138750,1,0,0:0:0:0:
320,192,138750,1,0,0:0:0:0:
64,192,138833,1,0,0:0:0:0:
